  0
SECTION
  2
HEADER
  9
$ACADVER
  1
AC1009
  9
$INSBASE
 10
0.0
 20
0.0
 30
0.0
  9
$EXTMIN
 10
-185.89603299999999
 20
1817.215866
 30
-0.00000001
  9
$EXTMAX
 10
3760.9991519999999
 20
4578.6227479999989
 30
0.00000001
  9
$LIMMIN
 10
-318.921402
 20
1710.623914
  9
$LIMMAX
 10
3881.0785980000001
 20
4680.6239139999989
  9
$ORTHOMODE
 70
     1
  9
$REGENMODE
 70
     1
  9
$FILLMODE
 70
     1
  9
$QTEXTMODE
 70
     0
  9
$MIRRTEXT
 70
     0
  9
$DRAGMODE
 70
     2
  9
$LTSCALE
 40
5.0
  9
$OSMODE
 70
    37
  9
$ATTMODE
 70
     1
  9
$TEXTSIZE
 40
0.0
  9
$TRACEWID
 40
0.05
  9
$TEXTSTYLE
  7
STANDARD
  9
$CLAYER
  8
LAYER01
  9
$CELTYPE
  6
VERDECKT
  9
$CECOLOR
 62
     7
  9
$DIMSCALE
 40
1.0
  9
$DIMASZ
 40
0.18
  9
$DIMEXO
 40
0.0625
  9
$DIMDLI
 40
0.38
  9
$DIMRND
 40
0.0
  9
$DIMDLE
 40
0.0
  9
$DIMEXE
 40
0.18
  9
$DIMTP
 40
0.0
  9
$DIMTM
 40
0.0
  9
$DIMTXT
 40
0.18
  9
$DIMCEN
 40
0.09
  9
$DIMTSZ
 40
0.0
  9
$DIMTOL
 70
     0
  9
$DIMLIM
 70
     0
  9
$DIMTIH
 70
     1
  9
$DIMTOH
 70
     1
  9
$DIMSE1
 70
     0
  9
$DIMSE2
 70
     0
  9
$DIMTAD
 70
     0
  9
$DIMZIN
 70
     0
  9
$DIMBLK
  1

  9
$DIMASO
 70
     1
  9
$DIMSHO
 70
     1
  9
$DIMPOST
  1

  9
$DIMAPOST
  1

  9
$DIMALT
 70
     0
  9
$DIMALTD
 70
     2
  9
$DIMALTF
 40
25.399999999999999
  9
$DIMLFAC
 40
1.0
  9
$DIMTOFL
 70
     0
  9
$DIMTVP
 40
0.0
  9
$DIMTIX
 70
     0
  9
$DIMSOXD
 70
     0
  9
$DIMSAH
 70
     0
  9
$DIMBLK1
  1

  9
$DIMBLK2
  1

  9
$DIMSTYLE
  2
STANDARD
  9
$DIMCLRD
 70
     0
  9
$DIMCLRE
 70
     0
  9
$DIMCLRT
 70
     0
  9
$DIMTFAC
 40
1.0
  9
$DIMGAP
 40
0.09
  9
$LUNITS
 70
     2
  9
$LUPREC
 70
     4
  9
$SKETCHINC
 40
0.1
  9
$FILLETRAD
 40
11.0
  9
$AUNITS
 70
     0
  9
$AUPREC
 70
     0
  9
$MENU
  1
acad
  9
$ELEVATION
 40
0.0
  9
$PELEVATION
 40
0.0
  9
$THICKNESS
 40
0.0
  9
$LIMCHECK
 70
     0
  9
$BLIPMODE
 70
     0
  9
$CHAMFERA
 40
0.0
  9
$CHAMFERB
 40
0.0
  9
$SKPOLY
 70
     0
  9
$TDCREATE
 40
2305814.0418874421
  9
$TDUPDATE
 40
2459636.384101077
  9
$TDINDWG
 40
0.0004470602
  9
$TDUSRTIMER
 40
0.0004469907
  9
$USRTIMER
 70
     1
  9
$ANGBASE
 50
0.0
  9
$ANGDIR
 70
     0
  9
$PDMODE
 70
     0
  9
$PDSIZE
 40
0.0
  9
$PLINEWID
 40
0.0
  9
$COORDS
 70
     0
  9
$SPLFRAME
 70
     0
  9
$SPLINETYPE
 70
     6
  9
$SPLINESEGS
 70
    10
  9
$ATTDIA
 70
     0
  9
$ATTREQ
 70
     1
  9
$HANDLING
 70
     1
  9
$HANDSEED
  5
8A9
  9
$SURFTAB1
 70
     6
  9
$SURFTAB2
 70
     6
  9
$SURFTYPE
 70
     6
  9
$SURFU
 70
     6
  9
$SURFV
 70
     6
  9
$UCSNAME
  2

  9
$UCSORG
 10
0.0
 20
0.0
 30
0.0
  9
$UCSXDIR
 10
1.0
 20
0.0
 30
0.0
  9
$UCSYDIR
 10
0.0
 20
1.0
 30
0.0
  9
$PUCSNAME
  2

  9
$PUCSORG
 10
0.0
 20
0.0
 30
0.0
  9
$PUCSXDIR
 10
1.0
 20
0.0
 30
0.0
  9
$PUCSYDIR
 10
0.0
 20
1.0
 30
0.0
  9
$USERI1
 70
     0
  9
$USERI2
 70
     0
  9
$USERI3
 70
     0
  9
$USERI4
 70
     0
  9
$USERI5
 70
     0
  9
$USERR1
 40
0.0
  9
$USERR2
 40
0.0
  9
$USERR3
 40
0.0
  9
$USERR4
 40
0.0
  9
$USERR5
 40
0.0
  9
$WORLDVIEW
 70
     1
  9
$SHADEDGE
 70
     3
  9
$SHADEDIF
 70
    70
  9
$TILEMODE
 70
     1
  9
$MAXACTVP
 70
    64
  9
$PLIMCHECK
 70
     0
  9
$PEXTMIN
 10
1.0000000000000000E+020
 20
1.0000000000000000E+020
 30
1.0000000000000000E+020
  9
$PEXTMAX
 10
-1.0000000000000000E+020
 20
-1.0000000000000000E+020
 30
-1.0000000000000000E+020
  9
$PLIMMIN
 10
0.0
 20
0.0
  9
$PLIMMAX
 10
12.0
 20
9.0
  9
$UNITMODE
 70
     0
  9
$VISRETAIN
 70
     1
  9
$PLINEGEN
 70
     0
  9
$PSLTSCALE
 70
     1
  0
ENDSEC
  0
SECTION
  2
TABLES
  0
TABLE
  2
VPORT
 70
     1
  0
VPORT
  2
*ACTIVE
 70
     0
 10
0.0
 20
0.0
 11
1.0
 21
1.0
 12
1774.532182018801
 22
3191.1239139999998
 13
0.0
 23
0.0
 14
1.0
 24
1.0
 15
0.0
 25
0.0
 16
0.0
 26
0.0
 36
17.959831524567441
 17
6.5464159811985887
 27
4.5
 37
0.0
 40
2997.5851393188859
 41
1.91937984496124
 42
50.0
 43
0.0
 44
0.0
 50
0.0
 51
0.0
 71
     0
 72
   100
 73
     1
 74
     1
 75
     0
 76
     0
 77
     0
 78
     0
  0
ENDTAB
  0
TABLE
  2
LTYPE
 70
    11
  0
LTYPE
  2
CONTINUOUS
 70
     0
  3
Solid line
 72
    65
 73
     0
 40
0.0
  0
LTYPE
  2
VERDECKT
 70
     0
  3
_ _ _ _ _ _ _ _ _ _ _ _ _ _ _ _ _ _ _ _ _ _ 
 72
    65
 73
     2
 40
0.25
 49
0.125
 49
-0.125
  0
LTYPE
  2
GESTRICHELT
 70
     0
  3
__ __ __ __ __ __ __ __ __ __ __ __ __ __ __
 72
    65
 73
     2
 40
0.75
 49
0.5
 49
-0.25
  0
LTYPE
  2
MITTELLINIE
 70
     0
  3
____ _ ____ _ ____ _ ____ _ ____ _ ____ _ __
 72
    65
 73
     4
 40
2.0
 49
1.25
 49
-0.25
 49
0.25
 49
-0.25
  0
LTYPE
  2
PHANTOM
 70
     0
  3
_____ _ _ _____ _ _ _____ _ _ _____ _ _ ____
 72
    65
 73
     6
 40
2.5
 49
1.25
 49
-0.25
 49
0.25
 49
-0.25
 49
0.25
 49
-0.25
  0
LTYPE
  2
PUNKTIERT
 70
     0
  3
............................................
 72
    65
 73
     2
 40
0.25
 49
0.0
 49
-0.25
  0
LTYPE
  2
STRICHPUNKTIERT
 70
     0
  3
__ . __ . __ . __ . __ . __ . __ . __ . __ .
 72
    65
 73
     4
 40
1.0
 49
0.5
 49
-0.25
 49
0.0
 49
-0.25
  0
LTYPE
  2
RAND
 70
     0
  3
__ __ . __ __ . __ __ . __ __ . __ __ . __ _
 72
    65
 73
     6
 40
1.75
 49
0.5
 49
-0.25
 49
0.5
 49
-0.25
 49
0.0
 49
-0.25
  0
LTYPE
  2
TRENNLINIE
 70
     0
  3
__ . . __ . . __ . . __ . . __ . . __ . . __
 72
    65
 73
     6
 40
1.25
 49
0.5
 49
-0.25
 49
0.0
 49
-0.25
 49
0.0
 49
-0.25
  0
LTYPE
  2
ENG_PUNKTIERT
 70
     0
  3
Schließen                                   
 72
    65
 73
     2
 40
0.1
 49
0.05
 49
-0.05
  0
LTYPE
  2
CLOSE
 70
     0
  3
                                            
 72
    65
 73
     0
 40
0.0
  0
ENDTAB
  0
TABLE
  2
LAYER
 70
   256
  0
LAYER
  2
0
 70
     0
 62
     7
  6
CONTINUOUS
  0
LAYER
  2
LAYER01
 70
     0
 62
     7
  6
CONTINUOUS
  0
LAYER
  2
LAYER02
 70
     0
 62
     7
  6
CONTINUOUS
  0
LAYER
  2
LAYER03
 70
     0
 62
     7
  6
CONTINUOUS
  0
LAYER
  2
LAYER04
 70
     0
 62
     7
  6
CONTINUOUS
  0
LAYER
  2
LAYER05
 70
     0
 62
     7
  6
CONTINUOUS
  0
LAYER
  2
LAYER06
 70
     0
 62
     7
  6
CONTINUOUS
  0
LAYER
  2
LAYER07
 70
     0
 62
     7
  6
CONTINUOUS
  0
LAYER
  2
LAYER08
 70
     0
 62
     7
  6
CONTINUOUS
  0
LAYER
  2
LAYER09
 70
     0
 62
     7
  6
CONTINUOUS
  0
LAYER
  2
LAYER10
 70
     0
 62
     7
  6
CONTINUOUS
  0
LAYER
  2
2
 70
     0
 62
     7
  6
CONTINUOUS
  0
LAYER
  2
5
 70
     0
 62
     7
  6
CONTINUOUS
  0
LAYER
  2
RAUMAUFM
 70
     0
 62
     7
  6
CONTINUOUS
  0
LAYER
  2
EINRICHT
 70
     0
 62
     7
  6
CONTINUOUS
  0
LAYER
  2
HILFE
 70
     0
 62
     7
  6
CONTINUOUS
  0
LAYER
  2
SCHNITTE
 70
     0
 62
     7
  6
CONTINUOUS
  0
LAYER
  2
SCHRAFF1
 70
     0
 62
     7
  6
CONTINUOUS
  0
LAYER
  2
SCHRAFF2
 70
     0
 62
     7
  6
CONTINUOUS
  0
LAYER
  2
BEMASS-1
 70
     0
 62
     7
  6
CONTINUOUS
  0
LAYER
  2
BEMASS-2
 70
     0
 62
     7
  6
CONTINUOUS
  0
LAYER
  2
TEXT
 70
     0
 62
     7
  6
CONTINUOUS
  0
LAYER
  2
SYMBOLE
 70
     0
 62
     7
  6
CONTINUOUS
  0
LAYER
  2
RAHMEN
 70
     0
 62
     7
  6
CONTINUOUS
  0
LAYER
  2
SCHRIFTF
 70
     0
 62
     7
  6
CONTINUOUS
  0
LAYER
  2
ACHSEN
 70
     0
 62
     7
  6
CONTINUOUS
  0
LAYER
  2
ZEICHN
 70
     0
 62
     7
  6
CONTINUOUS
  0
LAYER
  2
7
 70
     0
 62
     7
  6
CONTINUOUS
  0
LAYER
  2
1
 70
     0
 62
     7
  6
CONTINUOUS
  0
LAYER
  2
6
 70
     0
 62
     7
  6
CONTINUOUS
  0
LAYER
  2
4
 70
     0
 62
     7
  6
CONTINUOUS
  0
LAYER
  2
GRUNDEBENE
 70
     0
 62
     7
  6
CONTINUOUS
  0
LAYER
  2
GRUNDRISS
 70
     0
 62
     7
  6
CONTINUOUS
  0
LAYER
  2
BEMASSUNGGRUNDRISS
 70
     0
 62
     7
  6
CONTINUOUS
  0
LAYER
  2
WANDELEMENTE
 70
     0
 62
     7
  6
CONTINUOUS
  0
LAYER
  2
KUECHE
 70
     0
 62
     7
  6
CONTINUOUS
  0
LAYER
  2
THEKEBROETCHEN
 70
     0
 62
     7
  6
CONTINUOUS
  0
LAYER
  2
CENTERLINIE
 70
     0
 62
     7
  6
CONTINUOUS
  0
LAYER
  2
UMRISSE
 70
     0
 62
     7
  6
CONTINUOUS
  0
LAYER
  2
MAUER
 70
     0
 62
     7
  6
CONTINUOUS
  0
LAYER
  2
SCHRAFFUR
 70
     0
 62
     7
  6
CONTINUOUS
  0
LAYER
  2
MASSLINIE
 70
     0
 62
     7
  6
CONTINUOUS
  0
LAYER
  2
PV
 70
     0
 62
     7
  6
CONTINUOUS
  0
LAYER
  2
BESCHRIFTUNG
 70
     0
 62
     7
  6
CONTINUOUS
  0
LAYER
  2
AS
 70
     0
 62
     7
  6
CONTINUOUS
  0
LAYER
  2
PL
 70
     0
 62
     7
  6
CONTINUOUS
  0
LAYER
  2
UK
 70
     0
 62
     7
  6
CONTINUOUS
  0
LAYER
  2
TEXT3
 70
     0
 62
     7
  6
CONTINUOUS
  0
LAYER
  2
TEXT7
 70
     0
 62
     7
  6
CONTINUOUS
  0
LAYER
  2
BEPL1
 70
     0
 62
     7
  6
CONTINUOUS
  0
LAYER
  2
BEPL2
 70
     0
 62
     7
  6
CONTINUOUS
  0
LAYER
  2
BEPL2V
 70
     0
 62
     7
  6
CONTINUOUS
  0
LAYER
  2
BEPL4
 70
     0
 62
     7
  6
CONTINUOUS
  0
LAYER
  2
BEPL
 70
     0
 62
     7
  6
CONTINUOUS
  0
LAYER
  2
UK1
 70
     0
 62
     7
  6
CONTINUOUS
  0
LAYER
  2
UK2
 70
     0
 62
     7
  6
CONTINUOUS
  0
LAYER
  2
UK2V
 70
     0
 62
     7
  6
CONTINUOUS
  0
LAYER
  2
UK3
 70
     0
 62
     7
  6
CONTINUOUS
  0
LAYER
  2
TEXT2
 70
     0
 62
     7
  6
CONTINUOUS
  0
LAYER
  2
HILF2S
 70
     0
 62
     7
  6
CONTINUOUS
  0
LAYER
  2
UK1V
 70
     0
 62
     7
  6
CONTINUOUS
  0
LAYER
  2
GAIN_ZRA
 70
     0
 62
     7
  6
CONTINUOUS
  0
LAYER
  2
GAIN_ZSF
 70
     0
 62
     7
  6
CONTINUOUS
  0
LAYER
  2
RAHM4
 70
     0
 62
     7
  6
CONTINUOUS
  0
LAYER
  2
KORPUSBAND
 70
     0
 62
     7
  6
CONTINUOUS
  0
LAYER
  2
E---LGPL--------
 70
     0
 62
     7
  6
CONTINUOUS
  0
LAYER
  2
E---NPFL--------
 70
     0
 62
     7
  6
CONTINUOUS
  0
LAYER
  2
E---PLNKTXT-----
 70
     0
 62
     7
  6
CONTINUOUS
  0
LAYER
  2
E---PLNK--------
 70
     0
 62
     7
  6
CONTINUOUS
  0
LAYER
  2
E---PLNR--------
 70
     0
 62
     7
  6
CONTINUOUS
  0
LAYER
  2
D547_ARCHICAD
 70
     0
 62
     7
  6
CONTINUOUS
  0
LAYER
  2
D547_E---TEXT--------
 70
     0
 62
     7
  6
CONTINUOUS
  0
LAYER
  2
E---LEGD--------
 70
     0
 62
     7
  6
CONTINUOUS
  0
LAYER
  2
D43_ARCHICAD
 70
     0
 62
     7
  6
CONTINUOUS
  0
LAYER
  2
D43_FENSTER_VON_B---FASS--
 70
     0
 62
     7
  6
CONTINUOUS
  0
LAYER
  2
D43_E---SCHN--------
 70
     0
 62
     7
  6
CONTINUOUS
  0
LAYER
  2
D43_B---MW-N--------
 70
     0
 62
     7
  6
CONTINUOUS
  0
LAYER
  2
D43_B---DECK--------
 70
     0
 62
     7
  6
CONTINUOUS
  0
LAYER
  2
D43_B---MW-S--------
 70
     0
 62
     7
  6
CONTINUOUS
  0
LAYER
  2
D43_B---MW----------
 70
     0
 62
     7
  6
CONTINUOUS
  0
LAYER
  2
D43_B---FASS--------
 70
     0
 62
     7
  6
CONTINUOUS
  0
LAYER
  2
D43_E---RASG--------
 70
     0
 62
     7
  6
CONTINUOUS
  0
LAYER
  2
D40_ARCHICAD
 70
     0
 62
     7
  6
CONTINUOUS
  0
LAYER
  2
D40_E---MW--------
 70
     0
 62
     7
  6
CONTINUOUS
  0
LAYER
  2
D40_E---FASSKON-----
 70
     0
 62
     7
  6
CONTINUOUS
  0
LAYER
  2
D40_TÜREN_VON_B---MW-N----
 70
     0
 62
     7
  6
CONTINUOUS
  0
LAYER
  2
D40_E---MW-L------
 70
     0
 62
     7
  6
CONTINUOUS
  0
LAYER
  2
D40_TÜREN_VON_B---MW------
 70
     0
 62
     7
  6
CONTINUOUS
  0
LAYER
  2
D40_E---VERM--------
 70
     0
 62
     7
  6
CONTINUOUS
  0
LAYER
  2
D40_FENSTER_VON_E---MW-L--
 70
     0
 62
     7
  6
CONTINUOUS
  0
LAYER
  2
D40_FENSTER_VON_B---MW-N--
 70
     0
 62
     7
  6
CONTINUOUS
  0
LAYER
  2
D40_E---SCHN--------
 70
     0
 62
     7
  6
CONTINUOUS
  0
LAYER
  2
D40_E---AUFZ--------
 70
     0
 62
     7
  6
CONTINUOUS
  0
LAYER
  2
D40_E---DECK--------
 70
     0
 62
     7
  6
CONTINUOUS
  0
LAYER
  2
D40_E---RAUMINF-----
 70
     0
 62
     7
  6
CONTINUOUS
  0
LAYER
  2
D40_E---TEXT--------
 70
     0
 62
     7
  6
CONTINUOUS
  0
LAYER
  2
D40_B---TEXT--------
 70
     0
 62
     7
  6
CONTINUOUS
  0
LAYER
  2
D40_B---MW-N--------
 70
     0
 62
     7
  6
CONTINUOUS
  0
LAYER
  2
D40_B---DECK--------
 70
     0
 62
     7
  6
CONTINUOUS
  0
LAYER
  2
D40_B---AUFZ--------
 70
     0
 62
     7
  6
CONTINUOUS
  0
LAYER
  2
D40_B---MW-S--------
 70
     0
 62
     7
  6
CONTINUOUS
  0
LAYER
  2
D40_B---MW----------
 70
     0
 62
     7
  6
CONTINUOUS
  0
LAYER
  2
D40_E---MOEB--------
 70
     0
 62
     7
  6
CONTINUOUS
  0
LAYER
  2
D40_B---UMGB--------
 70
     0
 62
     7
  6
CONTINUOUS
  0
LAYER
  2
D40_B---FASS--------
 70
     0
 62
     7
  6
CONTINUOUS
  0
LAYER
  2
D40_E---DACH--------
 70
     0
 62
     7
  6
CONTINUOUS
  0
LAYER
  2
D40_E---BODE--------
 70
     0
 62
     7
  6
CONTINUOUS
  0
LAYER
  2
D40_E---TREP--------
 70
     0
 62
     7
  6
CONTINUOUS
  0
LAYER
  2
D40_E---RASG--------
 70
     0
 62
     7
  6
CONTINUOUS
  0
LAYER
  2
D40_B---MW-K--------
 70
     0
 62
     7
  6
CONTINUOUS
  0
LAYER
  2
D40_E---FASSGLA-----
 70
     0
 62
     7
  6
CONTINUOUS
  0
LAYER
  2
D40_B---VERM--------
 70
     0
 62
     7
  6
CONTINUOUS
  0
LAYER
  2
D40_E---UMGBGSG-----
 70
     0
 62
     7
  6
CONTINUOUS
  0
LAYER
  2
D40_E---RASF--------
 70
     0
 62
     7
  6
CONTINUOUS
  0
LAYER
  2
D40_E---PFLA--------
 70
     0
 62
     7
  6
CONTINUOUS
  0
LAYER
  2
D40_E---KONS-ST-----
 70
     0
 62
     7
  6
CONTINUOUS
  0
LAYER
  2
D40_E---WERB--------
 70
     0
 62
     7
  6
CONTINUOUS
  0
LAYER
  2
D40_E---TUERINF-----
 70
     0
 62
     7
  6
CONTINUOUS
  0
LAYER
  2
D40_E---WOLK--------
 70
     0
 62
     7
  6
CONTINUOUS
  0
LAYER
  2
D40_B---MW-L--------
 70
     0
 62
     7
  6
CONTINUOUS
  0
LAYER
  2
D40_B---SANI--------
 70
     0
 62
     7
  6
CONTINUOUS
  0
LAYER
  2
D40_E---SANI--------
 70
     0
 62
     7
  6
CONTINUOUS
  0
LAYER
  2
D40_E---MW-K------
 70
     0
 62
     7
  6
CONTINUOUS
  0
LAYER
  2
D40_E---OBJE--------
 70
     0
 62
     7
  6
CONTINUOUS
  0
LAYER
  2
D40_E---ASPR--------
 70
     0
 62
     7
  6
CONTINUOUS
  0
LAYER
  2
D40_E---VERMTGA-----
 70
     0
 62
     7
  6
CONTINUOUS
  0
LAYER
  2
D40_E---PARK--------
 70
     0
 62
     7
  6
CONTINUOUS
  0
LAYER
  2
D40_E---ISOL--------
 70
     0
 62
     7
  6
CONTINUOUS
  0
LAYER
  2
D40_E---TUER--------
 70
     0
 62
     7
  6
CONTINUOUS
  0
LAYER
  2
D40_E---MW--BRA---
 70
     0
 62
     7
  6
CONTINUOUS
  0
LAYER
  2
D41_ARCHICAD
 70
     0
 62
     7
  6
CONTINUOUS
  0
LAYER
  2
D41_E---MW--------
 70
     0
 62
     7
  6
CONTINUOUS
  0
LAYER
  2
D41_E---FASSKON-----
 70
     0
 62
     7
  6
CONTINUOUS
  0
LAYER
  2
D41_TÜREN_VON_B---MW-N----
 70
     0
 62
     7
  6
CONTINUOUS
  0
LAYER
  2
D41_E---MW-L------
 70
     0
 62
     7
  6
CONTINUOUS
  0
LAYER
  2
D41_TÜREN_VON_B---MW------
 70
     0
 62
     7
  6
CONTINUOUS
  0
LAYER
  2
D41_E---VERM--------
 70
     0
 62
     7
  6
CONTINUOUS
  0
LAYER
  2
D41_FENSTER_VON_E---MW-L--
 70
     0
 62
     7
  6
CONTINUOUS
  0
LAYER
  2
D41_FENSTER_VON_B---MW-N--
 70
     0
 62
     7
  6
CONTINUOUS
  0
LAYER
  2
D41_E---SCHN--------
 70
     0
 62
     7
  6
CONTINUOUS
  0
LAYER
  2
D41_E---AUFZ--------
 70
     0
 62
     7
  6
CONTINUOUS
  0
LAYER
  2
D41_E---DECK--------
 70
     0
 62
     7
  6
CONTINUOUS
  0
LAYER
  2
D41_E---RAUMINF-----
 70
     0
 62
     7
  6
CONTINUOUS
  0
LAYER
  2
D41_E---TEXT--------
 70
     0
 62
     7
  6
CONTINUOUS
  0
LAYER
  2
D41_B---TEXT--------
 70
     0
 62
     7
  6
CONTINUOUS
  0
LAYER
  2
D41_B---MW-N--------
 70
     0
 62
     7
  6
CONTINUOUS
  0
LAYER
  2
D41_B---DECK--------
 70
     0
 62
     7
  6
CONTINUOUS
  0
LAYER
  2
D41_B---AUFZ--------
 70
     0
 62
     7
  6
CONTINUOUS
  0
LAYER
  2
D41_B---MW-S--------
 70
     0
 62
     7
  6
CONTINUOUS
  0
LAYER
  2
D41_B---MW----------
 70
     0
 62
     7
  6
CONTINUOUS
  0
LAYER
  2
D41_E---MOEB--------
 70
     0
 62
     7
  6
CONTINUOUS
  0
LAYER
  2
D41_B---UMGB--------
 70
     0
 62
     7
  6
CONTINUOUS
  0
LAYER
  2
D41_B---FASS--------
 70
     0
 62
     7
  6
CONTINUOUS
  0
LAYER
  2
D41_E---DACH--------
 70
     0
 62
     7
  6
CONTINUOUS
  0
LAYER
  2
D41_E---BODE--------
 70
     0
 62
     7
  6
CONTINUOUS
  0
LAYER
  2
D41_E---TREP--------
 70
     0
 62
     7
  6
CONTINUOUS
  0
LAYER
  2
D41_E---RASG--------
 70
     0
 62
     7
  6
CONTINUOUS
  0
LAYER
  2
D41_B---MW-K--------
 70
     0
 62
     7
  6
CONTINUOUS
  0
LAYER
  2
D41_E---FASSGLA-----
 70
     0
 62
     7
  6
CONTINUOUS
  0
LAYER
  2
D41_B---VERM--------
 70
     0
 62
     7
  6
CONTINUOUS
  0
LAYER
  2
D41_E---UMGBGSG-----
 70
     0
 62
     7
  6
CONTINUOUS
  0
LAYER
  2
D41_E---RASF--------
 70
     0
 62
     7
  6
CONTINUOUS
  0
LAYER
  2
D41_E---PFLA--------
 70
     0
 62
     7
  6
CONTINUOUS
  0
LAYER
  2
D41_E---KONS-ST-----
 70
     0
 62
     7
  6
CONTINUOUS
  0
LAYER
  2
D41_E---WERB--------
 70
     0
 62
     7
  6
CONTINUOUS
  0
LAYER
  2
D41_E---TUERINF-----
 70
     0
 62
     7
  6
CONTINUOUS
  0
LAYER
  2
D41_E---WOLK--------
 70
     0
 62
     7
  6
CONTINUOUS
  0
LAYER
  2
D41_B---MW-L--------
 70
     0
 62
     7
  6
CONTINUOUS
  0
LAYER
  2
D41_B---SANI--------
 70
     0
 62
     7
  6
CONTINUOUS
  0
LAYER
  2
D41_E---SANI--------
 70
     0
 62
     7
  6
CONTINUOUS
  0
LAYER
  2
D41_E---MW-K------
 70
     0
 62
     7
  6
CONTINUOUS
  0
LAYER
  2
D41_E---OBJE--------
 70
     0
 62
     7
  6
CONTINUOUS
  0
LAYER
  2
D41_E---ASPR--------
 70
     0
 62
     7
  6
CONTINUOUS
  0
LAYER
  2
D41_E---VERMTGA-----
 70
     0
 62
     7
  6
CONTINUOUS
  0
LAYER
  2
D41_E---PARK--------
 70
     0
 62
     7
  6
CONTINUOUS
  0
LAYER
  2
D41_E---ISOL--------
 70
     0
 62
     7
  6
CONTINUOUS
  0
LAYER
  2
D41_E---TUER--------
 70
     0
 62
     7
  6
CONTINUOUS
  0
LAYER
  2
D41_E---MW--BRA---
 70
     0
 62
     7
  6
CONTINUOUS
  0
LAYER
  2
D42_ARCHICAD
 70
     0
 62
     7
  6
CONTINUOUS
  0
LAYER
  2
D42_FENSTER_VON_B---FASS--
 70
     0
 62
     7
  6
CONTINUOUS
  0
LAYER
  2
D42_E---SCHN--------
 70
     0
 62
     7
  6
CONTINUOUS
  0
LAYER
  2
D42_B---MW-N--------
 70
     0
 62
     7
  6
CONTINUOUS
  0
LAYER
  2
D42_B---DECK--------
 70
     0
 62
     7
  6
CONTINUOUS
  0
LAYER
  2
D42_B---MW-S--------
 70
     0
 62
     7
  6
CONTINUOUS
  0
LAYER
  2
D42_B---MW----------
 70
     0
 62
     7
  6
CONTINUOUS
  0
LAYER
  2
D42_B---FASS--------
 70
     0
 62
     7
  6
CONTINUOUS
  0
LAYER
  2
D42_E---RASG--------
 70
     0
 62
     7
  6
CONTINUOUS
  0
LAYER
  2
CONSTRUCTION_CLASS
 70
     0
 62
     7
  6
CONTINUOUS
  0
LAYER
  2
PATTERN_CLASS
 70
     0
 62
     7
  6
CONTINUOUS
  0
LAYER
  2
KONSTRUKTION
 70
     0
 62
     7
  6
CONTINUOUS
  0
LAYER
  2
BEMAßUNG
 70
     0
 62
     7
  6
CONTINUOUS
  0
LAYER
  2
HILFSGEOMETRIE
 70
     0
 62
     7
  6
CONTINUOUS
  0
LAYER
  2
UNSICHTBAR
 70
     0
 62
     7
  6
CONTINUOUS
  0
LAYER
  2
LOGO
 70
     0
 62
     7
  6
CONTINUOUS
  0
LAYER
  2
VERWALTUNG
 70
     0
 62
     7
  6
CONTINUOUS
  0
LAYER
  2
UNSICHTBARE_GEWINDE
 70
     0
 62
     7
  6
CONTINUOUS
  0
LAYER
  2
SICHTBARE_GEWINDE
 70
     0
 62
     7
  6
CONTINUOUS
  0
LAYER
  2
DEFPOINTS
 70
     0
 62
     7
  6
CONTINUOUS
  0
LAYER
  2
THICK
 70
     0
 62
     7
  6
CONTINUOUS
  0
LAYER
  2
HIDDEN
 70
     0
 62
     7
  6
CONTINUOUS
  0
LAYER
  2
SCHRAFFURGRUNDRISS
 70
     0
 62
     7
  6
CONTINUOUS
  0
LAYER
  2
BEMASSUNG_GRUNDRISS
 70
     0
 62
     7
  6
CONTINUOUS
  0
LAYER
  2
STATIK
 70
     0
 62
     7
  6
CONTINUOUS
  0
LAYER
  2
TÜREN
 70
     0
 62
     7
  6
CONTINUOUS
  0
LAYER
  2
SANITÄR
 70
     0
 62
     7
  6
CONTINUOUS
  0
LAYER
  2
BEMASSUNG_GIPSKARTON
 70
     0
 62
     7
  6
CONTINUOUS
  0
LAYER
  2
EINRICHTUNGEN
 70
     0
 62
     7
  6
CONTINUOUS
  0
LAYER
  2
BECKEN
 70
     0
 62
     7
  6
CONTINUOUS
  0
LAYER
  2
BELEUCHTUNG
 70
     0
 62
     7
  6
CONTINUOUS
  0
LAYER
  2
BESCHRIFTUNGEN
 70
     0
 62
     7
  6
CONTINUOUS
  0
LAYER
  2
ELEKTRO_1__DOSEN_SCHALTER
 70
     0
 62
     7
  6
CONTINUOUS
  0
LAYER
  2
DEFAULT_1
 70
     0
 62
     7
  6
CONTINUOUS
  0
LAYER
  2
AM_0
 70
     0
 62
     7
  6
CONTINUOUS
  0
LAYER
  2
FRAME0_7
 70
     0
 62
     7
  6
CONTINUOUS
  0
LAYER
  2
AM_BOR
 70
     0
 62
     7
  6
CONTINUOUS
  0
LAYER
  2
RAHM2
 70
     0
 62
     7
  6
CONTINUOUS
  0
LAYER
  2
RAHM3
 70
     0
 62
     7
  6
CONTINUOUS
  0
LAYER
  2
FRAME0_5
 70
     0
 62
     7
  6
CONTINUOUS
  0
LAYER
  2
8
 70
     0
 62
     7
  6
CONTINUOUS
  0
LAYER
  2
AM_5
 70
     0
 62
     7
  6
CONTINUOUS
  0
LAYER
  2
AM_7
 70
     0
 62
     7
  6
CONTINUOUS
  0
LAYER
  2
HILFSLINIEN
 70
     0
 62
     7
  6
CONTINUOUS
  0
LAYER
  2
DRAWING_TEMPLATE
 70
     0
 62
     7
  6
CONTINUOUS
  0
LAYER
  2
TECHNOBOX_EXTERNALREFSYMBO
 70
     0
 62
     7
  6
CONTINUOUS
  0
LAYER
  2
TECHNOBOX_POLYCLIPSYMBOL_L
 70
     0
 62
     7
  6
CONTINUOUS
  0
LAYER
  2
100
 70
     0
 62
     7
  6
CONTINUOUS
  0
LAYER
  2
101
 70
     0
 62
     7
  6
CONTINUOUS
  0
LAYER
  2
KONTUR
 70
     0
 62
     7
  6
CONTINUOUS
  0
LAYER
  2
MITTELLINIE
 70
     0
 62
     7
  6
CONTINUOUS
  0
LAYER
  2
GESTRICHELT
 70
     0
 62
     7
  6
CONTINUOUS
  0
LAYER
  2
HILFSLINIE
 70
     0
 62
     7
  6
CONTINUOUS
  0
LAYER
  2
TEXT-25
 70
     0
 62
     7
  6
CONTINUOUS
  0
LAYER
  2
TEXT35
 70
     0
 62
     7
  6
CONTINUOUS
  0
LAYER
  2
TEXT-50
 70
     0
 62
     7
  6
CONTINUOUS
  0
LAYER
  2
TEXT-70
 70
     0
 62
     7
  6
CONTINUOUS
  0
LAYER
  2
ANSICHTSFENSTER
 70
     0
 62
     7
  6
CONTINUOUS
  0
LAYER
  2
KERA0
 70
     0
 62
     7
  6
CONTINUOUS
  0
LAYER
  2
KERA1
 70
     0
 62
     7
  6
CONTINUOUS
  0
LAYER
  2
KERA2
 70
     0
 62
     7
  6
CONTINUOUS
  0
LAYER
  2
KERA3
 70
     0
 62
     7
  6
CONTINUOUS
  0
LAYER
  2
KERA4
 70
     0
 62
     7
  6
CONTINUOUS
  0
LAYER
  2
KERA5
 70
     0
 62
     7
  6
CONTINUOUS
  0
LAYER
  2
KERA6
 70
     0
 62
     7
  6
CONTINUOUS
  0
LAYER
  2
KERA7
 70
     0
 62
     7
  6
CONTINUOUS
  0
LAYER
  2
20
 70
     0
 62
     7
  6
CONTINUOUS
  0
LAYER
  2
50
 70
     0
 62
     7
  6
CONTINUOUS
  0
LAYER
  2
FORMAT
 70
     0
 62
     7
  6
CONTINUOUS
  0
LAYER
  2
BECKEN_FUTURA_EBENE_1
 70
     0
 62
     7
  6
CONTINUOUS
  0
LAYER
  2
EBENE_1
 70
     0
 62
     7
  6
CONTINUOUS
  0
LAYER
  2
EBENE_2
 70
     0
 62
     7
  6
CONTINUOUS
  0
LAYER
  2
EBENE_5
 70
     0
 62
     7
  6
CONTINUOUS
  0
LAYER
  2
3
 70
     0
 62
     7
  6
CONTINUOUS
  0
LAYER
  2
GEB-KONTUR-A
 70
     0
 62
     7
  6
CONTINUOUS
  0
LAYER
  2
GEB-SYMETRIE
 70
     0
 62
     7
  6
CONTINUOUS
  0
LAYER
  2
GEB-ART-NR
 70
     0
 62
     7
  6
CONTINUOUS
  0
LAYER
  2
PROJECTION
 70
     0
 62
     7
  6
CONTINUOUS
  0
ENDTAB
  0
TABLE
  2
STYLE
 70
     5
  0
STYLE
  2
STANDARD
 70
     0
 40
0.0
 41
1.0
 50
0.0
 71
     0
 42
0.0
  3
txt
  4

  0
STYLE
  2
ANNOTATIVE
 70
     0
 40
0.0
 41
1.0
 50
0.0
 71
     0
 42
0.2
  3
txt
  4

  0
STYLE
  2
SIMPLEX
 70
     0
 40
0.0
 41
1.0
 50
0.0
 71
     0
 42
0.0
  3
SIMPLEX
  4

  0
STYLE
  2
MONOTXT
 70
     0
 40
0.0
 41
1.0
 50
0.0
 71
     0
 42
0.0
  3
MONOTXT
  4

  0
STYLE
  2
ROMANS
 70
     0
 40
0.0
 41
1.0
 50
0.0
 71
     0
 42
0.0
  3
ROMANS
  4

  0
ENDTAB
  0
TABLE
  2
VIEW
 70
     0
  0
ENDTAB
  0
TABLE
  2
UCS
 70
     0
  0
ENDTAB
  0
TABLE
  2
APPID
 70
     3
  0
APPID
  2
ACAD
 70
     0
  0
APPID
  2
ACADANNOTATIVE
 70
     0
  0
APPID
  2
ACAD_MLEADERVER
 70
     0
  0
ENDTAB
  0
TABLE
  2
DIMSTYLE
 70
     2
  0
DIMSTYLE
  2
STANDARD
 70
     0
  3

  4

  5

  6

  7

 40
1.0
 41
0.18
 42
0.0625
 43
0.38
 44
0.18
 45
0.0
 46
0.0
 47
0.0
 48
0.0
140
0.18
141
0.09
142
0.0
143
25.399999999999999
144
1.0
145
0.0
146
1.0
147
0.09
 71
     0
 72
     0
 73
     1
 74
     1
 75
     0
 76
     0
 77
     0
 78
     0
170
     0
171
     2
172
     0
173
     0
174
     0
175
     0
176
     0
177
     0
178
     0
  0
DIMSTYLE
  2
ANNOTATIVE
 70
     0
  3

  4

  5

  6

  7

 40
1.0
 41
0.18
 42
0.0625
 43
0.38
 44
0.18
 45
0.0
 46
0.0
 47
0.0
 48
0.0
140
0.18
141
0.09
142
0.0
143
25.399999999999999
144
1.0
145
0.0
146
1.0
147
0.09
 71
     0
 72
     0
 73
     1
 74
     1
 75
     0
 76
     0
 77
     0
 78
     0
170
     0
171
     2
172
     0
173
     0
174
     0
175
     0
176
     0
177
     0
178
     0
  0
ENDTAB
  0
ENDSEC
  0
SECTION
  2
BLOCKS
  0
BLOCK
  8
0
  2
$MODEL_SPACE
 70
     0
 10
0.0
 20
0.0
 30
0.0
  3
$MODEL_SPACE
  1

  0
ENDBLK
  5
76
  8
0
  0
BLOCK
 67
     1
  8
0
  2
$PAPER_SPACE
 70
     0
 10
0.0
 20
0.0
 30
0.0
  3
$PAPER_SPACE
  1

  0
ENDBLK
  5
72
 67
     1
  8
0
  0
BLOCK
  8
0
  2
ABS5-G1
 70
     0
 10
0.0
 20
0.0
 30
0.0
  3
ABS5-G1
  1

  0
SOLID
  5
18B
  8
2
  6
CONTINUOUS
 62
     7
 10
1324.5026319999999
 20
3606.5280379999999
 30
0.0
 11
1325.0884189999999
 21
3604.1138240000009
 31
0.0
 12
1325.0884189999999
 22
3605.113824
 32
0.0
 13
1325.0884189999999
 23
3605.113824
 33
0.0
  0
SOLID
  5
18C
  8
2
  6
CONTINUOUS
 62
     7
 10
1324.5026319999999
 20
3602.699610000001
 30
0.0
 11
1325.0884189999999
 21
3604.1138240000009
 31
0.0
 12
1324.5026319999999
 22
3606.5280379999999
 32
0.0
 13
1324.5026319999999
 23
3606.5280379999999
 33
0.0
  0
SOLID
  5
18D
  8
2
  6
CONTINUOUS
 62
     7
 10
1323.0884189999999
 20
3607.1138240000009
 30
0.0
 11
1324.5026319999999
 21
3602.699610000001
 31
0.0
 12
1324.5026319999999
 22
3606.5280379999999
 32
0.0
 13
1324.5026319999999
 23
3606.5280379999999
 33
0.0
  0
SOLID
  5
18E
  8
2
  6
CONTINUOUS
 62
     7
 10
1323.0884189999999
 20
3602.113824
 30
0.0
 11
1324.5026319999999
 21
3602.699610000001
 31
0.0
 12
1323.0884189999999
 22
3607.1138240000009
 32
0.0
 13
1323.0884189999999
 23
3607.1138240000009
 33
0.0
  0
SOLID
  5
18F
  8
2
  6
CONTINUOUS
 62
     7
 10
1311.6216569999999
 20
3602.113824
 30
0.0
 11
1323.0884189999999
 21
3602.113824
 31
0.0
 12
1323.0884189999999
 22
3607.1138240000009
 32
0.0
 13
1323.0884189999999
 23
3607.1138240000009
 33
0.0
  0
SOLID
  5
190
  8
2
  6
CONTINUOUS
 62
     7
 10
1310.236887
 20
3601.5661829999999
 30
0.0
 11
1311.6216569999999
 21
3602.113824
 31
0.0
 12
1323.0884189999999
 22
3607.1138240000009
 32
0.0
 13
1323.0884189999999
 23
3607.1138240000009
 33
0.0
  0
SOLID
  5
191
  8
2
  6
CONTINUOUS
 62
     7
 10
1306.774332
 20
3607.1138240000009
 30
0.0
 11
1309.623926
 21
3600.2090619999999
 31
0.0
 12
1310.236887
 22
3601.5661829999999
 32
0.0
 13
1310.236887
 23
3601.5661829999999
 33
0.0
  0
SOLID
  5
192
  8
2
  6
CONTINUOUS
 62
     7
 10
1306.774332
 20
3607.1138240000009
 30
0.0
 11
1310.236887
 21
3601.5661829999999
 31
0.0
 12
1323.0884189999999
 22
3607.1138240000009
 32
0.0
 13
1323.0884189999999
 23
3607.1138240000009
 33
0.0
  0
SOLID
  5
193
  8
2
  6
CONTINUOUS
 62
     7
 10
1305.3701140000001
 20
3606.5379619999999
 30
0.0
 11
1309.623926
 21
3600.2090619999999
 31
0.0
 12
1306.774332
 22
3607.1138240000009
 32
0.0
 13
1306.774332
 23
3607.1138240000009
 33
0.0
  0
SOLID
  5
194
  8
2
  6
CONTINUOUS
 62
     7
 10
1304.7745319999999
 20
3605.1419940000001
 30
0.0
 11
1309.623926
 21
3600.2090619999999
 31
0.0
 12
1305.3701140000001
 22
3606.5379619999999
 32
0.0
 13
1305.3701140000001
 23
3606.5379619999999
 33
0.0
  0
SOLID
  5
195
  8
2
  6
CONTINUOUS
 62
     7
 10
1303.613065
 20
3565.2483550000002
 30
0.0
 11
1309.623926
 21
3600.2090619999999
 31
0.0
 12
1304.7745319999999
 22
3605.1419940000001
 32
0.0
 13
1304.7745319999999
 23
3605.1419940000001
 33
0.0
  0
SOLID
  5
196
  8
2
  6
CONTINUOUS
 62
     7
 10
1300.6401679999999
 20
3573.2862869999999
 30
0.0
 11
1303.613065
 21
3565.2483550000002
 31
0.0
 12
1304.7745319999999
 22
3605.1419940000001
 32
0.0
 13
1304.7745319999999
 23
3605.1419940000001
 33
0.0
  0
SOLID
  5
197
  8
2
  6
CONTINUOUS
 62
     7
 10
1289.353631
 20
3543.2114940000001
 30
0.0
 11
1303.613065
 21
3565.2483550000002
 31
0.0
 12
1300.6401679999999
 22
3573.2862869999999
 32
0.0
 13
1300.6401679999999
 23
3573.2862869999999
 33
0.0
  0
SOLID
  5
198
  8
2
  6
CONTINUOUS
 62
     7
 10
1289.2933169999999
 20
3532.7933670000002
 30
0.0
 11
1303.613065
 21
3565.2483550000002
 31
0.0
 12
1289.353631
 22
3543.2114940000001
 32
0.0
 13
1289.353631
 23
3543.2114940000001
 33
0.0
  0
SOLID
  5
199
  8
2
  6
CONTINUOUS
 62
     7
 10
1271.5091239999999
 20
3516.5009600000012
 30
0.0
 11
1289.2933169999999
 21
3532.7933670000002
 31
0.0
 12
1289.353631
 22
3543.2114940000001
 32
0.0
 13
1289.353631
 23
3543.2114940000001
 33
0.0
  0
SOLID
  5
19A
  8
2
  6
CONTINUOUS
 62
     7
 10
1267.521741
 20
3504.7865820000011
 30
0.0
 11
1289.2933169999999
 21
3532.7933670000002
 31
0.0
 12
1271.5091239999999
 22
3516.5009600000012
 32
0.0
 13
1271.5091239999999
 23
3516.5009600000012
 33
0.0
  0
SOLID
  5
19B
  8
2
  6
CONTINUOUS
 62
     7
 10
1248.0461029999999
 20
3494.5609119999999
 30
0.0
 11
1267.521741
 21
3504.7865820000011
 31
0.0
 12
1271.5091239999999
 22
3516.5009600000012
 32
0.0
 13
1271.5091239999999
 23
3516.5009600000012
 33
0.0
  0
SOLID
  5
19C
  8
2
  6
CONTINUOUS
 62
     7
 10
1239.601404
 20
3482.9042540000009
 30
0.0
 11
1267.521741
 21
3504.7865820000011
 31
0.0
 12
1248.0461029999999
 22
3494.5609119999999
 32
0.0
 13
1248.0461029999999
 23
3494.5609119999999
 33
0.0
  0
SOLID
  5
19D
  8
2
  6
CONTINUOUS
 62
     7
 10
1220.199824
 20
3478.546424000001
 30
0.0
 11
1239.601404
 21
3482.9042540000009
 31
0.0
 12
1248.0461029999999
 22
3494.5609119999999
 32
0.0
 13
1248.0461029999999
 23
3494.5609119999999
 33
0.0
  0
SOLID
  5
19E
  8
2
  6
CONTINUOUS
 62
     7
 10
1207.2033839999999
 20
3468.4560770000012
 30
0.0
 11
1239.601404
 21
3482.9042540000009
 31
0.0
 12
1220.199824
 22
3478.546424000001
 32
0.0
 13
1220.199824
 23
3478.546424000001
 33
0.0
  0
SOLID
  5
19F
  8
2
  6
CONTINUOUS
 62
     7
 10
1206.180615
 20
3467.7330799999991
 30
0.0
 11
1207.2033839999999
 21
3468.4560770000012
 31
0.0
 12
1220.199824
 22
3478.546424000001
 32
0.0
 13
1220.199824
 23
3478.546424000001
 33
0.0
  0
SOLID
  5
1A0
  8
2
  6
CONTINUOUS
 62
     7
 10
1205.202632
 20
3424.699610000001
 30
0.0
 11
1205.788419
 21
3426.113824
 31
0.0
 12
1205.788419
 22
3466.543557
 32
0.0
 13
1205.788419
 23
3466.543557
 33
0.0
  0
SOLID
  5
1A1
  8
2
  6
CONTINUOUS
 62
     7
 10
1203.788419
 20
3424.113824
 30
0.0
 11
1205.202632
 21
3424.699610000001
 31
0.0
 12
1205.788419
 22
3466.543557
 32
0.0
 13
1205.788419
 23
3466.543557
 33
0.0
  0
SOLID
  5
1A2
  8
2
  6
CONTINUOUS
 62
     7
 10
1189.788419
 20
3424.113824
 30
0.0
 11
1203.788419
 21
3424.113824
 31
0.0
 12
1205.788419
 22
3466.543557
 32
0.0
 13
1205.788419
 23
3466.543557
 33
0.0
  0
SOLID
  5
1A3
  8
2
  6
CONTINUOUS
 62
     7
 10
1189.788419
 20
3424.113824
 30
0.0
 11
1205.788419
 21
3466.543557
 31
0.0
 12
1206.180615
 22
3467.7330799999991
 32
0.0
 13
1206.180615
 23
3467.7330799999991
 33
0.0
  0
SOLID
  5
1A4
  8
2
  6
CONTINUOUS
 62
     7
 10
1189.4363060000001
 20
3469.3006110000001
 30
0.0
 11
1189.788419
 21
3424.113824
 31
0.0
 12
1206.180615
 22
3467.7330799999991
 32
0.0
 13
1206.180615
 23
3467.7330799999991
 33
0.0
  0
SOLID
  5
1A5
  8
2
  6
CONTINUOUS
 62
     7
 10
1189.4363060000001
 20
3469.3006110000001
 30
0.0
 11
1206.180615
 21
3467.7330799999991
 31
0.0
 12
1220.199824
 22
3478.546424000001
 32
0.0
 13
1220.199824
 23
3478.546424000001
 33
0.0
  0
SOLID
  5
1A6
  8
2
  6
CONTINUOUS
 62
     7
 10
1188.3742050000001
 20
3424.699610000001
 30
0.0
 11
1189.788419
 21
3424.113824
 31
0.0
 12
1189.4363060000001
 22
3469.3006110000001
 32
0.0
 13
1189.4363060000001
 23
3469.3006110000001
 33
0.0
  0
SOLID
  5
1A7
  8
2
  6
CONTINUOUS
 62
     7
 10
1188.2572540000001
 20
3468.6134630000001
 30
0.0
 11
1188.3742050000001
 21
3424.699610000001
 31
0.0
 12
1189.4363060000001
 22
3469.3006110000001
 32
0.0
 13
1189.4363060000001
 23
3469.3006110000001
 33
0.0
  0
SOLID
  5
1A8
  8
2
  6
CONTINUOUS
 62
     7
 10
1188.2572540000001
 20
3468.6134630000001
 30
0.0
 11
1187.788419
 21
3467.3318509999999
 31
0.0
 12
1187.788419
 22
3426.113824
 32
0.0
 13
1187.788419
 23
3426.113824
 33
0.0
  0
SOLID
  5
1A9
  8
2
  6
CONTINUOUS
 62
     7
 10
1187.788419
 20
3426.113824
 30
0.0
 11
1188.3742050000001
 21
3424.699610000001
 31
0.0
 12
1188.2572540000001
 22
3468.6134630000001
 32
0.0
 13
1188.2572540000001
 23
3468.6134630000001
 33
0.0
  0
ENDBLK
  5
1AA
  8
0
  0
BLOCK
  8
0
  2
*D1
 70
     1
 10
0.0
 20
0.0
 30
0.0
  3
*D1
  1

  0
LINE
  5
1AD
  8
LAYER01
 62
     7
 10
1187.788419
 20
3350.9392079999998
 30
0.0
 11
1235.788419
 21
3350.9392079999998
 31
0.0
  0
LINE
  5
1AE
  8
LAYER01
 62
     7
 10
1141.788419
 20
3350.9392079999998
 30
0.0
 11
1093.788419
 21
3350.9392079999998
 31
0.0
  0
LINE
  5
1AF
  8
LAYER01
 62
     7
 10
1187.788419
 20
3408.4138240000002
 30
0.0
 11
1187.788419
 21
3335.9392079999998
 31
0.0
  0
LINE
  5
1B0
  8
LAYER01
 62
     7
 10
1141.788419
 20
3408.4138240000002
 30
0.0
 11
1141.788419
 21
3335.9392079999998
 31
0.0
  0
SOLID
  5
1B1
  8
LAYER01
 62
     7
 10
1211.788419
 20
3354.9390480000002
 30
0.0
 11
1187.788419
 21
3350.9392079999998
 31
0.0
 12
1211.788419
 22
3346.9393679999998
 32
0.0
 13
1211.788419
 23
3346.9393679999998
 33
0.0
  0
SOLID
  5
1B2
  8
LAYER01
 62
     7
 10
1117.788419
 20
3354.9390480000002
 30
0.0
 11
1141.788419
 21
3350.9392079999998
 31
0.0
 12
1117.788419
 22
3346.9393679999998
 32
0.0
 13
1117.788419
 23
3346.9393679999998
 33
0.0
  0
TEXT
  5
1B3
  8
LAYER01
  6
VERDECKT
 62
     7
 10
1250.788419
 20
3365.9392079999998
 30
0.0
 40
30.0
  1
46
  7
SIMPLEX
  0
POINT
  5
1B4
  8
LAYER01
 62
     7
 10
1187.788419
 20
3420.4138240000011
 30
0.0
  0
POINT
  5
1B5
  8
LAYER01
 62
     7
 10
1141.788419
 20
3420.4138240000011
 30
0.0
  0
POINT
  5
1B6
  8
LAYER01
 62
     7
 10
1141.788419
 20
3350.9392079999998
 30
0.0
  0
ENDBLK
  5
1B7
  8
0
  0
BLOCK
  8
0
  2
*D2
 70
     1
 10
0.0
 20
0.0
 30
0.0
  3
*D2
  1

  0
LINE
  5
1BA
  8
LAYER01
 62
     7
 10
1205.788419
 20
3263.6266030000002
 30
0.0
 11
1123.788419
 21
3263.6266030000002
 31
0.0
  0
LINE
  5
1BB
  8
LAYER01
 62
     7
 10
1205.788419
 20
3408.4138240000002
 30
0.0
 11
1205.788419
 21
3248.6266030000002
 31
0.0
  0
LINE
  5
1BC
  8
LAYER01
 62
     7
 10
1123.788419
 20
3408.4138240000002
 30
0.0
 11
1123.788419
 21
3248.6266030000002
 31
0.0
  0
SOLID
  5
1BD
  8
LAYER01
 62
     7
 10
1181.788419
 20
3267.626443000001
 30
0.0
 11
1205.788419
 21
3263.6266030000002
 31
0.0
 12
1181.788419
 22
3259.6267630000002
 32
0.0
 13
1181.788419
 23
3259.6267630000002
 33
0.0
  0
SOLID
  5
1BE
  8
LAYER01
 62
     7
 10
1147.788419
 20
3267.626443000001
 30
0.0
 11
1123.788419
 21
3263.6266030000002
 31
0.0
 12
1147.788419
 22
3259.6267630000002
 32
0.0
 13
1147.788419
 23
3259.6267630000002
 33
0.0
  0
TEXT
  5
1BF
  8
LAYER01
  6
VERDECKT
 62
     7
 10
1140.502704
 20
3278.6266030000002
 30
0.0
 40
30.0
  1
82
  7
SIMPLEX
  0
POINT
  5
1C0
  8
LAYER01
 62
     7
 10
1205.788419
 20
3420.4138240000011
 30
0.0
  0
POINT
  5
1C1
  8
LAYER01
 62
     7
 10
1123.788419
 20
3420.4138240000011
 30
0.0
  0
POINT
  5
1C2
  8
LAYER01
 62
     7
 10
1123.788419
 20
3263.6266030000002
 30
0.0
  0
ENDBLK
  5
1C3
  8
0
  0
BLOCK
  8
0
  2
ABS5-G4
 70
     0
 10
0.0
 20
0.0
 30
0.0
  3
ABS5-G4
  1

  0
SOLID
  5
1C6
  8
2
  6
CONTINUOUS
 62
     7
 10
1141.319583
 20
3468.6134630000001
 30
0.0
 11
1141.788419
 21
3426.113824
 31
0.0
 12
1141.788419
 22
3467.3318509999999
 32
0.0
 13
1141.788419
 23
3467.3318509999999
 33
0.0
  0
SOLID
  5
1C7
  8
2
  6
CONTINUOUS
 62
     7
 10
1141.202632
 20
3424.699610000001
 30
0.0
 11
1141.788419
 21
3426.113824
 31
0.0
 12
1141.319583
 22
3468.6134630000001
 32
0.0
 13
1141.319583
 23
3468.6134630000001
 33
0.0
  0
SOLID
  5
1C8
  8
2
  6
CONTINUOUS
 62
     7
 10
1140.140531
 20
3469.3006110000001
 30
0.0
 11
1141.202632
 21
3424.699610000001
 31
0.0
 12
1141.319583
 22
3468.6134630000001
 32
0.0
 13
1141.319583
 23
3468.6134630000001
 33
0.0
  0
SOLID
  5
1C9
  8
2
  6
CONTINUOUS
 62
     7
 10
1139.788419
 20
3424.113824
 30
0.0
 11
1141.202632
 21
3424.699610000001
 31
0.0
 12
1140.140531
 22
3469.3006110000001
 32
0.0
 13
1140.140531
 23
3469.3006110000001
 33
0.0
  0
SOLID
  5
1CA
  8
2
  6
CONTINUOUS
 62
     7
 10
1125.788419
 20
3424.113824
 30
0.0
 11
1139.788419
 21
3424.113824
 31
0.0
 12
1140.140531
 22
3469.3006110000001
 32
0.0
 13
1140.140531
 23
3469.3006110000001
 33
0.0
  0
SOLID
  5
1CB
  8
2
  6
CONTINUOUS
 62
     7
 10
1124.3742050000001
 20
3424.699610000001
 30
0.0
 11
1125.788419
 21
3424.113824
 31
0.0
 12
1140.140531
 22
3469.3006110000001
 32
0.0
 13
1140.140531
 23
3469.3006110000001
 33
0.0
  0
SOLID
  5
1CC
  8
2
  6
CONTINUOUS
 62
     7
 10
1123.788419
 20
3426.113824
 30
0.0
 11
1124.3742050000001
 21
3424.699610000001
 31
0.0
 12
1140.140531
 22
3469.3006110000001
 32
0.0
 13
1140.140531
 23
3469.3006110000001
 33
0.0
  0
SOLID
  5
1CD
  8
2
  6
CONTINUOUS
 62
     7
 10
1140.140531
 20
3469.3006110000001
 30
0.0
 11
1123.788419
 21
3466.543557
 31
0.0
 12
1123.788419
 22
3426.113824
 32
0.0
 13
1123.788419
 23
3426.113824
 33
0.0
  0
SOLID
  5
1CE
  8
2
  6
CONTINUOUS
 62
     7
 10
1123.396223
 20
3467.7330799999991
 30
0.0
 11
1123.788419
 21
3466.543557
 31
0.0
 12
1140.140531
 22
3469.3006110000001
 32
0.0
 13
1140.140531
 23
3469.3006110000001
 33
0.0
  0
SOLID
  5
1CF
  8
2
  6
CONTINUOUS
 62
     7
 10
1122.3734529999999
 20
3468.4560770000012
 30
0.0
 11
1123.396223
 21
3467.7330799999991
 31
0.0
 12
1140.140531
 22
3469.3006110000001
 32
0.0
 13
1140.140531
 23
3469.3006110000001
 33
0.0
  0
SOLID
  5
1D0
  8
2
  6
CONTINUOUS
 62
     7
 10
1109.3770139999999
 20
3478.546424000001
 30
0.0
 11
1122.3734529999999
 21
3468.4560770000012
 31
0.0
 12
1140.140531
 22
3469.3006110000001
 32
0.0
 13
1140.140531
 23
3469.3006110000001
 33
0.0
  0
SOLID
  5
1D1
  8
2
  6
CONTINUOUS
 62
     7
 10
1089.9754330000001
 20
3482.9042540000009
 30
0.0
 11
1122.3734529999999
 21
3468.4560770000012
 31
0.0
 12
1109.3770139999999
 22
3478.546424000001
 32
0.0
 13
1109.3770139999999
 23
3478.546424000001
 33
0.0
  0
SOLID
  5
1D2
  8
2
  6
CONTINUOUS
 62
     7
 10
1081.530735
 20
3494.5609119999999
 30
0.0
 11
1089.9754330000001
 21
3482.9042540000009
 31
0.0
 12
1109.3770139999999
 22
3478.546424000001
 32
0.0
 13
1109.3770139999999
 23
3478.546424000001
 33
0.0
  0
SOLID
  5
1D3
  8
2
  6
CONTINUOUS
 62
     7
 10
1062.055096
 20
3504.7865820000011
 30
0.0
 11
1089.9754330000001
 21
3482.9042540000009
 31
0.0
 12
1081.530735
 22
3494.5609119999999
 32
0.0
 13
1081.530735
 23
3494.5609119999999
 33
0.0
  0
SOLID
  5
1D4
  8
2
  6
CONTINUOUS
 62
     7
 10
1058.067714
 20
3516.5009600000012
 30
0.0
 11
1062.055096
 21
3504.7865820000011
 31
0.0
 12
1081.530735
 22
3494.5609119999999
 32
0.0
 13
1081.530735
 23
3494.5609119999999
 33
0.0
  0
SOLID
  5
1D5
  8
2
  6
CONTINUOUS
 62
     7
 10
1040.2835210000001
 20
3532.7933670000002
 30
0.0
 11
1062.055096
 21
3504.7865820000011
 31
0.0
 12
1058.067714
 22
3516.5009600000012
 32
0.0
 13
1058.067714
 23
3516.5009600000012
 33
0.0
  0
SOLID
  5
1D6
  8
2
  6
CONTINUOUS
 62
     7
 10
1040.2232059999999
 20
3543.2114940000001
 30
0.0
 11
1040.2835210000001
 21
3532.7933670000002
 31
0.0
 12
1058.067714
 22
3516.5009600000012
 32
0.0
 13
1058.067714
 23
3516.5009600000012
 33
0.0
  0
SOLID
  5
1D7
  8
2
  6
CONTINUOUS
 62
     7
 10
1028.93667
 20
3573.2862869999999
 30
0.0
 11
1040.2835210000001
 21
3532.7933670000002
 31
0.0
 12
1040.2232059999999
 22
3543.2114940000001
 32
0.0
 13
1040.2232059999999
 23
3543.2114940000001
 33
0.0
  0
SOLID
  5
1D8
  8
2
  6
CONTINUOUS
 62
     7
 10
1025.9637720000001
 20
3565.2483550000002
 30
0.0
 11
1040.2835210000001
 21
3532.7933670000002
 31
0.0
 12
1028.93667
 22
3573.2862869999999
 32
0.0
 13
1028.93667
 23
3573.2862869999999
 33
0.0
  0
SOLID
  5
1D9
  8
2
  6
CONTINUOUS
 62
     7
 10
1024.802306
 20
3605.1419940000001
 30
0.0
 11
1025.9637720000001
 21
3565.2483550000002
 31
0.0
 12
1028.93667
 22
3573.2862869999999
 32
0.0
 13
1028.93667
 23
3573.2862869999999
 33
0.0
  0
SOLID
  5
1DA
  8
2
  6
CONTINUOUS
 62
     7
 10
1024.206723
 20
3606.5379619999999
 30
0.0
 11
1025.9637720000001
 21
3565.2483550000002
 31
0.0
 12
1024.802306
 22
3605.1419940000001
 32
0.0
 13
1024.802306
 23
3605.1419940000001
 33
0.0
  0
SOLID
  5
1DB
  8
2
  6
CONTINUOUS
 62
     7
 10
1022.802505
 20
3607.1138240000009
 30
0.0
 11
1025.9637720000001
 21
3565.2483550000002
 31
0.0
 12
1024.206723
 22
3606.5379619999999
 32
0.0
 13
1024.206723
 23
3606.5379619999999
 33
0.0
  0
SOLID
  5
1DC
  8
2
  6
CONTINUOUS
 62
     7
 10
1019.952911
 20
3600.2090619999999
 30
0.0
 11
1025.9637720000001
 21
3565.2483550000002
 31
0.0
 12
1022.802505
 22
3607.1138240000009
 32
0.0
 13
1022.802505
 23
3607.1138240000009
 33
0.0
  0
SOLID
  5
1DD
  8
2
  6
CONTINUOUS
 62
     7
 10
1019.33995
 20
3601.5661829999999
 30
0.0
 11
1019.952911
 21
3600.2090619999999
 31
0.0
 12
1022.802505
 22
3607.1138240000009
 32
0.0
 13
1022.802505
 23
3607.1138240000009
 33
0.0
  0
SOLID
  5
1DE
  8
2
  6
CONTINUOUS
 62
     7
 10
1017.95518
 20
3602.113824
 30
0.0
 11
1019.33995
 21
3601.5661829999999
 31
0.0
 12
1022.802505
 22
3607.1138240000009
 32
0.0
 13
1022.802505
 23
3607.1138240000009
 33
0.0
  0
SOLID
  5
1DF
  8
2
  6
CONTINUOUS
 62
     7
 10
1006.488419
 20
3607.1138240000009
 30
0.0
 11
1017.95518
 21
3602.113824
 31
0.0
 12
1022.802505
 22
3607.1138240000009
 32
0.0
 13
1022.802505
 23
3607.1138240000009
 33
0.0
  0
SOLID
  5
1E0
  8
2
  6
CONTINUOUS
 62
     7
 10
1006.488419
 20
3602.113824
 30
0.0
 11
1017.95518
 21
3602.113824
 31
0.0
 12
1006.488419
 22
3607.1138240000009
 32
0.0
 13
1006.488419
 23
3607.1138240000009
 33
0.0
  0
SOLID
  5
1E1
  8
2
  6
CONTINUOUS
 62
     7
 10
1005.074205
 20
3602.699610000001
 30
0.0
 11
1006.488419
 21
3602.113824
 31
0.0
 12
1006.488419
 22
3607.1138240000009
 32
0.0
 13
1006.488419
 23
3607.1138240000009
 33
0.0
  0
SOLID
  5
1E2
  8
2
  6
CONTINUOUS
 62
     7
 10
1005.074205
 20
3606.5280379999999
 30
0.0
 11
1005.074205
 21
3602.699610000001
 31
0.0
 12
1006.488419
 22
3607.1138240000009
 32
0.0
 13
1006.488419
 23
3607.1138240000009
 33
0.0
  0
SOLID
  5
1E3
  8
2
  6
CONTINUOUS
 62
     7
 10
1004.488419
 20
3604.1138240000009
 30
0.0
 11
1005.074205
 21
3602.699610000001
 31
0.0
 12
1005.074205
 22
3606.5280379999999
 32
0.0
 13
1005.074205
 23
3606.5280379999999
 33
0.0
  0
SOLID
  5
1E4
  8
2
  6
CONTINUOUS
 62
     7
 10
1004.488419
 20
3605.113824
 30
0.0
 11
1004.488419
 21
3604.1138240000009
 31
0.0
 12
1005.074205
 22
3606.5280379999999
 32
0.0
 13
1005.074205
 23
3606.5280379999999
 33
0.0
  0
ENDBLK
  5
1E5
  8
0
  0
BLOCK
  8
0
  2
*D4
 70
     1
 10
0.0
 20
0.0
 30
0.0
  3
*D4
  1

  0
LINE
  5
1E8
  8
LAYER01
 62
     7
 10
840.85192500000005
 20
3616.4138240000002
 30
0.0
 11
840.85192500000005
 21
3336.4138240000002
 31
0.0
  0
LINE
  5
1E9
  8
LAYER01
 62
     7
 10
795.55302800000004
 20
3616.4138240000002
 30
0.0
 11
855.85192500000005
 21
3616.4138240000002
 31
0.0
  0
LINE
  5
1EA
  8
LAYER01
 62
     7
 10
795.55302800000004
 20
3336.4138240000002
 30
0.0
 11
855.85192500000005
 21
3336.4138240000002
 31
0.0
  0
SOLID
  5
1EB
  8
LAYER01
 62
     7
 10
836.85208499999987
 20
3592.4138240000011
 30
0.0
 11
840.85192500000005
 21
3616.4138240000002
 31
0.0
 12
844.85176499999989
 22
3592.4138240000011
 32
0.0
 13
844.85176499999989
 23
3592.4138240000011
 33
0.0
  0
SOLID
  5
1EC
  8
LAYER01
 62
     7
 10
836.85208499999987
 20
3360.4138240000002
 30
0.0
 11
840.85192500000005
 21
3336.4138240000002
 31
0.0
 12
844.85176499999989
 22
3360.4138240000002
 32
0.0
 13
844.85176499999989
 23
3360.4138240000002
 33
0.0
  0
TEXT
  5
1ED
  8
LAYER01
  6
VERDECKT
 62
     7
 10
825.85192500000005
 20
3437.8423950000001
 30
0.0
 40
30.0
  1
280
 50
90.0
  7
SIMPLEX
  0
POINT
  5
1EE
  8
LAYER01
 62
     7
 10
783.55302800000004
 20
3616.4138240000002
 30
0.0
  0
POINT
  5
1EF
  8
LAYER01
 62
     7
 10
783.55302800000004
 20
3336.4138240000002
 30
0.0
  0
POINT
  5
1F0
  8
LAYER01
 62
     7
 10
840.85192500000005
 20
3336.4138240000002
 30
0.0
  0
ENDBLK
  5
1F1
  8
0
  0
BLOCK
  8
0
  2
*D5
 70
     1
 10
0.0
 20
0.0
 30
0.0
  3
*D5
  1

  0
LINE
  5
1F4
  8
LAYER01
 62
     7
 10
901.65891699999986
 20
3636.5138240000001
 30
0.0
 11
901.65891699999986
 21
3316.4138240000002
 31
0.0
  0
LINE
  5
1F5
  8
LAYER01
 62
     7
 10
795.55302800000004
 20
3636.5138240000001
 30
0.0
 11
916.65891699999986
 21
3636.5138240000001
 31
0.0
  0
LINE
  5
1F6
  8
LAYER01
 62
     7
 10
795.55302800000004
 20
3316.4138240000002
 30
0.0
 11
916.65891699999986
 21
3316.4138240000002
 31
0.0
  0
SOLID
  5
1F7
  8
LAYER01
 62
     7
 10
897.65907699999991
 20
3612.5138240000001
 30
0.0
 11
901.65891699999986
 21
3636.5138240000001
 31
0.0
 12
905.65875700000015
 22
3612.5138240000001
 32
0.0
 13
905.65875700000015
 23
3612.5138240000001
 33
0.0
  0
SOLID
  5
1F8
  8
LAYER01
 62
     7
 10
897.65907699999991
 20
3340.4138240000002
 30
0.0
 11
901.65891699999986
 21
3316.4138240000002
 31
0.0
 12
905.65875700000015
 22
3340.4138240000002
 32
0.0
 13
905.65875700000015
 23
3340.4138240000002
 33
0.0
  0
TEXT
  5
1F9
  8
LAYER01
  6
VERDECKT
 62
     7
 10
886.65891699999986
 20
3437.8923949999999
 30
0.0
 40
30.0
  1
320
 50
90.0
  7
SIMPLEX
  0
POINT
  5
1FA
  8
LAYER01
 62
     7
 10
783.55302800000004
 20
3636.5138240000001
 30
0.0
  0
POINT
  5
1FB
  8
LAYER01
 62
     7
 10
783.55302800000004
 20
3316.4138240000002
 30
0.0
  0
POINT
  5
1FC
  8
LAYER01
 62
     7
 10
901.65891699999986
 20
3316.4138240000002
 30
0.0
  0
ENDBLK
  5
1FD
  8
0
  0
BLOCK
  8
0
  2
*D6
 70
     1
 10
0.0
 20
0.0
 30
0.0
  3
*D6
  1

  0
LINE
  5
200
  8
LAYER01
 62
     7
 10
1532.6337020000001
 20
3607.0138240000001
 30
0.0
 11
1532.6337020000001
 21
3424.113824
 31
0.0
  0
LINE
  5
201
  8
LAYER01
 62
     7
 10
1338.899973
 20
3607.0138240000001
 30
0.0
 11
1547.6337020000001
 21
3607.0138240000001
 31
0.0
  0
LINE
  5
202
  8
LAYER01
 62
     7
 10
1338.899973
 20
3424.113824
 30
0.0
 11
1547.6337020000001
 21
3424.113824
 31
0.0
  0
SOLID
  5
203
  8
LAYER01
 62
     7
 10
1528.6338619999999
 20
3583.0138240000001
 30
0.0
 11
1532.6337020000001
 21
3607.0138240000001
 31
0.0
 12
1536.633542
 22
3583.0138240000001
 32
0.0
 13
1536.633542
 23
3583.0138240000001
 33
0.0
  0
SOLID
  5
204
  8
LAYER01
 62
     7
 10
1528.6338619999999
 20
3448.113824
 30
0.0
 11
1532.6337020000001
 21
3424.113824
 31
0.0
 12
1536.633542
 22
3448.113824
 32
0.0
 13
1536.633542
 23
3448.113824
 33
0.0
  0
TEXT
  5
205
  8
LAYER01
  6
VERDECKT
 62
     7
 10
1517.6337020000001
 20
3479.8495380000008
 30
0.0
 40
30.0
  1
183
 50
90.0
  7
SIMPLEX
  0
POINT
  5
206
  8
LAYER01
 62
     7
 10
1326.899973
 20
3607.0138240000001
 30
0.0
  0
POINT
  5
207
  8
LAYER01
 62
     7
 10
1326.899973
 20
3424.113824
 30
0.0
  0
POINT
  5
208
  8
LAYER01
 62
     7
 10
1532.6337020000001
 20
3424.113824
 30
0.0
  0
ENDBLK
  5
209
  8
0
  0
BLOCK
  8
0
  2
*D7
 70
     1
 10
0.0
 20
0.0
 30
0.0
  3
*D7
  1

  0
LINE
  5
20C
  8
LAYER01
 62
     7
 10
1419.8119799999999
 20
3607.0138240000001
 30
0.0
 11
1419.8119799999999
 21
3471.0138240000001
 31
0.0
  0
LINE
  5
20D
  8
LAYER01
 62
     7
 10
1338.899973
 20
3607.0138240000001
 30
0.0
 11
1434.8119799999999
 21
3607.0138240000001
 31
0.0
  0
LINE
  5
20E
  8
LAYER01
 62
     7
 10
1338.899973
 20
3471.0138240000001
 30
0.0
 11
1434.8119799999999
 21
3471.0138240000001
 31
0.0
  0
SOLID
  5
20F
  8
LAYER01
 62
     7
 10
1415.81214
 20
3583.0138240000001
 30
0.0
 11
1419.8119799999999
 21
3607.0138240000001
 31
0.0
 12
1423.8118199999999
 22
3583.0138240000001
 32
0.0
 13
1423.8118199999999
 23
3583.0138240000001
 33
0.0
  0
SOLID
  5
210
  8
LAYER01
 62
     7
 10
1415.81214
 20
3495.0138240000001
 30
0.0
 11
1419.8119799999999
 21
3471.0138240000001
 31
0.0
 12
1423.8118199999999
 22
3495.0138240000001
 32
0.0
 13
1423.8118199999999
 23
3495.0138240000001
 33
0.0
  0
TEXT
  5
211
  8
LAYER01
  6
VERDECKT
 62
     7
 10
1404.8119799999999
 20
3504.013824000001
 30
0.0
 40
30.0
  1
130
 50
90.0
  7
SIMPLEX
  0
POINT
  5
212
  8
LAYER01
 62
     7
 10
1326.899973
 20
3607.0138240000001
 30
0.0
  0
POINT
  5
213
  8
LAYER01
 62
     7
 10
1326.899973
 20
3471.0138240000001
 30
0.0
  0
POINT
  5
214
  8
LAYER01
 62
     7
 10
1419.8119799999999
 20
3471.0138240000001
 30
0.0
  0
ENDBLK
  5
215
  8
0
  0
BLOCK
  8
0
  2
ABS5-G10
 70
     0
 10
0.0
 20
0.0
 30
0.0
  3
ABS5-G10
  1

  0
TEXT
  5
218
  8
LAYER01
  6
VERDECKT
 62
     1
 10
2645.1806969999998
 20
2137.296053
 30
0.0
 40
10.0
  1
A. Sprenger GmbH
  7
SIMPLEX
  0
TEXT
  5
219
  8
LAYER01
  6
VERDECKT
 62
     1
 10
2645.1806969999998
 20
2120.1531960000002
 30
0.0
 40
10.0
  1
Berner Str. 10
  7
SIMPLEX
  0
TEXT
  5
21A
  8
LAYER01
  6
VERDECKT
 62
     1
 10
2645.1806969999998
 20
2103.0103389999999
 30
0.0
 40
10.0
  1
60437 Frankfurt
  7
SIMPLEX
  0
TEXT
  5
21B
  8
LAYER01
  6
VERDECKT
 62
     1
 10
2645.1806969999998
 20
2085.8674820000001
 30
0.0
 40
10.0
  1
Tel.: 069 - 507 27 41
  7
SIMPLEX
  0
TEXT
  5
21C
  8
LAYER01
  6
VERDECKT
 62
     1
 10
2645.1806969999998
 20
2068.7246239999999
 30
0.0
 40
10.0
  1
Fax: 069 - 507 72 91
  7
SIMPLEX
  0
TEXT
  5
21D
  8
LAYER01
  6
VERDECKT
 62
     1
 10
2645.1806969999998
 20
2051.5817670000001
 30
0.0
 40
10.0
  1
info@varicor.org
  7
SIMPLEX
  0
ENDBLK
  5
21E
  8
0
  0
BLOCK
  8
0
  2
ABS5-G9
 70
     0
 10
0.0
 20
0.0
 30
0.0
  3
ABS5-G9
  1

  0
TEXT
  5
221
  8
LAYER01
  6
CONTINUOUS
 62
     1
 10
3695.9991520000008
 20
1902.215866
 30
0.0
 40
10.0
  1
Blatt
  7
SIMPLEX
  0
LINE
  5
222
  8
LAYER01
  6
CONTINUOUS
 62
     1
 10
2630.9991519999999
 20
1972.215866
 30
0.0
 11
3230.9991519999999
 21
1972.215866
 31
0.0
  0
LINE
  5
223
  8
LAYER01
  6
CONTINUOUS
 62
     1
 10
2630.9991519999999
 20
1947.215866
 30
0.0
 11
3230.9991519999999
 21
1947.215866
 31
0.0
  0
LINE
  5
224
  8
LAYER01
  6
CONTINUOUS
 62
     1
 10
2630.9991519999999
 20
1922.215866
 30
0.0
 11
3760.9991519999999
 21
1922.215866
 31
0.0
  0
LINE
  5
225
  8
LAYER01
  6
CONTINUOUS
 62
     1
 10
2630.9991519999999
 20
1847.215866
 30
0.0
 11
3760.9991519999999
 21
1847.215866
 31
0.0
  0
LINE
  5
226
  8
LAYER01
  6
CONTINUOUS
 62
     1
 10
2630.9991519999999
 20
2047.215866
 30
0.0
 11
3760.9991519999999
 21
2047.215866
 31
0.0
  0
POLYLINE
  5
227
  8
LAYER01
  6
CONTINUOUS
 62
     1
 66
     1
 10
0.0
 20
0.0
 30
0.0
 70
     1
  0
VERTEX
  5
6A5
  8
LAYER01
  6
CONTINUOUS
 62
     1
 10
2630.9991519999999
 20
1817.215866
 30
0.0
  0
VERTEX
  5
6A6
  8
LAYER01
  6
CONTINUOUS
 62
     1
 10
2630.9991519999999
 20
2152.215866
 30
0.0
  0
VERTEX
  5
6A7
  8
LAYER01
  6
CONTINUOUS
 62
     1
 10
3760.9991519999999
 20
2152.215866
 30
0.0
  0
VERTEX
  5
6A8
  8
LAYER01
  6
CONTINUOUS
 62
     1
 10
3760.9991519999999
 20
1817.215866
 30
0.0
  0
SEQEND
  5
6A9
  8
LAYER01
  6
CONTINUOUS
 62
     1
  0
LINE
  5
22D
  8
LAYER01
  6
CONTINUOUS
 62
     1
 10
2630.9991519999999
 20
2022.215866
 30
0.0
 11
3230.9991519999999
 21
2022.215866
 31
0.0
  0
LINE
  5
22E
  8
LAYER01
  6
CONTINUOUS
 62
     1
 10
2630.9991519999999
 20
1997.215866
 30
0.0
 11
3230.9991519999999
 21
1997.215866
 31
0.0
  0
LINE
  5
22F
  8
LAYER01
  6
CONTINUOUS
 62
     1
 10
2955.9991519999999
 20
2152.215866
 30
0.0
 11
2955.9991519999999
 21
1817.215866
 31
0.0
  0
INSERT
  5
230
  8
LAYER01
  2
ABS5-G10
 10
0.0
 20
0.0
 30
0.0
  0
LINE
  5
231
  8
LAYER01
  6
CONTINUOUS
 62
     1
 10
2630.9991519999999
 20
1872.215866
 30
0.0
 11
2955.9991519999999
 21
1872.215866
 31
0.0
  0
LINE
  5
232
  8
LAYER01
  6
CONTINUOUS
 62
     1
 10
2630.9991519999999
 20
1897.215866
 30
0.0
 11
2955.9991519999999
 21
1897.215866
 31
0.0
  0
LINE
  5
233
  8
LAYER01
  6
CONTINUOUS
 62
     1
 10
2675.9991519999999
 20
2047.215866
 30
0.0
 11
2675.9991519999999
 21
1817.215866
 31
0.0
  0
TEXT
  5
234
  8
LAYER01
  6
CONTINUOUS
 62
     1
 10
2639.3984170000008
 20
1827.215866
 30
0.0
 40
9.5
  1
Zust
  7
SIMPLEX
  0
LINE
  5
235
  8
LAYER01
  6
CONTINUOUS
 62
     1
 10
2833.7837669999999
 20
1817.215866
 30
0.0
 11
2833.7837669999999
 21
2047.215866
 31
0.0
  0
LINE
  5
236
  8
LAYER01
  6
CONTINUOUS
 62
     1
 10
2910.9991519999999
 20
2047.215866
 30
0.0
 11
2910.9991519999999
 21
1817.215866
 31
0.0
  0
TEXT
  5
237
  8
LAYER01
  6
CONTINUOUS
 62
     1
 10
2720.1276939999998
 20
1827.215866
 30
0.0
 40
9.5
  1
Änderung
  7
SIMPLEX
  0
TEXT
  5
238
  8
LAYER01
  6
CONTINUOUS
 62
     1
 10
2847.8532959999998
 20
1827.215866
 30
0.0
 40
9.5
  1
Datum
  7
SIMPLEX
  0
TEXT
  5
239
  8
LAYER01
  6
CONTINUOUS
 62
     1
 10
2914.7630549999999
 20
1827.215866
 30
0.0
 40
9.5
  1
Name
  7
SIMPLEX
  0
LINE
  5
23A
  8
LAYER01
  6
CONTINUOUS
 62
     1
 10
3760.9991519999999
 20
2112.215866
 30
0.0
 11
3230.9991519999999
 21
2112.215866
 31
0.0
  0
LINE
  5
23B
  8
LAYER01
  6
CONTINUOUS
 62
     1
 10
3020.9991519999999
 20
1947.215866
 30
0.0
 11
3020.9991519999999
 21
2047.215866
 31
0.0
  0
TEXT
  5
23C
  8
LAYER01
  6
CONTINUOUS
 62
     1
 10
2965.9991519999999
 20
2002.215866
 30
0.0
 40
10.0
  1
Bearb.
  7
SIMPLEX
  0
TEXT
  5
23D
  8
LAYER01
  6
CONTINUOUS
 62
     1
 10
2965.9991519999999
 20
1952.215866
 30
0.0
 40
10.0
  1
Norm
  7
SIMPLEX
  0
TEXT
  5
23E
  8
LAYER01
  6
CONTINUOUS
 62
     1
 10
2965.9991519999999
 20
1977.215866
 30
0.0
 40
10.0
  1
Gepr.
  7
SIMPLEX
  0
TEXT
  5
23F
  8
LAYER01
  6
CONTINUOUS
 62
     1
 10
3045.9991519999999
 20
2027.215866
 30
0.0
 40
10.0
  1
Datum
  7
SIMPLEX
  0
TEXT
  5
240
  8
LAYER01
  6
CONTINUOUS
 62
     1
 10
3145.9991519999999
 20
2027.215866
 30
0.0
 40
10.0
  1
Name
  7
SIMPLEX
  0
TEXT
  5
241
  8
LAYER01
  6
CONTINUOUS
 62
     1
 10
3735.9991519999999
 20
1852.215866
 30
0.0
 40
10.0
  1
Bl.
  7
SIMPLEX
  0
LINE
  5
242
  8
LAYER01
  6
CONTINUOUS
 62
     1
 10
3230.9991519999999
 20
1817.215866
 30
0.0
 11
3230.9991519999999
 21
2152.215866
 31
0.0
  0
LINE
  5
243
  8
LAYER01
  6
CONTINUOUS
 62
     1
 10
3115.9991519999999
 20
1922.215866
 30
0.0
 11
3115.9991519999999
 21
2152.215866
 31
0.0
  0
LINE
  5
244
  8
LAYER01
  6
CONTINUOUS
 62
     1
 10
3545.9991519999999
 20
2152.215866
 30
0.0
 11
3545.9991519999999
 21
2112.215866
 31
0.0
  0
TEXT
  5
245
  8
LAYER01
  6
CONTINUOUS
 62
     1
 10
3241.8931510000002
 20
2126.685864
 30
0.0
 40
10.0
  1
Maßstab
  7
SIMPLEX
  0
LINE
  5
246
  8
LAYER01
  6
CONTINUOUS
 62
     1
 10
3685.9991519999999
 20
1922.215866
 30
0.0
 11
3685.9991519999999
 21
1847.215866
 31
0.0
  0
LINE
  5
247
  8
LAYER01
  6
CONTINUOUS
 62
     1
 10
3685.9991519999999
 20
1872.215866
 30
0.0
 11
3760.9991519999999
 21
1872.215866
 31
0.0
  0
ENDBLK
  5
248
  8
0
  0
BLOCK
  8
0
  2
ABS5-G11
 70
     0
 10
0.0
 20
0.0
 30
0.0
  3
ABS5-G11
  1

  0
POLYLINE
  5
24B
  8
LAYER01
  6
CONTINUOUS
 62
     7
 66
     1
 10
0.0
 20
0.0
 30
0.0
 70
     1
  0
VERTEX
  5
6AA
  8
LAYER01
  6
CONTINUOUS
 62
     7
 10
2564.1935899999999
 20
2643.4954050000001
 30
0.0
  0
VERTEX
  5
6AB
  8
LAYER01
  6
CONTINUOUS
 62
     7
 10
2605.6232770000001
 20
2643.4954050000001
 30
0.0
  0
VERTEX
  5
6AC
  8
LAYER01
  6
CONTINUOUS
 62
     7
 10
2657.6512560000001
 20
2524.9872310000001
 30
0.0
  0
VERTEX
  5
6AD
  8
LAYER01
  6
CONTINUOUS
 62
     7
 10
2709.6792340000011
 20
2643.4954050000001
 30
0.0
  0
VERTEX
  5
6AE
  8
LAYER01
  6
CONTINUOUS
 62
     7
 10
2753.035883
 20
2643.4954050000001
 30
0.0
  0
VERTEX
  5
6AF
  8
LAYER01
  6
CONTINUOUS
 62
     7
 10
2657.6512560000001
 20
2431.5295649999998
 30
0.0
  0
VERTEX
  5
6B0
  8
LAYER01
  6
CONTINUOUS
 62
     7
 10
2564.1935899999999
 20
2643.4954050000001
 30
0.0
  0
VERTEX
  5
6B1
  8
LAYER01
  6
CONTINUOUS
 62
     7
 10
2564.1935899999999
 20
2643.4954050000001
 30
0.0
  0
SEQEND
  5
6B2
  8
LAYER01
  6
CONTINUOUS
 62
     7
  0
POLYLINE
  5
255
  8
LAYER01
  6
CONTINUOUS
 62
     7
 66
     1
 10
0.0
 20
0.0
 30
0.0
 70
     1
  0
VERTEX
  5
6B3
  8
LAYER01
  6
CONTINUOUS
 62
     7
 10
2705.8253100000002
 20
2498.973242
 30
0.0
  0
VERTEX
  5
6B4
  8
LAYER01
  6
CONTINUOUS
 62
     7
 10
2720.2775259999999
 20
2532.69508
 30
0.0
  0
VERTEX
  5
6B5
  8
LAYER01
  6
CONTINUOUS
 62
     7
 10
2782.9037969999999
 20
2532.69508
 30
0.0
  0
VERTEX
  5
6B6
  8
LAYER01
  6
CONTINUOUS
 62
     7
 10
2751.108921
 20
2602.0657179999998
 30
0.0
  0
VERTEX
  5
6B7
  8
LAYER01
  6
CONTINUOUS
 62
     7
 10
2769.415062
 20
2646.3858479999999
 30
0.0
  0
VERTEX
  5
6B8
  8
LAYER01
  6
CONTINUOUS
 62
     7
 10
2855.1648789999999
 20
2465.2514030000002
 30
0.0
  0
VERTEX
  5
6B9
  8
LAYER01
  6
CONTINUOUS
 62
     7
 10
2855.1648789999999
 20
2643.4954050000001
 30
0.0
  0
VERTEX
  5
6BA
  8
LAYER01
  6
CONTINUOUS
 62
     7
 10
2969.819128000001
 20
2643.4954050000001
 30
0.0
  0
VERTEX
  5
6BB
  8
LAYER01
  6
CONTINUOUS
 62
     7
 10
2969.819128000001
 20
2643.4954050000001
 30
0.0
  0
VERTEX
  5
6BC
  8
LAYER01
  6
CONTINUOUS
 62
     7
 10
2980.4174200000002
 20
2641.568443000001
 30
0.0
  0
VERTEX
  5
6BD
  8
LAYER01
  6
CONTINUOUS
 62
     7
 10
2990.0522310000001
 20
2637.7145180000002
 30
0.0
  0
VERTEX
  5
6BE
  8
LAYER01
  6
CONTINUOUS
 62
     7
 10
2998.7235609999998
 20
2630.970151
 30
0.0
  0
VERTEX
  5
6BF
  8
LAYER01
  6
CONTINUOUS
 62
     7
 10
3006.4314089999998
 20
2624.2257829999999
 30
0.0
  0
VERTEX
  5
6C0
  8
LAYER01
  6
CONTINUOUS
 62
     7
 10
3013.1757769999999
 20
2615.5544530000011
 30
0.0
  0
VERTEX
  5
6C1
  8
LAYER01
  6
CONTINUOUS
 62
     7
 10
3017.9931820000002
 20
2605.9196419999998
 30
0.0
  0
VERTEX
  5
6C2
  8
LAYER01
  6
CONTINUOUS
 62
     7
 10
3021.8471070000001
 20
2594.3578689999999
 30
0.0
  0
VERTEX
  5
6C3
  8
LAYER01
  6
CONTINUOUS
 62
     7
 10
3022.8105879999998
 20
2583.7595769999998
 30
0.0
  0
VERTEX
  5
6C4
  8
LAYER01
  6
CONTINUOUS
 62
     7
 10
3022.8105879999998
 20
2583.7595769999998
 30
0.0
  0
VERTEX
  5
6C5
  8
LAYER01
  6
CONTINUOUS
 62
     7
 10
3022.8105879999998
 20
2572.1978039999999
 30
0.0
  0
VERTEX
  5
6C6
  8
LAYER01
  6
CONTINUOUS
 62
     7
 10
3020.8836259999998
 20
2562.562993
 30
0.0
  0
VERTEX
  5
6C7
  8
LAYER01
  6
CONTINUOUS
 62
     7
 10
3017.0297010000008
 20
2552.9281820000001
 30
0.0
  0
VERTEX
  5
6C8
  8
LAYER01
  6
CONTINUOUS
 62
     7
 10
3012.2122960000002
 20
2544.2568529999999
 30
0.0
  0
VERTEX
  5
6C9
  8
LAYER01
  6
CONTINUOUS
 62
     7
 10
3005.467928
 20
2536.549004
 30
0.0
  0
VERTEX
  5
6CA
  8
LAYER01
  6
CONTINUOUS
 62
     7
 10
2997.76008
 20
2529.8046359999998
 30
0.0
  0
VERTEX
  5
6CB
  8
LAYER01
  6
CONTINUOUS
 62
     7
 10
2989.0887499999999
 20
2524.9872310000001
 30
0.0
  0
VERTEX
  5
6CC
  8
LAYER01
  6
CONTINUOUS
 62
     7
 10
2978.4904580000002
 20
2521.1333070000001
 30
0.0
  0
VERTEX
  5
6CD
  8
LAYER01
  6
CONTINUOUS
 62
     7
 10
3040.1532480000001
 20
2439.2374140000002
 30
0.0
  0
VERTEX
  5
6CE
  8
LAYER01
  6
CONTINUOUS
 62
     7
 10
3040.1532480000001
 20
2643.4954050000001
 30
0.0
  0
VERTEX
  5
6CF
  8
LAYER01
  6
CONTINUOUS
 62
     7
 10
3080.6194530000012
 20
2643.4954050000001
 30
0.0
  0
VERTEX
  5
6D0
  8
LAYER01
  6
CONTINUOUS
 62
     7
 10
3080.6194530000012
 20
2437.3104520000002
 30
0.0
  0
VERTEX
  5
6D1
  8
LAYER01
  6
CONTINUOUS
 62
     7
 10
2993.9061550000001
 20
2437.3104520000002
 30
0.0
  0
VERTEX
  5
6D2
  8
LAYER01
  6
CONTINUOUS
 62
     7
 10
2910.0833010000001
 20
2544.2568529999999
 30
0.0
  0
VERTEX
  5
6D3
  8
LAYER01
  6
CONTINUOUS
 62
     7
 10
2952.4764679999998
 20
2544.2568529999999
 30
0.0
  0
VERTEX
  5
6D4
  8
LAYER01
  6
CONTINUOUS
 62
     7
 10
2952.4764679999998
 20
2544.2568529999999
 30
0.0
  0
VERTEX
  5
6D5
  8
LAYER01
  6
CONTINUOUS
 62
     7
 10
2958.2573550000002
 20
2545.2203340000001
 30
0.0
  0
VERTEX
  5
6D6
  8
LAYER01
  6
CONTINUOUS
 62
     7
 10
2964.0382420000001
 20
2547.1472960000001
 30
0.0
  0
VERTEX
  5
6D7
  8
LAYER01
  6
CONTINUOUS
 62
     7
 10
2968.8556469999999
 20
2550.0377389999999
 30
0.0
  0
VERTEX
  5
6D8
  8
LAYER01
  6
CONTINUOUS
 62
     7
 10
2973.6730520000001
 20
2553.8916640000002
 30
0.0
  0
VERTEX
  5
6D9
  8
LAYER01
  6
CONTINUOUS
 62
     7
 10
2976.5634960000011
 20
2558.709069
 30
0.0
  0
VERTEX
  5
6DA
  8
LAYER01
  6
CONTINUOUS
 62
     7
 10
2979.453939
 20
2564.4899559999999
 30
0.0
  0
VERTEX
  5
6DB
  8
LAYER01
  6
CONTINUOUS
 62
     7
 10
2981.380901
 20
2570.2708420000008
 30
0.0
  0
VERTEX
  5
6DC
  8
LAYER01
  6
CONTINUOUS
 62
     7
 10
2981.380901
 20
2577.01521
 30
0.0
  0
VERTEX
  5
6DD
  8
LAYER01
  6
CONTINUOUS
 62
     7
 10
2981.380901
 20
2577.01521
 30
0.0
  0
VERTEX
  5
6DE
  8
LAYER01
  6
CONTINUOUS
 62
     7
 10
2981.380901
 20
2582.796096
 30
0.0
  0
VERTEX
  5
6DF
  8
LAYER01
  6
CONTINUOUS
 62
     7
 10
2979.453939
 20
2588.5769829999999
 30
0.0
  0
VERTEX
  5
6E0
  8
LAYER01
  6
CONTINUOUS
 62
     7
 10
2977.526977
 20
2594.3578689999999
 30
0.0
  0
VERTEX
  5
6E1
  8
LAYER01
  6
CONTINUOUS
 62
     7
 10
2973.6730520000001
 20
2599.1752750000001
 30
0.0
  0
VERTEX
  5
6E2
  8
LAYER01
  6
CONTINUOUS
 62
     7
 10
2969.819128000001
 20
2603.0291990000001
 30
0.0
  0
VERTEX
  5
6E3
  8
LAYER01
  6
CONTINUOUS
 62
     7
 10
2964.0382420000001
 20
2605.9196419999998
 30
0.0
  0
VERTEX
  5
6E4
  8
LAYER01
  6
CONTINUOUS
 62
     7
 10
2958.2573550000002
 20
2607.8466050000011
 30
0.0
  0
VERTEX
  5
6E5
  8
LAYER01
  6
CONTINUOUS
 62
     7
 10
2952.4764679999998
 20
2608.810086
 30
0.0
  0
VERTEX
  5
6E6
  8
LAYER01
  6
CONTINUOUS
 62
     7
 10
2898.5215280000002
 20
2608.810086
 30
0.0
  0
VERTEX
  5
6E7
  8
LAYER01
  6
CONTINUOUS
 62
     7
 10
2898.5215280000002
 20
2437.3104520000002
 30
0.0
  0
VERTEX
  5
6E8
  8
LAYER01
  6
CONTINUOUS
 62
     7
 10
2829.150889
 20
2437.3104520000002
 30
0.0
  0
VERTEX
  5
6E9
  8
LAYER01
  6
CONTINUOUS
 62
     7
 10
2800.2464570000002
 20
2498.973242
 30
0.0
  0
VERTEX
  5
6EA
  8
LAYER01
  6
CONTINUOUS
 62
     7
 10
2705.8253100000002
 20
2498.973242
 30
0.0
  0
VERTEX
  5
6EB
  8
LAYER01
  6
CONTINUOUS
 62
     7
 10
2705.8253100000002
 20
2498.973242
 30
0.0
  0
SEQEND
  5
6EC
  8
LAYER01
  6
CONTINUOUS
 62
     7
  0
POLYLINE
  5
290
  8
LAYER01
  6
CONTINUOUS
 62
     7
 66
     1
 10
0.0
 20
0.0
 30
0.0
 70
     1
  0
VERTEX
  5
6ED
  8
LAYER01
  6
CONTINUOUS
 62
     7
 10
3267.5347839999999
 20
2630.0066700000002
 30
0.0
  0
VERTEX
  5
6EE
  8
LAYER01
  6
CONTINUOUS
 62
     7
 10
3241.5207949999999
 20
2597.2483130000001
 30
0.0
  0
VERTEX
  5
6EF
  8
LAYER01
  6
CONTINUOUS
 62
     7
 10
3241.5207949999999
 20
2597.2483130000001
 30
0.0
  0
VERTEX
  5
6F0
  8
LAYER01
  6
CONTINUOUS
 62
     7
 10
3232.8494649999998
 20
2603.0291990000001
 30
0.0
  0
VERTEX
  5
6F1
  8
LAYER01
  6
CONTINUOUS
 62
     7
 10
3224.178135000001
 20
2607.8466050000011
 30
0.0
  0
VERTEX
  5
6F2
  8
LAYER01
  6
CONTINUOUS
 62
     7
 10
3214.5433240000002
 20
2610.737048
 30
0.0
  0
VERTEX
  5
6F3
  8
LAYER01
  6
CONTINUOUS
 62
     7
 10
3203.9450320000001
 20
2610.737048
 30
0.0
  0
VERTEX
  5
6F4
  8
LAYER01
  6
CONTINUOUS
 62
     7
 10
3203.9450320000001
 20
2610.737048
 30
0.0
  0
VERTEX
  5
6F5
  8
LAYER01
  6
CONTINUOUS
 62
     7
 10
3197.2006649999998
 20
2610.737048
 30
0.0
  0
VERTEX
  5
6F6
  8
LAYER01
  6
CONTINUOUS
 62
     7
 10
3190.4562970000002
 20
2609.7735670000002
 30
0.0
  0
VERTEX
  5
6F7
  8
LAYER01
  6
CONTINUOUS
 62
     7
 10
3183.7119299999999
 20
2607.8466050000011
 30
0.0
  0
VERTEX
  5
6F8
  8
LAYER01
  6
CONTINUOUS
 62
     7
 10
3176.9675620000012
 20
2604.9561610000001
 30
0.0
  0
VERTEX
  5
6F9
  8
LAYER01
  6
CONTINUOUS
 62
     7
 10
3171.1866759999998
 20
2602.0657179999998
 30
0.0
  0
VERTEX
  5
6FA
  8
LAYER01
  6
CONTINUOUS
 62
     7
 10
3166.3692700000011
 20
2598.2117939999998
 30
0.0
  0
VERTEX
  5
6FB
  8
LAYER01
  6
CONTINUOUS
 62
     7
 10
3160.5883840000001
 20
2594.3578689999999
 30
0.0
  0
VERTEX
  5
6FC
  8
LAYER01
  6
CONTINUOUS
 62
     7
 10
3156.7344589999998
 20
2589.5404640000011
 30
0.0
  0
VERTEX
  5
6FD
  8
LAYER01
  6
CONTINUOUS
 62
     7
 10
3151.917054
 20
2583.7595769999998
 30
0.0
  0
VERTEX
  5
6FE
  8
LAYER01
  6
CONTINUOUS
 62
     7
 10
3149.0266099999999
 20
2577.9786909999998
 30
0.0
  0
VERTEX
  5
6FF
  8
LAYER01
  6
CONTINUOUS
 62
     7
 10
3145.1726859999999
 20
2572.1978039999999
 30
0.0
  0
VERTEX
  5
700
  8
LAYER01
  6
CONTINUOUS
 62
     7
 10
3142.2822430000001
 20
2566.4169179999999
 30
0.0
  0
VERTEX
  5
701
  8
LAYER01
  6
CONTINUOUS
 62
     7
 10
3140.3552810000001
 20
2559.6725499999998
 30
0.0
  0
VERTEX
  5
702
  8
LAYER01
  6
CONTINUOUS
 62
     7
 10
3139.3917999999999
 20
2552.9281820000001
 30
0.0
  0
VERTEX
  5
703
  8
LAYER01
  6
CONTINUOUS
 62
     7
 10
3138.4283190000001
 20
2546.1838149999999
 30
0.0
  0
VERTEX
  5
704
  8
LAYER01
  6
CONTINUOUS
 62
     7
 10
3137.464837
 20
2538.475966
 30
0.0
  0
VERTEX
  5
705
  8
LAYER01
  6
CONTINUOUS
 62
     7
 10
3137.464837
 20
2538.475966
 30
0.0
  0
VERTEX
  5
706
  8
LAYER01
  6
CONTINUOUS
 62
     7
 10
3138.4283190000001
 20
2531.7315990000002
 30
0.0
  0
VERTEX
  5
707
  8
LAYER01
  6
CONTINUOUS
 62
     7
 10
3139.3917999999999
 20
2524.9872310000001
 30
0.0
  0
VERTEX
  5
708
  8
LAYER01
  6
CONTINUOUS
 62
     7
 10
3140.3552810000001
 20
2518.2428629999999
 30
0.0
  0
VERTEX
  5
709
  8
LAYER01
  6
CONTINUOUS
 62
     7
 10
3143.2457239999999
 20
2512.4619769999999
 30
0.0
  0
VERTEX
  5
70A
  8
LAYER01
  6
CONTINUOUS
 62
     7
 10
3145.1726859999999
 20
2506.68109
 30
0.0
  0
VERTEX
  5
70B
  8
LAYER01
  6
CONTINUOUS
 62
     7
 10
3149.0266099999999
 20
2500.9002040000009
 30
0.0
  0
VERTEX
  5
70C
  8
LAYER01
  6
CONTINUOUS
 62
     7
 10
3152.8805349999998
 20
2495.1193170000001
 30
0.0
  0
VERTEX
  5
70D
  8
LAYER01
  6
CONTINUOUS
 62
     7
 10
3156.7344589999998
 20
2490.3019119999999
 30
0.0
  0
VERTEX
  5
70E
  8
LAYER01
  6
CONTINUOUS
 62
     7
 10
3161.5518649999999
 20
2485.4845059999998
 30
0.0
  0
VERTEX
  5
70F
  8
LAYER01
  6
CONTINUOUS
 62
     7
 10
3166.3692700000011
 20
2481.6305820000011
 30
0.0
  0
VERTEX
  5
710
  8
LAYER01
  6
CONTINUOUS
 62
     7
 10
3172.150157
 20
2478.740139
 30
0.0
  0
VERTEX
  5
711
  8
LAYER01
  6
CONTINUOUS
 62
     7
 10
3177.931043
 20
2475.8496949999999
 30
0.0
  0
VERTEX
  5
712
  8
LAYER01
  6
CONTINUOUS
 62
     7
 10
3184.6754110000011
 20
2472.9592520000001
 30
0.0
  0
VERTEX
  5
713
  8
LAYER01
  6
CONTINUOUS
 62
     7
 10
3190.4562970000002
 20
2471.0322900000001
 30
0.0
  0
VERTEX
  5
714
  8
LAYER01
  6
CONTINUOUS
 62
     7
 10
3197.2006649999998
 20
2470.0688089999999
 30
0.0
  0
VERTEX
  5
715
  8
LAYER01
  6
CONTINUOUS
 62
     7
 10
3204.9085140000002
 20
2470.0688089999999
 30
0.0
  0
VERTEX
  5
716
  8
LAYER01
  6
CONTINUOUS
 62
     7
 10
3204.9085140000002
 20
2470.0688089999999
 30
0.0
  0
VERTEX
  5
717
  8
LAYER01
  6
CONTINUOUS
 62
     7
 10
3215.5068059999999
 20
2471.0322900000001
 30
0.0
  0
VERTEX
  5
718
  8
LAYER01
  6
CONTINUOUS
 62
     7
 10
3224.178135000001
 20
2472.9592520000001
 30
0.0
  0
VERTEX
  5
719
  8
LAYER01
  6
CONTINUOUS
 62
     7
 10
3232.8494649999998
 20
2477.7766580000002
 30
0.0
  0
VERTEX
  5
71A
  8
LAYER01
  6
CONTINUOUS
 62
     7
 10
3241.5207949999999
 20
2483.5575439999998
 30
0.0
  0
VERTEX
  5
71B
  8
LAYER01
  6
CONTINUOUS
 62
     7
 10
3266.5713030000002
 20
2449.8357059999998
 30
0.0
  0
VERTEX
  5
71C
  8
LAYER01
  6
CONTINUOUS
 62
     7
 10
3266.5713030000002
 20
2449.8357059999998
 30
0.0
  0
VERTEX
  5
71D
  8
LAYER01
  6
CONTINUOUS
 62
     7
 10
3252.119087
 20
2441.1643760000011
 30
0.0
  0
VERTEX
  5
71E
  8
LAYER01
  6
CONTINUOUS
 62
     7
 10
3244.4112380000001
 20
2438.2739329999999
 30
0.0
  0
VERTEX
  5
71F
  8
LAYER01
  6
CONTINUOUS
 62
     7
 10
3237.6668709999999
 20
2435.3834900000002
 30
0.0
  0
VERTEX
  5
720
  8
LAYER01
  6
CONTINUOUS
 62
     7
 10
3229.959022
 20
2433.4565280000011
 30
0.0
  0
VERTEX
  5
721
  8
LAYER01
  6
CONTINUOUS
 62
     7
 10
3222.2511730000001
 20
2432.493046
 30
0.0
  0
VERTEX
  5
722
  8
LAYER01
  6
CONTINUOUS
 62
     7
 10
3204.9085140000002
 20
2431.5295649999998
 30
0.0
  0
VERTEX
  5
723
  8
LAYER01
  6
CONTINUOUS
 62
     7
 10
3204.9085140000002
 20
2431.5295649999998
 30
0.0
  0
VERTEX
  5
724
  8
LAYER01
  6
CONTINUOUS
 62
     7
 10
3193.3467409999998
 20
2432.493046
 30
0.0
  0
VERTEX
  5
725
  8
LAYER01
  6
CONTINUOUS
 62
     7
 10
3182.7484490000002
 20
2434.4200089999999
 30
0.0
  0
VERTEX
  5
726
  8
LAYER01
  6
CONTINUOUS
 62
     7
 10
3172.150157
 20
2436.3469709999999
 30
0.0
  0
VERTEX
  5
727
  8
LAYER01
  6
CONTINUOUS
 62
     7
 10
3162.515346000001
 20
2440.2008949999999
 30
0.0
  0
VERTEX
  5
728
  8
LAYER01
  6
CONTINUOUS
 62
     7
 10
3152.8805349999998
 20
2445.0183010000001
 30
0.0
  0
VERTEX
  5
729
  8
LAYER01
  6
CONTINUOUS
 62
     7
 10
3144.209205000001
 20
2449.8357059999998
 30
0.0
  0
VERTEX
  5
72A
  8
LAYER01
  6
CONTINUOUS
 62
     7
 10
3135.537875
 20
2456.580074
 30
0.0
  0
VERTEX
  5
72B
  8
LAYER01
  6
CONTINUOUS
 62
     7
 10
3127.830027
 20
2463.3244410000011
 30
0.0
  0
VERTEX
  5
72C
  8
LAYER01
  6
CONTINUOUS
 62
     7
 10
3120.1221780000001
 20
2471.0322900000001
 30
0.0
  0
VERTEX
  5
72D
  8
LAYER01
  6
CONTINUOUS
 62
     7
 10
3114.3412910000011
 20
2479.7036199999998
 30
0.0
  0
VERTEX
  5
72E
  8
LAYER01
  6
CONTINUOUS
 62
     7
 10
3108.5604050000002
 20
2488.3749499999999
 30
0.0
  0
VERTEX
  5
72F
  8
LAYER01
  6
CONTINUOUS
 62
     7
 10
3103.7429990000001
 20
2498.0097599999999
 30
0.0
  0
VERTEX
  5
730
  8
LAYER01
  6
CONTINUOUS
 62
     7
 10
3100.8525559999998
 20
2507.6445709999998
 30
0.0
  0
VERTEX
  5
731
  8
LAYER01
  6
CONTINUOUS
 62
     7
 10
3097.962113
 20
2518.2428629999999
 30
0.0
  0
VERTEX
  5
732
  8
LAYER01
  6
CONTINUOUS
 62
     7
 10
3096.035151000001
 20
2528.8411550000001
 30
0.0
  0
VERTEX
  5
733
  8
LAYER01
  6
CONTINUOUS
 62
     7
 10
3095.0716699999998
 20
2540.402928
 30
0.0
  0
VERTEX
  5
734
  8
LAYER01
  6
CONTINUOUS
 62
     7
 10
3095.0716699999998
 20
2540.402928
 30
0.0
  0
VERTEX
  5
735
  8
LAYER01
  6
CONTINUOUS
 62
     7
 10
3096.035151000001
 20
2551.0012200000001
 30
0.0
  0
VERTEX
  5
736
  8
LAYER01
  6
CONTINUOUS
 62
     7
 10
3097.962113
 20
2562.562993
 30
0.0
  0
VERTEX
  5
737
  8
LAYER01
  6
CONTINUOUS
 62
     7
 10
3099.889075
 20
2572.1978039999999
 30
0.0
  0
VERTEX
  5
738
  8
LAYER01
  6
CONTINUOUS
 62
     7
 10
3103.7429990000001
 20
2582.796096
 30
0.0
  0
VERTEX
  5
739
  8
LAYER01
  6
CONTINUOUS
 62
     7
 10
3108.5604050000002
 20
2592.4309069999999
 30
0.0
  0
VERTEX
  5
73A
  8
LAYER01
  6
CONTINUOUS
 62
     7
 10
3113.37781
 20
2601.1022370000001
 30
0.0
  0
VERTEX
  5
73B
  8
LAYER01
  6
CONTINUOUS
 62
     7
 10
3120.1221780000001
 20
2609.7735670000002
 30
0.0
  0
VERTEX
  5
73C
  8
LAYER01
  6
CONTINUOUS
 62
     7
 10
3126.8665449999999
 20
2617.4814150000002
 30
0.0
  0
VERTEX
  5
73D
  8
LAYER01
  6
CONTINUOUS
 62
     7
 10
3134.5743940000002
 20
2624.2257829999999
 30
0.0
  0
VERTEX
  5
73E
  8
LAYER01
  6
CONTINUOUS
 62
     7
 10
3143.2457239999999
 20
2630.970151
 30
0.0
  0
VERTEX
  5
73F
  8
LAYER01
  6
CONTINUOUS
 62
     7
 10
3151.917054
 20
2635.7875560000002
 30
0.0
  0
VERTEX
  5
740
  8
LAYER01
  6
CONTINUOUS
 62
     7
 10
3161.5518649999999
 20
2640.6049619999999
 30
0.0
  0
VERTEX
  5
741
  8
LAYER01
  6
CONTINUOUS
 62
     7
 10
3171.1866759999998
 20
2644.4588859999999
 30
0.0
  0
VERTEX
  5
742
  8
LAYER01
  6
CONTINUOUS
 62
     7
 10
3181.7849670000001
 20
2647.3493290000001
 30
0.0
  0
VERTEX
  5
743
  8
LAYER01
  6
CONTINUOUS
 62
     7
 10
3193.3467409999998
 20
2648.3128100000008
 30
0.0
  0
VERTEX
  5
744
  8
LAYER01
  6
CONTINUOUS
 62
     7
 10
3203.9450320000001
 20
2649.2762910000001
 30
0.0
  0
VERTEX
  5
745
  8
LAYER01
  6
CONTINUOUS
 62
     7
 10
3203.9450320000001
 20
2649.2762910000001
 30
0.0
  0
VERTEX
  5
746
  8
LAYER01
  6
CONTINUOUS
 62
     7
 10
3221.2876920000008
 20
2648.3128100000008
 30
0.0
  0
VERTEX
  5
747
  8
LAYER01
  6
CONTINUOUS
 62
     7
 10
3229.959022
 20
2647.3493290000001
 30
0.0
  0
VERTEX
  5
748
  8
LAYER01
  6
CONTINUOUS
 62
     7
 10
3237.6668709999999
 20
2645.4223670000001
 30
0.0
  0
VERTEX
  5
749
  8
LAYER01
  6
CONTINUOUS
 62
     7
 10
3244.4112380000001
 20
2642.5319239999999
 30
0.0
  0
VERTEX
  5
74A
  8
LAYER01
  6
CONTINUOUS
 62
     7
 10
3252.119087
 20
2639.6414799999998
 30
0.0
  0
VERTEX
  5
74B
  8
LAYER01
  6
CONTINUOUS
 62
     7
 10
3259.8269359999999
 20
2634.824075
 30
0.0
  0
VERTEX
  5
74C
  8
LAYER01
  6
CONTINUOUS
 62
     7
 10
3267.5347839999999
 20
2630.0066700000002
 30
0.0
  0
VERTEX
  5
74D
  8
LAYER01
  6
CONTINUOUS
 62
     7
 10
3267.5347839999999
 20
2630.0066700000002
 30
0.0
  0
SEQEND
  5
74E
  8
LAYER01
  6
CONTINUOUS
 62
     7
  0
POLYLINE
  5
2F3
  8
LAYER01
  6
CONTINUOUS
 62
     7
 66
     1
 10
0.0
 20
0.0
 30
0.0
 70
     1
  0
VERTEX
  5
74F
  8
LAYER01
  6
CONTINUOUS
 62
     7
 10
3360.9924500000011
 20
2648.3128100000008
 30
0.0
  0
VERTEX
  5
750
  8
LAYER01
  6
CONTINUOUS
 62
     7
 10
3360.9924500000011
 20
2648.3128100000008
 30
0.0
  0
VERTEX
  5
751
  8
LAYER01
  6
CONTINUOUS
 62
     7
 10
3350.3941580000001
 20
2647.3493290000001
 30
0.0
  0
VERTEX
  5
752
  8
LAYER01
  6
CONTINUOUS
 62
     7
 10
3338.8323850000002
 20
2646.3858479999999
 30
0.0
  0
VERTEX
  5
753
  8
LAYER01
  6
CONTINUOUS
 62
     7
 10
3329.1975739999998
 20
2643.4954050000001
 30
0.0
  0
VERTEX
  5
754
  8
LAYER01
  6
CONTINUOUS
 62
     7
 10
3318.5992820000001
 20
2639.6414799999998
 30
0.0
  0
VERTEX
  5
755
  8
LAYER01
  6
CONTINUOUS
 62
     7
 10
3308.9644709999998
 20
2635.7875560000002
 30
0.0
  0
VERTEX
  5
756
  8
LAYER01
  6
CONTINUOUS
 62
     7
 10
3300.2931410000001
 20
2630.0066700000002
 30
0.0
  0
VERTEX
  5
757
  8
LAYER01
  6
CONTINUOUS
 62
     7
 10
3291.6218120000008
 20
2624.2257829999999
 30
0.0
  0
VERTEX
  5
758
  8
LAYER01
  6
CONTINUOUS
 62
     7
 10
3283.913963
 20
2616.517934
 30
0.0
  0
VERTEX
  5
759
  8
LAYER01
  6
CONTINUOUS
 62
     7
 10
3277.1695949999998
 20
2608.810086
 30
0.0
  0
VERTEX
  5
75A
  8
LAYER01
  6
CONTINUOUS
 62
     7
 10
3270.4252280000001
 20
2601.1022370000001
 30
0.0
  0
VERTEX
  5
75B
  8
LAYER01
  6
CONTINUOUS
 62
     7
 10
3264.6443410000002
 20
2592.4309069999999
 30
0.0
  0
VERTEX
  5
75C
  8
LAYER01
  6
CONTINUOUS
 62
     7
 10
3259.8269359999999
 20
2582.796096
 30
0.0
  0
VERTEX
  5
75D
  8
LAYER01
  6
CONTINUOUS
 62
     7
 10
3256.9364920000012
 20
2572.1978039999999
 30
0.0
  0
VERTEX
  5
75E
  8
LAYER01
  6
CONTINUOUS
 62
     7
 10
3254.046049
 20
2562.562993
 30
0.0
  0
VERTEX
  5
75F
  8
LAYER01
  6
CONTINUOUS
 62
     7
 10
3252.119087
 20
2551.0012200000001
 30
0.0
  0
VERTEX
  5
760
  8
LAYER01
  6
CONTINUOUS
 62
     7
 10
3251.1556059999998
 20
2540.402928
 30
0.0
  0
VERTEX
  5
761
  8
LAYER01
  6
CONTINUOUS
 62
     7
 10
3251.1556059999998
 20
2540.402928
 30
0.0
  0
VERTEX
  5
762
  8
LAYER01
  6
CONTINUOUS
 62
     7
 10
3252.119087
 20
2528.8411550000001
 30
0.0
  0
VERTEX
  5
763
  8
LAYER01
  6
CONTINUOUS
 62
     7
 10
3253.0825679999998
 20
2518.2428629999999
 30
0.0
  0
VERTEX
  5
764
  8
LAYER01
  6
CONTINUOUS
 62
     7
 10
3255.973011
 20
2507.6445709999998
 30
0.0
  0
VERTEX
  5
765
  8
LAYER01
  6
CONTINUOUS
 62
     7
 10
3259.8269359999999
 20
2498.0097599999999
 30
0.0
  0
VERTEX
  5
766
  8
LAYER01
  6
CONTINUOUS
 62
     7
 10
3263.6808599999999
 20
2488.3749499999999
 30
0.0
  0
VERTEX
  5
767
  8
LAYER01
  6
CONTINUOUS
 62
     7
 10
3269.4617460000009
 20
2479.7036199999998
 30
0.0
  0
VERTEX
  5
768
  8
LAYER01
  6
CONTINUOUS
 62
     7
 10
3275.2426329999998
 20
2471.0322900000001
 30
0.0
  0
VERTEX
  5
769
  8
LAYER01
  6
CONTINUOUS
 62
     7
 10
3281.987001
 20
2463.3244410000011
 30
0.0
  0
VERTEX
  5
76A
  8
LAYER01
  6
CONTINUOUS
 62
     7
 10
3289.694849
 20
2455.6165930000002
 30
0.0
  0
VERTEX
  5
76B
  8
LAYER01
  6
CONTINUOUS
 62
     7
 10
3298.3661790000001
 20
2449.8357059999998
 30
0.0
  0
VERTEX
  5
76C
  8
LAYER01
  6
CONTINUOUS
 62
     7
 10
3307.0375089999998
 20
2444.0548199999998
 30
0.0
  0
VERTEX
  5
76D
  8
LAYER01
  6
CONTINUOUS
 62
     7
 10
3316.6723200000001
 20
2439.2374140000002
 30
0.0
  0
VERTEX
  5
76E
  8
LAYER01
  6
CONTINUOUS
 62
     7
 10
3326.307131
 20
2435.3834900000002
 30
0.0
  0
VERTEX
  5
76F
  8
LAYER01
  6
CONTINUOUS
 62
     7
 10
3336.9054230000011
 20
2433.4565280000011
 30
0.0
  0
VERTEX
  5
770
  8
LAYER01
  6
CONTINUOUS
 62
     7
 10
3347.5037149999998
 20
2431.5295649999998
 30
0.0
  0
VERTEX
  5
771
  8
LAYER01
  6
CONTINUOUS
 62
     7
 10
3358.102007
 20
2430.566084
 30
0.0
  0
VERTEX
  5
772
  8
LAYER01
  6
CONTINUOUS
 62
     7
 10
3358.102007
 20
2430.566084
 30
0.0
  0
VERTEX
  5
773
  8
LAYER01
  6
CONTINUOUS
 62
     7
 10
3369.6637799999999
 20
2431.5295649999998
 30
0.0
  0
VERTEX
  5
774
  8
LAYER01
  6
CONTINUOUS
 62
     7
 10
3380.262072
 20
2433.4565280000011
 30
0.0
  0
VERTEX
  5
775
  8
LAYER01
  6
CONTINUOUS
 62
     7
 10
3390.8603640000001
 20
2436.3469709999999
 30
0.0
  0
VERTEX
  5
776
  8
LAYER01
  6
CONTINUOUS
 62
     7
 10
3400.4951740000001
 20
2440.2008949999999
 30
0.0
  0
VERTEX
  5
777
  8
LAYER01
  6
CONTINUOUS
 62
     7
 10
3410.1299850000009
 20
2445.0183010000001
 30
0.0
  0
VERTEX
  5
778
  8
LAYER01
  6
CONTINUOUS
 62
     7
 10
3418.8013150000002
 20
2450.7991870000001
 30
0.0
  0
VERTEX
  5
779
  8
LAYER01
  6
CONTINUOUS
 62
     7
 10
3427.4726449999998
 20
2456.580074
 30
0.0
  0
VERTEX
  5
77A
  8
LAYER01
  6
CONTINUOUS
 62
     7
 10
3435.1804940000002
 20
2464.287922
 30
0.0
  0
VERTEX
  5
77B
  8
LAYER01
  6
CONTINUOUS
 62
     7
 10
3441.924861
 20
2471.9957709999999
 30
0.0
  0
VERTEX
  5
77C
  8
LAYER01
  6
CONTINUOUS
 62
     7
 10
3447.7057479999999
 20
2480.667101
 30
0.0
  0
VERTEX
  5
77D
  8
LAYER01
  6
CONTINUOUS
 62
     7
 10
3452.5231530000001
 20
2489.3384310000001
 30
0.0
  0
VERTEX
  5
77E
  8
LAYER01
  6
CONTINUOUS
 62
     7
 10
3457.3405590000002
 20
2498.973242
 30
0.0
  0
VERTEX
  5
77F
  8
LAYER01
  6
CONTINUOUS
 62
     7
 10
3461.1944830000002
 20
2509.5715340000002
 30
0.0
  0
VERTEX
  5
780
  8
LAYER01
  6
CONTINUOUS
 62
     7
 10
3463.1214450000002
 20
2520.1698259999998
 30
0.0
  0
VERTEX
  5
781
  8
LAYER01
  6
CONTINUOUS
 62
     7
 10
3464.084926
 20
2530.7681170000001
 30
0.0
  0
VERTEX
  5
782
  8
LAYER01
  6
CONTINUOUS
 62
     7
 10
3465.0484070000011
 20
2542.3298909999999
 30
0.0
  0
VERTEX
  5
783
  8
LAYER01
  6
CONTINUOUS
 62
     7
 10
3465.0484070000011
 20
2542.3298909999999
 30
0.0
  0
VERTEX
  5
784
  8
LAYER01
  6
CONTINUOUS
 62
     7
 10
3464.084926
 20
2552.9281820000001
 30
0.0
  0
VERTEX
  5
785
  8
LAYER01
  6
CONTINUOUS
 62
     7
 10
3462.157964
 20
2563.5264739999998
 30
0.0
  0
VERTEX
  5
786
  8
LAYER01
  6
CONTINUOUS
 62
     7
 10
3459.2675210000011
 20
2573.1612850000001
 30
0.0
  0
VERTEX
  5
787
  8
LAYER01
  6
CONTINUOUS
 62
     7
 10
3456.377078
 20
2582.796096
 30
0.0
  0
VERTEX
  5
788
  8
LAYER01
  6
CONTINUOUS
 62
     7
 10
3451.5596719999999
 20
2591.4674260000002
 30
0.0
  0
VERTEX
  5
789
  8
LAYER01
  6
CONTINUOUS
 62
     7
 10
3446.742267000001
 20
2600.1387559999998
 30
0.0
  0
VERTEX
  5
78A
  8
LAYER01
  6
CONTINUOUS
 62
     7
 10
3440.9613800000002
 20
2608.810086
 30
0.0
  0
VERTEX
  5
78B
  8
LAYER01
  6
CONTINUOUS
 62
     7
 10
3434.2170130000009
 20
2615.5544530000011
 30
0.0
  0
VERTEX
  5
78C
  8
LAYER01
  6
CONTINUOUS
 62
     7
 10
3426.5091640000001
 20
2622.2988210000012
 30
0.0
  0
VERTEX
  5
78D
  8
LAYER01
  6
CONTINUOUS
 62
     7
 10
3418.8013150000002
 20
2629.0431880000001
 30
0.0
  0
VERTEX
  5
78E
  8
LAYER01
  6
CONTINUOUS
 62
     7
 10
3410.1299850000009
 20
2633.8605940000011
 30
0.0
  0
VERTEX
  5
78F
  8
LAYER01
  6
CONTINUOUS
 62
     7
 10
3401.4586560000012
 20
2638.677999
 30
0.0
  0
VERTEX
  5
790
  8
LAYER01
  6
CONTINUOUS
 62
     7
 10
3391.8238450000008
 20
2642.5319239999999
 30
0.0
  0
VERTEX
  5
791
  8
LAYER01
  6
CONTINUOUS
 62
     7
 10
3382.189034
 20
2645.4223670000001
 30
0.0
  0
VERTEX
  5
792
  8
LAYER01
  6
CONTINUOUS
 62
     7
 10
3371.5907419999999
 20
2647.3493290000001
 30
0.0
  0
VERTEX
  5
793
  8
LAYER01
  6
CONTINUOUS
 62
     7
 10
3360.9924500000011
 20
2648.3128100000008
 30
0.0
  0
VERTEX
  5
794
  8
LAYER01
  6
CONTINUOUS
 62
     7
 10
3360.9924500000011
 20
2648.3128100000008
 30
0.0
  0
SEQEND
  5
795
  8
LAYER01
  6
CONTINUOUS
 62
     7
  0
POLYLINE
  5
33B
  8
LAYER01
  6
CONTINUOUS
 62
     7
 66
     1
 10
0.0
 20
0.0
 30
0.0
 70
     1
  0
VERTEX
  5
796
  8
LAYER01
  6
CONTINUOUS
 62
     7
 10
3358.102007
 20
2470.0688089999999
 30
0.0
  0
VERTEX
  5
797
  8
LAYER01
  6
CONTINUOUS
 62
     7
 10
3358.102007
 20
2470.0688089999999
 30
0.0
  0
VERTEX
  5
798
  8
LAYER01
  6
CONTINUOUS
 62
     7
 10
3351.3576389999998
 20
2471.0322900000001
 30
0.0
  0
VERTEX
  5
799
  8
LAYER01
  6
CONTINUOUS
 62
     7
 10
3344.6132710000002
 20
2471.9957709999999
 30
0.0
  0
VERTEX
  5
79A
  8
LAYER01
  6
CONTINUOUS
 62
     7
 10
3337.8689039999999
 20
2472.9592520000001
 30
0.0
  0
VERTEX
  5
79B
  8
LAYER01
  6
CONTINUOUS
 62
     7
 10
3331.1245359999998
 20
2475.8496949999999
 30
0.0
  0
VERTEX
  5
79C
  8
LAYER01
  6
CONTINUOUS
 62
     7
 10
3325.3436499999998
 20
2478.740139
 30
0.0
  0
VERTEX
  5
79D
  8
LAYER01
  6
CONTINUOUS
 62
     7
 10
3319.5627629999999
 20
2482.594063
 30
0.0
  0
VERTEX
  5
79E
  8
LAYER01
  6
CONTINUOUS
 62
     7
 10
3314.7453580000001
 20
2486.447987
 30
0.0
  0
VERTEX
  5
79F
  8
LAYER01
  6
CONTINUOUS
 62
     7
 10
3309.9279520000009
 20
2491.2653930000001
 30
0.0
  0
VERTEX
  5
7A0
  8
LAYER01
  6
CONTINUOUS
 62
     7
 10
3305.1105470000002
 20
2496.0827979999999
 30
0.0
  0
VERTEX
  5
7A1
  8
LAYER01
  6
CONTINUOUS
 62
     7
 10
3301.2566219999999
 20
2500.9002040000009
 30
0.0
  0
VERTEX
  5
7A2
  8
LAYER01
  6
CONTINUOUS
 62
     7
 10
3298.3661790000001
 20
2506.68109
 30
0.0
  0
VERTEX
  5
7A3
  8
LAYER01
  6
CONTINUOUS
 62
     7
 10
3295.4757359999999
 20
2513.4254580000002
 30
0.0
  0
VERTEX
  5
7A4
  8
LAYER01
  6
CONTINUOUS
 62
     7
 10
3292.585293000001
 20
2519.2063440000002
 30
0.0
  0
VERTEX
  5
7A5
  8
LAYER01
  6
CONTINUOUS
 62
     7
 10
3291.6218120000008
 20
2525.9507119999998
 30
0.0
  0
VERTEX
  5
7A6
  8
LAYER01
  6
CONTINUOUS
 62
     7
 10
3289.694849
 20
2532.69508
 30
0.0
  0
VERTEX
  5
7A7
  8
LAYER01
  6
CONTINUOUS
 62
     7
 10
3289.694849
 20
2540.402928
 30
0.0
  0
VERTEX
  5
7A8
  8
LAYER01
  6
CONTINUOUS
 62
     7
 10
3289.694849
 20
2540.402928
 30
0.0
  0
VERTEX
  5
7A9
  8
LAYER01
  6
CONTINUOUS
 62
     7
 10
3290.6583300000002
 20
2547.1472960000001
 30
0.0
  0
VERTEX
  5
7AA
  8
LAYER01
  6
CONTINUOUS
 62
     7
 10
3291.6218120000008
 20
2553.8916640000002
 30
0.0
  0
VERTEX
  5
7AB
  8
LAYER01
  6
CONTINUOUS
 62
     7
 10
3293.5487739999999
 20
2560.636031
 30
0.0
  0
VERTEX
  5
7AC
  8
LAYER01
  6
CONTINUOUS
 62
     7
 10
3295.4757359999999
 20
2567.3803990000001
 30
0.0
  0
VERTEX
  5
7AD
  8
LAYER01
  6
CONTINUOUS
 62
     7
 10
3298.3661790000001
 20
2573.1612850000001
 30
0.0
  0
VERTEX
  5
7AE
  8
LAYER01
  6
CONTINUOUS
 62
     7
 10
3302.220103000001
 20
2578.942172
 30
0.0
  0
VERTEX
  5
7AF
  8
LAYER01
  6
CONTINUOUS
 62
     7
 10
3306.074028
 20
2583.7595769999998
 30
0.0
  0
VERTEX
  5
7B0
  8
LAYER01
  6
CONTINUOUS
 62
     7
 10
3310.8914329999998
 20
2588.5769829999999
 30
0.0
  0
VERTEX
  5
7B1
  8
LAYER01
  6
CONTINUOUS
 62
     7
 10
3315.7088389999999
 20
2593.3943880000002
 30
0.0
  0
VERTEX
  5
7B2
  8
LAYER01
  6
CONTINUOUS
 62
     7
 10
3320.5262440000001
 20
2597.2483130000001
 30
0.0
  0
VERTEX
  5
7B3
  8
LAYER01
  6
CONTINUOUS
 62
     7
 10
3326.307131
 20
2601.1022370000001
 30
0.0
  0
VERTEX
  5
7B4
  8
LAYER01
  6
CONTINUOUS
 62
     7
 10
3333.0514980000012
 20
2603.9926800000012
 30
0.0
  0
VERTEX
  5
7B5
  8
LAYER01
  6
CONTINUOUS
 62
     7
 10
3338.8323850000002
 20
2605.9196419999998
 30
0.0
  0
VERTEX
  5
7B6
  8
LAYER01
  6
CONTINUOUS
 62
     7
 10
3345.5767519999999
 20
2607.8466050000011
 30
0.0
  0
VERTEX
  5
7B7
  8
LAYER01
  6
CONTINUOUS
 62
     7
 10
3352.3211200000001
 20
2608.810086
 30
0.0
  0
VERTEX
  5
7B8
  8
LAYER01
  6
CONTINUOUS
 62
     7
 10
3360.028969
 20
2608.810086
 30
0.0
  0
VERTEX
  5
7B9
  8
LAYER01
  6
CONTINUOUS
 62
     7
 10
3360.028969
 20
2608.810086
 30
0.0
  0
VERTEX
  5
7BA
  8
LAYER01
  6
CONTINUOUS
 62
     7
 10
3366.7733360000002
 20
2607.8466050000011
 30
0.0
  0
VERTEX
  5
7BB
  8
LAYER01
  6
CONTINUOUS
 62
     7
 10
3373.5177039999999
 20
2606.8831230000001
 30
0.0
  0
VERTEX
  5
7BC
  8
LAYER01
  6
CONTINUOUS
 62
     7
 10
3379.2985910000002
 20
2604.9561610000001
 30
0.0
  0
VERTEX
  5
7BD
  8
LAYER01
  6
CONTINUOUS
 62
     7
 10
3386.042958
 20
2603.0291990000001
 30
0.0
  0
VERTEX
  5
7BE
  8
LAYER01
  6
CONTINUOUS
 62
     7
 10
3390.8603640000001
 20
2600.1387559999998
 30
0.0
  0
VERTEX
  5
7BF
  8
LAYER01
  6
CONTINUOUS
 62
     7
 10
3396.6412500000001
 20
2596.2848309999999
 30
0.0
  0
VERTEX
  5
7C0
  8
LAYER01
  6
CONTINUOUS
 62
     7
 10
3401.4586560000012
 20
2592.4309069999999
 30
0.0
  0
VERTEX
  5
7C1
  8
LAYER01
  6
CONTINUOUS
 62
     7
 10
3406.276061
 20
2588.5769829999999
 30
0.0
  0
VERTEX
  5
7C2
  8
LAYER01
  6
CONTINUOUS
 62
     7
 10
3410.1299850000009
 20
2583.7595769999998
 30
0.0
  0
VERTEX
  5
7C3
  8
LAYER01
  6
CONTINUOUS
 62
     7
 10
3413.9839100000008
 20
2577.9786909999998
 30
0.0
  0
VERTEX
  5
7C4
  8
LAYER01
  6
CONTINUOUS
 62
     7
 10
3417.8378339999999
 20
2573.1612850000001
 30
0.0
  0
VERTEX
  5
7C5
  8
LAYER01
  6
CONTINUOUS
 62
     7
 10
3420.7282770000002
 20
2567.3803990000001
 30
0.0
  0
VERTEX
  5
7C6
  8
LAYER01
  6
CONTINUOUS
 62
     7
 10
3422.65524
 20
2560.636031
 30
0.0
  0
VERTEX
  5
7C7
  8
LAYER01
  6
CONTINUOUS
 62
     7
 10
3424.582202000001
 20
2554.855145
 30
0.0
  0
VERTEX
  5
7C8
  8
LAYER01
  6
CONTINUOUS
 62
     7
 10
3425.5456829999998
 20
2548.1107769999999
 30
0.0
  0
VERTEX
  5
7C9
  8
LAYER01
  6
CONTINUOUS
 62
     7
 10
3425.5456829999998
 20
2541.3664090000002
 30
0.0
  0
VERTEX
  5
7CA
  8
LAYER01
  6
CONTINUOUS
 62
     7
 10
3425.5456829999998
 20
2541.3664090000002
 30
0.0
  0
VERTEX
  5
7CB
  8
LAYER01
  6
CONTINUOUS
 62
     7
 10
3425.5456829999998
 20
2533.6585610000002
 30
0.0
  0
VERTEX
  5
7CC
  8
LAYER01
  6
CONTINUOUS
 62
     7
 10
3424.582202000001
 20
2526.9141930000001
 30
0.0
  0
VERTEX
  5
7CD
  8
LAYER01
  6
CONTINUOUS
 62
     7
 10
3423.6187209999998
 20
2520.1698259999998
 30
0.0
  0
VERTEX
  5
7CE
  8
LAYER01
  6
CONTINUOUS
 62
     7
 10
3420.7282770000002
 20
2514.3889389999999
 30
0.0
  0
VERTEX
  5
7CF
  8
LAYER01
  6
CONTINUOUS
 62
     7
 10
3418.8013150000002
 20
2507.6445709999998
 30
0.0
  0
VERTEX
  5
7D0
  8
LAYER01
  6
CONTINUOUS
 62
     7
 10
3414.9473910000002
 20
2501.8636849999998
 30
0.0
  0
VERTEX
  5
7D1
  8
LAYER01
  6
CONTINUOUS
 62
     7
 10
3411.0934659999998
 20
2496.0827979999999
 30
0.0
  0
VERTEX
  5
7D2
  8
LAYER01
  6
CONTINUOUS
 62
     7
 10
3406.276061
 20
2491.2653930000001
 30
0.0
  0
VERTEX
  5
7D3
  8
LAYER01
  6
CONTINUOUS
 62
     7
 10
3401.4586560000012
 20
2486.447987
 30
0.0
  0
VERTEX
  5
7D4
  8
LAYER01
  6
CONTINUOUS
 62
     7
 10
3396.6412500000001
 20
2482.594063
 30
0.0
  0
VERTEX
  5
7D5
  8
LAYER01
  6
CONTINUOUS
 62
     7
 10
3390.8603640000001
 20
2478.740139
 30
0.0
  0
VERTEX
  5
7D6
  8
LAYER01
  6
CONTINUOUS
 62
     7
 10
3385.0794770000002
 20
2475.8496949999999
 30
0.0
  0
VERTEX
  5
7D7
  8
LAYER01
  6
CONTINUOUS
 62
     7
 10
3378.3351090000001
 20
2473.9227329999999
 30
0.0
  0
VERTEX
  5
7D8
  8
LAYER01
  6
CONTINUOUS
 62
     7
 10
3371.5907419999999
 20
2471.9957709999999
 30
0.0
  0
VERTEX
  5
7D9
  8
LAYER01
  6
CONTINUOUS
 62
     7
 10
3364.8463740000011
 20
2471.0322900000001
 30
0.0
  0
VERTEX
  5
7DA
  8
LAYER01
  6
CONTINUOUS
 62
     7
 10
3358.102007
 20
2470.0688089999999
 30
0.0
  0
VERTEX
  5
7DB
  8
LAYER01
  6
CONTINUOUS
 62
     7
 10
3358.102007
 20
2470.0688089999999
 30
0.0
  0
SEQEND
  5
7DC
  8
LAYER01
  6
CONTINUOUS
 62
     7
  0
POLYLINE
  5
383
  8
LAYER01
  6
CONTINUOUS
 62
     7
 66
     1
 10
0.0
 20
0.0
 30
0.0
 70
     1
  0
VERTEX
  5
7DD
  8
LAYER01
  6
CONTINUOUS
 62
     7
 10
3435.1804940000002
 20
2643.4954050000001
 30
0.0
  0
VERTEX
  5
7DE
  8
LAYER01
  6
CONTINUOUS
 62
     7
 10
3537.3094890000002
 20
2643.4954050000001
 30
0.0
  0
VERTEX
  5
7DF
  8
LAYER01
  6
CONTINUOUS
 62
     7
 10
3537.3094890000002
 20
2643.4954050000001
 30
0.0
  0
VERTEX
  5
7E0
  8
LAYER01
  6
CONTINUOUS
 62
     7
 10
3548.8712620000001
 20
2641.568443000001
 30
0.0
  0
VERTEX
  5
7E1
  8
LAYER01
  6
CONTINUOUS
 62
     7
 10
3559.4695539999998
 20
2636.751037
 30
0.0
  0
VERTEX
  5
7E2
  8
LAYER01
  6
CONTINUOUS
 62
     7
 10
3568.1408839999999
 20
2630.970151
 30
0.0
  0
VERTEX
  5
7E3
  8
LAYER01
  6
CONTINUOUS
 62
     7
 10
3575.8487329999998
 20
2623.2623020000001
 30
0.0
  0
VERTEX
  5
7E4
  8
LAYER01
  6
CONTINUOUS
 62
     7
 10
3582.5931
 20
2615.5544530000011
 30
0.0
  0
VERTEX
  5
7E5
  8
LAYER01
  6
CONTINUOUS
 62
     7
 10
3587.4105060000011
 20
2605.9196419999998
 30
0.0
  0
VERTEX
  5
7E6
  8
LAYER01
  6
CONTINUOUS
 62
     7
 10
3590.3009489999999
 20
2594.3578689999999
 30
0.0
  0
VERTEX
  5
7E7
  8
LAYER01
  6
CONTINUOUS
 62
     7
 10
3591.2644300000002
 20
2583.7595769999998
 30
0.0
  0
VERTEX
  5
7E8
  8
LAYER01
  6
CONTINUOUS
 62
     7
 10
3591.2644300000002
 20
2583.7595769999998
 30
0.0
  0
VERTEX
  5
7E9
  8
LAYER01
  6
CONTINUOUS
 62
     7
 10
3590.3009489999999
 20
2572.1978039999999
 30
0.0
  0
VERTEX
  5
7EA
  8
LAYER01
  6
CONTINUOUS
 62
     7
 10
3588.3739869999999
 20
2562.562993
 30
0.0
  0
VERTEX
  5
7EB
  8
LAYER01
  6
CONTINUOUS
 62
     7
 10
3584.5200620000001
 20
2552.9281820000001
 30
0.0
  0
VERTEX
  5
7EC
  8
LAYER01
  6
CONTINUOUS
 62
     7
 10
3579.7026569999998
 20
2544.2568529999999
 30
0.0
  0
VERTEX
  5
7ED
  8
LAYER01
  6
CONTINUOUS
 62
     7
 10
3572.9582890000011
 20
2536.549004
 30
0.0
  0
VERTEX
  5
7EE
  8
LAYER01
  6
CONTINUOUS
 62
     7
 10
3566.2139219999999
 20
2530.7681170000001
 30
0.0
  0
VERTEX
  5
7EF
  8
LAYER01
  6
CONTINUOUS
 62
     7
 10
3556.579111
 20
2524.9872310000001
 30
0.0
  0
VERTEX
  5
7F0
  8
LAYER01
  6
CONTINUOUS
 62
     7
 10
3546.944300000001
 20
2521.1333070000001
 30
0.0
  0
VERTEX
  5
7F1
  8
LAYER01
  6
CONTINUOUS
 62
     7
 10
3609.5705710000011
 20
2437.3104520000002
 30
0.0
  0
VERTEX
  5
7F2
  8
LAYER01
  6
CONTINUOUS
 62
     7
 10
3561.3965159999998
 20
2437.3104520000002
 30
0.0
  0
VERTEX
  5
7F3
  8
LAYER01
  6
CONTINUOUS
 62
     7
 10
3477.5736619999998
 20
2544.2568529999999
 30
0.0
  0
VERTEX
  5
7F4
  8
LAYER01
  6
CONTINUOUS
 62
     7
 10
3524.7842350000001
 20
2544.2568529999999
 30
0.0
  0
VERTEX
  5
7F5
  8
LAYER01
  6
CONTINUOUS
 62
     7
 10
3524.7842350000001
 20
2544.2568529999999
 30
0.0
  0
VERTEX
  5
7F6
  8
LAYER01
  6
CONTINUOUS
 62
     7
 10
3530.5651210000001
 20
2546.1838149999999
 30
0.0
  0
VERTEX
  5
7F7
  8
LAYER01
  6
CONTINUOUS
 62
     7
 10
3535.3825270000002
 20
2548.1107769999999
 30
0.0
  0
VERTEX
  5
7F8
  8
LAYER01
  6
CONTINUOUS
 62
     7
 10
3539.2364510000002
 20
2551.9647010000008
 30
0.0
  0
VERTEX
  5
7F9
  8
LAYER01
  6
CONTINUOUS
 62
     7
 10
3543.0903760000001
 20
2555.8186260000011
 30
0.0
  0
VERTEX
  5
7FA
  8
LAYER01
  6
CONTINUOUS
 62
     7
 10
3545.9808189999999
 20
2560.636031
 30
0.0
  0
VERTEX
  5
7FB
  8
LAYER01
  6
CONTINUOUS
 62
     7
 10
3548.8712620000001
 20
2565.4534370000001
 30
0.0
  0
VERTEX
  5
7FC
  8
LAYER01
  6
CONTINUOUS
 62
     7
 10
3549.8347429999999
 20
2571.2343230000001
 30
0.0
  0
VERTEX
  5
7FD
  8
LAYER01
  6
CONTINUOUS
 62
     7
 10
3549.8347429999999
 20
2577.01521
 30
0.0
  0
VERTEX
  5
7FE
  8
LAYER01
  6
CONTINUOUS
 62
     7
 10
3549.8347429999999
 20
2577.01521
 30
0.0
  0
VERTEX
  5
7FF
  8
LAYER01
  6
CONTINUOUS
 62
     7
 10
3549.8347429999999
 20
2582.796096
 30
0.0
  0
VERTEX
  5
800
  8
LAYER01
  6
CONTINUOUS
 62
     7
 10
3547.9077810000008
 20
2587.6135020000002
 30
0.0
  0
VERTEX
  5
801
  8
LAYER01
  6
CONTINUOUS
 62
     7
 10
3545.9808189999999
 20
2592.4309069999999
 30
0.0
  0
VERTEX
  5
802
  8
LAYER01
  6
CONTINUOUS
 62
     7
 10
3543.0903760000001
 20
2597.2483130000001
 30
0.0
  0
VERTEX
  5
803
  8
LAYER01
  6
CONTINUOUS
 62
     7
 10
3539.2364510000002
 20
2601.1022370000001
 30
0.0
  0
VERTEX
  5
804
  8
LAYER01
  6
CONTINUOUS
 62
     7
 10
3535.3825270000002
 20
2603.9926800000012
 30
0.0
  0
VERTEX
  5
805
  8
LAYER01
  6
CONTINUOUS
 62
     7
 10
3529.6016399999999
 20
2606.8831230000001
 30
0.0
  0
VERTEX
  5
806
  8
LAYER01
  6
CONTINUOUS
 62
     7
 10
3524.7842350000001
 20
2608.810086
 30
0.0
  0
VERTEX
  5
807
  8
LAYER01
  6
CONTINUOUS
 62
     7
 10
3469.8658130000008
 20
2608.810086
 30
0.0
  0
VERTEX
  5
808
  8
LAYER01
  6
CONTINUOUS
 62
     7
 10
3435.1804940000002
 20
2643.4954050000001
 30
0.0
  0
VERTEX
  5
809
  8
LAYER01
  6
CONTINUOUS
 62
     7
 10
3435.1804940000002
 20
2643.4954050000001
 30
0.0
  0
SEQEND
  5
80A
  8
LAYER01
  6
CONTINUOUS
 62
     7
  0
POLYLINE
  5
3B2
  8
LAYER01
  6
CONTINUOUS
 62
     7
 66
     1
 10
0.0
 20
0.0
 30
0.0
 70
     1
  0
VERTEX
  5
80B
  8
LAYER01
  6
CONTINUOUS
 62
     7
 10
3635.5845599999998
 20
2592.4309069999999
 30
0.0
  0
VERTEX
  5
80C
  8
LAYER01
  6
CONTINUOUS
 62
     7
 10
3635.5845599999998
 20
2592.4309069999999
 30
0.0
  0
VERTEX
  5
80D
  8
LAYER01
  6
CONTINUOUS
 62
     7
 10
3640.4019650000009
 20
2593.3943880000002
 30
0.0
  0
VERTEX
  5
80E
  8
LAYER01
  6
CONTINUOUS
 62
     7
 10
3645.2193710000001
 20
2594.3578689999999
 30
0.0
  0
VERTEX
  5
80F
  8
LAYER01
  6
CONTINUOUS
 62
     7
 10
3650.0367759999999
 20
2597.2483130000001
 30
0.0
  0
VERTEX
  5
810
  8
LAYER01
  6
CONTINUOUS
 62
     7
 10
3653.8907009999998
 20
2600.1387559999998
 30
0.0
  0
VERTEX
  5
811
  8
LAYER01
  6
CONTINUOUS
 62
     7
 10
3656.781144
 20
2603.9926800000012
 30
0.0
  0
VERTEX
  5
812
  8
LAYER01
  6
CONTINUOUS
 62
     7
 10
3658.708106000001
 20
2607.8466050000011
 30
0.0
  0
VERTEX
  5
813
  8
LAYER01
  6
CONTINUOUS
 62
     7
 10
3660.635068
 20
2612.66401
 30
0.0
  0
VERTEX
  5
814
  8
LAYER01
  6
CONTINUOUS
 62
     7
 10
3660.635068
 20
2618.444896
 30
0.0
  0
VERTEX
  5
815
  8
LAYER01
  6
CONTINUOUS
 62
     7
 10
3660.635068
 20
2618.444896
 30
0.0
  0
VERTEX
  5
816
  8
LAYER01
  6
CONTINUOUS
 62
     7
 10
3660.635068
 20
2623.2623020000001
 30
0.0
  0
VERTEX
  5
817
  8
LAYER01
  6
CONTINUOUS
 62
     7
 10
3658.708106000001
 20
2628.0797069999999
 30
0.0
  0
VERTEX
  5
818
  8
LAYER01
  6
CONTINUOUS
 62
     7
 10
3656.781144
 20
2631.9336320000002
 30
0.0
  0
VERTEX
  5
819
  8
LAYER01
  6
CONTINUOUS
 62
     7
 10
3653.8907009999998
 20
2635.7875560000002
 30
0.0
  0
VERTEX
  5
81A
  8
LAYER01
  6
CONTINUOUS
 62
     7
 10
3650.0367759999999
 20
2638.677999
 30
0.0
  0
VERTEX
  5
81B
  8
LAYER01
  6
CONTINUOUS
 62
     7
 10
3645.2193710000001
 20
2641.568443000001
 30
0.0
  0
VERTEX
  5
81C
  8
LAYER01
  6
CONTINUOUS
 62
     7
 10
3640.4019650000009
 20
2642.5319239999999
 30
0.0
  0
VERTEX
  5
81D
  8
LAYER01
  6
CONTINUOUS
 62
     7
 10
3635.5845599999998
 20
2643.4954050000001
 30
0.0
  0
VERTEX
  5
81E
  8
LAYER01
  6
CONTINUOUS
 62
     7
 10
3635.5845599999998
 20
2643.4954050000001
 30
0.0
  0
VERTEX
  5
81F
  8
LAYER01
  6
CONTINUOUS
 62
     7
 10
3630.767155
 20
2642.5319239999999
 30
0.0
  0
VERTEX
  5
820
  8
LAYER01
  6
CONTINUOUS
 62
     7
 10
3625.9497489999999
 20
2641.568443000001
 30
0.0
  0
VERTEX
  5
821
  8
LAYER01
  6
CONTINUOUS
 62
     7
 10
3621.1323439999992
 20
2638.677999
 30
0.0
  0
VERTEX
  5
822
  8
LAYER01
  6
CONTINUOUS
 62
     7
 10
3617.2784190000002
 20
2635.7875560000002
 30
0.0
  0
VERTEX
  5
823
  8
LAYER01
  6
CONTINUOUS
 62
     7
 10
3614.387976
 20
2631.9336320000002
 30
0.0
  0
VERTEX
  5
824
  8
LAYER01
  6
CONTINUOUS
 62
     7
 10
3612.461014
 20
2628.0797069999999
 30
0.0
  0
VERTEX
  5
825
  8
LAYER01
  6
CONTINUOUS
 62
     7
 10
3610.5340520000009
 20
2623.2623020000001
 30
0.0
  0
VERTEX
  5
826
  8
LAYER01
  6
CONTINUOUS
 62
     7
 10
3610.5340520000009
 20
2618.444896
 30
0.0
  0
VERTEX
  5
827
  8
LAYER01
  6
CONTINUOUS
 62
     7
 10
3610.5340520000009
 20
2618.444896
 30
0.0
  0
VERTEX
  5
828
  8
LAYER01
  6
CONTINUOUS
 62
     7
 10
3610.5340520000009
 20
2612.66401
 30
0.0
  0
VERTEX
  5
829
  8
LAYER01
  6
CONTINUOUS
 62
     7
 10
3612.461014
 20
2607.8466050000011
 30
0.0
  0
VERTEX
  5
82A
  8
LAYER01
  6
CONTINUOUS
 62
     7
 10
3614.387976
 20
2603.9926800000012
 30
0.0
  0
VERTEX
  5
82B
  8
LAYER01
  6
CONTINUOUS
 62
     7
 10
3617.2784190000002
 20
2600.1387559999998
 30
0.0
  0
VERTEX
  5
82C
  8
LAYER01
  6
CONTINUOUS
 62
     7
 10
3621.1323439999992
 20
2597.2483130000001
 30
0.0
  0
VERTEX
  5
82D
  8
LAYER01
  6
CONTINUOUS
 62
     7
 10
3625.9497489999999
 20
2594.3578689999999
 30
0.0
  0
VERTEX
  5
82E
  8
LAYER01
  6
CONTINUOUS
 62
     7
 10
3630.767155
 20
2593.3943880000002
 30
0.0
  0
VERTEX
  5
82F
  8
LAYER01
  6
CONTINUOUS
 62
     7
 10
3635.5845599999998
 20
2592.4309069999999
 30
0.0
  0
VERTEX
  5
830
  8
LAYER01
  6
CONTINUOUS
 62
     7
 10
3635.5845599999998
 20
2592.4309069999999
 30
0.0
  0
SEQEND
  5
831
  8
LAYER01
  6
CONTINUOUS
 62
     7
  0
POLYLINE
  5
3DA
  8
LAYER01
  6
CONTINUOUS
 62
     7
 66
     1
 10
0.0
 20
0.0
 30
0.0
 70
     1
  0
VERTEX
  5
832
  8
LAYER01
  6
CONTINUOUS
 62
     7
 10
3635.5845599999998
 20
2639.6414799999998
 30
0.0
  0
VERTEX
  5
833
  8
LAYER01
  6
CONTINUOUS
 62
     7
 10
3635.5845599999998
 20
2639.6414799999998
 30
0.0
  0
VERTEX
  5
834
  8
LAYER01
  6
CONTINUOUS
 62
     7
 10
3639.4384839999998
 20
2638.677999
 30
0.0
  0
VERTEX
  5
835
  8
LAYER01
  6
CONTINUOUS
 62
     7
 10
3643.2924090000001
 20
2637.7145180000002
 30
0.0
  0
VERTEX
  5
836
  8
LAYER01
  6
CONTINUOUS
 62
     7
 10
3647.1463330000001
 20
2635.7875560000002
 30
0.0
  0
VERTEX
  5
837
  8
LAYER01
  6
CONTINUOUS
 62
     7
 10
3650.0367759999999
 20
2632.897113
 30
0.0
  0
VERTEX
  5
838
  8
LAYER01
  6
CONTINUOUS
 62
     7
 10
3652.9272200000009
 20
2630.0066700000002
 30
0.0
  0
VERTEX
  5
839
  8
LAYER01
  6
CONTINUOUS
 62
     7
 10
3654.8541820000009
 20
2626.1527449999999
 30
0.0
  0
VERTEX
  5
83A
  8
LAYER01
  6
CONTINUOUS
 62
     7
 10
3656.781144
 20
2622.2988210000012
 30
0.0
  0
VERTEX
  5
83B
  8
LAYER01
  6
CONTINUOUS
 62
     7
 10
3656.781144
 20
2618.444896
 30
0.0
  0
VERTEX
  5
83C
  8
LAYER01
  6
CONTINUOUS
 62
     7
 10
3656.781144
 20
2618.444896
 30
0.0
  0
VERTEX
  5
83D
  8
LAYER01
  6
CONTINUOUS
 62
     7
 10
3656.781144
 20
2613.6274910000002
 30
0.0
  0
VERTEX
  5
83E
  8
LAYER01
  6
CONTINUOUS
 62
     7
 10
3654.8541820000009
 20
2609.7735670000002
 30
0.0
  0
VERTEX
  5
83F
  8
LAYER01
  6
CONTINUOUS
 62
     7
 10
3652.9272200000009
 20
2605.9196419999998
 30
0.0
  0
VERTEX
  5
840
  8
LAYER01
  6
CONTINUOUS
 62
     7
 10
3650.0367759999999
 20
2603.0291990000001
 30
0.0
  0
VERTEX
  5
841
  8
LAYER01
  6
CONTINUOUS
 62
     7
 10
3647.1463330000001
 20
2600.1387559999998
 30
0.0
  0
VERTEX
  5
842
  8
LAYER01
  6
CONTINUOUS
 62
     7
 10
3643.2924090000001
 20
2598.2117939999998
 30
0.0
  0
VERTEX
  5
843
  8
LAYER01
  6
CONTINUOUS
 62
     7
 10
3639.4384839999998
 20
2597.2483130000001
 30
0.0
  0
VERTEX
  5
844
  8
LAYER01
  6
CONTINUOUS
 62
     7
 10
3635.5845599999998
 20
2597.2483130000001
 30
0.0
  0
VERTEX
  5
845
  8
LAYER01
  6
CONTINUOUS
 62
     7
 10
3635.5845599999998
 20
2597.2483130000001
 30
0.0
  0
VERTEX
  5
846
  8
LAYER01
  6
CONTINUOUS
 62
     7
 10
3631.7306359999998
 20
2597.2483130000001
 30
0.0
  0
VERTEX
  5
847
  8
LAYER01
  6
CONTINUOUS
 62
     7
 10
3626.9132299999992
 20
2598.2117939999998
 30
0.0
  0
VERTEX
  5
848
  8
LAYER01
  6
CONTINUOUS
 62
     7
 10
3624.0227869999999
 20
2600.1387559999998
 30
0.0
  0
VERTEX
  5
849
  8
LAYER01
  6
CONTINUOUS
 62
     7
 10
3620.1688630000008
 20
2603.0291990000001
 30
0.0
  0
VERTEX
  5
84A
  8
LAYER01
  6
CONTINUOUS
 62
     7
 10
3618.2419000000009
 20
2605.9196419999998
 30
0.0
  0
VERTEX
  5
84B
  8
LAYER01
  6
CONTINUOUS
 62
     7
 10
3616.3149380000009
 20
2609.7735670000002
 30
0.0
  0
VERTEX
  5
84C
  8
LAYER01
  6
CONTINUOUS
 62
     7
 10
3614.387976
 20
2613.6274910000002
 30
0.0
  0
VERTEX
  5
84D
  8
LAYER01
  6
CONTINUOUS
 62
     7
 10
3614.387976
 20
2618.444896
 30
0.0
  0
VERTEX
  5
84E
  8
LAYER01
  6
CONTINUOUS
 62
     7
 10
3614.387976
 20
2618.444896
 30
0.0
  0
VERTEX
  5
84F
  8
LAYER01
  6
CONTINUOUS
 62
     7
 10
3614.387976
 20
2622.2988210000012
 30
0.0
  0
VERTEX
  5
850
  8
LAYER01
  6
CONTINUOUS
 62
     7
 10
3616.3149380000009
 20
2626.1527449999999
 30
0.0
  0
VERTEX
  5
851
  8
LAYER01
  6
CONTINUOUS
 62
     7
 10
3618.2419000000009
 20
2630.0066700000002
 30
0.0
  0
VERTEX
  5
852
  8
LAYER01
  6
CONTINUOUS
 62
     7
 10
3620.1688630000008
 20
2632.897113
 30
0.0
  0
VERTEX
  5
853
  8
LAYER01
  6
CONTINUOUS
 62
     7
 10
3624.0227869999999
 20
2635.7875560000002
 30
0.0
  0
VERTEX
  5
854
  8
LAYER01
  6
CONTINUOUS
 62
     7
 10
3626.9132299999992
 20
2637.7145180000002
 30
0.0
  0
VERTEX
  5
855
  8
LAYER01
  6
CONTINUOUS
 62
     7
 10
3631.7306359999998
 20
2638.677999
 30
0.0
  0
VERTEX
  5
856
  8
LAYER01
  6
CONTINUOUS
 62
     7
 10
3635.5845599999998
 20
2639.6414799999998
 30
0.0
  0
VERTEX
  5
857
  8
LAYER01
  6
CONTINUOUS
 62
     7
 10
3635.5845599999998
 20
2639.6414799999998
 30
0.0
  0
SEQEND
  5
858
  8
LAYER01
  6
CONTINUOUS
 62
     7
  0
POLYLINE
  5
402
  8
LAYER01
  6
CONTINUOUS
 62
     7
 66
     1
 10
0.0
 20
0.0
 30
0.0
 70
     1
  0
VERTEX
  5
859
  8
LAYER01
  6
CONTINUOUS
 62
     7
 10
3639.4384839999998
 20
2616.517934
 30
0.0
  0
VERTEX
  5
85A
  8
LAYER01
  6
CONTINUOUS
 62
     7
 10
3639.4384839999998
 20
2616.517934
 30
0.0
  0
VERTEX
  5
85B
  8
LAYER01
  6
CONTINUOUS
 62
     7
 10
3642.3289279999999
 20
2617.4814150000002
 30
0.0
  0
VERTEX
  5
85C
  8
LAYER01
  6
CONTINUOUS
 62
     7
 10
3645.2193710000001
 20
2618.444896
 30
0.0
  0
VERTEX
  5
85D
  8
LAYER01
  6
CONTINUOUS
 62
     7
 10
3647.1463330000001
 20
2621.3353400000001
 30
0.0
  0
VERTEX
  5
85E
  8
LAYER01
  6
CONTINUOUS
 62
     7
 10
3647.1463330000001
 20
2624.2257829999999
 30
0.0
  0
VERTEX
  5
85F
  8
LAYER01
  6
CONTINUOUS
 62
     7
 10
3647.1463330000001
 20
2624.2257829999999
 30
0.0
  0
VERTEX
  5
860
  8
LAYER01
  6
CONTINUOUS
 62
     7
 10
3647.1463330000001
 20
2628.0797069999999
 30
0.0
  0
VERTEX
  5
861
  8
LAYER01
  6
CONTINUOUS
 62
     7
 10
3644.2558899999999
 20
2630.970151
 30
0.0
  0
VERTEX
  5
862
  8
LAYER01
  6
CONTINUOUS
 62
     7
 10
3641.3654470000001
 20
2631.9336320000002
 30
0.0
  0
VERTEX
  5
863
  8
LAYER01
  6
CONTINUOUS
 62
     7
 10
3637.5115219999998
 20
2631.9336320000002
 30
0.0
  0
VERTEX
  5
864
  8
LAYER01
  6
CONTINUOUS
 62
     7
 10
3625.9497489999999
 20
2631.9336320000002
 30
0.0
  0
VERTEX
  5
865
  8
LAYER01
  6
CONTINUOUS
 62
     7
 10
3625.9497489999999
 20
2603.9926800000012
 30
0.0
  0
VERTEX
  5
866
  8
LAYER01
  6
CONTINUOUS
 62
     7
 10
3629.8036729999999
 20
2603.9926800000012
 30
0.0
  0
VERTEX
  5
867
  8
LAYER01
  6
CONTINUOUS
 62
     7
 10
3629.8036729999999
 20
2616.517934
 30
0.0
  0
VERTEX
  5
868
  8
LAYER01
  6
CONTINUOUS
 62
     7
 10
3635.5845599999998
 20
2616.517934
 30
0.0
  0
VERTEX
  5
869
  8
LAYER01
  6
CONTINUOUS
 62
     7
 10
3642.3289279999999
 20
2603.9926800000012
 30
0.0
  0
VERTEX
  5
86A
  8
LAYER01
  6
CONTINUOUS
 62
     7
 10
3647.1463330000001
 20
2603.9926800000012
 30
0.0
  0
VERTEX
  5
86B
  8
LAYER01
  6
CONTINUOUS
 62
     7
 10
3639.4384839999998
 20
2616.517934
 30
0.0
  0
VERTEX
  5
86C
  8
LAYER01
  6
CONTINUOUS
 62
     7
 10
3639.4384839999998
 20
2616.517934
 30
0.0
  0
SEQEND
  5
86D
  8
LAYER01
  6
CONTINUOUS
 62
     7
  0
POLYLINE
  5
418
  8
LAYER01
  6
CONTINUOUS
 62
     7
 66
     1
 10
0.0
 20
0.0
 30
0.0
 70
     1
  0
VERTEX
  5
86E
  8
LAYER01
  6
CONTINUOUS
 62
     7
 10
3636.548041
 20
2628.0797069999999
 30
0.0
  0
VERTEX
  5
86F
  8
LAYER01
  6
CONTINUOUS
 62
     7
 10
3636.548041
 20
2628.0797069999999
 30
0.0
  0
VERTEX
  5
870
  8
LAYER01
  6
CONTINUOUS
 62
     7
 10
3641.3654470000001
 20
2627.1162260000001
 30
0.0
  0
VERTEX
  5
871
  8
LAYER01
  6
CONTINUOUS
 62
     7
 10
3643.2924090000001
 20
2626.1527449999999
 30
0.0
  0
VERTEX
  5
872
  8
LAYER01
  6
CONTINUOUS
 62
     7
 10
3643.2924090000001
 20
2624.2257829999999
 30
0.0
  0
VERTEX
  5
873
  8
LAYER01
  6
CONTINUOUS
 62
     7
 10
3643.2924090000001
 20
2624.2257829999999
 30
0.0
  0
VERTEX
  5
874
  8
LAYER01
  6
CONTINUOUS
 62
     7
 10
3642.3289279999999
 20
2622.2988210000012
 30
0.0
  0
VERTEX
  5
875
  8
LAYER01
  6
CONTINUOUS
 62
     7
 10
3640.4019650000009
 20
2621.3353400000001
 30
0.0
  0
VERTEX
  5
876
  8
LAYER01
  6
CONTINUOUS
 62
     7
 10
3634.621079
 20
2620.3718589999999
 30
0.0
  0
VERTEX
  5
877
  8
LAYER01
  6
CONTINUOUS
 62
     7
 10
3629.8036729999999
 20
2620.3718589999999
 30
0.0
  0
VERTEX
  5
878
  8
LAYER01
  6
CONTINUOUS
 62
     7
 10
3629.8036729999999
 20
2628.0797069999999
 30
0.0
  0
VERTEX
  5
879
  8
LAYER01
  6
CONTINUOUS
 62
     7
 10
3636.548041
 20
2628.0797069999999
 30
0.0
  0
VERTEX
  5
87A
  8
LAYER01
  6
CONTINUOUS
 62
     7
 10
3636.548041
 20
2628.0797069999999
 30
0.0
  0
SEQEND
  5
87B
  8
LAYER01
  6
CONTINUOUS
 62
     7
  0
ENDBLK
  5
427
  8
0
  0
ENDSEC
  0
SECTION
  2
ENTITIES
  0
POLYLINE
  5
428
  8
LAYER01
  6
CONTINUOUS
 62
     7
 66
     1
 10
0.0
 20
0.0
 30
0.0
 70
     1
  0
VERTEX
  5
87C
  8
LAYER01
  6
CONTINUOUS
 62
     7
 10
-185.89603299999999
 20
1817.215866
 30
0.0
  0
VERTEX
  5
87D
  8
LAYER01
  6
CONTINUOUS
 62
     7
 10
-185.89603299999999
 20
4578.6227479999989
 30
0.0
  0
VERTEX
  5
87E
  8
LAYER01
  6
CONTINUOUS
 62
     7
 10
3760.9991519999999
 20
4578.6227479999989
 30
0.0
  0
VERTEX
  5
87F
  8
LAYER01
  6
CONTINUOUS
 62
     7
 10
3760.9991519999999
 20
1817.215866
 30
0.0
  0
SEQEND
  5
880
  8
LAYER01
  6
CONTINUOUS
 62
     7
  0
TEXT
  5
42E
  8
LAYER01
  6
VERDECKT
 62
     7
 10
211.97896299999999
 20
2350.4640089999998
 30
0.0
 40
70.0
  1
Becken Typ ABS5
  7
SIMPLEX
  0
TEXT
  5
42F
  8
LAYER01
  6
VERDECKT
 62
     7
 10
211.97896299999999
 20
2230.4640089999998
 30
0.0
 40
70.0
  1
ohne Überlauf
  7
SIMPLEX
  0
TEXT
  5
430
  8
LAYER01
  6
VERDECKT
 62
     7
 10
211.97896299999999
 20
2110.4640089999998
 30
0.0
 40
70.0
  1
für Einbau von oben in Arbeitsplatte
  7
SIMPLEX
  0
CIRCLE
  5
431
  8
2
  6
CONTINUOUS
 62
     7
 10
617.38841899999989
 20
3476.4138240000002
 30
0.0
 40
140.0
  0
CIRCLE
  5
432
  8
2
  6
CONTINUOUS
 62
     7
 10
617.38841899999989
 20
3476.7138239999999
 30
0.0
 40
160.0
  0
LINE
  5
433
  8
2
  6
CONTINUOUS
 62
     7
 10
617.38841899999989
 20
3430.9138240000011
 30
0.0
 11
617.38841899999989
 21
3521.4138240000011
 31
0.0
  0
CIRCLE
  5
434
  8
2
  6
CONTINUOUS
 62
     7
 10
617.38841899999989
 20
3476.4138240000002
 30
0.0
 40
41.0
  0
CIRCLE
  5
435
  8
2
  6
CONTINUOUS
 62
     7
 10
617.265669
 20
3476.6659240000008
 30
0.0
 40
23.0
  0
LINE
  5
436
  8
2
  6
CONTINUOUS
 62
     7
 10
660.98841900000002
 20
3476.7138239999999
 30
0.0
 11
571.28841900000009
 21
3476.7138239999999
 31
0.0
  0
TEXT
  5
437
  8
5
  6
CONTINUOUS
 62
     7
 10
1058.3884190000001
 20
3742.613824
 30
0.0
 40
20.0
  1
UBS 5 Vertikalschnitt
 41
0.9
  7
MONOTXT
  0
LINE
  5
438
  8
2
  6
CONTINUOUS
 62
     7
 10
1022.988419
 20
3607.1138240000009
 30
0.0
 11
1306.788419
 21
3607.1138240000009
 31
0.0
  0
POLYLINE
  5
439
  8
2
  6
CONTINUOUS
 62
     7
 66
     1
 10
0.0
 20
0.0
 30
0.0
  0
VERTEX
  5
881
  8
2
  6
CONTINUOUS
 62
     7
 10
1306.774334
 20
3607.1138240000009
 30
0.0
 42
0.410094
  0
VERTEX
  5
882
  8
2
  6
CONTINUOUS
 62
     7
 10
1304.7745319999999
 20
3605.1419959999998
 30
0.0
 42
-0.359297
  0
VERTEX
  5
883
  8
2
  6
CONTINUOUS
 62
     7
 10
1189.4363060000001
 20
3469.3006110000001
 30
0.0
 42
0.363278
  0
VERTEX
  5
884
  8
2
  6
CONTINUOUS
 62
     7
 10
1187.788419
 20
3467.3138240000012
 30
0.0
  0
VERTEX
  5
885
  8
2
  6
CONTINUOUS
 62
     7
 10
1187.788419
 20
3426.113824
 30
0.0
 42
0.4142140000000001
  0
VERTEX
  5
886
  8
2
  6
CONTINUOUS
 62
     7
 10
1189.788419
 20
3424.113824
 30
0.0
  0
VERTEX
  5
887
  8
2
  6
CONTINUOUS
 62
     7
 10
1203.788419
 20
3424.113824
 30
0.0
 42
0.4142140000000001
  0
VERTEX
  5
888
  8
2
  6
CONTINUOUS
 62
     7
 10
1205.788419
 20
3426.113824
 30
0.0
  0
VERTEX
  5
889
  8
2
  6
CONTINUOUS
 62
     7
 10
1205.788419
 20
3466.543557
 30
0.0
 42
-0.329708
  0
VERTEX
  5
88A
  8
2
  6
CONTINUOUS
 62
     7
 10
1207.2033839999999
 20
3468.4560770000012
 30
0.0
 42
0.316556
  0
VERTEX
  5
88B
  8
2
  6
CONTINUOUS
 62
     7
 10
1309.623926
 20
3600.2090619999999
 30
0.0
 42
-0.400329
  0
VERTEX
  5
88C
  8
2
  6
CONTINUOUS
 62
     7
 10
1311.5884189999999
 20
3602.113824
 30
0.0
  0
VERTEX
  5
88D
  8
2
  6
CONTINUOUS
 62
     7
 10
1323.0884189999999
 20
3602.113824
 30
0.0
 42
0.4142140000000001
  0
VERTEX
  5
88E
  8
2
  6
CONTINUOUS
 62
     7
 10
1325.0884189999999
 20
3604.1138240000009
 30
0.0
  0
VERTEX
  5
88F
  8
2
  6
CONTINUOUS
 62
     7
 10
1325.0884189999999
 20
3605.113824
 30
0.0
 42
0.4142140000000001
  0
VERTEX
  5
890
  8
2
  6
CONTINUOUS
 62
     7
 10
1323.0884189999999
 20
3607.1138240000009
 30
0.0
  0
VERTEX
  5
891
  8
2
  6
CONTINUOUS
 62
     7
 10
1306.788419
 20
3607.1138240000009
 30
0.0
  0
SEQEND
  5
892
  8
2
  6
CONTINUOUS
 62
     7
  0
INSERT
  5
44C
  8
LAYER01
  2
ABS5-G1
 10
0.0
 20
0.0
 30
0.0
  0
DIMENSION
  5
44D
  8
LAYER01
 62
     7
  2
*D1
 10
1141.788419
 20
3350.9392079999998
 30
0.0
 11
1274.3598469999999
 21
3380.9392079999998
 31
0.0
 13
1187.788419
 23
3420.4138240000011
 33
0.0
 14
1141.788419
 24
3420.4138240000011
 34
0.0
  0
DIMENSION
  5
44E
  8
LAYER01
 62
     7
  2
*D2
 10
1123.788419
 20
3263.6266030000002
 30
0.0
 11
1164.788419
 21
3293.6266030000002
 31
0.0
 13
1205.788419
 23
3420.4138240000011
 33
0.0
 14
1123.788419
 24
3420.4138240000011
 34
0.0
  0
POLYLINE
  5
44F
  8
2
  6
CONTINUOUS
 62
     7
 66
     1
 10
0.0
 20
0.0
 30
0.0
  0
VERTEX
  5
893
  8
2
  6
CONTINUOUS
 62
     7
 10
1022.802504
 20
3607.1138240000009
 30
0.0
 42
-0.410094
  0
VERTEX
  5
894
  8
2
  6
CONTINUOUS
 62
     7
 10
1024.802306
 20
3605.1419959999998
 30
0.0
 42
0.359297
  0
VERTEX
  5
895
  8
2
  6
CONTINUOUS
 62
     7
 10
1140.140531
 20
3469.3006110000001
 30
0.0
 42
-0.363278
  0
VERTEX
  5
896
  8
2
  6
CONTINUOUS
 62
     7
 10
1141.788419
 20
3467.3138240000012
 30
0.0
  0
VERTEX
  5
897
  8
2
  6
CONTINUOUS
 62
     7
 10
1141.788419
 20
3426.113824
 30
0.0
 42
-0.4142140000000001
  0
VERTEX
  5
898
  8
2
  6
CONTINUOUS
 62
     7
 10
1139.788419
 20
3424.113824
 30
0.0
  0
VERTEX
  5
899
  8
2
  6
CONTINUOUS
 62
     7
 10
1125.788419
 20
3424.113824
 30
0.0
 42
-0.4142140000000001
  0
VERTEX
  5
89A
  8
2
  6
CONTINUOUS
 62
     7
 10
1123.788419
 20
3426.113824
 30
0.0
  0
VERTEX
  5
89B
  8
2
  6
CONTINUOUS
 62
     7
 10
1123.788419
 20
3466.543557
 30
0.0
 42
0.329708
  0
VERTEX
  5
89C
  8
2
  6
CONTINUOUS
 62
     7
 10
1122.3734529999999
 20
3468.4560770000012
 30
0.0
 42
-0.316556
  0
VERTEX
  5
89D
  8
2
  6
CONTINUOUS
 62
     7
 10
1019.952911
 20
3600.2090619999999
 30
0.0
 42
0.400329
  0
VERTEX
  5
89E
  8
2
  6
CONTINUOUS
 62
     7
 10
1017.988419
 20
3602.113824
 30
0.0
  0
VERTEX
  5
89F
  8
2
  6
CONTINUOUS
 62
     7
 10
1006.488419
 20
3602.113824
 30
0.0
 42
-0.4142140000000001
  0
VERTEX
  5
8A0
  8
2
  6
CONTINUOUS
 62
     7
 10
1004.488419
 20
3604.1138240000009
 30
0.0
  0
VERTEX
  5
8A1
  8
2
  6
CONTINUOUS
 62
     7
 10
1004.488419
 20
3605.113824
 30
0.0
 42
-0.4142140000000001
  0
VERTEX
  5
8A2
  8
2
  6
CONTINUOUS
 62
     7
 10
1006.488419
 20
3607.1138240000009
 30
0.0
  0
VERTEX
  5
8A3
  8
2
  6
CONTINUOUS
 62
     7
 10
1022.788419
 20
3607.1138240000009
 30
0.0
  0
SEQEND
  5
8A4
  8
2
  6
CONTINUOUS
 62
     7
  0
LINE
  5
462
  8
5
  6
CONTINUOUS
 62
     7
 10
1068.5884189999999
 20
3505.4138240000002
 30
0.0
 11
1137.0884189999999
 21
3577.8138240000012
 31
0.0
  0
INSERT
  5
463
  8
LAYER01
  2
ABS5-G4
 10
0.0
 20
0.0
 30
0.0
  0
DIMENSION
  5
464
  8
LAYER01
 62
     7
  2
*D4
 10
840.85192500000005
 20
3336.4138240000002
 30
0.0
 11
810.85192500000005
 21
3476.4138240000002
 31
0.0
 53
90.0
 13
783.55302800000004
 23
3616.4138240000002
 33
0.0
 14
783.55302800000004
 24
3336.4138240000002
 34
0.0
 50
90.0
  0
DIMENSION
  5
465
  8
LAYER01
 62
     7
  2
*D5
 10
901.65891699999986
 20
3316.4138240000002
 30
0.0
 11
871.65891699999997
 21
3476.4638239999999
 31
0.0
 53
90.0
 13
783.55302800000004
 23
3636.5138240000001
 33
0.0
 14
783.55302800000004
 24
3316.4138240000002
 34
0.0
 50
90.0
  0
POLYLINE
  5
466
  8
5
  6
CONTINUOUS
 62
     7
 66
     1
 10
0.0
 20
0.0
 30
0.0
 70
     1
  0
VERTEX
  5
8A5
  8
5
  6
CONTINUOUS
 62
     7
 10
1081.6884190000001
 20
3513.7138240000008
 30
0.0
  0
VERTEX
  5
8A6
  8
5
  6
CONTINUOUS
 62
     7
 10
1068.5884189999999
 20
3505.4138240000002
 30
0.0
  0
VERTEX
  5
8A7
  8
5
  6
CONTINUOUS
 62
     7
 10
1076.1884190000001
 20
3518.8138239999998
 30
0.0
  0
SEQEND
  5
8A8
  8
5
  6
CONTINUOUS
 62
     7
  0
LINE
  5
46B
  8
2
  6
CONTINUOUS
 62
     7
 10
1140.788419
 20
3469.013824000001
 30
0.0
 11
1187.788419
 21
3469.013824000001
 31
0.0
  0
LINE
  5
46C
  8
2
  6
CONTINUOUS
 62
     7
 10
1138.988419
 20
3424.113824
 30
0.0
 11
1192.3884190000001
 21
3424.113824
 31
0.0
  0
LINE
  5
46D
  8
2
  6
CONTINUOUS
 62
     7
 10
1164.788419
 20
3413.613824
 30
0.0
 11
1164.788419
 21
3476.7138239999999
 31
0.0
  0
TEXT
  5
46E
  8
5
  6
CONTINUOUS
 62
     7
 10
1109.8884190000001
 20
3559.9138240000011
 30
0.0
 40
15.0
  1
140
 50
46.607880000000002
 41
0.8
  7
ROMANS
  0
TEXT
  5
46F
  8
5
  6
CONTINUOUS
 62
     7
 10
1097.488419
 20
3546.8138239999998
 30
0.0
 40
15.0
  1
R
 50
46.607880000000002
 41
0.8
  7
ROMANS
  0
DIMENSION
  5
470
  8
LAYER01
 62
     7
  2
*D6
 10
1532.6337020000001
 20
3424.113824
 30
0.0
 11
1502.6337020000001
 21
3515.5638239999998
 31
0.0
 53
90.0
 13
1326.899973
 23
3607.0138240000001
 33
0.0
 14
1326.899973
 24
3424.113824
 34
0.0
 50
90.0
  0
DIMENSION
  5
471
  8
LAYER01
 62
     7
  2
*D7
 10
1419.8119799999999
 20
3471.0138240000001
 30
0.0
 11
1389.8119799999999
 21
3539.72811
 31
0.0
 53
90.0
 13
1326.899973
 23
3607.0138240000001
 33
0.0
 14
1326.899973
 24
3471.0138240000001
 34
0.0
 50
90.0
  0
LINE
  5
472
  8
2
  6
CONTINUOUS
 62
     7
 10
1306.788419
 20
3607.1138240000009
 30
0.0
 11
1323.0884189999999
 21
3607.1138240000009
 31
0.0
  0
INSERT
  5
473
  8
LAYER01
  2
ABS5-G9
 10
0.0
 20
0.0
 30
0.0
  0
INSERT
  5
474
  8
LAYER01
  2
ABS5-G11
 10
0.0
 20
0.0
 30
0.0
  0
TEXT
  5
475
  8
LAYER01
  6
STRICHPUNKTIERT
 62
     7
 10
2584.450554
 20
2297.4714020000001
 30
0.0
 40
43.651061999999989
  1
http://www.mineralwerkstoff.de
  0
TEXT
  5
476
  8
LAYER01
  6
VERDECKT
 62
     1
 10
3261.468085
 20
2061.7352089999999
 30
0.0
 40
25.0
  1
A. Sprenger GmbH
  7
SIMPLEX
  0
TEXT
  5
477
  8
LAYER01
  6
CONTINUOUS
 62
     7
 10
3253.3579289999998
 20
2216.5568779999999
 30
0.0
 40
7.5
  1
Diese Zeichnung ist geistiges Eigentum der A. Sprenger GmbH
  7
SIMPLEX
  0
TEXT
  5
478
  8
LAYER01
  6
CONTINUOUS
 62
     7
 10
3253.3579289999998
 20
2203.6997350000001
 30
0.0
 40
7.5
  1
und urheberrechtlich geschützt. Ohne unsere Zustimmung darf 
  7
SIMPLEX
  0
TEXT
  5
479
  8
LAYER01
  6
CONTINUOUS
 62
     7
 10
3253.3579289999998
 20
2190.842592
 30
0.0
 40
7.5
  1
sie in keiner Form verwendet oder Dritten zugänglich gemacht
  7
SIMPLEX
  0
TEXT
  5
47A
  8
LAYER01
  6
CONTINUOUS
 62
     7
 10
3253.3579289999998
 20
2177.9854489999998
 30
0.0
 40
7.5
  1
werden. (§106 Urheberrecht)
  7
SIMPLEX
  0
TEXT
  5
47B
  8
LAYER01
  6
VERDECKT
 62
     1
 10
3261.468085
 20
1963.5523250000001
 30
0.0
 40
35.0
  1
ABS5
  7
SIMPLEX
  0
TEXT
  5
47C
  8
LAYER01
  6
VERDECKT
 62
     1
 10
3125.9591780000001
 20
2003.8138739999999
 30
0.0
 40
10.0
  1
b.s.
  7
SIMPLEX
  0
TEXT
  5
47D
  8
LAYER01
  6
VERDECKT
 62
     1
 10
3029.8020219999999
 20
2003.8504109999999
 30
0.0
 40
10.0
  1
24.2.2022
  7
SIMPLEX
  0
TEXT
  5
47E
  8
LAYER01
  6
VERDECKT
 62
     1
 10
3327.4118130000002
 20
2126.2135210000001
 30
0.0
 40
10.0
  1
1 : 10 (DIN A3)
  7
SIMPLEX
  0
TEXT
  5
47F
  8
LAYER01
  6
VERDECKT
 62
     1
 10
3585.1404069999999
 20
2126.2135210000001
 30
0.0
 40
10.0
  1
abs5.skd
  7
SIMPLEX
  0
ENDSEC
  0
EOF