  0
SECTION
  2
HEADER
  9
$ACADVER
  1
AC1009
  9
$INSBASE
 10
0.0
 20
0.0
 30
0.0
  9
$EXTMIN
 10
693.10736957518475
 20
26.947416831585539
 30
-0.0015258207003583
  9
$EXTMAX
 10
4656.5625694951223
 20
2907.6684013062732
 30
0.0000000349246037
  9
$LIMMIN
 10
592.93951300000003
 20
-63.869999999999997
  9
$LIMMAX
 10
4792.9395130000003
 20
2906.1300000000001
  9
$ORTHOMODE
 70
     0
  9
$REGENMODE
 70
     1
  9
$FILLMODE
 70
     1
  9
$QTEXTMODE
 70
     0
  9
$MIRRTEXT
 70
     0
  9
$DRAGMODE
 70
     2
  9
$LTSCALE
 40
5.0
  9
$OSMODE
 70
    37
  9
$ATTMODE
 70
     1
  9
$TEXTSIZE
 40
0.0
  9
$TRACEWID
 40
0.05
  9
$TEXTSTYLE
  7
STANDARD
  9
$CLAYER
  8
LAYER01
  9
$CELTYPE
  6
CONTINUOUS
  9
$CECOLOR
 62
     7
  9
$DIMSCALE
 40
1.0
  9
$DIMASZ
 40
0.18
  9
$DIMEXO
 40
0.0625
  9
$DIMDLI
 40
0.38
  9
$DIMRND
 40
0.0
  9
$DIMDLE
 40
0.0
  9
$DIMEXE
 40
0.18
  9
$DIMTP
 40
0.0
  9
$DIMTM
 40
0.0
  9
$DIMTXT
 40
0.18
  9
$DIMCEN
 40
0.09
  9
$DIMTSZ
 40
0.0
  9
$DIMTOL
 70
     0
  9
$DIMLIM
 70
     0
  9
$DIMTIH
 70
     1
  9
$DIMTOH
 70
     1
  9
$DIMSE1
 70
     0
  9
$DIMSE2
 70
     0
  9
$DIMTAD
 70
     0
  9
$DIMZIN
 70
     0
  9
$DIMBLK
  1

  9
$DIMASO
 70
     1
  9
$DIMSHO
 70
     1
  9
$DIMPOST
  1

  9
$DIMAPOST
  1

  9
$DIMALT
 70
     0
  9
$DIMALTD
 70
     2
  9
$DIMALTF
 40
25.399999999999999
  9
$DIMLFAC
 40
1.0
  9
$DIMTOFL
 70
     0
  9
$DIMTVP
 40
0.0
  9
$DIMTIX
 70
     0
  9
$DIMSOXD
 70
     0
  9
$DIMSAH
 70
     0
  9
$DIMBLK1
  1

  9
$DIMBLK2
  1

  9
$DIMSTYLE
  2
STANDARD
  9
$DIMCLRD
 70
     0
  9
$DIMCLRE
 70
     0
  9
$DIMCLRT
 70
     0
  9
$DIMTFAC
 40
1.0
  9
$DIMGAP
 40
0.09
  9
$LUNITS
 70
     2
  9
$LUPREC
 70
     4
  9
$SKETCHINC
 40
0.1
  9
$FILLETRAD
 40
8.0
  9
$AUNITS
 70
     0
  9
$AUPREC
 70
     0
  9
$MENU
  1
acad
  9
$ELEVATION
 40
0.0
  9
$PELEVATION
 40
0.0
  9
$THICKNESS
 40
0.0
  9
$LIMCHECK
 70
     0
  9
$BLIPMODE
 70
     0
  9
$CHAMFERA
 40
0.0
  9
$CHAMFERB
 40
0.0
  9
$SKPOLY
 70
     0
  9
$TDCREATE
 40
2305814.0418986692
  9
$TDUPDATE
 40
2459640.5804168978
  9
$TDINDWG
 40
0.0003301157
  9
$TDUSRTIMER
 40
0.0003300347
  9
$USRTIMER
 70
     1
  9
$ANGBASE
 50
0.0
  9
$ANGDIR
 70
     0
  9
$PDMODE
 70
     0
  9
$PDSIZE
 40
0.0
  9
$PLINEWID
 40
0.0
  9
$COORDS
 70
     0
  9
$SPLFRAME
 70
     0
  9
$SPLINETYPE
 70
     6
  9
$SPLINESEGS
 70
    10
  9
$ATTDIA
 70
     0
  9
$ATTREQ
 70
     1
  9
$HANDLING
 70
     1
  9
$HANDSEED
  5
8A4
  9
$SURFTAB1
 70
     6
  9
$SURFTAB2
 70
     6
  9
$SURFTYPE
 70
     6
  9
$SURFU
 70
     6
  9
$SURFV
 70
     6
  9
$UCSNAME
  2

  9
$UCSORG
 10
0.0
 20
0.0
 30
0.0
  9
$UCSXDIR
 10
1.0
 20
0.0
 30
0.0
  9
$UCSYDIR
 10
0.0
 20
1.0
 30
0.0
  9
$PUCSNAME
  2

  9
$PUCSORG
 10
0.0
 20
0.0
 30
0.0
  9
$PUCSXDIR
 10
1.0
 20
0.0
 30
0.0
  9
$PUCSYDIR
 10
0.0
 20
1.0
 30
0.0
  9
$USERI1
 70
     0
  9
$USERI2
 70
     0
  9
$USERI3
 70
     0
  9
$USERI4
 70
     0
  9
$USERI5
 70
     0
  9
$USERR1
 40
0.0
  9
$USERR2
 40
0.0
  9
$USERR3
 40
0.0
  9
$USERR4
 40
0.0
  9
$USERR5
 40
0.0
  9
$WORLDVIEW
 70
     1
  9
$SHADEDGE
 70
     3
  9
$SHADEDIF
 70
    70
  9
$TILEMODE
 70
     1
  9
$MAXACTVP
 70
    64
  9
$PLIMCHECK
 70
     0
  9
$PEXTMIN
 10
1.0000000000000000E+020
 20
1.0000000000000000E+020
 30
1.0000000000000000E+020
  9
$PEXTMAX
 10
-1.0000000000000000E+020
 20
-1.0000000000000000E+020
 30
-1.0000000000000000E+020
  9
$PLIMMIN
 10
0.0
 20
0.0
  9
$PLIMMAX
 10
12.0
 20
9.0
  9
$UNITMODE
 70
     0
  9
$VISRETAIN
 70
     1
  9
$PLINEGEN
 70
     0
  9
$PSLTSCALE
 70
     1
  0
ENDSEC
  0
SECTION
  2
TABLES
  0
TABLE
  2
VPORT
 70
     1
  0
VPORT
  2
*ACTIVE
 70
     0
 10
0.0
 20
0.0
 11
1.0
 21
1.0
 12
2692.9395130000012
 22
1421.8992006531359
 13
0.0
 23
0.0
 14
1.0
 24
1.0
 15
0.0
 25
0.0
 16
0.0
 26
0.0
 36
1.0
 17
0.0
 27
0.0
 37
0.0
 40
2999.137829182182
 41
1.91937984496124
 42
50.0
 43
0.0
 44
0.0
 50
0.0
 51
0.0
 71
     0
 72
   100
 73
     1
 74
     1
 75
     0
 76
     0
 77
     0
 78
     0
  0
ENDTAB
  0
TABLE
  2
LTYPE
 70
    11
  0
LTYPE
  2
CONTINUOUS
 70
     0
  3
Solid line
 72
    65
 73
     0
 40
0.0
  0
LTYPE
  2
GESTRICHELT
 70
     0
  3
__ __ __ __ __ __ __ __ __ __ __ __ __ __ __
 72
    65
 73
     2
 40
0.75
 49
0.5
 49
-0.25
  0
LTYPE
  2
VERDECKT
 70
     0
  3
_ _ _ _ _ _ _ _ _ _ _ _ _ _ _ _ _ _ _ _ _ _ 
 72
    65
 73
     2
 40
0.25
 49
0.125
 49
-0.125
  0
LTYPE
  2
MITTELLINIE
 70
     0
  3
____ _ ____ _ ____ _ ____ _ ____ _ ____ _ __
 72
    65
 73
     4
 40
2.0
 49
1.25
 49
-0.25
 49
0.25
 49
-0.25
  0
LTYPE
  2
PHANTOM
 70
     0
  3
_____ _ _ _____ _ _ _____ _ _ _____ _ _ ____
 72
    65
 73
     6
 40
2.5
 49
1.25
 49
-0.25
 49
0.25
 49
-0.25
 49
0.25
 49
-0.25
  0
LTYPE
  2
PUNKTIERT
 70
     0
  3
............................................
 72
    65
 73
     2
 40
0.25
 49
0.0
 49
-0.25
  0
LTYPE
  2
STRICHPUNKTIERT
 70
     0
  3
__ . __ . __ . __ . __ . __ . __ . __ . __ .
 72
    65
 73
     4
 40
1.0
 49
0.5
 49
-0.25
 49
0.0
 49
-0.25
  0
LTYPE
  2
RAND
 70
     0
  3
__ __ . __ __ . __ __ . __ __ . __ __ . __ _
 72
    65
 73
     6
 40
1.75
 49
0.5
 49
-0.25
 49
0.5
 49
-0.25
 49
0.0
 49
-0.25
  0
LTYPE
  2
TRENNLINIE
 70
     0
  3
__ . . __ . . __ . . __ . . __ . . __ . . __
 72
    65
 73
     6
 40
1.25
 49
0.5
 49
-0.25
 49
0.0
 49
-0.25
 49
0.0
 49
-0.25
  0
LTYPE
  2
ENG_PUNKTIERT
 70
     0
  3
Schließen                                   
 72
    65
 73
     2
 40
0.1
 49
0.05
 49
-0.05
  0
LTYPE
  2
CLOSE
 70
     0
  3
                                            
 72
    65
 73
     0
 40
0.0
  0
ENDTAB
  0
TABLE
  2
LAYER
 70
   257
  0
LAYER
  2
0
 70
     0
 62
     7
  6
CONTINUOUS
  0
LAYER
  2
LAYER01
 70
     0
 62
     7
  6
CONTINUOUS
  0
LAYER
  2
LAYER02
 70
     0
 62
     7
  6
CONTINUOUS
  0
LAYER
  2
LAYER03
 70
     0
 62
     7
  6
CONTINUOUS
  0
LAYER
  2
LAYER04
 70
     0
 62
     7
  6
CONTINUOUS
  0
LAYER
  2
LAYER05
 70
     0
 62
     7
  6
CONTINUOUS
  0
LAYER
  2
LAYER06
 70
     0
 62
     7
  6
CONTINUOUS
  0
LAYER
  2
LAYER07
 70
     0
 62
     7
  6
CONTINUOUS
  0
LAYER
  2
LAYER08
 70
     0
 62
     7
  6
CONTINUOUS
  0
LAYER
  2
LAYER09
 70
     0
 62
     7
  6
CONTINUOUS
  0
LAYER
  2
LAYER10
 70
     0
 62
     7
  6
CONTINUOUS
  0
LAYER
  2
2
 70
     0
 62
     7
  6
CONTINUOUS
  0
LAYER
  2
5
 70
     0
 62
     7
  6
CONTINUOUS
  0
LAYER
  2
RAUMAUFM
 70
     0
 62
     7
  6
CONTINUOUS
  0
LAYER
  2
EINRICHT
 70
     0
 62
     7
  6
CONTINUOUS
  0
LAYER
  2
HILFE
 70
     0
 62
     7
  6
CONTINUOUS
  0
LAYER
  2
SCHNITTE
 70
     0
 62
     7
  6
CONTINUOUS
  0
LAYER
  2
SCHRAFF1
 70
     0
 62
     7
  6
CONTINUOUS
  0
LAYER
  2
SCHRAFF2
 70
     0
 62
     7
  6
CONTINUOUS
  0
LAYER
  2
BEMASS-1
 70
     0
 62
     7
  6
CONTINUOUS
  0
LAYER
  2
BEMASS-2
 70
     0
 62
     7
  6
CONTINUOUS
  0
LAYER
  2
TEXT
 70
     0
 62
     7
  6
CONTINUOUS
  0
LAYER
  2
SYMBOLE
 70
     0
 62
     7
  6
CONTINUOUS
  0
LAYER
  2
RAHMEN
 70
     0
 62
     7
  6
CONTINUOUS
  0
LAYER
  2
SCHRIFTF
 70
     0
 62
     7
  6
CONTINUOUS
  0
LAYER
  2
ACHSEN
 70
     0
 62
     7
  6
CONTINUOUS
  0
LAYER
  2
ZEICHN
 70
     0
 62
     7
  6
CONTINUOUS
  0
LAYER
  2
7
 70
     0
 62
     7
  6
CONTINUOUS
  0
LAYER
  2
1
 70
     0
 62
     7
  6
CONTINUOUS
  0
LAYER
  2
6
 70
     0
 62
     7
  6
CONTINUOUS
  0
LAYER
  2
4
 70
     0
 62
     7
  6
CONTINUOUS
  0
LAYER
  2
GRUNDEBENE
 70
     0
 62
     7
  6
CONTINUOUS
  0
LAYER
  2
GRUNDRISS
 70
     0
 62
     7
  6
CONTINUOUS
  0
LAYER
  2
BEMASSUNGGRUNDRISS
 70
     0
 62
     7
  6
CONTINUOUS
  0
LAYER
  2
WANDELEMENTE
 70
     0
 62
     7
  6
CONTINUOUS
  0
LAYER
  2
KUECHE
 70
     0
 62
     7
  6
CONTINUOUS
  0
LAYER
  2
THEKEBROETCHEN
 70
     0
 62
     7
  6
CONTINUOUS
  0
LAYER
  2
CENTERLINIE
 70
     0
 62
     7
  6
CONTINUOUS
  0
LAYER
  2
UMRISSE
 70
     0
 62
     7
  6
CONTINUOUS
  0
LAYER
  2
MAUER
 70
     0
 62
     7
  6
CONTINUOUS
  0
LAYER
  2
SCHRAFFUR
 70
     0
 62
     7
  6
CONTINUOUS
  0
LAYER
  2
MASSLINIE
 70
     0
 62
     7
  6
CONTINUOUS
  0
LAYER
  2
PV
 70
     0
 62
     7
  6
CONTINUOUS
  0
LAYER
  2
BESCHRIFTUNG
 70
     0
 62
     7
  6
CONTINUOUS
  0
LAYER
  2
AS
 70
     0
 62
     7
  6
CONTINUOUS
  0
LAYER
  2
PL
 70
     0
 62
     7
  6
CONTINUOUS
  0
LAYER
  2
UK
 70
     0
 62
     7
  6
CONTINUOUS
  0
LAYER
  2
TEXT3
 70
     0
 62
     7
  6
CONTINUOUS
  0
LAYER
  2
TEXT7
 70
     0
 62
     7
  6
CONTINUOUS
  0
LAYER
  2
BEPL1
 70
     0
 62
     7
  6
CONTINUOUS
  0
LAYER
  2
BEPL2
 70
     0
 62
     7
  6
CONTINUOUS
  0
LAYER
  2
BEPL2V
 70
     0
 62
     7
  6
CONTINUOUS
  0
LAYER
  2
BEPL4
 70
     0
 62
     7
  6
CONTINUOUS
  0
LAYER
  2
BEPL
 70
     0
 62
     7
  6
CONTINUOUS
  0
LAYER
  2
UK1
 70
     0
 62
     7
  6
CONTINUOUS
  0
LAYER
  2
UK2
 70
     0
 62
     7
  6
CONTINUOUS
  0
LAYER
  2
UK2V
 70
     0
 62
     7
  6
CONTINUOUS
  0
LAYER
  2
UK3
 70
     0
 62
     7
  6
CONTINUOUS
  0
LAYER
  2
TEXT2
 70
     0
 62
     7
  6
CONTINUOUS
  0
LAYER
  2
HILF2S
 70
     0
 62
     7
  6
CONTINUOUS
  0
LAYER
  2
UK1V
 70
     0
 62
     7
  6
CONTINUOUS
  0
LAYER
  2
GAIN_ZRA
 70
     0
 62
     7
  6
CONTINUOUS
  0
LAYER
  2
GAIN_ZSF
 70
     0
 62
     7
  6
CONTINUOUS
  0
LAYER
  2
RAHM4
 70
     0
 62
     7
  6
CONTINUOUS
  0
LAYER
  2
KORPUSBAND
 70
     0
 62
     7
  6
CONTINUOUS
  0
LAYER
  2
E---LGPL--------
 70
     0
 62
     7
  6
CONTINUOUS
  0
LAYER
  2
E---NPFL--------
 70
     0
 62
     7
  6
CONTINUOUS
  0
LAYER
  2
E---PLNKTXT-----
 70
     0
 62
     7
  6
CONTINUOUS
  0
LAYER
  2
E---PLNK--------
 70
     0
 62
     7
  6
CONTINUOUS
  0
LAYER
  2
E---PLNR--------
 70
     0
 62
     7
  6
CONTINUOUS
  0
LAYER
  2
D547_ARCHICAD
 70
     0
 62
     7
  6
CONTINUOUS
  0
LAYER
  2
D547_E---TEXT--------
 70
     0
 62
     7
  6
CONTINUOUS
  0
LAYER
  2
E---LEGD--------
 70
     0
 62
     7
  6
CONTINUOUS
  0
LAYER
  2
D43_ARCHICAD
 70
     0
 62
     7
  6
CONTINUOUS
  0
LAYER
  2
D43_FENSTER_VON_B---FASS--
 70
     0
 62
     7
  6
CONTINUOUS
  0
LAYER
  2
D43_E---SCHN--------
 70
     0
 62
     7
  6
CONTINUOUS
  0
LAYER
  2
D43_B---MW-N--------
 70
     0
 62
     7
  6
CONTINUOUS
  0
LAYER
  2
D43_B---DECK--------
 70
     0
 62
     7
  6
CONTINUOUS
  0
LAYER
  2
D43_B---MW-S--------
 70
     0
 62
     7
  6
CONTINUOUS
  0
LAYER
  2
D43_B---MW----------
 70
     0
 62
     7
  6
CONTINUOUS
  0
LAYER
  2
D43_B---FASS--------
 70
     0
 62
     7
  6
CONTINUOUS
  0
LAYER
  2
D43_E---RASG--------
 70
     0
 62
     7
  6
CONTINUOUS
  0
LAYER
  2
D40_ARCHICAD
 70
     0
 62
     7
  6
CONTINUOUS
  0
LAYER
  2
D40_E---MW--------
 70
     0
 62
     7
  6
CONTINUOUS
  0
LAYER
  2
D40_E---FASSKON-----
 70
     0
 62
     7
  6
CONTINUOUS
  0
LAYER
  2
D40_TÜREN_VON_B---MW-N----
 70
     0
 62
     7
  6
CONTINUOUS
  0
LAYER
  2
D40_E---MW-L------
 70
     0
 62
     7
  6
CONTINUOUS
  0
LAYER
  2
D40_TÜREN_VON_B---MW------
 70
     0
 62
     7
  6
CONTINUOUS
  0
LAYER
  2
D40_E---VERM--------
 70
     0
 62
     7
  6
CONTINUOUS
  0
LAYER
  2
D40_FENSTER_VON_E---MW-L--
 70
     0
 62
     7
  6
CONTINUOUS
  0
LAYER
  2
D40_FENSTER_VON_B---MW-N--
 70
     0
 62
     7
  6
CONTINUOUS
  0
LAYER
  2
D40_E---SCHN--------
 70
     0
 62
     7
  6
CONTINUOUS
  0
LAYER
  2
D40_E---AUFZ--------
 70
     0
 62
     7
  6
CONTINUOUS
  0
LAYER
  2
D40_E---DECK--------
 70
     0
 62
     7
  6
CONTINUOUS
  0
LAYER
  2
D40_E---RAUMINF-----
 70
     0
 62
     7
  6
CONTINUOUS
  0
LAYER
  2
D40_E---TEXT--------
 70
     0
 62
     7
  6
CONTINUOUS
  0
LAYER
  2
D40_B---TEXT--------
 70
     0
 62
     7
  6
CONTINUOUS
  0
LAYER
  2
D40_B---MW-N--------
 70
     0
 62
     7
  6
CONTINUOUS
  0
LAYER
  2
D40_B---DECK--------
 70
     0
 62
     7
  6
CONTINUOUS
  0
LAYER
  2
D40_B---AUFZ--------
 70
     0
 62
     7
  6
CONTINUOUS
  0
LAYER
  2
D40_B---MW-S--------
 70
     0
 62
     7
  6
CONTINUOUS
  0
LAYER
  2
D40_B---MW----------
 70
     0
 62
     7
  6
CONTINUOUS
  0
LAYER
  2
D40_E---MOEB--------
 70
     0
 62
     7
  6
CONTINUOUS
  0
LAYER
  2
D40_B---UMGB--------
 70
     0
 62
     7
  6
CONTINUOUS
  0
LAYER
  2
D40_B---FASS--------
 70
     0
 62
     7
  6
CONTINUOUS
  0
LAYER
  2
D40_E---DACH--------
 70
     0
 62
     7
  6
CONTINUOUS
  0
LAYER
  2
D40_E---BODE--------
 70
     0
 62
     7
  6
CONTINUOUS
  0
LAYER
  2
D40_E---TREP--------
 70
     0
 62
     7
  6
CONTINUOUS
  0
LAYER
  2
D40_E---RASG--------
 70
     0
 62
     7
  6
CONTINUOUS
  0
LAYER
  2
D40_B---MW-K--------
 70
     0
 62
     7
  6
CONTINUOUS
  0
LAYER
  2
D40_E---FASSGLA-----
 70
     0
 62
     7
  6
CONTINUOUS
  0
LAYER
  2
D40_B---VERM--------
 70
     0
 62
     7
  6
CONTINUOUS
  0
LAYER
  2
D40_E---UMGBGSG-----
 70
     0
 62
     7
  6
CONTINUOUS
  0
LAYER
  2
D40_E---RASF--------
 70
     0
 62
     7
  6
CONTINUOUS
  0
LAYER
  2
D40_E---PFLA--------
 70
     0
 62
     7
  6
CONTINUOUS
  0
LAYER
  2
D40_E---KONS-ST-----
 70
     0
 62
     7
  6
CONTINUOUS
  0
LAYER
  2
D40_E---WERB--------
 70
     0
 62
     7
  6
CONTINUOUS
  0
LAYER
  2
D40_E---TUERINF-----
 70
     0
 62
     7
  6
CONTINUOUS
  0
LAYER
  2
D40_E---WOLK--------
 70
     0
 62
     7
  6
CONTINUOUS
  0
LAYER
  2
D40_B---MW-L--------
 70
     0
 62
     7
  6
CONTINUOUS
  0
LAYER
  2
D40_B---SANI--------
 70
     0
 62
     7
  6
CONTINUOUS
  0
LAYER
  2
D40_E---SANI--------
 70
     0
 62
     7
  6
CONTINUOUS
  0
LAYER
  2
D40_E---MW-K------
 70
     0
 62
     7
  6
CONTINUOUS
  0
LAYER
  2
D40_E---OBJE--------
 70
     0
 62
     7
  6
CONTINUOUS
  0
LAYER
  2
D40_E---ASPR--------
 70
     0
 62
     7
  6
CONTINUOUS
  0
LAYER
  2
D40_E---VERMTGA-----
 70
     0
 62
     7
  6
CONTINUOUS
  0
LAYER
  2
D40_E---PARK--------
 70
     0
 62
     7
  6
CONTINUOUS
  0
LAYER
  2
D40_E---ISOL--------
 70
     0
 62
     7
  6
CONTINUOUS
  0
LAYER
  2
D40_E---TUER--------
 70
     0
 62
     7
  6
CONTINUOUS
  0
LAYER
  2
D40_E---MW--BRA---
 70
     0
 62
     7
  6
CONTINUOUS
  0
LAYER
  2
D41_ARCHICAD
 70
     0
 62
     7
  6
CONTINUOUS
  0
LAYER
  2
D41_E---MW--------
 70
     0
 62
     7
  6
CONTINUOUS
  0
LAYER
  2
D41_E---FASSKON-----
 70
     0
 62
     7
  6
CONTINUOUS
  0
LAYER
  2
D41_TÜREN_VON_B---MW-N----
 70
     0
 62
     7
  6
CONTINUOUS
  0
LAYER
  2
D41_E---MW-L------
 70
     0
 62
     7
  6
CONTINUOUS
  0
LAYER
  2
D41_TÜREN_VON_B---MW------
 70
     0
 62
     7
  6
CONTINUOUS
  0
LAYER
  2
D41_E---VERM--------
 70
     0
 62
     7
  6
CONTINUOUS
  0
LAYER
  2
D41_FENSTER_VON_E---MW-L--
 70
     0
 62
     7
  6
CONTINUOUS
  0
LAYER
  2
D41_FENSTER_VON_B---MW-N--
 70
     0
 62
     7
  6
CONTINUOUS
  0
LAYER
  2
D41_E---SCHN--------
 70
     0
 62
     7
  6
CONTINUOUS
  0
LAYER
  2
D41_E---AUFZ--------
 70
     0
 62
     7
  6
CONTINUOUS
  0
LAYER
  2
D41_E---DECK--------
 70
     0
 62
     7
  6
CONTINUOUS
  0
LAYER
  2
D41_E---RAUMINF-----
 70
     0
 62
     7
  6
CONTINUOUS
  0
LAYER
  2
D41_E---TEXT--------
 70
     0
 62
     7
  6
CONTINUOUS
  0
LAYER
  2
D41_B---TEXT--------
 70
     0
 62
     7
  6
CONTINUOUS
  0
LAYER
  2
D41_B---MW-N--------
 70
     0
 62
     7
  6
CONTINUOUS
  0
LAYER
  2
D41_B---DECK--------
 70
     0
 62
     7
  6
CONTINUOUS
  0
LAYER
  2
D41_B---AUFZ--------
 70
     0
 62
     7
  6
CONTINUOUS
  0
LAYER
  2
D41_B---MW-S--------
 70
     0
 62
     7
  6
CONTINUOUS
  0
LAYER
  2
D41_B---MW----------
 70
     0
 62
     7
  6
CONTINUOUS
  0
LAYER
  2
D41_E---MOEB--------
 70
     0
 62
     7
  6
CONTINUOUS
  0
LAYER
  2
D41_B---UMGB--------
 70
     0
 62
     7
  6
CONTINUOUS
  0
LAYER
  2
D41_B---FASS--------
 70
     0
 62
     7
  6
CONTINUOUS
  0
LAYER
  2
D41_E---DACH--------
 70
     0
 62
     7
  6
CONTINUOUS
  0
LAYER
  2
D41_E---BODE--------
 70
     0
 62
     7
  6
CONTINUOUS
  0
LAYER
  2
D41_E---TREP--------
 70
     0
 62
     7
  6
CONTINUOUS
  0
LAYER
  2
D41_E---RASG--------
 70
     0
 62
     7
  6
CONTINUOUS
  0
LAYER
  2
D41_B---MW-K--------
 70
     0
 62
     7
  6
CONTINUOUS
  0
LAYER
  2
D41_E---FASSGLA-----
 70
     0
 62
     7
  6
CONTINUOUS
  0
LAYER
  2
D41_B---VERM--------
 70
     0
 62
     7
  6
CONTINUOUS
  0
LAYER
  2
D41_E---UMGBGSG-----
 70
     0
 62
     7
  6
CONTINUOUS
  0
LAYER
  2
D41_E---RASF--------
 70
     0
 62
     7
  6
CONTINUOUS
  0
LAYER
  2
D41_E---PFLA--------
 70
     0
 62
     7
  6
CONTINUOUS
  0
LAYER
  2
D41_E---KONS-ST-----
 70
     0
 62
     7
  6
CONTINUOUS
  0
LAYER
  2
D41_E---WERB--------
 70
     0
 62
     7
  6
CONTINUOUS
  0
LAYER
  2
D41_E---TUERINF-----
 70
     0
 62
     7
  6
CONTINUOUS
  0
LAYER
  2
D41_E---WOLK--------
 70
     0
 62
     7
  6
CONTINUOUS
  0
LAYER
  2
D41_B---MW-L--------
 70
     0
 62
     7
  6
CONTINUOUS
  0
LAYER
  2
D41_B---SANI--------
 70
     0
 62
     7
  6
CONTINUOUS
  0
LAYER
  2
D41_E---SANI--------
 70
     0
 62
     7
  6
CONTINUOUS
  0
LAYER
  2
D41_E---MW-K------
 70
     0
 62
     7
  6
CONTINUOUS
  0
LAYER
  2
D41_E---OBJE--------
 70
     0
 62
     7
  6
CONTINUOUS
  0
LAYER
  2
D41_E---ASPR--------
 70
     0
 62
     7
  6
CONTINUOUS
  0
LAYER
  2
D41_E---VERMTGA-----
 70
     0
 62
     7
  6
CONTINUOUS
  0
LAYER
  2
D41_E---PARK--------
 70
     0
 62
     7
  6
CONTINUOUS
  0
LAYER
  2
D41_E---ISOL--------
 70
     0
 62
     7
  6
CONTINUOUS
  0
LAYER
  2
D41_E---TUER--------
 70
     0
 62
     7
  6
CONTINUOUS
  0
LAYER
  2
D41_E---MW--BRA---
 70
     0
 62
     7
  6
CONTINUOUS
  0
LAYER
  2
D42_ARCHICAD
 70
     0
 62
     7
  6
CONTINUOUS
  0
LAYER
  2
D42_FENSTER_VON_B---FASS--
 70
     0
 62
     7
  6
CONTINUOUS
  0
LAYER
  2
D42_E---SCHN--------
 70
     0
 62
     7
  6
CONTINUOUS
  0
LAYER
  2
D42_B---MW-N--------
 70
     0
 62
     7
  6
CONTINUOUS
  0
LAYER
  2
D42_B---DECK--------
 70
     0
 62
     7
  6
CONTINUOUS
  0
LAYER
  2
D42_B---MW-S--------
 70
     0
 62
     7
  6
CONTINUOUS
  0
LAYER
  2
D42_B---MW----------
 70
     0
 62
     7
  6
CONTINUOUS
  0
LAYER
  2
D42_B---FASS--------
 70
     0
 62
     7
  6
CONTINUOUS
  0
LAYER
  2
D42_E---RASG--------
 70
     0
 62
     7
  6
CONTINUOUS
  0
LAYER
  2
CONSTRUCTION_CLASS
 70
     0
 62
     7
  6
CONTINUOUS
  0
LAYER
  2
PATTERN_CLASS
 70
     0
 62
     7
  6
CONTINUOUS
  0
LAYER
  2
KONSTRUKTION
 70
     0
 62
     7
  6
CONTINUOUS
  0
LAYER
  2
BEMAßUNG
 70
     0
 62
     7
  6
CONTINUOUS
  0
LAYER
  2
HILFSGEOMETRIE
 70
     0
 62
     7
  6
CONTINUOUS
  0
LAYER
  2
UNSICHTBAR
 70
     0
 62
     7
  6
CONTINUOUS
  0
LAYER
  2
LOGO
 70
     0
 62
     7
  6
CONTINUOUS
  0
LAYER
  2
VERWALTUNG
 70
     0
 62
     7
  6
CONTINUOUS
  0
LAYER
  2
UNSICHTBARE_GEWINDE
 70
     0
 62
     7
  6
CONTINUOUS
  0
LAYER
  2
SICHTBARE_GEWINDE
 70
     0
 62
     7
  6
CONTINUOUS
  0
LAYER
  2
DEFPOINTS
 70
     0
 62
     7
  6
CONTINUOUS
  0
LAYER
  2
THICK
 70
     0
 62
     7
  6
CONTINUOUS
  0
LAYER
  2
HIDDEN
 70
     0
 62
     7
  6
CONTINUOUS
  0
LAYER
  2
SCHRAFFURGRUNDRISS
 70
     0
 62
     7
  6
CONTINUOUS
  0
LAYER
  2
BEMASSUNG_GRUNDRISS
 70
     0
 62
     7
  6
CONTINUOUS
  0
LAYER
  2
STATIK
 70
     0
 62
     7
  6
CONTINUOUS
  0
LAYER
  2
TÜREN
 70
     0
 62
     7
  6
CONTINUOUS
  0
LAYER
  2
SANITÄR
 70
     0
 62
     7
  6
CONTINUOUS
  0
LAYER
  2
BEMASSUNG_GIPSKARTON
 70
     0
 62
     7
  6
CONTINUOUS
  0
LAYER
  2
EINRICHTUNGEN
 70
     0
 62
     7
  6
CONTINUOUS
  0
LAYER
  2
BECKEN
 70
     0
 62
     7
  6
CONTINUOUS
  0
LAYER
  2
BELEUCHTUNG
 70
     0
 62
     7
  6
CONTINUOUS
  0
LAYER
  2
BESCHRIFTUNGEN
 70
     0
 62
     7
  6
CONTINUOUS
  0
LAYER
  2
ELEKTRO_1__DOSEN_SCHALTER
 70
     0
 62
     7
  6
CONTINUOUS
  0
LAYER
  2
DEFAULT_1
 70
     0
 62
     7
  6
CONTINUOUS
  0
LAYER
  2
AM_0
 70
     0
 62
     7
  6
CONTINUOUS
  0
LAYER
  2
FRAME0_7
 70
     0
 62
     7
  6
CONTINUOUS
  0
LAYER
  2
AM_BOR
 70
     0
 62
     7
  6
CONTINUOUS
  0
LAYER
  2
RAHM2
 70
     0
 62
     7
  6
CONTINUOUS
  0
LAYER
  2
RAHM3
 70
     0
 62
     7
  6
CONTINUOUS
  0
LAYER
  2
FRAME0_5
 70
     0
 62
     7
  6
CONTINUOUS
  0
LAYER
  2
8
 70
     0
 62
     7
  6
CONTINUOUS
  0
LAYER
  2
AM_5
 70
     0
 62
     7
  6
CONTINUOUS
  0
LAYER
  2
AM_7
 70
     0
 62
     7
  6
CONTINUOUS
  0
LAYER
  2
HILFSLINIEN
 70
     0
 62
     7
  6
CONTINUOUS
  0
LAYER
  2
DRAWING_TEMPLATE
 70
     0
 62
     7
  6
CONTINUOUS
  0
LAYER
  2
TECHNOBOX_EXTERNALREFSYMBO
 70
     0
 62
     7
  6
CONTINUOUS
  0
LAYER
  2
TECHNOBOX_POLYCLIPSYMBOL_L
 70
     0
 62
     7
  6
CONTINUOUS
  0
LAYER
  2
100
 70
     0
 62
     7
  6
CONTINUOUS
  0
LAYER
  2
101
 70
     0
 62
     7
  6
CONTINUOUS
  0
LAYER
  2
KONTUR
 70
     0
 62
     7
  6
CONTINUOUS
  0
LAYER
  2
MITTELLINIE
 70
     0
 62
     7
  6
CONTINUOUS
  0
LAYER
  2
GESTRICHELT
 70
     0
 62
     7
  6
CONTINUOUS
  0
LAYER
  2
HILFSLINIE
 70
     0
 62
     7
  6
CONTINUOUS
  0
LAYER
  2
TEXT-25
 70
     0
 62
     7
  6
CONTINUOUS
  0
LAYER
  2
TEXT35
 70
     0
 62
     7
  6
CONTINUOUS
  0
LAYER
  2
TEXT-50
 70
     0
 62
     7
  6
CONTINUOUS
  0
LAYER
  2
TEXT-70
 70
     0
 62
     7
  6
CONTINUOUS
  0
LAYER
  2
ANSICHTSFENSTER
 70
     0
 62
     7
  6
CONTINUOUS
  0
LAYER
  2
KERA0
 70
     0
 62
     7
  6
CONTINUOUS
  0
LAYER
  2
KERA1
 70
     0
 62
     7
  6
CONTINUOUS
  0
LAYER
  2
KERA2
 70
     0
 62
     7
  6
CONTINUOUS
  0
LAYER
  2
KERA3
 70
     0
 62
     7
  6
CONTINUOUS
  0
LAYER
  2
KERA4
 70
     0
 62
     7
  6
CONTINUOUS
  0
LAYER
  2
KERA5
 70
     0
 62
     7
  6
CONTINUOUS
  0
LAYER
  2
KERA6
 70
     0
 62
     7
  6
CONTINUOUS
  0
LAYER
  2
KERA7
 70
     0
 62
     7
  6
CONTINUOUS
  0
LAYER
  2
20
 70
     0
 62
     7
  6
CONTINUOUS
  0
LAYER
  2
50
 70
     0
 62
     7
  6
CONTINUOUS
  0
LAYER
  2
DRAUFSICHT
 70
     0
 62
     7
  6
CONTINUOUS
  0
LAYER
  2
QUERSCHNITT
 70
     0
 62
     7
  6
CONTINUOUS
  0
LAYER
  2
KERA4___1
 70
     0
 62
     7
  6
CONTINUOUS
  0
LAYER
  2
EBENE_1
 70
     0
 62
     7
  6
CONTINUOUS
  0
LAYER
  2
EBENE_2
 70
     0
 62
     7
  6
CONTINUOUS
  0
LAYER
  2
EBENE_5
 70
     0
 62
     7
  6
CONTINUOUS
  0
LAYER
  2
3
 70
     0
 62
     7
  6
CONTINUOUS
  0
LAYER
  2
GEB-KONTUR-A
 70
     0
 62
     7
  6
CONTINUOUS
  0
LAYER
  2
GEB-SYMETRIE
 70
     0
 62
     7
  6
CONTINUOUS
  0
LAYER
  2
GEB-ART-NR
 70
     0
 62
     7
  6
CONTINUOUS
  0
LAYER
  2
PROJECTION
 70
     0
 62
     7
  6
CONTINUOUS
  0
ENDTAB
  0
TABLE
  2
STYLE
 70
     4
  0
STYLE
  2
STANDARD
 70
     0
 40
0.0
 41
1.0
 50
0.0
 71
     0
 42
0.0
  3
txt
  4

  0
STYLE
  2
ANNOTATIVE
 70
     0
 40
0.0
 41
1.0
 50
0.0
 71
     0
 42
0.2
  3
txt
  4

  0
STYLE
  2
ROMANS
 70
     0
 40
0.0
 41
1.0
 50
0.0
 71
     0
 42
0.0
  3
ROMANS
  4

  0
STYLE
  2
SIMPLEX
 70
     0
 40
0.0
 41
1.0
 50
0.0
 71
     0
 42
0.0
  3
simplex
  4

  0
ENDTAB
  0
TABLE
  2
VIEW
 70
     0
  0
ENDTAB
  0
TABLE
  2
UCS
 70
     0
  0
ENDTAB
  0
TABLE
  2
APPID
 70
     3
  0
APPID
  2
ACAD
 70
     0
  0
APPID
  2
ACADANNOTATIVE
 70
     0
  0
APPID
  2
ACAD_MLEADERVER
 70
     0
  0
ENDTAB
  0
TABLE
  2
DIMSTYLE
 70
     2
  0
DIMSTYLE
  2
STANDARD
 70
     0
  3

  4

  5

  6

  7

 40
1.0
 41
0.18
 42
0.0625
 43
0.38
 44
0.18
 45
0.0
 46
0.0
 47
0.0
 48
0.0
140
0.18
141
0.09
142
0.0
143
25.399999999999999
144
1.0
145
0.0
146
1.0
147
0.09
 71
     0
 72
     0
 73
     1
 74
     1
 75
     0
 76
     0
 77
     0
 78
     0
170
     0
171
     2
172
     0
173
     0
174
     0
175
     0
176
     0
177
     0
178
     0
  0
DIMSTYLE
  2
ANNOTATIVE
 70
     0
  3

  4

  5

  6

  7

 40
1.0
 41
0.18
 42
0.0625
 43
0.38
 44
0.18
 45
0.0
 46
0.0
 47
0.0
 48
0.0
140
0.18
141
0.09
142
0.0
143
25.399999999999999
144
1.0
145
0.0
146
1.0
147
0.09
 71
     0
 72
     0
 73
     1
 74
     1
 75
     0
 76
     0
 77
     0
 78
     0
170
     0
171
     2
172
     0
173
     0
174
     0
175
     0
176
     0
177
     0
178
     0
  0
ENDTAB
  0
ENDSEC
  0
SECTION
  2
BLOCKS
  0
BLOCK
  8
0
  2
$MODEL_SPACE
 70
     0
 10
0.0
 20
0.0
 30
0.0
  3
$MODEL_SPACE
  1

  0
ENDBLK
  5
76
  8
0
  0
BLOCK
 67
     1
  8
0
  2
$PAPER_SPACE
 70
     0
 10
0.0
 20
0.0
 30
0.0
  3
$PAPER_SPACE
  1

  0
ENDBLK
  5
72
 67
     1
  8
0
  0
BLOCK
  8
0
  2
*D0
 70
     1
 10
0.0
 20
0.0
 30
0.0
  3
*D0
  1

  0
LINE
  5
18A
  8
LAYER01
 62
     7
 10
2207.375168
 20
1354.0330530000001
 30
0.0
 11
2311.375168
 21
1354.0330530000001
 31
0.0
  0
LINE
  5
18B
  8
LAYER01
 62
     7
 10
2161.375168
 20
1354.0330530000001
 30
0.0
 11
2057.375168
 21
1354.0330530000001
 31
0.0
  0
LINE
  5
18C
  8
LAYER01
 62
     7
 10
2207.375168
 20
1411.8299219999999
 30
0.0
 11
2207.375168
 21
1321.5330530000001
 31
0.0
  0
LINE
  5
18D
  8
LAYER01
 62
     7
 10
2161.375168
 20
1411.8299219999999
 30
0.0
 11
2161.375168
 21
1321.5330530000001
 31
0.0
  0
SOLID
  5
18E
  8
LAYER01
 62
     7
 10
2259.375168
 20
1362.6993729999999
 30
0.0
 11
2207.375168
 21
1354.0330530000001
 31
0.0
 12
2259.375168
 22
1345.3667330000001
 32
0.0
 13
2259.375168
 23
1345.3667330000001
 33
0.0
  0
SOLID
  5
18F
  8
LAYER01
 62
     7
 10
2109.375168
 20
1362.6993729999999
 30
0.0
 11
2161.375168
 21
1354.0330530000001
 31
0.0
 12
2109.375168
 22
1345.3667330000001
 32
0.0
 13
2109.375168
 23
1345.3667330000001
 33
0.0
  0
TEXT
  5
190
  8
LAYER01
  6
CONTINUOUS
 62
     7
 10
2283.2013729999999
 20
1367.892308
 30
0.0
 40
65.0
  1
46
  0
POINT
  5
191
  8
LAYER01
 62
     7
 10
2207.375168
 20
1437.8299219999999
 30
0.0
  0
POINT
  5
192
  8
LAYER01
 62
     7
 10
2161.375168
 20
1437.8299219999999
 30
0.0
  0
POINT
  5
193
  8
LAYER01
 62
     7
 10
2161.375168
 20
1354.0330530000001
 30
0.0
  0
ENDBLK
  5
194
  8
0
  0
BLOCK
  8
0
  2
*D1
 70
     1
 10
0.0
 20
0.0
 30
0.0
  3
*D1
  1

  0
LINE
  5
197
  8
LAYER01
 62
     7
 10
1713.4717800000001
 20
1254.273817
 30
0.0
 11
1383.4717800000001
 21
1254.273817
 31
0.0
  0
LINE
  5
198
  8
LAYER01
 62
     7
 10
1713.4717800000001
 20
1359.6868910000001
 30
0.0
 11
1713.4717800000001
 21
1221.773817
 31
0.0
  0
LINE
  5
199
  8
LAYER01
 62
     7
 10
1383.4717800000001
 20
1359.6868910000001
 30
0.0
 11
1383.4717800000001
 21
1221.773817
 31
0.0
  0
SOLID
  5
19A
  8
LAYER01
 62
     7
 10
1661.4717800000001
 20
1262.940137
 30
0.0
 11
1713.4717800000001
 21
1254.273817
 31
0.0
 12
1661.4717800000001
 22
1245.607497
 32
0.0
 13
1661.4717800000001
 23
1245.607497
 33
0.0
  0
SOLID
  5
19B
  8
LAYER01
 62
     7
 10
1435.4717800000001
 20
1262.940137
 30
0.0
 11
1383.4717800000001
 21
1254.273817
 31
0.0
 12
1435.4717800000001
 22
1245.607497
 32
0.0
 13
1435.4717800000001
 23
1245.607497
 33
0.0
  0
TEXT
  5
19C
  8
LAYER01
  6
CONTINUOUS
 62
     7
 10
1495.5037580000001
 20
1286.773817
 30
0.0
 40
65.0
  1
330
  0
POINT
  5
19D
  8
LAYER01
 62
     7
 10
1713.4717800000001
 20
1385.6868910000001
 30
0.0
  0
POINT
  5
19E
  8
LAYER01
 62
     7
 10
1383.4717800000001
 20
1385.6868910000001
 30
0.0
  0
POINT
  5
19F
  8
LAYER01
 62
     7
 10
1383.4717800000001
 20
1254.273817
 30
0.0
  0
ENDBLK
  5
1A0
  8
0
  0
BLOCK
  8
0
  2
*D2
 70
     1
 10
0.0
 20
0.0
 30
0.0
  3
*D2
  1

  0
LINE
  5
1A3
  8
LAYER01
 62
     7
 10
1737.51098
 20
1148.337773
 30
0.0
 11
1357.51098
 21
1148.337773
 31
0.0
  0
LINE
  5
1A4
  8
LAYER01
 62
     7
 10
1737.51098
 20
1359.6868910000001
 30
0.0
 11
1737.51098
 21
1115.837773
 31
0.0
  0
LINE
  5
1A5
  8
LAYER01
 62
     7
 10
1357.51098
 20
1359.6868910000001
 30
0.0
 11
1357.51098
 21
1115.837773
 31
0.0
  0
SOLID
  5
1A6
  8
LAYER01
 62
     7
 10
1685.51098
 20
1157.004093
 30
0.0
 11
1737.51098
 21
1148.337773
 31
0.0
 12
1685.51098
 22
1139.6714529999999
 32
0.0
 13
1685.51098
 23
1139.6714529999999
 33
0.0
  0
SOLID
  5
1A7
  8
LAYER01
 62
     7
 10
1409.51098
 20
1157.004093
 30
0.0
 11
1357.51098
 21
1148.337773
 31
0.0
 12
1409.51098
 22
1139.6714529999999
 32
0.0
 13
1409.51098
 23
1139.6714529999999
 33
0.0
  0
TEXT
  5
1A8
  8
LAYER01
  6
CONTINUOUS
 62
     7
 10
1494.542958
 20
1180.837773
 30
0.0
 40
65.0
  1
380
  0
POINT
  5
1A9
  8
LAYER01
 62
     7
 10
1737.51098
 20
1385.6868910000001
 30
0.0
  0
POINT
  5
1AA
  8
LAYER01
 62
     7
 10
1357.51098
 20
1385.6868910000001
 30
0.0
  0
POINT
  5
1AB
  8
LAYER01
 62
     7
 10
1357.51098
 20
1148.337773
 30
0.0
  0
ENDBLK
  5
1AC
  8
0
  0
BLOCK
  8
0
  2
*D3
 70
     1
 10
0.0
 20
0.0
 30
0.0
  3
*D3
  1

  0
LINE
  5
1AF
  8
LAYER01
 62
     7
 10
2349.375168
 20
1721.365364
 30
0.0
 11
2019.375168
 21
1721.365364
 31
0.0
  0
LINE
  5
1B0
  8
LAYER01
 62
     7
 10
2349.375168
 20
1676.09193
 30
0.0
 11
2349.375168
 21
1753.865364
 31
0.0
  0
LINE
  5
1B1
  8
LAYER01
 62
     7
 10
2019.375168
 20
1676.09193
 30
0.0
 11
2019.375168
 21
1753.865364
 31
0.0
  0
SOLID
  5
1B2
  8
LAYER01
 62
     7
 10
2297.375168
 20
1730.031684
 30
0.0
 11
2349.375168
 21
1721.365364
 31
0.0
 12
2297.375168
 22
1712.699044
 32
0.0
 13
2297.375168
 23
1712.699044
 33
0.0
  0
SOLID
  5
1B3
  8
LAYER01
 62
     7
 10
2071.375168
 20
1730.031684
 30
0.0
 11
2019.375168
 21
1721.365364
 31
0.0
 12
2071.375168
 22
1712.699044
 32
0.0
 13
2071.375168
 23
1712.699044
 33
0.0
  0
TEXT
  5
1B4
  8
LAYER01
  6
CONTINUOUS
 62
     7
 10
2135.5802789999998
 20
1753.865364
 30
0.0
 40
65.0
  1
330
  0
POINT
  5
1B5
  8
LAYER01
 62
     7
 10
2349.375168
 20
1650.09193
 30
0.0
  0
POINT
  5
1B6
  8
LAYER01
 62
     7
 10
2019.375168
 20
1650.09193
 30
0.0
  0
POINT
  5
1B7
  8
LAYER01
 62
     7
 10
2019.375168
 20
1721.365364
 30
0.0
  0
ENDBLK
  5
1B8
  8
0
  0
BLOCK
  8
0
  2
*D4
 70
     1
 10
0.0
 20
0.0
 30
0.0
  3
*D4
  1

  0
LINE
  5
1BB
  8
LAYER01
 62
     7
 10
2374.375168
 20
1844.905982
 30
0.0
 11
1994.375168
 21
1844.905982
 31
0.0
  0
LINE
  5
1BC
  8
LAYER01
 62
     7
 10
2374.375168
 20
1676.09193
 30
0.0
 11
2374.375168
 21
1877.405982
 31
0.0
  0
LINE
  5
1BD
  8
LAYER01
 62
     7
 10
1994.375168
 20
1676.09193
 30
0.0
 11
1994.375168
 21
1877.405982
 31
0.0
  0
SOLID
  5
1BE
  8
LAYER01
 62
     7
 10
2322.375168
 20
1853.572302
 30
0.0
 11
2374.375168
 21
1844.905982
 31
0.0
 12
2322.375168
 22
1836.239662
 32
0.0
 13
2322.375168
 23
1836.239662
 33
0.0
  0
SOLID
  5
1BF
  8
LAYER01
 62
     7
 10
2046.375168
 20
1853.572302
 30
0.0
 11
1994.375168
 21
1844.905982
 31
0.0
 12
2046.375168
 22
1836.239662
 32
0.0
 13
2046.375168
 23
1836.239662
 33
0.0
  0
TEXT
  5
1C0
  8
LAYER01
  6
CONTINUOUS
 62
     7
 10
2135.5802789999998
 20
1877.405982
 30
0.0
 40
65.0
  1
380
  0
POINT
  5
1C1
  8
LAYER01
 62
     7
 10
2374.375168
 20
1650.09193
 30
0.0
  0
POINT
  5
1C2
  8
LAYER01
 62
     7
 10
1994.375168
 20
1650.09193
 30
0.0
  0
POINT
  5
1C3
  8
LAYER01
 62
     7
 10
1994.375168
 20
1844.905982
 30
0.0
  0
ENDBLK
  5
1C4
  8
0
  0
BLOCK
  8
0
  2
ABS9-G6
 70
     0
 10
0.0
 20
0.0
 30
0.0
  3
ABS9-G6
  1

  0
SOLID
  5
1C7
  8
3
  6
CONTINUOUS
 62
     7
 10
2009.9598579999999
 20
1632.809321
 30
0.0
 11
1994.375168
 21
1627.8299219999999
 31
0.0
 12
1994.375168
 22
1632.8299219999999
 32
0.0
 13
1994.375168
 23
1632.8299219999999
 33
0.0
  0
SOLID
  5
1C8
  8
3
  6
CONTINUOUS
 62
     7
 10
2009.9751679999999
 20
1627.8299219999999
 30
0.0
 11
1994.375168
 21
1627.8299219999999
 31
0.0
 12
2009.9598579999999
 22
1632.809321
 32
0.0
 13
2009.9598579999999
 23
1632.809321
 33
0.0
  0
SOLID
  5
1C9
  8
3
  6
CONTINUOUS
 62
     7
 10
2013.353617
 20
1626.4992279999999
 30
0.0
 11
2009.9751679999999
 21
1627.8299219999999
 31
0.0
 12
2009.9598579999999
 22
1632.809321
 32
0.0
 13
2009.9598579999999
 23
1632.809321
 33
0.0
  0
SOLID
  5
1CA
  8
3
  6
CONTINUOUS
 62
     7
 10
2014.7124550000001
 20
1631.6077769999999
 30
0.0
 11
2013.353617
 21
1626.4992279999999
 31
0.0
 12
2009.9598579999999
 22
1632.809321
 32
0.0
 13
2009.9598579999999
 23
1632.809321
 33
0.0
  0
SOLID
  5
1CB
  8
3
  6
CONTINUOUS
 62
     7
 10
2014.9417989999999
 20
1623.2339039999999
 30
0.0
 11
2013.353617
 21
1626.4992279999999
 31
0.0
 12
2014.7124550000001
 22
1631.6077769999999
 32
0.0
 13
2014.7124550000001
 23
1631.6077769999999
 33
0.0
  0
SOLID
  5
1CC
  8
3
  6
CONTINUOUS
 62
     7
 10
2017.841287
 20
1603.28585
 30
0.0
 11
2014.9417989999999
 21
1623.2339039999999
 31
0.0
 12
2014.7124550000001
 22
1631.6077769999999
 32
0.0
 13
2014.7124550000001
 23
1631.6077769999999
 33
0.0
  0
SOLID
  5
1CD
  8
3
  6
CONTINUOUS
 62
     7
 10
2018.32296
 20
1628.291886
 30
0.0
 11
2017.841287
 21
1603.28585
 31
0.0
 12
2014.7124550000001
 22
1631.6077769999999
 32
0.0
 13
2014.7124550000001
 23
1631.6077769999999
 33
0.0
  0
SOLID
  5
1CE
  8
3
  6
CONTINUOUS
 62
     7
 10
2019.9237390000001
 20
1623.658486
 30
0.0
 11
2017.841287
 21
1603.28585
 31
0.0
 12
2018.32296
 22
1628.291886
 32
0.0
 13
2018.32296
 23
1628.291886
 33
0.0
  0
SOLID
  5
1CF
  8
3
  6
CONTINUOUS
 62
     7
 10
2023.0815620000001
 20
1583.8212309999999
 30
0.0
 11
2017.841287
 21
1603.28585
 31
0.0
 12
2019.9237390000001
 22
1623.658486
 32
0.0
 13
2019.9237390000001
 23
1623.658486
 33
0.0
  0
SOLID
  5
1D0
  8
3
  6
CONTINUOUS
 62
     7
 10
2023.199194
 20
1602.1368930000001
 30
0.0
 11
2023.0815620000001
 21
1583.8212309999999
 31
0.0
 12
2019.9237390000001
 22
1623.658486
 32
0.0
 13
2019.9237390000001
 23
1623.658486
 33
0.0
  0
SOLID
  5
1D1
  8
3
  6
CONTINUOUS
 62
     7
 10
2029.2794269999999
 20
1581.233823
 30
0.0
 11
2023.0815620000001
 21
1583.8212309999999
 31
0.0
 12
2023.199194
 22
1602.1368930000001
 32
0.0
 13
2023.199194
 23
1602.1368930000001
 33
0.0
  0
SOLID
  5
1D2
  8
3
  6
CONTINUOUS
 62
     7
 10
2030.5889480000001
 20
1565.1137180000001
 30
0.0
 11
2023.0815620000001
 21
1583.8212309999999
 31
0.0
 12
2029.2794269999999
 22
1581.233823
 32
0.0
 13
2029.2794269999999
 23
1581.233823
 33
0.0
  0
SOLID
  5
1D3
  8
3
  6
CONTINUOUS
 62
     7
 10
2038.058597
 20
1561.313136
 30
0.0
 11
2030.5889480000001
 21
1565.1137180000001
 31
0.0
 12
2029.2794269999999
 22
1581.233823
 32
0.0
 13
2029.2794269999999
 23
1581.233823
 33
0.0
  0
SOLID
  5
1D4
  8
3
  6
CONTINUOUS
 62
     7
 10
2040.2578900000001
 20
1547.4263370000001
 30
0.0
 11
2030.5889480000001
 21
1565.1137180000001
 31
0.0
 12
2038.058597
 22
1561.313136
 32
0.0
 13
2038.058597
 23
1561.313136
 33
0.0
  0
SOLID
  5
1D5
  8
3
  6
CONTINUOUS
 62
     7
 10
2049.3838860000001
 20
1542.721595
 30
0.0
 11
2040.2578900000001
 21
1547.4263370000001
 31
0.0
 12
2038.058597
 22
1561.313136
 32
0.0
 13
2038.058597
 23
1561.313136
 33
0.0
  0
SOLID
  5
1D6
  8
3
  6
CONTINUOUS
 62
     7
 10
2051.952444
 20
1531.007771
 30
0.0
 11
2040.2578900000001
 21
1547.4263370000001
 31
0.0
 12
2049.3838860000001
 22
1542.721595
 32
0.0
 13
2049.3838860000001
 23
1542.721595
 33
0.0
  0
SOLID
  5
1D7
  8
3
  6
CONTINUOUS
 62
     7
 10
2063.0581520000001
 20
1525.7828219999999
 30
0.0
 11
2051.952444
 21
1531.007771
 31
0.0
 12
2049.3838860000001
 22
1542.721595
 32
0.0
 13
2049.3838860000001
 23
1542.721595
 33
0.0
  0
SOLID
  5
1D8
  8
3
  6
CONTINUOUS
 62
     7
 10
2065.508186
 20
1516.0888649999999
 30
0.0
 11
2051.952444
 21
1531.007771
 31
0.0
 12
2063.0581520000001
 22
1525.7828219999999
 32
0.0
 13
2063.0581520000001
 23
1525.7828219999999
 33
0.0
  0
SOLID
  5
1D9
  8
3
  6
CONTINUOUS
 62
     7
 10
2078.8433679999998
 20
1510.7916729999999
 30
0.0
 11
2065.508186
 21
1516.0888649999999
 31
0.0
 12
2063.0581520000001
 22
1525.7828219999999
 32
0.0
 13
2063.0581520000001
 23
1525.7828219999999
 33
0.0
  0
SOLID
  5
1DA
  8
3
  6
CONTINUOUS
 62
     7
 10
2080.7345220000002
 20
1502.879377
 30
0.0
 11
2065.508186
 21
1516.0888649999999
 31
0.0
 12
2078.8433679999998
 22
1510.7916729999999
 32
0.0
 13
2078.8433679999998
 23
1510.7916729999999
 33
0.0
  0
SOLID
  5
1DB
  8
3
  6
CONTINUOUS
 62
     7
 10
2096.464759
 20
1498.0091
 30
0.0
 11
2080.7345220000002
 21
1502.879377
 31
0.0
 12
2078.8433679999998
 22
1510.7916729999999
 32
0.0
 13
2078.8433679999998
 23
1510.7916729999999
 33
0.0
  0
SOLID
  5
1DC
  8
3
  6
CONTINUOUS
 62
     7
 10
2097.4173719999999
 20
1491.565032
 30
0.0
 11
2080.7345220000002
 21
1502.879377
 31
0.0
 12
2096.464759
 22
1498.0091
 32
0.0
 13
2096.464759
 23
1498.0091
 33
0.0
  0
SOLID
  5
1DD
  8
3
  6
CONTINUOUS
 62
     7
 10
2115.3221749999998
 20
1482.304907
 30
0.0
 11
2097.4173719999999
 21
1491.565032
 31
0.0
 12
2096.464759
 22
1498.0091
 32
0.0
 13
2096.464759
 23
1498.0091
 33
0.0
  0
SOLID
  5
1DE
  8
3
  6
CONTINUOUS
 62
     7
 10
2115.6155869999998
 20
1487.65761
 30
0.0
 11
2115.3221749999998
 21
1482.304907
 31
0.0
 12
2096.464759
 22
1498.0091
 32
0.0
 13
2096.464759
 23
1498.0091
 33
0.0
  0
SOLID
  5
1DF
  8
3
  6
CONTINUOUS
 62
     7
 10
2134.1971920000001
 20
1475.2292010000001
 30
0.0
 11
2115.3221749999998
 21
1482.304907
 31
0.0
 12
2115.6155869999998
 22
1487.65761
 32
0.0
 13
2115.6155869999998
 23
1487.65761
 33
0.0
  0
SOLID
  5
1E0
  8
3
  6
CONTINUOUS
 62
     7
 10
2135.9624940000008
 20
1479.917391
 30
0.0
 11
2134.1971920000001
 21
1475.2292010000001
 31
0.0
 12
2115.6155869999998
 22
1487.65761
 32
0.0
 13
2115.6155869999998
 23
1487.65761
 33
0.0
  0
SOLID
  5
1E1
  8
3
  6
CONTINUOUS
 62
     7
 10
2153.7770420000002
 20
1470.4373969999999
 30
0.0
 11
2134.1971920000001
 21
1475.2292010000001
 31
0.0
 12
2135.9624940000008
 22
1479.917391
 32
0.0
 13
2135.9624940000008
 23
1479.917391
 33
0.0
  0
SOLID
  5
1E2
  8
3
  6
CONTINUOUS
 62
     7
 10
2157.1512980000002
 20
1474.92318
 30
0.0
 11
2155.875168
 21
1437.8299219999999
 31
0.0
 12
2155.827769
 22
1467.9780969999999
 32
0.0
 13
2155.827769
 23
1467.9780969999999
 33
0.0
  0
SOLID
  5
1E3
  8
3
  6
CONTINUOUS
 62
     7
 10
2157.1512980000002
 20
1474.92318
 30
0.0
 11
2155.827769
 21
1467.9780969999999
 31
0.0
 12
2155.2478179999998
 22
1469.579162
 32
0.0
 13
2155.2478179999998
 23
1469.579162
 33
0.0
  0
SOLID
  5
1E4
  8
3
  6
CONTINUOUS
 62
     7
 10
2157.1512980000002
 20
1474.92318
 30
0.0
 11
2155.2478179999998
 21
1469.579162
 31
0.0
 12
2153.7770420000002
 22
1470.4373969999999
 32
0.0
 13
2153.7770420000002
 23
1470.4373969999999
 33
0.0
  0
SOLID
  5
1E5
  8
3
  6
CONTINUOUS
 62
     7
 10
2157.1512980000002
 20
1474.92318
 30
0.0
 11
2153.7770420000002
 21
1470.4373969999999
 31
0.0
 12
2135.9624940000008
 22
1479.917391
 32
0.0
 13
2135.9624940000008
 23
1479.917391
 33
0.0
  0
SOLID
  5
1E6
  8
3
  6
CONTINUOUS
 62
     7
 10
2160.1600229999999
 20
1473.2506619999999
 30
0.0
 11
2155.875168
 21
1437.8299219999999
 31
0.0
 12
2157.1512980000002
 22
1474.92318
 32
0.0
 13
2157.1512980000002
 23
1474.92318
 33
0.0
  0
SOLID
  5
1E7
  8
3
  6
CONTINUOUS
 62
     7
 10
2160.1600229999999
 20
1473.2506619999999
 30
0.0
 11
2161.375168
 21
1470.0299219999999
 31
0.0
 12
2161.375168
 22
1437.8299219999999
 32
0.0
 13
2161.375168
 23
1437.8299219999999
 33
0.0
  0
SOLID
  5
1E8
  8
3
  6
CONTINUOUS
 62
     7
 10
2161.375168
 20
1437.8299219999999
 30
0.0
 11
2155.875168
 21
1437.8299219999999
 31
0.0
 12
2160.1600229999999
 22
1473.2506619999999
 32
0.0
 13
2160.1600229999999
 23
1473.2506619999999
 33
0.0
  0
ENDBLK
  5
1E9
  8
0
  0
BLOCK
  8
0
  2
ABS9-G7
 70
     0
 10
0.0
 20
0.0
 30
0.0
  3
ABS9-G7
  1

  0
SOLID
  5
1EC
  8
3
  6
CONTINUOUS
 62
     7
 10
2358.7904779999999
 20
1632.809321
 30
0.0
 11
2374.375168
 21
1627.8299219999999
 31
0.0
 12
2374.375168
 22
1632.8299219999999
 32
0.0
 13
2374.375168
 23
1632.8299219999999
 33
0.0
  0
SOLID
  5
1ED
  8
3
  6
CONTINUOUS
 62
     7
 10
2358.7751680000001
 20
1627.8299219999999
 30
0.0
 11
2374.375168
 21
1627.8299219999999
 31
0.0
 12
2358.7904779999999
 22
1632.809321
 32
0.0
 13
2358.7904779999999
 23
1632.809321
 33
0.0
  0
SOLID
  5
1EE
  8
3
  6
CONTINUOUS
 62
     7
 10
2355.3967190000012
 20
1626.4992279999999
 30
0.0
 11
2358.7751680000001
 21
1627.8299219999999
 31
0.0
 12
2358.7904779999999
 22
1632.809321
 32
0.0
 13
2358.7904779999999
 23
1632.809321
 33
0.0
  0
SOLID
  5
1EF
  8
3
  6
CONTINUOUS
 62
     7
 10
2354.0378809999988
 20
1631.6077769999999
 30
0.0
 11
2355.3967190000012
 21
1626.4992279999999
 31
0.0
 12
2358.7904779999999
 22
1632.809321
 32
0.0
 13
2358.7904779999999
 23
1632.809321
 33
0.0
  0
SOLID
  5
1F0
  8
3
  6
CONTINUOUS
 62
     7
 10
2353.8085380000002
 20
1623.2339039999999
 30
0.0
 11
2355.3967190000012
 21
1626.4992279999999
 31
0.0
 12
2354.0378809999988
 22
1631.6077769999999
 32
0.0
 13
2354.0378809999988
 23
1631.6077769999999
 33
0.0
  0
SOLID
  5
1F1
  8
3
  6
CONTINUOUS
 62
     7
 10
2350.9090500000002
 20
1603.28585
 30
0.0
 11
2353.8085380000002
 21
1623.2339039999999
 31
0.0
 12
2354.0378809999988
 22
1631.6077769999999
 32
0.0
 13
2354.0378809999988
 23
1631.6077769999999
 33
0.0
  0
SOLID
  5
1F2
  8
3
  6
CONTINUOUS
 62
     7
 10
2350.4273760000001
 20
1628.291886
 30
0.0
 11
2350.9090500000002
 21
1603.28585
 31
0.0
 12
2354.0378809999988
 22
1631.6077769999999
 32
0.0
 13
2354.0378809999988
 23
1631.6077769999999
 33
0.0
  0
SOLID
  5
1F3
  8
3
  6
CONTINUOUS
 62
     7
 10
2348.8265980000001
 20
1623.658486
 30
0.0
 11
2350.9090500000002
 21
1603.28585
 31
0.0
 12
2350.4273760000001
 22
1628.291886
 32
0.0
 13
2350.4273760000001
 23
1628.291886
 33
0.0
  0
SOLID
  5
1F4
  8
3
  6
CONTINUOUS
 62
     7
 10
2345.6687740000002
 20
1583.8212309999999
 30
0.0
 11
2350.9090500000002
 21
1603.28585
 31
0.0
 12
2348.8265980000001
 22
1623.658486
 32
0.0
 13
2348.8265980000001
 23
1623.658486
 33
0.0
  0
SOLID
  5
1F5
  8
3
  6
CONTINUOUS
 62
     7
 10
2345.5511420000012
 20
1602.1368930000001
 30
0.0
 11
2345.6687740000002
 21
1583.8212309999999
 31
0.0
 12
2348.8265980000001
 22
1623.658486
 32
0.0
 13
2348.8265980000001
 23
1623.658486
 33
0.0
  0
SOLID
  5
1F6
  8
3
  6
CONTINUOUS
 62
     7
 10
2339.47091
 20
1581.233823
 30
0.0
 11
2345.6687740000002
 21
1583.8212309999999
 31
0.0
 12
2345.5511420000012
 22
1602.1368930000001
 32
0.0
 13
2345.5511420000012
 23
1602.1368930000001
 33
0.0
  0
SOLID
  5
1F7
  8
3
  6
CONTINUOUS
 62
     7
 10
2338.161388
 20
1565.1137180000001
 30
0.0
 11
2345.6687740000002
 21
1583.8212309999999
 31
0.0
 12
2339.47091
 22
1581.233823
 32
0.0
 13
2339.47091
 23
1581.233823
 33
0.0
  0
SOLID
  5
1F8
  8
3
  6
CONTINUOUS
 62
     7
 10
2330.6917389999999
 20
1561.313136
 30
0.0
 11
2338.161388
 21
1565.1137180000001
 31
0.0
 12
2339.47091
 22
1581.233823
 32
0.0
 13
2339.47091
 23
1581.233823
 33
0.0
  0
SOLID
  5
1F9
  8
3
  6
CONTINUOUS
 62
     7
 10
2328.4924460000002
 20
1547.4263370000001
 30
0.0
 11
2338.161388
 21
1565.1137180000001
 31
0.0
 12
2330.6917389999999
 22
1561.313136
 32
0.0
 13
2330.6917389999999
 23
1561.313136
 33
0.0
  0
SOLID
  5
1FA
  8
3
  6
CONTINUOUS
 62
     7
 10
2319.3664509999999
 20
1542.721595
 30
0.0
 11
2328.4924460000002
 21
1547.4263370000001
 31
0.0
 12
2330.6917389999999
 22
1561.313136
 32
0.0
 13
2330.6917389999999
 23
1561.313136
 33
0.0
  0
SOLID
  5
1FB
  8
3
  6
CONTINUOUS
 62
     7
 10
2316.797892
 20
1531.007771
 30
0.0
 11
2328.4924460000002
 21
1547.4263370000001
 31
0.0
 12
2319.3664509999999
 22
1542.721595
 32
0.0
 13
2319.3664509999999
 23
1542.721595
 33
0.0
  0
SOLID
  5
1FC
  8
3
  6
CONTINUOUS
 62
     7
 10
2305.692184
 20
1525.7828219999999
 30
0.0
 11
2316.797892
 21
1531.007771
 31
0.0
 12
2319.3664509999999
 22
1542.721595
 32
0.0
 13
2319.3664509999999
 23
1542.721595
 33
0.0
  0
SOLID
  5
1FD
  8
3
  6
CONTINUOUS
 62
     7
 10
2303.2421509999999
 20
1516.0888649999999
 30
0.0
 11
2316.797892
 21
1531.007771
 31
0.0
 12
2305.692184
 22
1525.7828219999999
 32
0.0
 13
2305.692184
 23
1525.7828219999999
 33
0.0
  0
SOLID
  5
1FE
  8
3
  6
CONTINUOUS
 62
     7
 10
2289.9069679999998
 20
1510.7916729999999
 30
0.0
 11
2303.2421509999999
 21
1516.0888649999999
 31
0.0
 12
2305.692184
 22
1525.7828219999999
 32
0.0
 13
2305.692184
 23
1525.7828219999999
 33
0.0
  0
SOLID
  5
1FF
  8
3
  6
CONTINUOUS
 62
     7
 10
2288.0158139999999
 20
1502.879377
 30
0.0
 11
2303.2421509999999
 21
1516.0888649999999
 31
0.0
 12
2289.9069679999998
 22
1510.7916729999999
 32
0.0
 13
2289.9069679999998
 23
1510.7916729999999
 33
0.0
  0
SOLID
  5
200
  8
3
  6
CONTINUOUS
 62
     7
 10
2272.285578
 20
1498.0091
 30
0.0
 11
2288.0158139999999
 21
1502.879377
 31
0.0
 12
2289.9069679999998
 22
1510.7916729999999
 32
0.0
 13
2289.9069679999998
 23
1510.7916729999999
 33
0.0
  0
SOLID
  5
201
  8
3
  6
CONTINUOUS
 62
     7
 10
2271.3329650000001
 20
1491.565032
 30
0.0
 11
2288.0158139999999
 21
1502.879377
 31
0.0
 12
2272.285578
 22
1498.0091
 32
0.0
 13
2272.285578
 23
1498.0091
 33
0.0
  0
SOLID
  5
202
  8
3
  6
CONTINUOUS
 62
     7
 10
2253.4281609999998
 20
1482.304907
 30
0.0
 11
2271.3329650000001
 21
1491.565032
 31
0.0
 12
2272.285578
 22
1498.0091
 32
0.0
 13
2272.285578
 23
1498.0091
 33
0.0
  0
SOLID
  5
203
  8
3
  6
CONTINUOUS
 62
     7
 10
2253.1347489999998
 20
1487.65761
 30
0.0
 11
2253.4281609999998
 21
1482.304907
 31
0.0
 12
2272.285578
 22
1498.0091
 32
0.0
 13
2272.285578
 23
1498.0091
 33
0.0
  0
SOLID
  5
204
  8
3
  6
CONTINUOUS
 62
     7
 10
2234.553144
 20
1475.2292010000001
 30
0.0
 11
2253.4281609999998
 21
1482.304907
 31
0.0
 12
2253.1347489999998
 22
1487.65761
 32
0.0
 13
2253.1347489999998
 23
1487.65761
 33
0.0
  0
SOLID
  5
205
  8
3
  6
CONTINUOUS
 62
     7
 10
2232.7878430000001
 20
1479.917391
 30
0.0
 11
2234.553144
 21
1475.2292010000001
 31
0.0
 12
2253.1347489999998
 22
1487.65761
 32
0.0
 13
2253.1347489999998
 23
1487.65761
 33
0.0
  0
SOLID
  5
206
  8
3
  6
CONTINUOUS
 62
     7
 10
2214.9732949999998
 20
1470.4373969999999
 30
0.0
 11
2234.553144
 21
1475.2292010000001
 31
0.0
 12
2232.7878430000001
 22
1479.917391
 32
0.0
 13
2232.7878430000001
 23
1479.917391
 33
0.0
  0
SOLID
  5
207
  8
3
  6
CONTINUOUS
 62
     7
 10
2211.5990379999998
 20
1474.92318
 30
0.0
 11
2212.875168
 21
1437.8299219999999
 31
0.0
 12
2212.922568
 22
1467.9780969999999
 32
0.0
 13
2212.922568
 23
1467.9780969999999
 33
0.0
  0
SOLID
  5
208
  8
3
  6
CONTINUOUS
 62
     7
 10
2211.5990379999998
 20
1474.92318
 30
0.0
 11
2212.922568
 21
1467.9780969999999
 31
0.0
 12
2213.5025179999998
 22
1469.579162
 32
0.0
 13
2213.5025179999998
 23
1469.579162
 33
0.0
  0
SOLID
  5
209
  8
3
  6
CONTINUOUS
 62
     7
 10
2211.5990379999998
 20
1474.92318
 30
0.0
 11
2213.5025179999998
 21
1469.579162
 31
0.0
 12
2214.9732949999998
 22
1470.4373969999999
 32
0.0
 13
2214.9732949999998
 23
1470.4373969999999
 33
0.0
  0
SOLID
  5
20A
  8
3
  6
CONTINUOUS
 62
     7
 10
2211.5990379999998
 20
1474.92318
 30
0.0
 11
2214.9732949999998
 21
1470.4373969999999
 31
0.0
 12
2232.7878430000001
 22
1479.917391
 32
0.0
 13
2232.7878430000001
 23
1479.917391
 33
0.0
  0
SOLID
  5
20B
  8
3
  6
CONTINUOUS
 62
     7
 10
2208.5903130000002
 20
1473.2506619999999
 30
0.0
 11
2212.875168
 21
1437.8299219999999
 31
0.0
 12
2211.5990379999998
 22
1474.92318
 32
0.0
 13
2211.5990379999998
 23
1474.92318
 33
0.0
  0
SOLID
  5
20C
  8
3
  6
CONTINUOUS
 62
     7
 10
2208.5903130000002
 20
1473.2506619999999
 30
0.0
 11
2207.375168
 21
1470.0299219999999
 31
0.0
 12
2207.375168
 22
1437.8299219999999
 32
0.0
 13
2207.375168
 23
1437.8299219999999
 33
0.0
  0
SOLID
  5
20D
  8
3
  6
CONTINUOUS
 62
     7
 10
2207.375168
 20
1437.8299219999999
 30
0.0
 11
2212.875168
 21
1437.8299219999999
 31
0.0
 12
2208.5903130000002
 22
1473.2506619999999
 32
0.0
 13
2208.5903130000002
 23
1473.2506619999999
 33
0.0
  0
ENDBLK
  5
20E
  8
0
  0
BLOCK
  8
0
  2
*D7
 70
     1
 10
0.0
 20
0.0
 30
0.0
  3
*D7
  1

  0
LINE
  5
211
  8
LAYER01
 62
     7
 10
2507.1151170000012
 20
1475.6299220000001
 30
0.0
 11
2507.1151170000012
 21
1632.829647
 31
0.0
  0
LINE
  5
212
  8
LAYER01
 62
     7
 10
2400.375168
 20
1475.6299220000001
 30
0.0
 11
2539.6151169999998
 21
1475.6299220000001
 31
0.0
  0
LINE
  5
213
  8
LAYER01
 62
     7
 10
2400.375168
 20
1632.829647
 30
0.0
 11
2539.6151169999998
 21
1632.829647
 31
0.0
  0
SOLID
  5
214
  8
LAYER01
 62
     7
 10
2515.7814370000001
 20
1527.6299220000001
 30
0.0
 11
2507.1151170000012
 21
1475.6299220000001
 31
0.0
 12
2498.448797
 22
1527.6299220000001
 32
0.0
 13
2498.448797
 23
1527.6299220000001
 33
0.0
  0
SOLID
  5
215
  8
LAYER01
 62
     7
 10
2515.7814370000001
 20
1580.829647
 30
0.0
 11
2507.1151170000012
 21
1632.829647
 31
0.0
 12
2498.448797
 22
1580.829647
 32
0.0
 13
2498.448797
 23
1580.829647
 33
0.0
  0
TEXT
  5
216
  8
LAYER01
  6
CONTINUOUS
 62
     7
 10
2474.6151170000012
 20
1505.4348950000001
 30
0.0
 40
65.0
  1
157
 50
90.0
  0
POINT
  5
217
  8
LAYER01
 62
     7
 10
2374.375168
 20
1475.6299220000001
 30
0.0
  0
POINT
  5
218
  8
LAYER01
 62
     7
 10
2374.375168
 20
1632.829647
 30
0.0
  0
POINT
  5
219
  8
LAYER01
 62
     7
 10
2507.1151170000012
 20
1632.829647
 30
0.0
  0
ENDBLK
  5
21A
  8
0
  0
BLOCK
  8
0
  2
*D8
 70
     1
 10
0.0
 20
0.0
 30
0.0
  3
*D8
  1

  0
LINE
  5
21D
  8
LAYER01
 62
     7
 10
2642.3518880000001
 20
1632.8299219999999
 30
0.0
 11
2642.3518880000001
 21
1437.8299219999999
 31
0.0
  0
LINE
  5
21E
  8
LAYER01
 62
     7
 10
2400.375168
 20
1632.8299219999999
 30
0.0
 11
2674.8518880000001
 21
1632.8299219999999
 31
0.0
  0
LINE
  5
21F
  8
LAYER01
 62
     7
 10
2400.375168
 20
1437.8299219999999
 30
0.0
 11
2674.8518880000001
 21
1437.8299219999999
 31
0.0
  0
SOLID
  5
220
  8
LAYER01
 62
     7
 10
2633.6855679999999
 20
1580.8299219999999
 30
0.0
 11
2642.3518880000001
 21
1632.8299219999999
 31
0.0
 12
2651.018208
 22
1580.8299219999999
 32
0.0
 13
2651.018208
 23
1580.8299219999999
 33
0.0
  0
SOLID
  5
221
  8
LAYER01
 62
     7
 10
2633.6855679999999
 20
1489.8299219999999
 30
0.0
 11
2642.3518880000001
 21
1437.8299219999999
 31
0.0
 12
2651.018208
 22
1489.8299219999999
 32
0.0
 13
2651.018208
 23
1489.8299219999999
 33
0.0
  0
TEXT
  5
222
  8
LAYER01
  6
CONTINUOUS
 62
     7
 10
2609.8518880000001
 20
1486.5350330000001
 30
0.0
 40
65.0
  1
179
 50
90.0
  0
POINT
  5
223
  8
LAYER01
 62
     7
 10
2374.375168
 20
1632.8299219999999
 30
0.0
  0
POINT
  5
224
  8
LAYER01
 62
     7
 10
2374.375168
 20
1437.8299219999999
 30
0.0
  0
POINT
  5
225
  8
LAYER01
 62
     7
 10
2642.3518880000001
 20
1437.8299219999999
 30
0.0
  0
ENDBLK
  5
226
  8
0
  0
BLOCK
  8
0
  2
ABS9-G11
 70
     0
 10
0.0
 20
0.0
 30
0.0
  3
ABS9-G11
  1

  0
TEXT
  5
229
  8
LAYER01
  6
VERDECKT
 62
     1
 10
3094.3150140000012
 20
475.26708600000001
 30
0.0
 40
14.0
  1
A. Sprenger GmbH
  7
SIMPLEX
  0
TEXT
  5
22A
  8
LAYER01
  6
VERDECKT
 62
     1
 10
3094.3150140000012
 20
451.26708600000001
 30
0.0
 40
14.0
  1
Berner Str. 10
  7
SIMPLEX
  0
TEXT
  5
22B
  8
LAYER01
  6
VERDECKT
 62
     1
 10
3094.3150140000012
 20
427.26708599999989
 30
0.0
 40
14.0
  1
60437 Frankfurt
  7
SIMPLEX
  0
TEXT
  5
22C
  8
LAYER01
  6
VERDECKT
 62
     1
 10
3094.3150140000012
 20
403.26708600000001
 30
0.0
 40
14.0
  1
Tel.: 069 - 507 27 41
  7
SIMPLEX
  0
TEXT
  5
22D
  8
LAYER01
  6
VERDECKT
 62
     1
 10
3094.3150140000012
 20
379.26708600000001
 30
0.0
 40
14.0
  1
Fax: 069 - 507 72 91
  7
SIMPLEX
  0
TEXT
  5
22E
  8
LAYER01
  6
VERDECKT
 62
     1
 10
3094.3150140000012
 20
355.26708600000001
 30
0.0
 40
14.0
  1
info@varicor.org
  7
SIMPLEX
  0
ENDBLK
  5
22F
  8
0
  0
BLOCK
  8
0
  2
ABS9-G10
 70
     0
 10
0.0
 20
0.0
 30
0.0
  3
ABS9-G10
  1

  0
TEXT
  5
232
  8
LAYER01
  6
CONTINUOUS
 62
     1
 10
4565.4608509999998
 20
146.15482399999999
 30
0.0
 40
14.0
  1
Blatt
  7
SIMPLEX
  0
LINE
  5
233
  8
LAYER01
  6
CONTINUOUS
 62
     1
 10
3074.4608509999998
 20
244.15482399999999
 30
0.0
 11
3914.4608509999998
 21
244.15482399999999
 31
0.0
  0
LINE
  5
234
  8
LAYER01
  6
CONTINUOUS
 62
     1
 10
3074.4608509999998
 20
209.15482399999999
 30
0.0
 11
3914.4608509999998
 21
209.15482399999999
 31
0.0
  0
LINE
  5
235
  8
LAYER01
  6
CONTINUOUS
 62
     1
 10
3074.4608509999998
 20
174.15482399999999
 30
0.0
 11
4656.4608509999998
 21
174.15482399999999
 31
0.0
  0
LINE
  5
236
  8
LAYER01
  6
CONTINUOUS
 62
     1
 10
3074.4608509999998
 20
69.154824000000005
 30
0.0
 11
4656.4608509999998
 21
69.154824000000005
 31
0.0
  0
LINE
  5
237
  8
LAYER01
  6
CONTINUOUS
 62
     1
 10
3074.4608509999998
 20
349.15482400000002
 30
0.0
 11
4656.4608509999998
 21
349.15482400000002
 31
0.0
  0
POLYLINE
  5
238
  8
LAYER01
  6
CONTINUOUS
 62
     1
 66
     1
 10
0.0
 20
0.0
 30
0.0
 70
     1
  0
VERTEX
  5
6A8
  8
LAYER01
  6
CONTINUOUS
 62
     1
 10
3074.4608509999998
 20
27.154824000000001
 30
0.0
  0
VERTEX
  5
6A9
  8
LAYER01
  6
CONTINUOUS
 62
     1
 10
3074.4608509999998
 20
496.15482399999991
 30
0.0
  0
VERTEX
  5
6AA
  8
LAYER01
  6
CONTINUOUS
 62
     1
 10
4656.4608509999998
 20
496.15482399999991
 30
0.0
  0
VERTEX
  5
6AB
  8
LAYER01
  6
CONTINUOUS
 62
     1
 10
4656.4608509999998
 20
27.154824000000001
 30
0.0
  0
SEQEND
  5
6AC
  8
LAYER01
  6
CONTINUOUS
 62
     1
  0
LINE
  5
23E
  8
LAYER01
  6
CONTINUOUS
 62
     1
 10
3074.4608509999998
 20
314.15482400000002
 30
0.0
 11
3914.4608509999998
 21
314.15482400000002
 31
0.0
  0
LINE
  5
23F
  8
LAYER01
  6
CONTINUOUS
 62
     1
 10
3074.4608509999998
 20
279.15482400000002
 30
0.0
 11
3914.4608509999998
 21
279.15482400000002
 31
0.0
  0
LINE
  5
240
  8
LAYER01
  6
CONTINUOUS
 62
     1
 10
3529.4608509999998
 20
496.15482399999991
 30
0.0
 11
3529.4608509999998
 21
27.154824000000001
 31
0.0
  0
INSERT
  5
241
  8
LAYER01
  2
ABS9-G11
 10
0.0
 20
0.0
 30
0.0
  0
LINE
  5
242
  8
LAYER01
  6
CONTINUOUS
 62
     1
 10
3074.4608509999998
 20
104.154824
 30
0.0
 11
3529.4608509999998
 21
104.154824
 31
0.0
  0
LINE
  5
243
  8
LAYER01
  6
CONTINUOUS
 62
     1
 10
3074.4608509999998
 20
139.15482399999999
 30
0.0
 11
3529.4608509999998
 21
139.15482399999999
 31
0.0
  0
LINE
  5
244
  8
LAYER01
  6
CONTINUOUS
 62
     1
 10
3137.4608510000012
 20
349.15482400000002
 30
0.0
 11
3137.4608510000012
 21
27.154824000000001
 31
0.0
  0
TEXT
  5
245
  8
LAYER01
  6
CONTINUOUS
 62
     1
 10
3086.219822
 20
41.154823999999998
 30
0.0
 40
13.300000000000001
  1
Zust
  7
SIMPLEX
  0
LINE
  5
246
  8
LAYER01
  6
CONTINUOUS
 62
     1
 10
3358.359312
 20
27.154824000000001
 30
0.0
 11
3358.359312
 21
349.15482400000002
 31
0.0
  0
LINE
  5
247
  8
LAYER01
  6
CONTINUOUS
 62
     1
 10
3466.4608509999998
 20
349.15482400000002
 30
0.0
 11
3466.4608509999998
 21
27.154824000000001
 31
0.0
  0
TEXT
  5
248
  8
LAYER01
  6
CONTINUOUS
 62
     1
 10
3199.2408099999998
 20
41.154823999999998
 30
0.0
 40
13.300000000000001
  1
Änderung
  7
SIMPLEX
  0
TEXT
  5
249
  8
LAYER01
  6
CONTINUOUS
 62
     1
 10
3378.0566530000001
 20
41.154823999999998
 30
0.0
 40
13.300000000000001
  1
Datum
  7
SIMPLEX
  0
TEXT
  5
24A
  8
LAYER01
  6
CONTINUOUS
 62
     1
 10
3471.7303160000001
 20
41.154823999999998
 30
0.0
 40
13.300000000000001
  1
Name
  7
SIMPLEX
  0
LINE
  5
24B
  8
LAYER01
  6
CONTINUOUS
 62
     1
 10
4656.4608509999998
 20
440.15482400000002
 30
0.0
 11
3914.4608509999998
 21
440.15482400000002
 31
0.0
  0
LINE
  5
24C
  8
LAYER01
  6
CONTINUOUS
 62
     1
 10
3620.4608509999998
 20
209.15482399999999
 30
0.0
 11
3620.4608509999998
 21
349.15482400000002
 31
0.0
  0
TEXT
  5
24D
  8
LAYER01
  6
CONTINUOUS
 62
     1
 10
3543.4608509999998
 20
286.15482400000002
 30
0.0
 40
14.0
  1
Bearb.
  7
SIMPLEX
  0
TEXT
  5
24E
  8
LAYER01
  6
CONTINUOUS
 62
     1
 10
3543.4608509999998
 20
216.15482399999999
 30
0.0
 40
14.0
  1
Norm
  7
SIMPLEX
  0
TEXT
  5
24F
  8
LAYER01
  6
CONTINUOUS
 62
     1
 10
3543.4608509999998
 20
251.15482399999999
 30
0.0
 40
14.0
  1
Gepr.
  7
SIMPLEX
  0
TEXT
  5
250
  8
LAYER01
  6
CONTINUOUS
 62
     1
 10
3655.4608509999998
 20
321.15482400000002
 30
0.0
 40
14.0
  1
Datum
  7
SIMPLEX
  0
TEXT
  5
251
  8
LAYER01
  6
CONTINUOUS
 62
     1
 10
3795.4608509999998
 20
321.15482400000002
 30
0.0
 40
14.0
  1
Name
  7
SIMPLEX
  0
TEXT
  5
252
  8
LAYER01
  6
CONTINUOUS
 62
     1
 10
4621.4608509999998
 20
76.154824000000005
 30
0.0
 40
14.0
  1
Bl.
  7
SIMPLEX
  0
LINE
  5
253
  8
LAYER01
  6
CONTINUOUS
 62
     1
 10
3914.4608509999998
 20
27.154824000000001
 30
0.0
 11
3914.4608509999998
 21
496.15482399999991
 31
0.0
  0
LINE
  5
254
  8
LAYER01
  6
CONTINUOUS
 62
     1
 10
3753.4608509999998
 20
174.15482399999999
 30
0.0
 11
3753.4608509999998
 21
496.15482399999991
 31
0.0
  0
LINE
  5
255
  8
LAYER01
  6
CONTINUOUS
 62
     1
 10
4355.4608509999998
 20
496.15482399999991
 30
0.0
 11
4355.4608509999998
 21
440.15482400000002
 31
0.0
  0
TEXT
  5
256
  8
LAYER01
  6
CONTINUOUS
 62
     1
 10
3929.71245
 20
460.41282099999989
 30
0.0
 40
14.0
  1
Maßstab
  7
SIMPLEX
  0
LINE
  5
257
  8
LAYER01
  6
CONTINUOUS
 62
     1
 10
4551.4608509999998
 20
174.15482399999999
 30
0.0
 11
4551.4608509999998
 21
69.154824000000005
 31
0.0
  0
LINE
  5
258
  8
LAYER01
  6
CONTINUOUS
 62
     1
 10
4551.4608509999998
 20
104.154824
 30
0.0
 11
4656.4608509999998
 21
104.154824
 31
0.0
  0
ENDBLK
  5
259
  8
0
  0
BLOCK
  8
0
  2
ABS9-G12
 70
     0
 10
0.0
 20
0.0
 30
0.0
  3
ABS9-G12
  1

  0
POLYLINE
  5
25C
  8
LAYER01
  6
CONTINUOUS
 62
     7
 66
     1
 10
0.0
 20
0.0
 30
0.0
 70
     1
  0
VERTEX
  5
6AD
  8
LAYER01
  6
CONTINUOUS
 62
     7
 10
3165.4112709999999
 20
1103.988192
 30
0.0
  0
VERTEX
  5
6AE
  8
LAYER01
  6
CONTINUOUS
 62
     7
 10
3213.1491820000001
 20
1103.988192
 30
0.0
  0
VERTEX
  5
6AF
  8
LAYER01
  6
CONTINUOUS
 62
     7
 10
3273.0991159999999
 20
967.43556400000011
 30
0.0
  0
VERTEX
  5
6B0
  8
LAYER01
  6
CONTINUOUS
 62
     7
 10
3333.049051
 20
1103.988192
 30
0.0
  0
VERTEX
  5
6B1
  8
LAYER01
  6
CONTINUOUS
 62
     7
 10
3383.007329
 20
1103.988192
 30
0.0
  0
VERTEX
  5
6B2
  8
LAYER01
  6
CONTINUOUS
 62
     7
 10
3273.0991159999999
 20
859.74771899999985
 30
0.0
  0
VERTEX
  5
6B3
  8
LAYER01
  6
CONTINUOUS
 62
     7
 10
3165.4112709999999
 20
1103.988192
 30
0.0
  0
VERTEX
  5
6B4
  8
LAYER01
  6
CONTINUOUS
 62
     7
 10
3165.4112709999999
 20
1103.988192
 30
0.0
  0
SEQEND
  5
6B5
  8
LAYER01
  6
CONTINUOUS
 62
     7
  0
POLYLINE
  5
266
  8
LAYER01
  6
CONTINUOUS
 62
     7
 66
     1
 10
0.0
 20
0.0
 30
0.0
 70
     1
  0
VERTEX
  5
6B6
  8
LAYER01
  6
CONTINUOUS
 62
     7
 10
3328.6083149999999
 20
937.46059600000024
 30
0.0
  0
VERTEX
  5
6B7
  8
LAYER01
  6
CONTINUOUS
 62
     7
 10
3345.261074
 20
976.31703499999992
 30
0.0
  0
VERTEX
  5
6B8
  8
LAYER01
  6
CONTINUOUS
 62
     7
 10
3417.4230320000001
 20
976.31703499999992
 30
0.0
  0
VERTEX
  5
6B9
  8
LAYER01
  6
CONTINUOUS
 62
     7
 10
3380.7869609999998
 20
1056.2502810000001
 30
0.0
  0
VERTEX
  5
6BA
  8
LAYER01
  6
CONTINUOUS
 62
     7
 10
3401.8804570000002
 20
1107.3187439999999
 30
0.0
  0
VERTEX
  5
6BB
  8
LAYER01
  6
CONTINUOUS
 62
     7
 10
3500.6868300000001
 20
898.60415799999998
 30
0.0
  0
VERTEX
  5
6BC
  8
LAYER01
  6
CONTINUOUS
 62
     7
 10
3500.6868300000001
 20
1103.988192
 30
0.0
  0
VERTEX
  5
6BD
  8
LAYER01
  6
CONTINUOUS
 62
     7
 10
3632.7987229999999
 20
1103.988192
 30
0.0
  0
VERTEX
  5
6BE
  8
LAYER01
  6
CONTINUOUS
 62
     7
 10
3632.7987229999999
 20
1103.988192
 30
0.0
  0
VERTEX
  5
6BF
  8
LAYER01
  6
CONTINUOUS
 62
     7
 10
3645.0107459999999
 20
1101.767824
 30
0.0
  0
VERTEX
  5
6C0
  8
LAYER01
  6
CONTINUOUS
 62
     7
 10
3656.1125860000002
 20
1097.327088
 30
0.0
  0
VERTEX
  5
6C1
  8
LAYER01
  6
CONTINUOUS
 62
     7
 10
3666.1042419999999
 20
1089.5558000000001
 30
0.0
  0
VERTEX
  5
6C2
  8
LAYER01
  6
CONTINUOUS
 62
     7
 10
3674.985713
 20
1081.7845130000001
 30
0.0
  0
VERTEX
  5
6C3
  8
LAYER01
  6
CONTINUOUS
 62
     7
 10
3682.7570010000009
 20
1071.7928569999999
 30
0.0
  0
VERTEX
  5
6C4
  8
LAYER01
  6
CONTINUOUS
 62
     7
 10
3688.3079210000001
 20
1060.6910170000001
 30
0.0
  0
VERTEX
  5
6C5
  8
LAYER01
  6
CONTINUOUS
 62
     7
 10
3692.7486570000001
 20
1047.3688090000001
 30
0.0
  0
VERTEX
  5
6C6
  8
LAYER01
  6
CONTINUOUS
 62
     7
 10
3693.8588410000002
 20
1035.156786
 30
0.0
  0
VERTEX
  5
6C7
  8
LAYER01
  6
CONTINUOUS
 62
     7
 10
3693.8588410000002
 20
1035.156786
 30
0.0
  0
VERTEX
  5
6C8
  8
LAYER01
  6
CONTINUOUS
 62
     7
 10
3693.8588410000002
 20
1021.834578
 30
0.0
  0
VERTEX
  5
6C9
  8
LAYER01
  6
CONTINUOUS
 62
     7
 10
3691.638473
 20
1010.732738
 30
0.0
  0
VERTEX
  5
6CA
  8
LAYER01
  6
CONTINUOUS
 62
     7
 10
3687.197737
 20
999.63089900000011
 30
0.0
  0
VERTEX
  5
6CB
  8
LAYER01
  6
CONTINUOUS
 62
     7
 10
3681.6468169999998
 20
989.63924299999996
 30
0.0
  0
VERTEX
  5
6CC
  8
LAYER01
  6
CONTINUOUS
 62
     7
 10
3673.8755289999999
 20
980.75777100000005
 30
0.0
  0
VERTEX
  5
6CD
  8
LAYER01
  6
CONTINUOUS
 62
     7
 10
3664.9940580000002
 20
972.98648300000002
 30
0.0
  0
VERTEX
  5
6CE
  8
LAYER01
  6
CONTINUOUS
 62
     7
 10
3655.002402000001
 20
967.43556400000011
 30
0.0
  0
VERTEX
  5
6CF
  8
LAYER01
  6
CONTINUOUS
 62
     7
 10
3642.7903780000001
 20
962.99482799999998
 30
0.0
  0
VERTEX
  5
6D0
  8
LAYER01
  6
CONTINUOUS
 62
     7
 10
3713.8421520000002
 20
868.62918999999999
 30
0.0
  0
VERTEX
  5
6D1
  8
LAYER01
  6
CONTINUOUS
 62
     7
 10
3713.8421520000002
 20
1103.988192
 30
0.0
  0
VERTEX
  5
6D2
  8
LAYER01
  6
CONTINUOUS
 62
     7
 10
3760.4698790000002
 20
1103.988192
 30
0.0
  0
VERTEX
  5
6D3
  8
LAYER01
  6
CONTINUOUS
 62
     7
 10
3760.4698790000002
 20
866.4088220000001
 30
0.0
  0
VERTEX
  5
6D4
  8
LAYER01
  6
CONTINUOUS
 62
     7
 10
3660.5533220000002
 20
866.4088220000001
 30
0.0
  0
VERTEX
  5
6D5
  8
LAYER01
  6
CONTINUOUS
 62
     7
 10
3563.9673160000002
 20
989.63924299999996
 30
0.0
  0
VERTEX
  5
6D6
  8
LAYER01
  6
CONTINUOUS
 62
     7
 10
3612.8154110000009
 20
989.63924299999996
 30
0.0
  0
VERTEX
  5
6D7
  8
LAYER01
  6
CONTINUOUS
 62
     7
 10
3612.8154110000009
 20
989.63924299999996
 30
0.0
  0
VERTEX
  5
6D8
  8
LAYER01
  6
CONTINUOUS
 62
     7
 10
3619.4765150000012
 20
990.74942699999986
 30
0.0
  0
VERTEX
  5
6D9
  8
LAYER01
  6
CONTINUOUS
 62
     7
 10
3626.1376190000001
 20
992.96979499999986
 30
0.0
  0
VERTEX
  5
6DA
  8
LAYER01
  6
CONTINUOUS
 62
     7
 10
3631.6885390000011
 20
996.30034700000022
 30
0.0
  0
VERTEX
  5
6DB
  8
LAYER01
  6
CONTINUOUS
 62
     7
 10
3637.239458
 20
1000.741083
 30
0.0
  0
VERTEX
  5
6DC
  8
LAYER01
  6
CONTINUOUS
 62
     7
 10
3640.5700100000008
 20
1006.292003
 30
0.0
  0
VERTEX
  5
6DD
  8
LAYER01
  6
CONTINUOUS
 62
     7
 10
3643.9005619999998
 20
1012.953106
 30
0.0
  0
VERTEX
  5
6DE
  8
LAYER01
  6
CONTINUOUS
 62
     7
 10
3646.12093
 20
1019.61421
 30
0.0
  0
VERTEX
  5
6DF
  8
LAYER01
  6
CONTINUOUS
 62
     7
 10
3646.12093
 20
1027.3854980000001
 30
0.0
  0
VERTEX
  5
6E0
  8
LAYER01
  6
CONTINUOUS
 62
     7
 10
3646.12093
 20
1027.3854980000001
 30
0.0
  0
VERTEX
  5
6E1
  8
LAYER01
  6
CONTINUOUS
 62
     7
 10
3646.12093
 20
1034.0466019999999
 30
0.0
  0
VERTEX
  5
6E2
  8
LAYER01
  6
CONTINUOUS
 62
     7
 10
3643.9005619999998
 20
1040.7077059999999
 30
0.0
  0
VERTEX
  5
6E3
  8
LAYER01
  6
CONTINUOUS
 62
     7
 10
3641.680194
 20
1047.3688090000001
 30
0.0
  0
VERTEX
  5
6E4
  8
LAYER01
  6
CONTINUOUS
 62
     7
 10
3637.239458
 20
1052.919729
 30
0.0
  0
VERTEX
  5
6E5
  8
LAYER01
  6
CONTINUOUS
 62
     7
 10
3632.7987229999999
 20
1057.360465
 30
0.0
  0
VERTEX
  5
6E6
  8
LAYER01
  6
CONTINUOUS
 62
     7
 10
3626.1376190000001
 20
1060.6910170000001
 30
0.0
  0
VERTEX
  5
6E7
  8
LAYER01
  6
CONTINUOUS
 62
     7
 10
3619.4765150000012
 20
1062.9113850000001
 30
0.0
  0
VERTEX
  5
6E8
  8
LAYER01
  6
CONTINUOUS
 62
     7
 10
3612.8154110000009
 20
1064.021569
 30
0.0
  0
VERTEX
  5
6E9
  8
LAYER01
  6
CONTINUOUS
 62
     7
 10
3550.645109000001
 20
1064.021569
 30
0.0
  0
VERTEX
  5
6EA
  8
LAYER01
  6
CONTINUOUS
 62
     7
 10
3550.645109000001
 20
866.4088220000001
 30
0.0
  0
VERTEX
  5
6EB
  8
LAYER01
  6
CONTINUOUS
 62
     7
 10
3470.711863
 20
866.4088220000001
 30
0.0
  0
VERTEX
  5
6EC
  8
LAYER01
  6
CONTINUOUS
 62
     7
 10
3437.4063439999991
 20
937.46059600000024
 30
0.0
  0
VERTEX
  5
6ED
  8
LAYER01
  6
CONTINUOUS
 62
     7
 10
3328.6083149999999
 20
937.46059600000024
 30
0.0
  0
VERTEX
  5
6EE
  8
LAYER01
  6
CONTINUOUS
 62
     7
 10
3328.6083149999999
 20
937.46059600000024
 30
0.0
  0
SEQEND
  5
6EF
  8
LAYER01
  6
CONTINUOUS
 62
     7
  0
POLYLINE
  5
2A1
  8
LAYER01
  6
CONTINUOUS
 62
     7
 66
     1
 10
0.0
 20
0.0
 30
0.0
 70
     1
  0
VERTEX
  5
6F0
  8
LAYER01
  6
CONTINUOUS
 62
     7
 10
3975.8455690000001
 20
1088.445616
 30
0.0
  0
VERTEX
  5
6F1
  8
LAYER01
  6
CONTINUOUS
 62
     7
 10
3945.8706020000009
 20
1050.699361
 30
0.0
  0
VERTEX
  5
6F2
  8
LAYER01
  6
CONTINUOUS
 62
     7
 10
3945.8706020000009
 20
1050.699361
 30
0.0
  0
VERTEX
  5
6F3
  8
LAYER01
  6
CONTINUOUS
 62
     7
 10
3935.8789460000012
 20
1057.360465
 30
0.0
  0
VERTEX
  5
6F4
  8
LAYER01
  6
CONTINUOUS
 62
     7
 10
3925.887291
 20
1062.9113850000001
 30
0.0
  0
VERTEX
  5
6F5
  8
LAYER01
  6
CONTINUOUS
 62
     7
 10
3914.7854510000002
 20
1066.241937
 30
0.0
  0
VERTEX
  5
6F6
  8
LAYER01
  6
CONTINUOUS
 62
     7
 10
3902.5734269999998
 20
1066.241937
 30
0.0
  0
VERTEX
  5
6F7
  8
LAYER01
  6
CONTINUOUS
 62
     7
 10
3902.5734269999998
 20
1066.241937
 30
0.0
  0
VERTEX
  5
6F8
  8
LAYER01
  6
CONTINUOUS
 62
     7
 10
3894.8021389999999
 20
1066.241937
 30
0.0
  0
VERTEX
  5
6F9
  8
LAYER01
  6
CONTINUOUS
 62
     7
 10
3887.0308519999999
 20
1065.1317529999999
 30
0.0
  0
VERTEX
  5
6FA
  8
LAYER01
  6
CONTINUOUS
 62
     7
 10
3879.259564
 20
1062.9113850000001
 30
0.0
  0
VERTEX
  5
6FB
  8
LAYER01
  6
CONTINUOUS
 62
     7
 10
3871.488276
 20
1059.580833
 30
0.0
  0
VERTEX
  5
6FC
  8
LAYER01
  6
CONTINUOUS
 62
     7
 10
3864.8271719999998
 20
1056.2502810000001
 30
0.0
  0
VERTEX
  5
6FD
  8
LAYER01
  6
CONTINUOUS
 62
     7
 10
3859.2762520000001
 20
1051.8095450000001
 30
0.0
  0
VERTEX
  5
6FE
  8
LAYER01
  6
CONTINUOUS
 62
     7
 10
3852.6151490000002
 20
1047.3688090000001
 30
0.0
  0
VERTEX
  5
6FF
  8
LAYER01
  6
CONTINUOUS
 62
     7
 10
3848.1744130000002
 20
1041.81789
 30
0.0
  0
VERTEX
  5
700
  8
LAYER01
  6
CONTINUOUS
 62
     7
 10
3842.6234930000001
 20
1035.156786
 30
0.0
  0
VERTEX
  5
701
  8
LAYER01
  6
CONTINUOUS
 62
     7
 10
3839.2929410000002
 20
1028.495682
 30
0.0
  0
VERTEX
  5
702
  8
LAYER01
  6
CONTINUOUS
 62
     7
 10
3834.8522050000001
 20
1021.834578
 30
0.0
  0
VERTEX
  5
703
  8
LAYER01
  6
CONTINUOUS
 62
     7
 10
3831.5216529999998
 20
1015.1734740000001
 30
0.0
  0
VERTEX
  5
704
  8
LAYER01
  6
CONTINUOUS
 62
     7
 10
3829.3012850000009
 20
1007.402187
 30
0.0
  0
VERTEX
  5
705
  8
LAYER01
  6
CONTINUOUS
 62
     7
 10
3828.1911009999999
 20
999.63089900000011
 30
0.0
  0
VERTEX
  5
706
  8
LAYER01
  6
CONTINUOUS
 62
     7
 10
3827.0809170000002
 20
991.85961099999986
 30
0.0
  0
VERTEX
  5
707
  8
LAYER01
  6
CONTINUOUS
 62
     7
 10
3825.9707330000001
 20
982.97813900000006
 30
0.0
  0
VERTEX
  5
708
  8
LAYER01
  6
CONTINUOUS
 62
     7
 10
3825.9707330000001
 20
982.97813900000006
 30
0.0
  0
VERTEX
  5
709
  8
LAYER01
  6
CONTINUOUS
 62
     7
 10
3827.0809170000002
 20
975.20685100000003
 30
0.0
  0
VERTEX
  5
70A
  8
LAYER01
  6
CONTINUOUS
 62
     7
 10
3828.1911009999999
 20
967.43556400000011
 30
0.0
  0
VERTEX
  5
70B
  8
LAYER01
  6
CONTINUOUS
 62
     7
 10
3829.3012850000009
 20
959.66427599999986
 30
0.0
  0
VERTEX
  5
70C
  8
LAYER01
  6
CONTINUOUS
 62
     7
 10
3832.6318369999999
 20
953.00317199999995
 30
0.0
  0
VERTEX
  5
70D
  8
LAYER01
  6
CONTINUOUS
 62
     7
 10
3834.8522050000001
 20
946.34206799999981
 30
0.0
  0
VERTEX
  5
70E
  8
LAYER01
  6
CONTINUOUS
 62
     7
 10
3839.2929410000002
 20
939.68096400000002
 30
0.0
  0
VERTEX
  5
70F
  8
LAYER01
  6
CONTINUOUS
 62
     7
 10
3843.7336770000002
 20
933.01986099999999
 30
0.0
  0
VERTEX
  5
710
  8
LAYER01
  6
CONTINUOUS
 62
     7
 10
3848.1744130000002
 20
927.46894099999997
 30
0.0
  0
VERTEX
  5
711
  8
LAYER01
  6
CONTINUOUS
 62
     7
 10
3853.7253329999999
 20
921.91802100000007
 30
0.0
  0
VERTEX
  5
712
  8
LAYER01
  6
CONTINUOUS
 62
     7
 10
3859.2762520000001
 20
917.47728500000005
 30
0.0
  0
VERTEX
  5
713
  8
LAYER01
  6
CONTINUOUS
 62
     7
 10
3865.9373560000008
 20
914.14673300000015
 30
0.0
  0
VERTEX
  5
714
  8
LAYER01
  6
CONTINUOUS
 62
     7
 10
3872.5984600000011
 20
910.81618100000003
 30
0.0
  0
VERTEX
  5
715
  8
LAYER01
  6
CONTINUOUS
 62
     7
 10
3880.3697480000001
 20
907.4856289999999
 30
0.0
  0
VERTEX
  5
716
  8
LAYER01
  6
CONTINUOUS
 62
     7
 10
3887.0308519999999
 20
905.2652609999999
 30
0.0
  0
VERTEX
  5
717
  8
LAYER01
  6
CONTINUOUS
 62
     7
 10
3894.8021389999999
 20
904.15507700000001
 30
0.0
  0
VERTEX
  5
718
  8
LAYER01
  6
CONTINUOUS
 62
     7
 10
3903.6836109999999
 20
904.15507700000001
 30
0.0
  0
VERTEX
  5
719
  8
LAYER01
  6
CONTINUOUS
 62
     7
 10
3903.6836109999999
 20
904.15507700000001
 30
0.0
  0
VERTEX
  5
71A
  8
LAYER01
  6
CONTINUOUS
 62
     7
 10
3915.8956349999999
 20
905.2652609999999
 30
0.0
  0
VERTEX
  5
71B
  8
LAYER01
  6
CONTINUOUS
 62
     7
 10
3925.887291
 20
907.4856289999999
 30
0.0
  0
VERTEX
  5
71C
  8
LAYER01
  6
CONTINUOUS
 62
     7
 10
3935.8789460000012
 20
913.03654900000004
 30
0.0
  0
VERTEX
  5
71D
  8
LAYER01
  6
CONTINUOUS
 62
     7
 10
3945.8706020000009
 20
919.69765299999983
 30
0.0
  0
VERTEX
  5
71E
  8
LAYER01
  6
CONTINUOUS
 62
     7
 10
3974.7353850000009
 20
880.84121399999992
 30
0.0
  0
VERTEX
  5
71F
  8
LAYER01
  6
CONTINUOUS
 62
     7
 10
3974.7353850000009
 20
880.84121399999992
 30
0.0
  0
VERTEX
  5
720
  8
LAYER01
  6
CONTINUOUS
 62
     7
 10
3958.0826259999999
 20
870.84955800000012
 30
0.0
  0
VERTEX
  5
721
  8
LAYER01
  6
CONTINUOUS
 62
     7
 10
3949.2011539999999
 20
867.51900600000022
 30
0.0
  0
VERTEX
  5
722
  8
LAYER01
  6
CONTINUOUS
 62
     7
 10
3941.4298659999999
 20
864.18845399999987
 30
0.0
  0
VERTEX
  5
723
  8
LAYER01
  6
CONTINUOUS
 62
     7
 10
3932.5483939999999
 20
861.96808599999997
 30
0.0
  0
VERTEX
  5
724
  8
LAYER01
  6
CONTINUOUS
 62
     7
 10
3923.6669230000002
 20
860.85790299999985
 30
0.0
  0
VERTEX
  5
725
  8
LAYER01
  6
CONTINUOUS
 62
     7
 10
3903.6836109999999
 20
859.74771899999985
 30
0.0
  0
VERTEX
  5
726
  8
LAYER01
  6
CONTINUOUS
 62
     7
 10
3903.6836109999999
 20
859.74771899999985
 30
0.0
  0
VERTEX
  5
727
  8
LAYER01
  6
CONTINUOUS
 62
     7
 10
3890.3614040000002
 20
860.85790299999985
 30
0.0
  0
VERTEX
  5
728
  8
LAYER01
  6
CONTINUOUS
 62
     7
 10
3878.1493799999998
 20
863.07826999999986
 30
0.0
  0
VERTEX
  5
729
  8
LAYER01
  6
CONTINUOUS
 62
     7
 10
3865.9373560000008
 20
865.2986380000001
 30
0.0
  0
VERTEX
  5
72A
  8
LAYER01
  6
CONTINUOUS
 62
     7
 10
3854.835517
 20
869.739374
 30
0.0
  0
VERTEX
  5
72B
  8
LAYER01
  6
CONTINUOUS
 62
     7
 10
3843.7336770000002
 20
875.29029399999979
 30
0.0
  0
VERTEX
  5
72C
  8
LAYER01
  6
CONTINUOUS
 62
     7
 10
3833.742021
 20
880.84121399999992
 30
0.0
  0
VERTEX
  5
72D
  8
LAYER01
  6
CONTINUOUS
 62
     7
 10
3823.7503649999999
 20
888.61250199999995
 30
0.0
  0
VERTEX
  5
72E
  8
LAYER01
  6
CONTINUOUS
 62
     7
 10
3814.8688940000002
 20
896.38379000000009
 30
0.0
  0
VERTEX
  5
72F
  8
LAYER01
  6
CONTINUOUS
 62
     7
 10
3805.9874220000002
 20
905.2652609999999
 30
0.0
  0
VERTEX
  5
730
  8
LAYER01
  6
CONTINUOUS
 62
     7
 10
3799.3263179999999
 20
915.25691700000004
 30
0.0
  0
VERTEX
  5
731
  8
LAYER01
  6
CONTINUOUS
 62
     7
 10
3792.6652140000001
 20
925.24857300000008
 30
0.0
  0
VERTEX
  5
732
  8
LAYER01
  6
CONTINUOUS
 62
     7
 10
3787.114294
 20
936.35041199999989
 30
0.0
  0
VERTEX
  5
733
  8
LAYER01
  6
CONTINUOUS
 62
     7
 10
3783.7837420000001
 20
947.45225199999982
 30
0.0
  0
VERTEX
  5
734
  8
LAYER01
  6
CONTINUOUS
 62
     7
 10
3780.4531909999992
 20
959.66427599999986
 30
0.0
  0
VERTEX
  5
735
  8
LAYER01
  6
CONTINUOUS
 62
     7
 10
3778.2328229999998
 20
971.87630000000001
 30
0.0
  0
VERTEX
  5
736
  8
LAYER01
  6
CONTINUOUS
 62
     7
 10
3777.1226390000002
 20
985.19850700000006
 30
0.0
  0
VERTEX
  5
737
  8
LAYER01
  6
CONTINUOUS
 62
     7
 10
3777.1226390000002
 20
985.19850700000006
 30
0.0
  0
VERTEX
  5
738
  8
LAYER01
  6
CONTINUOUS
 62
     7
 10
3778.2328229999998
 20
997.41053099999999
 30
0.0
  0
VERTEX
  5
739
  8
LAYER01
  6
CONTINUOUS
 62
     7
 10
3780.4531909999992
 20
1010.732738
 30
0.0
  0
VERTEX
  5
73A
  8
LAYER01
  6
CONTINUOUS
 62
     7
 10
3782.673558
 20
1021.834578
 30
0.0
  0
VERTEX
  5
73B
  8
LAYER01
  6
CONTINUOUS
 62
     7
 10
3787.114294
 20
1034.0466019999999
 30
0.0
  0
VERTEX
  5
73C
  8
LAYER01
  6
CONTINUOUS
 62
     7
 10
3792.6652140000001
 20
1045.1484419999999
 30
0.0
  0
VERTEX
  5
73D
  8
LAYER01
  6
CONTINUOUS
 62
     7
 10
3798.2161339999998
 20
1055.140097
 30
0.0
  0
VERTEX
  5
73E
  8
LAYER01
  6
CONTINUOUS
 62
     7
 10
3805.9874220000002
 20
1065.1317529999999
 30
0.0
  0
VERTEX
  5
73F
  8
LAYER01
  6
CONTINUOUS
 62
     7
 10
3813.7587100000001
 20
1074.0132249999999
 30
0.0
  0
VERTEX
  5
740
  8
LAYER01
  6
CONTINUOUS
 62
     7
 10
3822.6401810000002
 20
1081.7845130000001
 30
0.0
  0
VERTEX
  5
741
  8
LAYER01
  6
CONTINUOUS
 62
     7
 10
3832.6318369999999
 20
1089.5558000000001
 30
0.0
  0
VERTEX
  5
742
  8
LAYER01
  6
CONTINUOUS
 62
     7
 10
3842.6234930000001
 20
1095.10672
 30
0.0
  0
VERTEX
  5
743
  8
LAYER01
  6
CONTINUOUS
 62
     7
 10
3853.7253329999999
 20
1100.6576399999999
 30
0.0
  0
VERTEX
  5
744
  8
LAYER01
  6
CONTINUOUS
 62
     7
 10
3864.8271719999998
 20
1105.0983759999999
 30
0.0
  0
VERTEX
  5
745
  8
LAYER01
  6
CONTINUOUS
 62
     7
 10
3877.0391960000011
 20
1108.428928
 30
0.0
  0
VERTEX
  5
746
  8
LAYER01
  6
CONTINUOUS
 62
     7
 10
3890.3614040000002
 20
1109.5391119999999
 30
0.0
  0
VERTEX
  5
747
  8
LAYER01
  6
CONTINUOUS
 62
     7
 10
3902.5734269999998
 20
1110.649296
 30
0.0
  0
VERTEX
  5
748
  8
LAYER01
  6
CONTINUOUS
 62
     7
 10
3902.5734269999998
 20
1110.649296
 30
0.0
  0
VERTEX
  5
749
  8
LAYER01
  6
CONTINUOUS
 62
     7
 10
3922.5567390000001
 20
1109.5391119999999
 30
0.0
  0
VERTEX
  5
74A
  8
LAYER01
  6
CONTINUOUS
 62
     7
 10
3932.5483939999999
 20
1108.428928
 30
0.0
  0
VERTEX
  5
74B
  8
LAYER01
  6
CONTINUOUS
 62
     7
 10
3941.4298659999999
 20
1106.20856
 30
0.0
  0
VERTEX
  5
74C
  8
LAYER01
  6
CONTINUOUS
 62
     7
 10
3949.2011539999999
 20
1102.8780079999999
 30
0.0
  0
VERTEX
  5
74D
  8
LAYER01
  6
CONTINUOUS
 62
     7
 10
3958.0826259999999
 20
1099.547456
 30
0.0
  0
VERTEX
  5
74E
  8
LAYER01
  6
CONTINUOUS
 62
     7
 10
3966.964097
 20
1093.9965360000001
 30
0.0
  0
VERTEX
  5
74F
  8
LAYER01
  6
CONTINUOUS
 62
     7
 10
3975.8455690000001
 20
1088.445616
 30
0.0
  0
VERTEX
  5
750
  8
LAYER01
  6
CONTINUOUS
 62
     7
 10
3975.8455690000001
 20
1088.445616
 30
0.0
  0
SEQEND
  5
751
  8
LAYER01
  6
CONTINUOUS
 62
     7
  0
POLYLINE
  5
304
  8
LAYER01
  6
CONTINUOUS
 62
     7
 66
     1
 10
0.0
 20
0.0
 30
0.0
 70
     1
  0
VERTEX
  5
752
  8
LAYER01
  6
CONTINUOUS
 62
     7
 10
4083.533414
 20
1109.5391119999999
 30
0.0
  0
VERTEX
  5
753
  8
LAYER01
  6
CONTINUOUS
 62
     7
 10
4083.533414
 20
1109.5391119999999
 30
0.0
  0
VERTEX
  5
754
  8
LAYER01
  6
CONTINUOUS
 62
     7
 10
4071.321390999999
 20
1108.428928
 30
0.0
  0
VERTEX
  5
755
  8
LAYER01
  6
CONTINUOUS
 62
     7
 10
4057.999182999999
 20
1107.3187439999999
 30
0.0
  0
VERTEX
  5
756
  8
LAYER01
  6
CONTINUOUS
 62
     7
 10
4046.8973430000001
 20
1103.988192
 30
0.0
  0
VERTEX
  5
757
  8
LAYER01
  6
CONTINUOUS
 62
     7
 10
4034.68532
 20
1099.547456
 30
0.0
  0
VERTEX
  5
758
  8
LAYER01
  6
CONTINUOUS
 62
     7
 10
4023.5834799999998
 20
1095.10672
 30
0.0
  0
VERTEX
  5
759
  8
LAYER01
  6
CONTINUOUS
 62
     7
 10
4013.5918240000001
 20
1088.445616
 30
0.0
  0
VERTEX
  5
75A
  8
LAYER01
  6
CONTINUOUS
 62
     7
 10
4003.6001679999999
 20
1081.7845130000001
 30
0.0
  0
VERTEX
  5
75B
  8
LAYER01
  6
CONTINUOUS
 62
     7
 10
3994.7186969999998
 20
1072.903041
 30
0.0
  0
VERTEX
  5
75C
  8
LAYER01
  6
CONTINUOUS
 62
     7
 10
3986.9474090000008
 20
1064.021569
 30
0.0
  0
VERTEX
  5
75D
  8
LAYER01
  6
CONTINUOUS
 62
     7
 10
3979.176121
 20
1055.140097
 30
0.0
  0
VERTEX
  5
75E
  8
LAYER01
  6
CONTINUOUS
 62
     7
 10
3972.5150170000002
 20
1045.1484419999999
 30
0.0
  0
VERTEX
  5
75F
  8
LAYER01
  6
CONTINUOUS
 62
     7
 10
3966.964097
 20
1034.0466019999999
 30
0.0
  0
VERTEX
  5
760
  8
LAYER01
  6
CONTINUOUS
 62
     7
 10
3963.633546
 20
1021.834578
 30
0.0
  0
VERTEX
  5
761
  8
LAYER01
  6
CONTINUOUS
 62
     7
 10
3960.3029940000001
 20
1010.732738
 30
0.0
  0
VERTEX
  5
762
  8
LAYER01
  6
CONTINUOUS
 62
     7
 10
3958.0826259999999
 20
997.41053099999999
 30
0.0
  0
VERTEX
  5
763
  8
LAYER01
  6
CONTINUOUS
 62
     7
 10
3956.9724419999998
 20
985.19850700000006
 30
0.0
  0
VERTEX
  5
764
  8
LAYER01
  6
CONTINUOUS
 62
     7
 10
3956.9724419999998
 20
985.19850700000006
 30
0.0
  0
VERTEX
  5
765
  8
LAYER01
  6
CONTINUOUS
 62
     7
 10
3958.0826259999999
 20
971.87630000000001
 30
0.0
  0
VERTEX
  5
766
  8
LAYER01
  6
CONTINUOUS
 62
     7
 10
3959.1928100000009
 20
959.66427599999986
 30
0.0
  0
VERTEX
  5
767
  8
LAYER01
  6
CONTINUOUS
 62
     7
 10
3962.5233620000008
 20
947.45225199999982
 30
0.0
  0
VERTEX
  5
768
  8
LAYER01
  6
CONTINUOUS
 62
     7
 10
3966.964097
 20
936.35041199999989
 30
0.0
  0
VERTEX
  5
769
  8
LAYER01
  6
CONTINUOUS
 62
     7
 10
3971.4048330000001
 20
925.24857300000008
 30
0.0
  0
VERTEX
  5
76A
  8
LAYER01
  6
CONTINUOUS
 62
     7
 10
3978.0659369999998
 20
915.25691700000004
 30
0.0
  0
VERTEX
  5
76B
  8
LAYER01
  6
CONTINUOUS
 62
     7
 10
3984.7270410000001
 20
905.2652609999999
 30
0.0
  0
VERTEX
  5
76C
  8
LAYER01
  6
CONTINUOUS
 62
     7
 10
3992.498329
 20
896.38379000000009
 30
0.0
  0
VERTEX
  5
76D
  8
LAYER01
  6
CONTINUOUS
 62
     7
 10
4001.3798009999991
 20
887.50231799999995
 30
0.0
  0
VERTEX
  5
76E
  8
LAYER01
  6
CONTINUOUS
 62
     7
 10
4011.3714559999999
 20
880.84121399999992
 30
0.0
  0
VERTEX
  5
76F
  8
LAYER01
  6
CONTINUOUS
 62
     7
 10
4021.3631119999991
 20
874.1801099999999
 30
0.0
  0
VERTEX
  5
770
  8
LAYER01
  6
CONTINUOUS
 62
     7
 10
4032.4649519999998
 20
868.62918999999999
 30
0.0
  0
VERTEX
  5
771
  8
LAYER01
  6
CONTINUOUS
 62
     7
 10
4043.5667909999988
 20
864.18845399999987
 30
0.0
  0
VERTEX
  5
772
  8
LAYER01
  6
CONTINUOUS
 62
     7
 10
4055.7788150000001
 20
861.96808599999997
 30
0.0
  0
VERTEX
  5
773
  8
LAYER01
  6
CONTINUOUS
 62
     7
 10
4067.9908390000001
 20
859.74771899999985
 30
0.0
  0
VERTEX
  5
774
  8
LAYER01
  6
CONTINUOUS
 62
     7
 10
4080.2028619999992
 20
858.63753499999984
 30
0.0
  0
VERTEX
  5
775
  8
LAYER01
  6
CONTINUOUS
 62
     7
 10
4080.2028619999992
 20
858.63753499999984
 30
0.0
  0
VERTEX
  5
776
  8
LAYER01
  6
CONTINUOUS
 62
     7
 10
4093.5250700000001
 20
859.74771899999985
 30
0.0
  0
VERTEX
  5
777
  8
LAYER01
  6
CONTINUOUS
 62
     7
 10
4105.7370940000001
 20
861.96808599999997
 30
0.0
  0
VERTEX
  5
778
  8
LAYER01
  6
CONTINUOUS
 62
     7
 10
4117.9491170000001
 20
865.2986380000001
 30
0.0
  0
VERTEX
  5
779
  8
LAYER01
  6
CONTINUOUS
 62
     7
 10
4129.0509570000004
 20
869.739374
 30
0.0
  0
VERTEX
  5
77A
  8
LAYER01
  6
CONTINUOUS
 62
     7
 10
4140.1527969999988
 20
875.29029399999979
 30
0.0
  0
VERTEX
  5
77B
  8
LAYER01
  6
CONTINUOUS
 62
     7
 10
4150.1444520000014
 20
881.95139799999993
 30
0.0
  0
VERTEX
  5
77C
  8
LAYER01
  6
CONTINUOUS
 62
     7
 10
4160.1361079999988
 20
888.61250199999995
 30
0.0
  0
VERTEX
  5
77D
  8
LAYER01
  6
CONTINUOUS
 62
     7
 10
4169.0175799999997
 20
897.49397399999987
 30
0.0
  0
VERTEX
  5
77E
  8
LAYER01
  6
CONTINUOUS
 62
     7
 10
4176.7888679999996
 20
906.3754449999999
 30
0.0
  0
VERTEX
  5
77F
  8
LAYER01
  6
CONTINUOUS
 62
     7
 10
4183.4499720000003
 20
916.36710099999993
 30
0.0
  0
VERTEX
  5
780
  8
LAYER01
  6
CONTINUOUS
 62
     7
 10
4189.0008909999997
 20
926.35875699999997
 30
0.0
  0
VERTEX
  5
781
  8
LAYER01
  6
CONTINUOUS
 62
     7
 10
4194.5518110000003
 20
937.46059600000024
 30
0.0
  0
VERTEX
  5
782
  8
LAYER01
  6
CONTINUOUS
 62
     7
 10
4198.9925469999989
 20
949.67261999999994
 30
0.0
  0
VERTEX
  5
783
  8
LAYER01
  6
CONTINUOUS
 62
     7
 10
4201.2129150000001
 20
961.88464399999998
 30
0.0
  0
VERTEX
  5
784
  8
LAYER01
  6
CONTINUOUS
 62
     7
 10
4202.3230990000002
 20
974.09666700000002
 30
0.0
  0
VERTEX
  5
785
  8
LAYER01
  6
CONTINUOUS
 62
     7
 10
4203.4332829999994
 20
987.41887499999996
 30
0.0
  0
VERTEX
  5
786
  8
LAYER01
  6
CONTINUOUS
 62
     7
 10
4203.4332829999994
 20
987.41887499999996
 30
0.0
  0
VERTEX
  5
787
  8
LAYER01
  6
CONTINUOUS
 62
     7
 10
4202.3230990000002
 20
999.63089900000011
 30
0.0
  0
VERTEX
  5
788
  8
LAYER01
  6
CONTINUOUS
 62
     7
 10
4200.1027309999999
 20
1011.842922
 30
0.0
  0
VERTEX
  5
789
  8
LAYER01
  6
CONTINUOUS
 62
     7
 10
4196.7721789999987
 20
1022.944762
 30
0.0
  0
VERTEX
  5
78A
  8
LAYER01
  6
CONTINUOUS
 62
     7
 10
4193.4416270000002
 20
1034.0466019999999
 30
0.0
  0
VERTEX
  5
78B
  8
LAYER01
  6
CONTINUOUS
 62
     7
 10
4187.8907069999996
 20
1044.038258
 30
0.0
  0
VERTEX
  5
78C
  8
LAYER01
  6
CONTINUOUS
 62
     7
 10
4182.3397880000002
 20
1054.0299130000001
 30
0.0
  0
VERTEX
  5
78D
  8
LAYER01
  6
CONTINUOUS
 62
     7
 10
4175.6786840000004
 20
1064.021569
 30
0.0
  0
VERTEX
  5
78E
  8
LAYER01
  6
CONTINUOUS
 62
     7
 10
4167.9073959999996
 20
1071.7928569999999
 30
0.0
  0
VERTEX
  5
78F
  8
LAYER01
  6
CONTINUOUS
 62
     7
 10
4159.0259239999996
 20
1079.5641449999989
 30
0.0
  0
VERTEX
  5
790
  8
LAYER01
  6
CONTINUOUS
 62
     7
 10
4150.1444520000014
 20
1087.3354320000001
 30
0.0
  0
VERTEX
  5
791
  8
LAYER01
  6
CONTINUOUS
 62
     7
 10
4140.1527969999988
 20
1092.886352
 30
0.0
  0
VERTEX
  5
792
  8
LAYER01
  6
CONTINUOUS
 62
     7
 10
4130.1611409999996
 20
1098.4372719999999
 30
0.0
  0
VERTEX
  5
793
  8
LAYER01
  6
CONTINUOUS
 62
     7
 10
4119.0593010000002
 20
1102.8780079999999
 30
0.0
  0
VERTEX
  5
794
  8
LAYER01
  6
CONTINUOUS
 62
     7
 10
4107.9574619999994
 20
1106.20856
 30
0.0
  0
VERTEX
  5
795
  8
LAYER01
  6
CONTINUOUS
 62
     7
 10
4095.7454379999999
 20
1108.428928
 30
0.0
  0
VERTEX
  5
796
  8
LAYER01
  6
CONTINUOUS
 62
     7
 10
4083.533414
 20
1109.5391119999999
 30
0.0
  0
VERTEX
  5
797
  8
LAYER01
  6
CONTINUOUS
 62
     7
 10
4083.533414
 20
1109.5391119999999
 30
0.0
  0
SEQEND
  5
798
  8
LAYER01
  6
CONTINUOUS
 62
     7
  0
POLYLINE
  5
34C
  8
LAYER01
  6
CONTINUOUS
 62
     7
 66
     1
 10
0.0
 20
0.0
 30
0.0
 70
     1
  0
VERTEX
  5
799
  8
LAYER01
  6
CONTINUOUS
 62
     7
 10
4080.2028619999992
 20
904.15507700000001
 30
0.0
  0
VERTEX
  5
79A
  8
LAYER01
  6
CONTINUOUS
 62
     7
 10
4080.2028619999992
 20
904.15507700000001
 30
0.0
  0
VERTEX
  5
79B
  8
LAYER01
  6
CONTINUOUS
 62
     7
 10
4072.4315750000001
 20
905.2652609999999
 30
0.0
  0
VERTEX
  5
79C
  8
LAYER01
  6
CONTINUOUS
 62
     7
 10
4064.6602869999988
 20
906.3754449999999
 30
0.0
  0
VERTEX
  5
79D
  8
LAYER01
  6
CONTINUOUS
 62
     7
 10
4056.8889989999998
 20
907.4856289999999
 30
0.0
  0
VERTEX
  5
79E
  8
LAYER01
  6
CONTINUOUS
 62
     7
 10
4049.1177109999999
 20
910.81618100000003
 30
0.0
  0
VERTEX
  5
79F
  8
LAYER01
  6
CONTINUOUS
 62
     7
 10
4042.4566070000001
 20
914.14673300000015
 30
0.0
  0
VERTEX
  5
7A0
  8
LAYER01
  6
CONTINUOUS
 62
     7
 10
4035.7955040000002
 20
918.58746900000006
 30
0.0
  0
VERTEX
  5
7A1
  8
LAYER01
  6
CONTINUOUS
 62
     7
 10
4030.244584
 20
923.02820500000007
 30
0.0
  0
VERTEX
  5
7A2
  8
LAYER01
  6
CONTINUOUS
 62
     7
 10
4024.693663999999
 20
928.57912499999998
 30
0.0
  0
VERTEX
  5
7A3
  8
LAYER01
  6
CONTINUOUS
 62
     7
 10
4019.1427439999989
 20
934.13004499999977
 30
0.0
  0
VERTEX
  5
7A4
  8
LAYER01
  6
CONTINUOUS
 62
     7
 10
4014.7020079999988
 20
939.68096400000002
 30
0.0
  0
VERTEX
  5
7A5
  8
LAYER01
  6
CONTINUOUS
 62
     7
 10
4011.3714559999999
 20
946.34206799999981
 30
0.0
  0
VERTEX
  5
7A6
  8
LAYER01
  6
CONTINUOUS
 62
     7
 10
4008.040904
 20
954.11335599999995
 30
0.0
  0
VERTEX
  5
7A7
  8
LAYER01
  6
CONTINUOUS
 62
     7
 10
4004.7103520000001
 20
960.77445999999998
 30
0.0
  0
VERTEX
  5
7A8
  8
LAYER01
  6
CONTINUOUS
 62
     7
 10
4003.6001679999999
 20
968.545748
 30
0.0
  0
VERTEX
  5
7A9
  8
LAYER01
  6
CONTINUOUS
 62
     7
 10
4001.3798009999991
 20
976.31703499999992
 30
0.0
  0
VERTEX
  5
7AA
  8
LAYER01
  6
CONTINUOUS
 62
     7
 10
4001.3798009999991
 20
985.19850700000006
 30
0.0
  0
VERTEX
  5
7AB
  8
LAYER01
  6
CONTINUOUS
 62
     7
 10
4001.3798009999991
 20
985.19850700000006
 30
0.0
  0
VERTEX
  5
7AC
  8
LAYER01
  6
CONTINUOUS
 62
     7
 10
4002.4899839999998
 20
992.96979499999986
 30
0.0
  0
VERTEX
  5
7AD
  8
LAYER01
  6
CONTINUOUS
 62
     7
 10
4003.6001679999999
 20
1000.741083
 30
0.0
  0
VERTEX
  5
7AE
  8
LAYER01
  6
CONTINUOUS
 62
     7
 10
4005.8205359999988
 20
1008.512371
 30
0.0
  0
VERTEX
  5
7AF
  8
LAYER01
  6
CONTINUOUS
 62
     7
 10
4008.040904
 20
1016.2836579999999
 30
0.0
  0
VERTEX
  5
7B0
  8
LAYER01
  6
CONTINUOUS
 62
     7
 10
4011.3714559999999
 20
1022.944762
 30
0.0
  0
VERTEX
  5
7B1
  8
LAYER01
  6
CONTINUOUS
 62
     7
 10
4015.8121920000008
 20
1029.6058660000001
 30
0.0
  0
VERTEX
  5
7B2
  8
LAYER01
  6
CONTINUOUS
 62
     7
 10
4020.2529279999999
 20
1035.156786
 30
0.0
  0
VERTEX
  5
7B3
  8
LAYER01
  6
CONTINUOUS
 62
     7
 10
4025.8038479999991
 20
1040.7077059999999
 30
0.0
  0
VERTEX
  5
7B4
  8
LAYER01
  6
CONTINUOUS
 62
     7
 10
4031.3547679999988
 20
1046.2586249999999
 30
0.0
  0
VERTEX
  5
7B5
  8
LAYER01
  6
CONTINUOUS
 62
     7
 10
4036.9056879999998
 20
1050.699361
 30
0.0
  0
VERTEX
  5
7B6
  8
LAYER01
  6
CONTINUOUS
 62
     7
 10
4043.5667909999988
 20
1055.140097
 30
0.0
  0
VERTEX
  5
7B7
  8
LAYER01
  6
CONTINUOUS
 62
     7
 10
4051.3380789999992
 20
1058.4706490000001
 30
0.0
  0
VERTEX
  5
7B8
  8
LAYER01
  6
CONTINUOUS
 62
     7
 10
4057.999182999999
 20
1060.6910170000001
 30
0.0
  0
VERTEX
  5
7B9
  8
LAYER01
  6
CONTINUOUS
 62
     7
 10
4065.7704709999998
 20
1062.9113850000001
 30
0.0
  0
VERTEX
  5
7BA
  8
LAYER01
  6
CONTINUOUS
 62
     7
 10
4073.5417590000002
 20
1064.021569
 30
0.0
  0
VERTEX
  5
7BB
  8
LAYER01
  6
CONTINUOUS
 62
     7
 10
4082.423229999999
 20
1064.021569
 30
0.0
  0
VERTEX
  5
7BC
  8
LAYER01
  6
CONTINUOUS
 62
     7
 10
4082.423229999999
 20
1064.021569
 30
0.0
  0
VERTEX
  5
7BD
  8
LAYER01
  6
CONTINUOUS
 62
     7
 10
4090.1945179999989
 20
1062.9113850000001
 30
0.0
  0
VERTEX
  5
7BE
  8
LAYER01
  6
CONTINUOUS
 62
     7
 10
4097.9658060000002
 20
1061.801201
 30
0.0
  0
VERTEX
  5
7BF
  8
LAYER01
  6
CONTINUOUS
 62
     7
 10
4104.62691
 20
1059.580833
 30
0.0
  0
VERTEX
  5
7C0
  8
LAYER01
  6
CONTINUOUS
 62
     7
 10
4112.3981979999999
 20
1057.360465
 30
0.0
  0
VERTEX
  5
7C1
  8
LAYER01
  6
CONTINUOUS
 62
     7
 10
4117.9491170000001
 20
1054.0299130000001
 30
0.0
  0
VERTEX
  5
7C2
  8
LAYER01
  6
CONTINUOUS
 62
     7
 10
4124.6102209999999
 20
1049.5891770000001
 30
0.0
  0
VERTEX
  5
7C3
  8
LAYER01
  6
CONTINUOUS
 62
     7
 10
4130.1611409999996
 20
1045.1484419999999
 30
0.0
  0
VERTEX
  5
7C4
  8
LAYER01
  6
CONTINUOUS
 62
     7
 10
4135.7120610000002
 20
1040.7077059999999
 30
0.0
  0
VERTEX
  5
7C5
  8
LAYER01
  6
CONTINUOUS
 62
     7
 10
4140.1527969999988
 20
1035.156786
 30
0.0
  0
VERTEX
  5
7C6
  8
LAYER01
  6
CONTINUOUS
 62
     7
 10
4144.5935330000002
 20
1028.495682
 30
0.0
  0
VERTEX
  5
7C7
  8
LAYER01
  6
CONTINUOUS
 62
     7
 10
4149.0342689999998
 20
1022.944762
 30
0.0
  0
VERTEX
  5
7C8
  8
LAYER01
  6
CONTINUOUS
 62
     7
 10
4152.3648200000007
 20
1016.2836579999999
 30
0.0
  0
VERTEX
  5
7C9
  8
LAYER01
  6
CONTINUOUS
 62
     7
 10
4154.585188
 20
1008.512371
 30
0.0
  0
VERTEX
  5
7CA
  8
LAYER01
  6
CONTINUOUS
 62
     7
 10
4156.8055560000012
 20
1001.851267
 30
0.0
  0
VERTEX
  5
7CB
  8
LAYER01
  6
CONTINUOUS
 62
     7
 10
4157.9157399999986
 20
994.07997899999975
 30
0.0
  0
VERTEX
  5
7CC
  8
LAYER01
  6
CONTINUOUS
 62
     7
 10
4157.9157399999986
 20
986.30869100000007
 30
0.0
  0
VERTEX
  5
7CD
  8
LAYER01
  6
CONTINUOUS
 62
     7
 10
4157.9157399999986
 20
986.30869100000007
 30
0.0
  0
VERTEX
  5
7CE
  8
LAYER01
  6
CONTINUOUS
 62
     7
 10
4157.9157399999986
 20
977.42721899999992
 30
0.0
  0
VERTEX
  5
7CF
  8
LAYER01
  6
CONTINUOUS
 62
     7
 10
4156.8055560000012
 20
969.65593200000001
 30
0.0
  0
VERTEX
  5
7D0
  8
LAYER01
  6
CONTINUOUS
 62
     7
 10
4155.6953720000001
 20
961.88464399999998
 30
0.0
  0
VERTEX
  5
7D1
  8
LAYER01
  6
CONTINUOUS
 62
     7
 10
4152.3648200000007
 20
955.22353999999996
 30
0.0
  0
VERTEX
  5
7D2
  8
LAYER01
  6
CONTINUOUS
 62
     7
 10
4150.1444520000014
 20
947.45225199999982
 30
0.0
  0
VERTEX
  5
7D3
  8
LAYER01
  6
CONTINUOUS
 62
     7
 10
4145.7037170000003
 20
940.79114800000002
 30
0.0
  0
VERTEX
  5
7D4
  8
LAYER01
  6
CONTINUOUS
 62
     7
 10
4141.2629809999989
 20
934.13004499999977
 30
0.0
  0
VERTEX
  5
7D5
  8
LAYER01
  6
CONTINUOUS
 62
     7
 10
4135.7120610000002
 20
928.57912499999998
 30
0.0
  0
VERTEX
  5
7D6
  8
LAYER01
  6
CONTINUOUS
 62
     7
 10
4130.1611409999996
 20
923.02820500000007
 30
0.0
  0
VERTEX
  5
7D7
  8
LAYER01
  6
CONTINUOUS
 62
     7
 10
4124.6102209999999
 20
918.58746900000006
 30
0.0
  0
VERTEX
  5
7D8
  8
LAYER01
  6
CONTINUOUS
 62
     7
 10
4117.9491170000001
 20
914.14673300000015
 30
0.0
  0
VERTEX
  5
7D9
  8
LAYER01
  6
CONTINUOUS
 62
     7
 10
4111.2880139999997
 20
910.81618100000003
 30
0.0
  0
VERTEX
  5
7DA
  8
LAYER01
  6
CONTINUOUS
 62
     7
 10
4103.5167259999998
 20
908.59581300000013
 30
0.0
  0
VERTEX
  5
7DB
  8
LAYER01
  6
CONTINUOUS
 62
     7
 10
4095.7454379999999
 20
906.3754449999999
 30
0.0
  0
VERTEX
  5
7DC
  8
LAYER01
  6
CONTINUOUS
 62
     7
 10
4087.9741499999991
 20
905.2652609999999
 30
0.0
  0
VERTEX
  5
7DD
  8
LAYER01
  6
CONTINUOUS
 62
     7
 10
4080.2028619999992
 20
904.15507700000001
 30
0.0
  0
VERTEX
  5
7DE
  8
LAYER01
  6
CONTINUOUS
 62
     7
 10
4080.2028619999992
 20
904.15507700000001
 30
0.0
  0
SEQEND
  5
7DF
  8
LAYER01
  6
CONTINUOUS
 62
     7
  0
POLYLINE
  5
394
  8
LAYER01
  6
CONTINUOUS
 62
     7
 66
     1
 10
0.0
 20
0.0
 30
0.0
 70
     1
  0
VERTEX
  5
7E0
  8
LAYER01
  6
CONTINUOUS
 62
     7
 10
4169.0175799999997
 20
1103.988192
 30
0.0
  0
VERTEX
  5
7E1
  8
LAYER01
  6
CONTINUOUS
 62
     7
 10
4286.6970810000003
 20
1103.988192
 30
0.0
  0
VERTEX
  5
7E2
  8
LAYER01
  6
CONTINUOUS
 62
     7
 10
4286.6970810000003
 20
1103.988192
 30
0.0
  0
VERTEX
  5
7E3
  8
LAYER01
  6
CONTINUOUS
 62
     7
 10
4300.0192880000004
 20
1101.767824
 30
0.0
  0
VERTEX
  5
7E4
  8
LAYER01
  6
CONTINUOUS
 62
     7
 10
4312.2313119999999
 20
1096.2169040000001
 30
0.0
  0
VERTEX
  5
7E5
  8
LAYER01
  6
CONTINUOUS
 62
     7
 10
4322.222968
 20
1089.5558000000001
 30
0.0
  0
VERTEX
  5
7E6
  8
LAYER01
  6
CONTINUOUS
 62
     7
 10
4331.1044399999992
 20
1080.6743289999999
 30
0.0
  0
VERTEX
  5
7E7
  8
LAYER01
  6
CONTINUOUS
 62
     7
 10
4338.8757269999996
 20
1071.7928569999999
 30
0.0
  0
VERTEX
  5
7E8
  8
LAYER01
  6
CONTINUOUS
 62
     7
 10
4344.4266470000002
 20
1060.6910170000001
 30
0.0
  0
VERTEX
  5
7E9
  8
LAYER01
  6
CONTINUOUS
 62
     7
 10
4347.7571990000006
 20
1047.3688090000001
 30
0.0
  0
VERTEX
  5
7EA
  8
LAYER01
  6
CONTINUOUS
 62
     7
 10
4348.8673829999989
 20
1035.156786
 30
0.0
  0
VERTEX
  5
7EB
  8
LAYER01
  6
CONTINUOUS
 62
     7
 10
4348.8673829999989
 20
1035.156786
 30
0.0
  0
VERTEX
  5
7EC
  8
LAYER01
  6
CONTINUOUS
 62
     7
 10
4347.7571990000006
 20
1021.834578
 30
0.0
  0
VERTEX
  5
7ED
  8
LAYER01
  6
CONTINUOUS
 62
     7
 10
4345.5368310000003
 20
1010.732738
 30
0.0
  0
VERTEX
  5
7EE
  8
LAYER01
  6
CONTINUOUS
 62
     7
 10
4341.0960949999999
 20
999.63089900000011
 30
0.0
  0
VERTEX
  5
7EF
  8
LAYER01
  6
CONTINUOUS
 62
     7
 10
4335.5451750000002
 20
989.63924299999996
 30
0.0
  0
VERTEX
  5
7F0
  8
LAYER01
  6
CONTINUOUS
 62
     7
 10
4327.7738880000006
 20
980.75777100000005
 30
0.0
  0
VERTEX
  5
7F1
  8
LAYER01
  6
CONTINUOUS
 62
     7
 10
4320.0025999999998
 20
974.09666700000002
 30
0.0
  0
VERTEX
  5
7F2
  8
LAYER01
  6
CONTINUOUS
 62
     7
 10
4308.9007600000004
 20
967.43556400000011
 30
0.0
  0
VERTEX
  5
7F3
  8
LAYER01
  6
CONTINUOUS
 62
     7
 10
4297.7989200000002
 20
962.99482799999998
 30
0.0
  0
VERTEX
  5
7F4
  8
LAYER01
  6
CONTINUOUS
 62
     7
 10
4369.9608790000002
 20
866.4088220000001
 30
0.0
  0
VERTEX
  5
7F5
  8
LAYER01
  6
CONTINUOUS
 62
     7
 10
4314.4516800000001
 20
866.4088220000001
 30
0.0
  0
VERTEX
  5
7F6
  8
LAYER01
  6
CONTINUOUS
 62
     7
 10
4217.865675
 20
989.63924299999996
 30
0.0
  0
VERTEX
  5
7F7
  8
LAYER01
  6
CONTINUOUS
 62
     7
 10
4272.2646889999996
 20
989.63924299999996
 30
0.0
  0
VERTEX
  5
7F8
  8
LAYER01
  6
CONTINUOUS
 62
     7
 10
4272.2646889999996
 20
989.63924299999996
 30
0.0
  0
VERTEX
  5
7F9
  8
LAYER01
  6
CONTINUOUS
 62
     7
 10
4278.9257930000003
 20
991.85961099999986
 30
0.0
  0
VERTEX
  5
7FA
  8
LAYER01
  6
CONTINUOUS
 62
     7
 10
4284.476713
 20
994.07997899999975
 30
0.0
  0
VERTEX
  5
7FB
  8
LAYER01
  6
CONTINUOUS
 62
     7
 10
4288.9174490000014
 20
998.520715
 30
0.0
  0
VERTEX
  5
7FC
  8
LAYER01
  6
CONTINUOUS
 62
     7
 10
4293.358185
 20
1002.961451
 30
0.0
  0
VERTEX
  5
7FD
  8
LAYER01
  6
CONTINUOUS
 62
     7
 10
4296.6887369999986
 20
1008.512371
 30
0.0
  0
VERTEX
  5
7FE
  8
LAYER01
  6
CONTINUOUS
 62
     7
 10
4300.0192880000004
 20
1014.0632900000001
 30
0.0
  0
VERTEX
  5
7FF
  8
LAYER01
  6
CONTINUOUS
 62
     7
 10
4301.1294719999987
 20
1020.724394
 30
0.0
  0
VERTEX
  5
800
  8
LAYER01
  6
CONTINUOUS
 62
     7
 10
4301.1294719999987
 20
1027.3854980000001
 30
0.0
  0
VERTEX
  5
801
  8
LAYER01
  6
CONTINUOUS
 62
     7
 10
4301.1294719999987
 20
1027.3854980000001
 30
0.0
  0
VERTEX
  5
802
  8
LAYER01
  6
CONTINUOUS
 62
     7
 10
4301.1294719999987
 20
1034.0466019999999
 30
0.0
  0
VERTEX
  5
803
  8
LAYER01
  6
CONTINUOUS
 62
     7
 10
4298.9091040000003
 20
1039.597522
 30
0.0
  0
VERTEX
  5
804
  8
LAYER01
  6
CONTINUOUS
 62
     7
 10
4296.6887369999986
 20
1045.1484419999999
 30
0.0
  0
VERTEX
  5
805
  8
LAYER01
  6
CONTINUOUS
 62
     7
 10
4293.358185
 20
1050.699361
 30
0.0
  0
VERTEX
  5
806
  8
LAYER01
  6
CONTINUOUS
 62
     7
 10
4288.9174490000014
 20
1055.140097
 30
0.0
  0
VERTEX
  5
807
  8
LAYER01
  6
CONTINUOUS
 62
     7
 10
4284.476713
 20
1058.4706490000001
 30
0.0
  0
VERTEX
  5
808
  8
LAYER01
  6
CONTINUOUS
 62
     7
 10
4277.8156090000002
 20
1061.801201
 30
0.0
  0
VERTEX
  5
809
  8
LAYER01
  6
CONTINUOUS
 62
     7
 10
4272.2646889999996
 20
1064.021569
 30
0.0
  0
VERTEX
  5
80A
  8
LAYER01
  6
CONTINUOUS
 62
     7
 10
4208.9842029999991
 20
1064.021569
 30
0.0
  0
VERTEX
  5
80B
  8
LAYER01
  6
CONTINUOUS
 62
     7
 10
4169.0175799999997
 20
1103.988192
 30
0.0
  0
VERTEX
  5
80C
  8
LAYER01
  6
CONTINUOUS
 62
     7
 10
4169.0175799999997
 20
1103.988192
 30
0.0
  0
SEQEND
  5
80D
  8
LAYER01
  6
CONTINUOUS
 62
     7
  0
POLYLINE
  5
3C3
  8
LAYER01
  6
CONTINUOUS
 62
     7
 66
     1
 10
0.0
 20
0.0
 30
0.0
 70
     1
  0
VERTEX
  5
80E
  8
LAYER01
  6
CONTINUOUS
 62
     7
 10
4399.9358460000003
 20
1045.1484419999999
 30
0.0
  0
VERTEX
  5
80F
  8
LAYER01
  6
CONTINUOUS
 62
     7
 10
4399.9358460000003
 20
1045.1484419999999
 30
0.0
  0
VERTEX
  5
810
  8
LAYER01
  6
CONTINUOUS
 62
     7
 10
4405.486766
 20
1046.2586249999999
 30
0.0
  0
VERTEX
  5
811
  8
LAYER01
  6
CONTINUOUS
 62
     7
 10
4411.0376850000002
 20
1047.3688090000001
 30
0.0
  0
VERTEX
  5
812
  8
LAYER01
  6
CONTINUOUS
 62
     7
 10
4416.5886049999999
 20
1050.699361
 30
0.0
  0
VERTEX
  5
813
  8
LAYER01
  6
CONTINUOUS
 62
     7
 10
4421.0293409999986
 20
1054.0299130000001
 30
0.0
  0
VERTEX
  5
814
  8
LAYER01
  6
CONTINUOUS
 62
     7
 10
4424.3598929999998
 20
1058.4706490000001
 30
0.0
  0
VERTEX
  5
815
  8
LAYER01
  6
CONTINUOUS
 62
     7
 10
4426.5802610000001
 20
1062.9113850000001
 30
0.0
  0
VERTEX
  5
816
  8
LAYER01
  6
CONTINUOUS
 62
     7
 10
4428.8006290000003
 20
1068.462305
 30
0.0
  0
VERTEX
  5
817
  8
LAYER01
  6
CONTINUOUS
 62
     7
 10
4428.8006290000003
 20
1075.123409
 30
0.0
  0
VERTEX
  5
818
  8
LAYER01
  6
CONTINUOUS
 62
     7
 10
4428.8006290000003
 20
1075.123409
 30
0.0
  0
VERTEX
  5
819
  8
LAYER01
  6
CONTINUOUS
 62
     7
 10
4428.8006290000003
 20
1080.6743289999999
 30
0.0
  0
VERTEX
  5
81A
  8
LAYER01
  6
CONTINUOUS
 62
     7
 10
4426.5802610000001
 20
1086.225248
 30
0.0
  0
VERTEX
  5
81B
  8
LAYER01
  6
CONTINUOUS
 62
     7
 10
4424.3598929999998
 20
1090.665984
 30
0.0
  0
VERTEX
  5
81C
  8
LAYER01
  6
CONTINUOUS
 62
     7
 10
4421.0293409999986
 20
1095.10672
 30
0.0
  0
VERTEX
  5
81D
  8
LAYER01
  6
CONTINUOUS
 62
     7
 10
4416.5886049999999
 20
1098.4372719999999
 30
0.0
  0
VERTEX
  5
81E
  8
LAYER01
  6
CONTINUOUS
 62
     7
 10
4411.0376850000002
 20
1101.767824
 30
0.0
  0
VERTEX
  5
81F
  8
LAYER01
  6
CONTINUOUS
 62
     7
 10
4405.486766
 20
1102.8780079999999
 30
0.0
  0
VERTEX
  5
820
  8
LAYER01
  6
CONTINUOUS
 62
     7
 10
4399.9358460000003
 20
1103.988192
 30
0.0
  0
VERTEX
  5
821
  8
LAYER01
  6
CONTINUOUS
 62
     7
 10
4399.9358460000003
 20
1103.988192
 30
0.0
  0
VERTEX
  5
822
  8
LAYER01
  6
CONTINUOUS
 62
     7
 10
4394.3849259999988
 20
1102.8780079999999
 30
0.0
  0
VERTEX
  5
823
  8
LAYER01
  6
CONTINUOUS
 62
     7
 10
4388.834006
 20
1101.767824
 30
0.0
  0
VERTEX
  5
824
  8
LAYER01
  6
CONTINUOUS
 62
     7
 10
4383.2830860000004
 20
1098.4372719999999
 30
0.0
  0
VERTEX
  5
825
  8
LAYER01
  6
CONTINUOUS
 62
     7
 10
4378.8423499999999
 20
1095.10672
 30
0.0
  0
VERTEX
  5
826
  8
LAYER01
  6
CONTINUOUS
 62
     7
 10
4375.5117979999986
 20
1090.665984
 30
0.0
  0
VERTEX
  5
827
  8
LAYER01
  6
CONTINUOUS
 62
     7
 10
4373.2914300000002
 20
1086.225248
 30
0.0
  0
VERTEX
  5
828
  8
LAYER01
  6
CONTINUOUS
 62
     7
 10
4371.071062
 20
1080.6743289999999
 30
0.0
  0
VERTEX
  5
829
  8
LAYER01
  6
CONTINUOUS
 62
     7
 10
4371.071062
 20
1075.123409
 30
0.0
  0
VERTEX
  5
82A
  8
LAYER01
  6
CONTINUOUS
 62
     7
 10
4371.071062
 20
1075.123409
 30
0.0
  0
VERTEX
  5
82B
  8
LAYER01
  6
CONTINUOUS
 62
     7
 10
4371.071062
 20
1068.462305
 30
0.0
  0
VERTEX
  5
82C
  8
LAYER01
  6
CONTINUOUS
 62
     7
 10
4373.2914300000002
 20
1062.9113850000001
 30
0.0
  0
VERTEX
  5
82D
  8
LAYER01
  6
CONTINUOUS
 62
     7
 10
4375.5117979999986
 20
1058.4706490000001
 30
0.0
  0
VERTEX
  5
82E
  8
LAYER01
  6
CONTINUOUS
 62
     7
 10
4378.8423499999999
 20
1054.0299130000001
 30
0.0
  0
VERTEX
  5
82F
  8
LAYER01
  6
CONTINUOUS
 62
     7
 10
4383.2830860000004
 20
1050.699361
 30
0.0
  0
VERTEX
  5
830
  8
LAYER01
  6
CONTINUOUS
 62
     7
 10
4388.834006
 20
1047.3688090000001
 30
0.0
  0
VERTEX
  5
831
  8
LAYER01
  6
CONTINUOUS
 62
     7
 10
4394.3849259999988
 20
1046.2586249999999
 30
0.0
  0
VERTEX
  5
832
  8
LAYER01
  6
CONTINUOUS
 62
     7
 10
4399.9358460000003
 20
1045.1484419999999
 30
0.0
  0
VERTEX
  5
833
  8
LAYER01
  6
CONTINUOUS
 62
     7
 10
4399.9358460000003
 20
1045.1484419999999
 30
0.0
  0
SEQEND
  5
834
  8
LAYER01
  6
CONTINUOUS
 62
     7
  0
POLYLINE
  5
3EB
  8
LAYER01
  6
CONTINUOUS
 62
     7
 66
     1
 10
0.0
 20
0.0
 30
0.0
 70
     1
  0
VERTEX
  5
835
  8
LAYER01
  6
CONTINUOUS
 62
     7
 10
4399.9358460000003
 20
1099.547456
 30
0.0
  0
VERTEX
  5
836
  8
LAYER01
  6
CONTINUOUS
 62
     7
 10
4399.9358460000003
 20
1099.547456
 30
0.0
  0
VERTEX
  5
837
  8
LAYER01
  6
CONTINUOUS
 62
     7
 10
4404.3765819999999
 20
1098.4372719999999
 30
0.0
  0
VERTEX
  5
838
  8
LAYER01
  6
CONTINUOUS
 62
     7
 10
4408.8173169999991
 20
1097.327088
 30
0.0
  0
VERTEX
  5
839
  8
LAYER01
  6
CONTINUOUS
 62
     7
 10
4413.2580529999996
 20
1095.10672
 30
0.0
  0
VERTEX
  5
83A
  8
LAYER01
  6
CONTINUOUS
 62
     7
 10
4416.5886049999999
 20
1091.776167999999
 30
0.0
  0
VERTEX
  5
83B
  8
LAYER01
  6
CONTINUOUS
 62
     7
 10
4419.9191570000003
 20
1088.445616
 30
0.0
  0
VERTEX
  5
83C
  8
LAYER01
  6
CONTINUOUS
 62
     7
 10
4422.1395249999987
 20
1084.00488
 30
0.0
  0
VERTEX
  5
83D
  8
LAYER01
  6
CONTINUOUS
 62
     7
 10
4424.3598929999998
 20
1079.5641449999989
 30
0.0
  0
VERTEX
  5
83E
  8
LAYER01
  6
CONTINUOUS
 62
     7
 10
4424.3598929999998
 20
1075.123409
 30
0.0
  0
VERTEX
  5
83F
  8
LAYER01
  6
CONTINUOUS
 62
     7
 10
4424.3598929999998
 20
1075.123409
 30
0.0
  0
VERTEX
  5
840
  8
LAYER01
  6
CONTINUOUS
 62
     7
 10
4424.3598929999998
 20
1069.5724889999999
 30
0.0
  0
VERTEX
  5
841
  8
LAYER01
  6
CONTINUOUS
 62
     7
 10
4422.1395249999987
 20
1065.1317529999999
 30
0.0
  0
VERTEX
  5
842
  8
LAYER01
  6
CONTINUOUS
 62
     7
 10
4419.9191570000003
 20
1060.6910170000001
 30
0.0
  0
VERTEX
  5
843
  8
LAYER01
  6
CONTINUOUS
 62
     7
 10
4416.5886049999999
 20
1057.360465
 30
0.0
  0
VERTEX
  5
844
  8
LAYER01
  6
CONTINUOUS
 62
     7
 10
4413.2580529999996
 20
1054.0299130000001
 30
0.0
  0
VERTEX
  5
845
  8
LAYER01
  6
CONTINUOUS
 62
     7
 10
4408.8173169999991
 20
1051.8095450000001
 30
0.0
  0
VERTEX
  5
846
  8
LAYER01
  6
CONTINUOUS
 62
     7
 10
4404.3765819999999
 20
1050.699361
 30
0.0
  0
VERTEX
  5
847
  8
LAYER01
  6
CONTINUOUS
 62
     7
 10
4399.9358460000003
 20
1050.699361
 30
0.0
  0
VERTEX
  5
848
  8
LAYER01
  6
CONTINUOUS
 62
     7
 10
4399.9358460000003
 20
1050.699361
 30
0.0
  0
VERTEX
  5
849
  8
LAYER01
  6
CONTINUOUS
 62
     7
 10
4395.4951099999998
 20
1050.699361
 30
0.0
  0
VERTEX
  5
84A
  8
LAYER01
  6
CONTINUOUS
 62
     7
 10
4389.9441900000002
 20
1051.8095450000001
 30
0.0
  0
VERTEX
  5
84B
  8
LAYER01
  6
CONTINUOUS
 62
     7
 10
4386.6136379999998
 20
1054.0299130000001
 30
0.0
  0
VERTEX
  5
84C
  8
LAYER01
  6
CONTINUOUS
 62
     7
 10
4382.1729020000002
 20
1057.360465
 30
0.0
  0
VERTEX
  5
84D
  8
LAYER01
  6
CONTINUOUS
 62
     7
 10
4379.952534
 20
1060.6910170000001
 30
0.0
  0
VERTEX
  5
84E
  8
LAYER01
  6
CONTINUOUS
 62
     7
 10
4377.7321659999998
 20
1065.1317529999999
 30
0.0
  0
VERTEX
  5
84F
  8
LAYER01
  6
CONTINUOUS
 62
     7
 10
4375.5117979999986
 20
1069.5724889999999
 30
0.0
  0
VERTEX
  5
850
  8
LAYER01
  6
CONTINUOUS
 62
     7
 10
4375.5117979999986
 20
1075.123409
 30
0.0
  0
VERTEX
  5
851
  8
LAYER01
  6
CONTINUOUS
 62
     7
 10
4375.5117979999986
 20
1075.123409
 30
0.0
  0
VERTEX
  5
852
  8
LAYER01
  6
CONTINUOUS
 62
     7
 10
4375.5117979999986
 20
1079.5641449999989
 30
0.0
  0
VERTEX
  5
853
  8
LAYER01
  6
CONTINUOUS
 62
     7
 10
4377.7321659999998
 20
1084.00488
 30
0.0
  0
VERTEX
  5
854
  8
LAYER01
  6
CONTINUOUS
 62
     7
 10
4379.952534
 20
1088.445616
 30
0.0
  0
VERTEX
  5
855
  8
LAYER01
  6
CONTINUOUS
 62
     7
 10
4382.1729020000002
 20
1091.776167999999
 30
0.0
  0
VERTEX
  5
856
  8
LAYER01
  6
CONTINUOUS
 62
     7
 10
4386.6136379999998
 20
1095.10672
 30
0.0
  0
VERTEX
  5
857
  8
LAYER01
  6
CONTINUOUS
 62
     7
 10
4389.9441900000002
 20
1097.327088
 30
0.0
  0
VERTEX
  5
858
  8
LAYER01
  6
CONTINUOUS
 62
     7
 10
4395.4951099999998
 20
1098.4372719999999
 30
0.0
  0
VERTEX
  5
859
  8
LAYER01
  6
CONTINUOUS
 62
     7
 10
4399.9358460000003
 20
1099.547456
 30
0.0
  0
VERTEX
  5
85A
  8
LAYER01
  6
CONTINUOUS
 62
     7
 10
4399.9358460000003
 20
1099.547456
 30
0.0
  0
SEQEND
  5
85B
  8
LAYER01
  6
CONTINUOUS
 62
     7
  0
POLYLINE
  5
413
  8
LAYER01
  6
CONTINUOUS
 62
     7
 66
     1
 10
0.0
 20
0.0
 30
0.0
 70
     1
  0
VERTEX
  5
85C
  8
LAYER01
  6
CONTINUOUS
 62
     7
 10
4404.3765819999999
 20
1072.903041
 30
0.0
  0
VERTEX
  5
85D
  8
LAYER01
  6
CONTINUOUS
 62
     7
 10
4404.3765819999999
 20
1072.903041
 30
0.0
  0
VERTEX
  5
85E
  8
LAYER01
  6
CONTINUOUS
 62
     7
 10
4407.7071329999999
 20
1074.0132249999999
 30
0.0
  0
VERTEX
  5
85F
  8
LAYER01
  6
CONTINUOUS
 62
     7
 10
4411.0376850000002
 20
1075.123409
 30
0.0
  0
VERTEX
  5
860
  8
LAYER01
  6
CONTINUOUS
 62
     7
 10
4413.2580529999996
 20
1078.4539609999999
 30
0.0
  0
VERTEX
  5
861
  8
LAYER01
  6
CONTINUOUS
 62
     7
 10
4413.2580529999996
 20
1081.7845130000001
 30
0.0
  0
VERTEX
  5
862
  8
LAYER01
  6
CONTINUOUS
 62
     7
 10
4413.2580529999996
 20
1081.7845130000001
 30
0.0
  0
VERTEX
  5
863
  8
LAYER01
  6
CONTINUOUS
 62
     7
 10
4413.2580529999996
 20
1086.225248
 30
0.0
  0
VERTEX
  5
864
  8
LAYER01
  6
CONTINUOUS
 62
     7
 10
4409.9275010000001
 20
1089.5558000000001
 30
0.0
  0
VERTEX
  5
865
  8
LAYER01
  6
CONTINUOUS
 62
     7
 10
4406.5969499999992
 20
1090.665984
 30
0.0
  0
VERTEX
  5
866
  8
LAYER01
  6
CONTINUOUS
 62
     7
 10
4402.1562139999996
 20
1090.665984
 30
0.0
  0
VERTEX
  5
867
  8
LAYER01
  6
CONTINUOUS
 62
     7
 10
4388.834006
 20
1090.665984
 30
0.0
  0
VERTEX
  5
868
  8
LAYER01
  6
CONTINUOUS
 62
     7
 10
4388.834006
 20
1058.4706490000001
 30
0.0
  0
VERTEX
  5
869
  8
LAYER01
  6
CONTINUOUS
 62
     7
 10
4393.2747419999996
 20
1058.4706490000001
 30
0.0
  0
VERTEX
  5
86A
  8
LAYER01
  6
CONTINUOUS
 62
     7
 10
4393.2747419999996
 20
1072.903041
 30
0.0
  0
VERTEX
  5
86B
  8
LAYER01
  6
CONTINUOUS
 62
     7
 10
4399.9358460000003
 20
1072.903041
 30
0.0
  0
VERTEX
  5
86C
  8
LAYER01
  6
CONTINUOUS
 62
     7
 10
4407.7071329999999
 20
1058.4706490000001
 30
0.0
  0
VERTEX
  5
86D
  8
LAYER01
  6
CONTINUOUS
 62
     7
 10
4413.2580529999996
 20
1058.4706490000001
 30
0.0
  0
VERTEX
  5
86E
  8
LAYER01
  6
CONTINUOUS
 62
     7
 10
4404.3765819999999
 20
1072.903041
 30
0.0
  0
VERTEX
  5
86F
  8
LAYER01
  6
CONTINUOUS
 62
     7
 10
4404.3765819999999
 20
1072.903041
 30
0.0
  0
SEQEND
  5
870
  8
LAYER01
  6
CONTINUOUS
 62
     7
  0
POLYLINE
  5
429
  8
LAYER01
  6
CONTINUOUS
 62
     7
 66
     1
 10
0.0
 20
0.0
 30
0.0
 70
     1
  0
VERTEX
  5
871
  8
LAYER01
  6
CONTINUOUS
 62
     7
 10
4401.0460299999986
 20
1086.225248
 30
0.0
  0
VERTEX
  5
872
  8
LAYER01
  6
CONTINUOUS
 62
     7
 10
4401.0460299999986
 20
1086.225248
 30
0.0
  0
VERTEX
  5
873
  8
LAYER01
  6
CONTINUOUS
 62
     7
 10
4406.5969499999992
 20
1085.1150640000001
 30
0.0
  0
VERTEX
  5
874
  8
LAYER01
  6
CONTINUOUS
 62
     7
 10
4408.8173169999991
 20
1084.00488
 30
0.0
  0
VERTEX
  5
875
  8
LAYER01
  6
CONTINUOUS
 62
     7
 10
4408.8173169999991
 20
1081.7845130000001
 30
0.0
  0
VERTEX
  5
876
  8
LAYER01
  6
CONTINUOUS
 62
     7
 10
4408.8173169999991
 20
1081.7845130000001
 30
0.0
  0
VERTEX
  5
877
  8
LAYER01
  6
CONTINUOUS
 62
     7
 10
4407.7071329999999
 20
1079.5641449999989
 30
0.0
  0
VERTEX
  5
878
  8
LAYER01
  6
CONTINUOUS
 62
     7
 10
4405.486766
 20
1078.4539609999999
 30
0.0
  0
VERTEX
  5
879
  8
LAYER01
  6
CONTINUOUS
 62
     7
 10
4398.8256619999993
 20
1077.343777
 30
0.0
  0
VERTEX
  5
87A
  8
LAYER01
  6
CONTINUOUS
 62
     7
 10
4393.2747419999996
 20
1077.343777
 30
0.0
  0
VERTEX
  5
87B
  8
LAYER01
  6
CONTINUOUS
 62
     7
 10
4393.2747419999996
 20
1086.225248
 30
0.0
  0
VERTEX
  5
87C
  8
LAYER01
  6
CONTINUOUS
 62
     7
 10
4401.0460299999986
 20
1086.225248
 30
0.0
  0
VERTEX
  5
87D
  8
LAYER01
  6
CONTINUOUS
 62
     7
 10
4401.0460299999986
 20
1086.225248
 30
0.0
  0
SEQEND
  5
87E
  8
LAYER01
  6
CONTINUOUS
 62
     7
  0
ENDBLK
  5
438
  8
0
  0
ENDSEC
  0
SECTION
  2
ENTITIES
  0
POLYLINE
  5
439
  8
LAYER01
  6
CONTINUOUS
 62
     7
 66
     1
 10
0.0
 20
0.0
 30
0.0
 70
     1
  0
VERTEX
  5
87F
  8
LAYER01
  6
CONTINUOUS
 62
     7
 10
693.12875099999985
 20
27.154824000000001
 30
0.0
  0
VERTEX
  5
880
  8
LAYER01
  6
CONTINUOUS
 62
     7
 10
693.12875099999985
 20
2907.5777130000001
 30
0.0
  0
VERTEX
  5
881
  8
LAYER01
  6
CONTINUOUS
 62
     7
 10
4656.4608509999998
 20
2907.5777130000001
 30
0.0
  0
VERTEX
  5
882
  8
LAYER01
  6
CONTINUOUS
 62
     7
 10
4656.4608509999998
 20
27.154824000000001
 30
0.0
  0
SEQEND
  5
883
  8
LAYER01
  6
CONTINUOUS
 62
     7
  0
DIMENSION
  5
43F
  8
LAYER01
 62
     7
  2
*D0
 10
2161.375168
 20
1354.0330530000001
 30
0.0
 11
2316.5263319999999
 21
1400.392308
 31
0.0
 13
2207.375168
 23
1437.8299219999999
 33
0.0
 14
2161.375168
 24
1437.8299219999999
 34
0.0
  0
DIMENSION
  5
440
  8
LAYER01
 62
     7
  2
*D1
 10
1383.4717800000001
 20
1254.273817
 30
0.0
 11
1545.4911950000001
 21
1319.273817
 31
0.0
 13
1713.4717800000001
 23
1385.6868910000001
 33
0.0
 14
1383.4717800000001
 24
1385.6868910000001
 34
0.0
  0
DIMENSION
  5
441
  8
LAYER01
 62
     7
  2
*D2
 10
1357.51098
 20
1148.337773
 30
0.0
 11
1544.530395
 21
1213.337773
 31
0.0
 13
1737.51098
 23
1385.6868910000001
 33
0.0
 14
1357.51098
 24
1385.6868910000001
 34
0.0
  0
CIRCLE
  5
442
  8
LAYER01
  6
CONTINUOUS
 62
     7
 10
1548.4717800000001
 20
1633.7820220000001
 30
0.0
 40
165.0
  0
CIRCLE
  5
443
  8
LAYER01
  6
CONTINUOUS
 62
     7
 10
1547.51098
 20
1633.8299219999999
 30
0.0
 40
190.0
  0
CIRCLE
  5
444
  8
LAYER01
  6
CONTINUOUS
 62
     7
 10
1548.38823
 20
1633.7820220000001
 30
0.0
 40
28.5
  0
CIRCLE
  5
445
  8
LAYER01
  6
CONTINUOUS
 62
     7
 10
1548.38823
 20
1633.7820220000001
 30
0.0
 40
23.0
  0
LINE
  5
446
  8
LAYER01
  6
CONTINUOUS
 62
     7
 10
1548.51098
 20
1595.6299220000001
 30
0.0
 11
1548.51098
 21
1671.3299219999999
 31
0.0
  0
LINE
  5
447
  8
LAYER01
  6
CONTINUOUS
 62
     7
 10
1586.31098
 20
1633.8299219999999
 30
0.0
 11
1508.7109800000001
 21
1633.8299219999999
 31
0.0
  0
DIMENSION
  5
448
  8
LAYER01
 62
     7
  2
*D3
 10
2019.375168
 20
1721.365364
 30
0.0
 11
2185.567716
 21
1786.365364
 31
0.0
 13
2349.375168
 23
1650.09193
 33
0.0
 14
2019.375168
 24
1650.09193
 34
0.0
  0
DIMENSION
  5
449
  8
LAYER01
 62
     7
  2
*D4
 10
1994.375168
 20
1844.905982
 30
0.0
 11
2185.567716
 21
1909.905982
 31
0.0
 13
2374.375168
 23
1650.09193
 33
0.0
 14
1994.375168
 24
1650.09193
 34
0.0
  0
LINE
  5
44A
  8
LAYER01
  6
CONTINUOUS
 62
     7
 10
2374.375168
 20
1632.8299219999999
 30
0.0
 11
1994.4205529999999
 21
1632.8299219999999
 31
0.0
  0
LINE
  5
44B
  8
LAYER01
  6
CONTINUOUS
 62
     7
 10
2158.6751680000002
 20
1437.8299219999999
 30
0.0
 11
2207.375168
 21
1437.8299219999999
 31
0.0
  0
LINE
  5
44C
  8
LAYER01
  6
CONTINUOUS
 62
     7
 10
2156.875168
 20
1470.729922
 30
0.0
 11
2209.701904
 21
1470.729922
 31
0.0
  0
LINE
  5
44D
  8
LAYER01
  6
CONTINUOUS
 62
     7
 10
2154.6670960000001
 20
1475.6299220000001
 30
0.0
 11
2215.5751679999998
 21
1475.6299220000001
 31
0.0
  0
POLYLINE
  5
44E
  8
3
  6
CONTINUOUS
 62
     7
 66
     1
 10
0.0
 20
0.0
 30
0.0
  0
VERTEX
  5
884
  8
3
  6
CONTINUOUS
 62
     7
 10
1994.375168
 20
1627.8299219999999
 30
0.0
  0
VERTEX
  5
885
  8
3
  6
CONTINUOUS
 62
     7
 10
1994.375168
 20
1632.8299219999999
 30
0.0
  0
VERTEX
  5
886
  8
3
  6
CONTINUOUS
 62
     7
 10
2009.9598579999999
 20
1632.809321
 30
0.0
 42
-0.389526
  0
VERTEX
  5
887
  8
3
  6
CONTINUOUS
 62
     7
 10
2019.9237390000001
 20
1623.658486
 30
0.0
 42
0.342614
  0
VERTEX
  5
888
  8
3
  6
CONTINUOUS
 62
     7
 10
2157.1512980000002
 20
1474.92318
 30
0.0
 42
-0.366541
  0
VERTEX
  5
889
  8
3
  6
CONTINUOUS
 62
     7
 10
2161.375168
 20
1470.0299219999999
 30
0.0
  0
VERTEX
  5
88A
  8
3
  6
CONTINUOUS
 62
     7
 10
2161.375168
 20
1437.8299219999999
 30
0.0
  0
VERTEX
  5
88B
  8
3
  6
CONTINUOUS
 62
     7
 10
2155.875168
 20
1437.8299219999999
 30
0.0
  0
VERTEX
  5
88C
  8
3
  6
CONTINUOUS
 62
     7
 10
2155.827769
 20
1467.9780969999999
 30
0.0
 42
0.362228
  0
VERTEX
  5
88D
  8
3
  6
CONTINUOUS
 62
     7
 10
2153.7770420000002
 20
1470.4373969999999
 30
0.0
 42
-0.338364
  0
VERTEX
  5
88E
  8
3
  6
CONTINUOUS
 62
     7
 10
2014.9417989999999
 20
1623.2339039999999
 30
0.0
 42
0.389526
  0
VERTEX
  5
88F
  8
3
  6
CONTINUOUS
 62
     7
 10
2009.9751679999999
 20
1627.8299219999999
 30
0.0
  0
VERTEX
  5
890
  8
3
  6
CONTINUOUS
 62
     7
 10
1994.375168
 20
1627.8299219999999
 30
0.0
  0
SEQEND
  5
891
  8
3
  6
CONTINUOUS
 62
     7
  0
INSERT
  5
45D
  8
LAYER01
  2
ABS9-G6
 10
0.0
 20
0.0
 30
0.0
  0
POLYLINE
  5
45E
  8
5
  6
CONTINUOUS
 62
     7
 66
     1
 10
0.0
 20
0.0
 30
0.0
 70
     1
  0
VERTEX
  5
892
  8
5
  6
CONTINUOUS
 62
     7
 10
2085.9751679999999
 20
1524.429922
 30
0.0
  0
VERTEX
  5
893
  8
5
  6
CONTINUOUS
 62
     7
 10
2073.0751679999998
 20
1515.8299219999999
 30
0.0
  0
VERTEX
  5
894
  8
5
  6
CONTINUOUS
 62
     7
 10
2080.4751679999999
 20
1529.429922
 30
0.0
  0
SEQEND
  5
895
  8
5
  6
CONTINUOUS
 62
     7
  0
LINE
  5
463
  8
5
  6
CONTINUOUS
 62
     7
 10
2073.0751679999998
 20
1515.8299219999999
 30
0.0
 11
2126.0751679999998
 21
1573.8299219999999
 31
0.0
  0
TEXT
  5
464
  8
5
  6
CONTINUOUS
 62
     7
 10
2087.6751680000002
 20
1542.929922
 30
0.0
 40
15.0
  1
R
 50
47.579146999999999
 41
0.8
  7
ROMANS
  0
TEXT
  5
465
  8
5
  6
CONTINUOUS
 62
     7
 10
2099.875168
 20
1556.229922
 30
0.0
 40
15.0
  1
165
 50
47.579146999999999
 41
0.8
  7
ROMANS
  0
POLYLINE
  5
466
  8
3
  6
CONTINUOUS
 62
     7
 66
     1
 10
0.0
 20
0.0
 30
0.0
  0
VERTEX
  5
896
  8
3
  6
CONTINUOUS
 62
     7
 10
2374.375168
 20
1627.8299219999999
 30
0.0
  0
VERTEX
  5
897
  8
3
  6
CONTINUOUS
 62
     7
 10
2374.375168
 20
1632.8299219999999
 30
0.0
  0
VERTEX
  5
898
  8
3
  6
CONTINUOUS
 62
     7
 10
2358.7904779999999
 20
1632.809321
 30
0.0
 42
0.389526
  0
VERTEX
  5
899
  8
3
  6
CONTINUOUS
 62
     7
 10
2348.8265980000001
 20
1623.658486
 30
0.0
 42
-0.342614
  0
VERTEX
  5
89A
  8
3
  6
CONTINUOUS
 62
     7
 10
2211.5990379999998
 20
1474.92318
 30
0.0
 42
0.366541
  0
VERTEX
  5
89B
  8
3
  6
CONTINUOUS
 62
     7
 10
2207.375168
 20
1470.0299219999999
 30
0.0
  0
VERTEX
  5
89C
  8
3
  6
CONTINUOUS
 62
     7
 10
2207.375168
 20
1437.8299219999999
 30
0.0
  0
VERTEX
  5
89D
  8
3
  6
CONTINUOUS
 62
     7
 10
2212.875168
 20
1437.8299219999999
 30
0.0
  0
VERTEX
  5
89E
  8
3
  6
CONTINUOUS
 62
     7
 10
2212.922568
 20
1467.9780969999999
 30
0.0
 42
-0.362228
  0
VERTEX
  5
89F
  8
3
  6
CONTINUOUS
 62
     7
 10
2214.9732949999998
 20
1470.4373969999999
 30
0.0
 42
0.338364
  0
VERTEX
  5
8A0
  8
3
  6
CONTINUOUS
 62
     7
 10
2353.8085380000002
 20
1623.2339039999999
 30
0.0
 42
-0.389526
  0
VERTEX
  5
8A1
  8
3
  6
CONTINUOUS
 62
     7
 10
2358.7751680000001
 20
1627.8299219999999
 30
0.0
  0
VERTEX
  5
8A2
  8
3
  6
CONTINUOUS
 62
     7
 10
2374.375168
 20
1627.8299219999999
 30
0.0
  0
SEQEND
  5
8A3
  8
3
  6
CONTINUOUS
 62
     7
  0
INSERT
  5
475
  8
LAYER01
  2
ABS9-G7
 10
0.0
 20
0.0
 30
0.0
  0
LINE
  5
476
  8
2
  6
CONTINUOUS
 62
     7
 10
2184.375168
 20
1425.3299219999999
 30
0.0
 11
2184.375168
 21
1488.429922
 31
0.0
  0
DIMENSION
  5
477
  8
LAYER01
 62
     7
  2
*D7
 10
2507.1151170000012
 20
1632.829647
 30
0.0
 11
2442.1151169999998
 21
1555.422333
 31
0.0
 53
90.0
 13
2374.375168
 23
1475.6299220000001
 33
0.0
 14
2374.375168
 24
1632.829647
 34
0.0
 50
90.0
  0
DIMENSION
  5
478
  8
LAYER01
 62
     7
  2
*D8
 10
2642.3518880000001
 20
1437.8299219999999
 30
0.0
 11
2577.3518880000001
 21
1534.935567
 31
0.0
 53
90.0
 13
2374.375168
 23
1632.8299219999999
 33
0.0
 14
2374.375168
 24
1437.8299219999999
 34
0.0
 50
90.0
  0
INSERT
  5
479
  8
LAYER01
  2
ABS9-G10
 10
0.0
 20
0.0
 30
0.0
  0
INSERT
  5
47A
  8
LAYER01
  2
ABS9-G12
 10
0.0
 20
0.0
 30
0.0
  0
TEXT
  5
47B
  8
LAYER01
  6
STRICHPUNKTIERT
 62
     7
 10
3163.3386559999999
 20
702.19565099999988
 30
0.0
 40
53.8902
  1
http://www.mineralwerkstoff.de
  0
TEXT
  5
47C
  8
LAYER01
  6
VERDECKT
 62
     1
 10
3632.7848690000001
 20
288.44318800000002
 30
0.0
 40
14.0
  1
1.3.2022
  7
SIMPLEX
  0
TEXT
  5
47D
  8
LAYER01
  6
VERDECKT
 62
     1
 10
3957.1173570000001
 20
369.48190499999998
 30
0.0
 40
35.0
  1
A. Sprenger GmbH
  7
SIMPLEX
  0
TEXT
  5
47E
  8
LAYER01
  6
CONTINUOUS
 62
     7
 10
3945.7631390000001
 20
586.23224100000004
 30
0.0
 40
10.5
  1
Diese Zeichnung ist geistiges Eigentum der A. Sprenger GmbH
  7
SIMPLEX
  0
TEXT
  5
47F
  8
LAYER01
  6
CONTINUOUS
 62
     7
 10
3945.7631390000001
 20
568.23224100000004
 30
0.0
 40
10.5
  1
und urheberrechtlich geschützt. Ohne unsere Zustimmung darf 
  7
SIMPLEX
  0
TEXT
  5
480
  8
LAYER01
  6
CONTINUOUS
 62
     7
 10
3945.7631390000001
 20
550.23224100000004
 30
0.0
 40
10.5
  1
sie in keiner Form verwendet oder Dritten zugänglich gemacht
  7
SIMPLEX
  0
TEXT
  5
481
  8
LAYER01
  6
CONTINUOUS
 62
     7
 10
3945.7631390000001
 20
532.23224100000004
 30
0.0
 40
10.5
  1
werden. (§106 Urheberrecht)
  7
SIMPLEX
  0
TEXT
  5
482
  8
LAYER01
  6
VERDECKT
 62
     1
 10
3767.4048880000009
 20
288.39203600000002
 30
0.0
 40
14.0
  1
b.s.
  7
SIMPLEX
  0
TEXT
  5
483
  8
LAYER01
  6
VERDECKT
 62
     1
 10
3957.1173570000001
 20
232.02586700000001
 30
0.0
 40
49.0
  1
ABS 9
  7
SIMPLEX
  0
TEXT
  5
484
  8
LAYER01
  6
VERDECKT
 62
     1
 10
4049.4385769999999
 20
459.75154199999992
 30
0.0
 40
14.0
  1
1 : 10 (DIN A3)
  7
SIMPLEX
  0
TEXT
  5
485
  8
LAYER01
  6
VERDECKT
 62
     1
 10
4410.2586080000001
 20
459.75154199999992
 30
0.0
 40
14.0
  1
abs11.skd
  7
SIMPLEX
  0
ENDSEC
  0
EOF
