  0
SECTION
  2
HEADER
  9
$ACADVER
  1
AC1009
  9
$INSBASE
 10
0.0
 20
0.0
 30
0.0
  9
$EXTMIN
 10
-1883.2971959408619
 20
-987.8955684443099
 30
-0.0015258207003583
  9
$EXTMAX
 10
2197.0490437529679
 20
1868.5539454196739
 30
0.0000000349246037
  9
$LIMMIN
 10
-1999.4918560000001
 20
-1103.557172
  9
$LIMMAX
 10
2223.9871170000001
 20
1883.0458169999999
  9
$ORTHOMODE
 70
     0
  9
$REGENMODE
 70
     1
  9
$FILLMODE
 70
     1
  9
$QTEXTMODE
 70
     0
  9
$MIRRTEXT
 70
     0
  9
$DRAGMODE
 70
     2
  9
$LTSCALE
 40
5.0
  9
$OSMODE
 70
    37
  9
$ATTMODE
 70
     1
  9
$TEXTSIZE
 40
0.0
  9
$TRACEWID
 40
0.05
  9
$TEXTSTYLE
  7
STANDARD
  9
$CLAYER
  8
LAYER01
  9
$CELTYPE
  6
CONTINUOUS
  9
$CECOLOR
 62
     7
  9
$DIMSCALE
 40
1.0
  9
$DIMASZ
 40
0.18
  9
$DIMEXO
 40
0.0625
  9
$DIMDLI
 40
0.38
  9
$DIMRND
 40
0.0
  9
$DIMDLE
 40
0.0
  9
$DIMEXE
 40
0.18
  9
$DIMTP
 40
0.0
  9
$DIMTM
 40
0.0
  9
$DIMTXT
 40
0.18
  9
$DIMCEN
 40
0.09
  9
$DIMTSZ
 40
0.0
  9
$DIMTOL
 70
     0
  9
$DIMLIM
 70
     0
  9
$DIMTIH
 70
     1
  9
$DIMTOH
 70
     1
  9
$DIMSE1
 70
     0
  9
$DIMSE2
 70
     0
  9
$DIMTAD
 70
     0
  9
$DIMZIN
 70
     0
  9
$DIMBLK
  1

  9
$DIMASO
 70
     1
  9
$DIMSHO
 70
     1
  9
$DIMPOST
  1

  9
$DIMAPOST
  1

  9
$DIMALT
 70
     0
  9
$DIMALTD
 70
     2
  9
$DIMALTF
 40
25.399999999999999
  9
$DIMLFAC
 40
1.0
  9
$DIMTOFL
 70
     0
  9
$DIMTVP
 40
0.0
  9
$DIMTIX
 70
     0
  9
$DIMSOXD
 70
     0
  9
$DIMSAH
 70
     0
  9
$DIMBLK1
  1

  9
$DIMBLK2
  1

  9
$DIMSTYLE
  2
STANDARD
  9
$DIMCLRD
 70
     0
  9
$DIMCLRE
 70
     0
  9
$DIMCLRT
 70
     0
  9
$DIMTFAC
 40
1.0
  9
$DIMGAP
 40
0.09
  9
$LUNITS
 70
     2
  9
$LUPREC
 70
     4
  9
$SKETCHINC
 40
0.1
  9
$FILLETRAD
 40
5.0
  9
$AUNITS
 70
     0
  9
$AUPREC
 70
     0
  9
$MENU
  1
acad
  9
$ELEVATION
 40
0.0
  9
$PELEVATION
 40
0.0
  9
$THICKNESS
 40
0.0
  9
$LIMCHECK
 70
     0
  9
$BLIPMODE
 70
     0
  9
$CHAMFERA
 40
0.0
  9
$CHAMFERB
 40
0.0
  9
$SKPOLY
 70
     0
  9
$TDCREATE
 40
2447893.0
  9
$TDUPDATE
 40
2459654.3762703468
  9
$TDINDWG
 40
0.0226510069
  9
$TDUSRTIMER
 40
0.0226509838
  9
$USRTIMER
 70
     1
  9
$ANGBASE
 50
0.0
  9
$ANGDIR
 70
     0
  9
$PDMODE
 70
     0
  9
$PDSIZE
 40
0.0
  9
$PLINEWID
 40
2.0
  9
$COORDS
 70
     0
  9
$SPLFRAME
 70
     0
  9
$SPLINETYPE
 70
     6
  9
$SPLINESEGS
 70
    10
  9
$ATTDIA
 70
     0
  9
$ATTREQ
 70
     1
  9
$HANDLING
 70
     1
  9
$HANDSEED
  5
D3B
  9
$SURFTAB1
 70
     6
  9
$SURFTAB2
 70
     6
  9
$SURFTYPE
 70
     6
  9
$SURFU
 70
     6
  9
$SURFV
 70
     6
  9
$UCSNAME
  2

  9
$UCSORG
 10
0.0
 20
0.0
 30
0.0
  9
$UCSXDIR
 10
1.0
 20
0.0
 30
0.0
  9
$UCSYDIR
 10
0.0
 20
1.0
 30
0.0
  9
$PUCSNAME
  2

  9
$PUCSORG
 10
0.0
 20
0.0
 30
0.0
  9
$PUCSXDIR
 10
1.0
 20
0.0
 30
0.0
  9
$PUCSYDIR
 10
0.0
 20
1.0
 30
0.0
  9
$USERI1
 70
     0
  9
$USERI2
 70
     0
  9
$USERI3
 70
     0
  9
$USERI4
 70
     0
  9
$USERI5
 70
     0
  9
$USERR1
 40
0.0
  9
$USERR2
 40
0.0
  9
$USERR3
 40
0.0
  9
$USERR4
 40
0.0
  9
$USERR5
 40
0.0
  9
$WORLDVIEW
 70
     1
  9
$SHADEDGE
 70
     3
  9
$SHADEDIF
 70
    70
  9
$TILEMODE
 70
     1
  9
$MAXACTVP
 70
    64
  9
$PLIMCHECK
 70
     0
  9
$PEXTMIN
 10
1.0000000000000000E+020
 20
1.0000000000000000E+020
 30
1.0000000000000000E+020
  9
$PEXTMAX
 10
-1.0000000000000000E+020
 20
-1.0000000000000000E+020
 30
-1.0000000000000000E+020
  9
$PLIMMIN
 10
0.0
 20
0.0
  9
$PLIMMAX
 10
12.0
 20
9.0
  9
$UNITMODE
 70
     0
  9
$VISRETAIN
 70
     1
  9
$PLINEGEN
 70
     0
  9
$PSLTSCALE
 70
     1
  0
ENDSEC
  0
SECTION
  2
TABLES
  0
TABLE
  2
VPORT
 70
     1
  0
VPORT
  2
*ACTIVE
 70
     0
 10
0.0
 20
0.0
 11
1.0
 21
1.0
 12
112.2476305000002
 22
389.74432250000018
 13
0.0
 23
0.0
 14
1.0
 24
1.0
 15
0.0
 25
0.0
 16
0.0
 26
0.0
 36
1.0
 17
0.0
 27
0.0
 37
0.0
 40
3014.988116566311
 41
1.91937984496124
 42
50.0
 43
0.0
 44
0.0
 50
0.0
 51
0.0
 71
     0
 72
   100
 73
     1
 74
     1
 75
     0
 76
     0
 77
     0
 78
     0
  0
ENDTAB
  0
TABLE
  2
LTYPE
 70
    11
  0
LTYPE
  2
CONTINUOUS
 70
     0
  3
Solid line
 72
    65
 73
     0
 40
0.0
  0
LTYPE
  2
GESTRICHELT
 70
     0
  3
__ __ __ __ __ __ __ __ __ __ __ __ __ __ __
 72
    65
 73
     2
 40
0.75
 49
0.5
 49
-0.25
  0
LTYPE
  2
VERDECKT
 70
     0
  3
_ _ _ _ _ _ _ _ _ _ _ _ _ _ _ _ _ _ _ _ _ _ 
 72
    65
 73
     2
 40
0.25
 49
0.125
 49
-0.125
  0
LTYPE
  2
MITTELLINIE
 70
     0
  3
____ _ ____ _ ____ _ ____ _ ____ _ ____ _ __
 72
    65
 73
     4
 40
2.0
 49
1.25
 49
-0.25
 49
0.25
 49
-0.25
  0
LTYPE
  2
PHANTOM
 70
     0
  3
_____ _ _ _____ _ _ _____ _ _ _____ _ _ ____
 72
    65
 73
     6
 40
2.5
 49
1.25
 49
-0.25
 49
0.25
 49
-0.25
 49
0.25
 49
-0.25
  0
LTYPE
  2
PUNKTIERT
 70
     0
  3
............................................
 72
    65
 73
     2
 40
0.25
 49
0.0
 49
-0.25
  0
LTYPE
  2
STRICHPUNKTIERT
 70
     0
  3
__ . __ . __ . __ . __ . __ . __ . __ . __ .
 72
    65
 73
     4
 40
1.0
 49
0.5
 49
-0.25
 49
0.0
 49
-0.25
  0
LTYPE
  2
RAND
 70
     0
  3
__ __ . __ __ . __ __ . __ __ . __ __ . __ _
 72
    65
 73
     6
 40
1.75
 49
0.5
 49
-0.25
 49
0.5
 49
-0.25
 49
0.0
 49
-0.25
  0
LTYPE
  2
TRENNLINIE
 70
     0
  3
__ . . __ . . __ . . __ . . __ . . __ . . __
 72
    65
 73
     6
 40
1.25
 49
0.5
 49
-0.25
 49
0.0
 49
-0.25
 49
0.0
 49
-0.25
  0
LTYPE
  2
ENG_PUNKTIERT
 70
     0
  3
Schließen                                   
 72
    65
 73
     2
 40
0.1
 49
0.05
 49
-0.05
  0
LTYPE
  2
CLOSE
 70
     0
  3
                                            
 72
    65
 73
     0
 40
0.0
  0
ENDTAB
  0
TABLE
  2
LAYER
 70
   259
  0
LAYER
  2
0
 70
     0
 62
     7
  6
CONTINUOUS
  0
LAYER
  2
LAYER01
 70
     0
 62
     7
  6
CONTINUOUS
  0
LAYER
  2
LAYER02
 70
     0
 62
     7
  6
CONTINUOUS
  0
LAYER
  2
LAYER03
 70
     0
 62
     7
  6
CONTINUOUS
  0
LAYER
  2
LAYER04
 70
     0
 62
     7
  6
CONTINUOUS
  0
LAYER
  2
LAYER05
 70
     0
 62
     7
  6
CONTINUOUS
  0
LAYER
  2
LAYER06
 70
     0
 62
     7
  6
CONTINUOUS
  0
LAYER
  2
LAYER07
 70
     0
 62
     7
  6
CONTINUOUS
  0
LAYER
  2
LAYER08
 70
     0
 62
     7
  6
CONTINUOUS
  0
LAYER
  2
LAYER09
 70
     0
 62
     7
  6
CONTINUOUS
  0
LAYER
  2
LAYER10
 70
     0
 62
     7
  6
CONTINUOUS
  0
LAYER
  2
2
 70
     0
 62
     7
  6
CONTINUOUS
  0
LAYER
  2
5
 70
     0
 62
     7
  6
CONTINUOUS
  0
LAYER
  2
RAUMAUFM
 70
     0
 62
     7
  6
CONTINUOUS
  0
LAYER
  2
EINRICHT
 70
     0
 62
     7
  6
CONTINUOUS
  0
LAYER
  2
HILFE
 70
     0
 62
     7
  6
CONTINUOUS
  0
LAYER
  2
SCHNITTE
 70
     0
 62
     7
  6
CONTINUOUS
  0
LAYER
  2
SCHRAFF1
 70
     0
 62
     7
  6
CONTINUOUS
  0
LAYER
  2
SCHRAFF2
 70
     0
 62
     7
  6
CONTINUOUS
  0
LAYER
  2
BEMASS-1
 70
     0
 62
     7
  6
CONTINUOUS
  0
LAYER
  2
BEMASS-2
 70
     0
 62
     7
  6
CONTINUOUS
  0
LAYER
  2
TEXT
 70
     0
 62
     7
  6
CONTINUOUS
  0
LAYER
  2
SYMBOLE
 70
     0
 62
     7
  6
CONTINUOUS
  0
LAYER
  2
RAHMEN
 70
     0
 62
     7
  6
CONTINUOUS
  0
LAYER
  2
SCHRIFTF
 70
     0
 62
     7
  6
CONTINUOUS
  0
LAYER
  2
ACHSEN
 70
     0
 62
     7
  6
CONTINUOUS
  0
LAYER
  2
ZEICHN
 70
     0
 62
     7
  6
CONTINUOUS
  0
LAYER
  2
7
 70
     0
 62
     7
  6
CONTINUOUS
  0
LAYER
  2
1
 70
     0
 62
     7
  6
CONTINUOUS
  0
LAYER
  2
6
 70
     0
 62
     7
  6
CONTINUOUS
  0
LAYER
  2
4
 70
     0
 62
     7
  6
CONTINUOUS
  0
LAYER
  2
GRUNDEBENE
 70
     0
 62
     7
  6
CONTINUOUS
  0
LAYER
  2
GRUNDRISS
 70
     0
 62
     7
  6
CONTINUOUS
  0
LAYER
  2
BEMASSUNGGRUNDRISS
 70
     0
 62
     7
  6
CONTINUOUS
  0
LAYER
  2
WANDELEMENTE
 70
     0
 62
     7
  6
CONTINUOUS
  0
LAYER
  2
KUECHE
 70
     0
 62
     7
  6
CONTINUOUS
  0
LAYER
  2
THEKEBROETCHEN
 70
     0
 62
     7
  6
CONTINUOUS
  0
LAYER
  2
CENTERLINIE
 70
     0
 62
     7
  6
CONTINUOUS
  0
LAYER
  2
UMRISSE
 70
     0
 62
     7
  6
CONTINUOUS
  0
LAYER
  2
MAUER
 70
     0
 62
     7
  6
CONTINUOUS
  0
LAYER
  2
SCHRAFFUR
 70
     0
 62
     7
  6
CONTINUOUS
  0
LAYER
  2
MASSLINIE
 70
     0
 62
     7
  6
CONTINUOUS
  0
LAYER
  2
PV
 70
     0
 62
     7
  6
CONTINUOUS
  0
LAYER
  2
BESCHRIFTUNG
 70
     0
 62
     7
  6
CONTINUOUS
  0
LAYER
  2
AS
 70
     0
 62
     7
  6
CONTINUOUS
  0
LAYER
  2
PL
 70
     0
 62
     7
  6
CONTINUOUS
  0
LAYER
  2
UK
 70
     0
 62
     7
  6
CONTINUOUS
  0
LAYER
  2
TEXT3
 70
     0
 62
     7
  6
CONTINUOUS
  0
LAYER
  2
TEXT7
 70
     0
 62
     7
  6
CONTINUOUS
  0
LAYER
  2
BEPL1
 70
     0
 62
     7
  6
CONTINUOUS
  0
LAYER
  2
BEPL2
 70
     0
 62
     7
  6
CONTINUOUS
  0
LAYER
  2
BEPL2V
 70
     0
 62
     7
  6
CONTINUOUS
  0
LAYER
  2
BEPL4
 70
     0
 62
     7
  6
CONTINUOUS
  0
LAYER
  2
BEPL
 70
     0
 62
     7
  6
CONTINUOUS
  0
LAYER
  2
UK1
 70
     0
 62
     7
  6
CONTINUOUS
  0
LAYER
  2
UK2
 70
     0
 62
     7
  6
CONTINUOUS
  0
LAYER
  2
UK2V
 70
     0
 62
     7
  6
CONTINUOUS
  0
LAYER
  2
UK3
 70
     0
 62
     7
  6
CONTINUOUS
  0
LAYER
  2
TEXT2
 70
     0
 62
     7
  6
CONTINUOUS
  0
LAYER
  2
HILF2S
 70
     0
 62
     7
  6
CONTINUOUS
  0
LAYER
  2
UK1V
 70
     0
 62
     7
  6
CONTINUOUS
  0
LAYER
  2
GAIN_ZRA
 70
     0
 62
     7
  6
CONTINUOUS
  0
LAYER
  2
GAIN_ZSF
 70
     0
 62
     7
  6
CONTINUOUS
  0
LAYER
  2
RAHM4
 70
     0
 62
     7
  6
CONTINUOUS
  0
LAYER
  2
KORPUSBAND
 70
     0
 62
     7
  6
CONTINUOUS
  0
LAYER
  2
E---LGPL--------
 70
     0
 62
     7
  6
CONTINUOUS
  0
LAYER
  2
E---NPFL--------
 70
     0
 62
     7
  6
CONTINUOUS
  0
LAYER
  2
E---PLNKTXT-----
 70
     0
 62
     7
  6
CONTINUOUS
  0
LAYER
  2
E---PLNK--------
 70
     0
 62
     7
  6
CONTINUOUS
  0
LAYER
  2
E---PLNR--------
 70
     0
 62
     7
  6
CONTINUOUS
  0
LAYER
  2
D547_ARCHICAD
 70
     0
 62
     7
  6
CONTINUOUS
  0
LAYER
  2
D547_E---TEXT--------
 70
     0
 62
     7
  6
CONTINUOUS
  0
LAYER
  2
E---LEGD--------
 70
     0
 62
     7
  6
CONTINUOUS
  0
LAYER
  2
D43_ARCHICAD
 70
     0
 62
     7
  6
CONTINUOUS
  0
LAYER
  2
D43_FENSTER_VON_B---FASS--
 70
     0
 62
     7
  6
CONTINUOUS
  0
LAYER
  2
D43_E---SCHN--------
 70
     0
 62
     7
  6
CONTINUOUS
  0
LAYER
  2
D43_B---MW-N--------
 70
     0
 62
     7
  6
CONTINUOUS
  0
LAYER
  2
D43_B---DECK--------
 70
     0
 62
     7
  6
CONTINUOUS
  0
LAYER
  2
D43_B---MW-S--------
 70
     0
 62
     7
  6
CONTINUOUS
  0
LAYER
  2
D43_B---MW----------
 70
     0
 62
     7
  6
CONTINUOUS
  0
LAYER
  2
D43_B---FASS--------
 70
     0
 62
     7
  6
CONTINUOUS
  0
LAYER
  2
D43_E---RASG--------
 70
     0
 62
     7
  6
CONTINUOUS
  0
LAYER
  2
D40_ARCHICAD
 70
     0
 62
     7
  6
CONTINUOUS
  0
LAYER
  2
D40_E---MW--------
 70
     0
 62
     7
  6
CONTINUOUS
  0
LAYER
  2
D40_E---FASSKON-----
 70
     0
 62
     7
  6
CONTINUOUS
  0
LAYER
  2
D40_TÜREN_VON_B---MW-N----
 70
     0
 62
     7
  6
CONTINUOUS
  0
LAYER
  2
D40_E---MW-L------
 70
     0
 62
     7
  6
CONTINUOUS
  0
LAYER
  2
D40_TÜREN_VON_B---MW------
 70
     0
 62
     7
  6
CONTINUOUS
  0
LAYER
  2
D40_E---VERM--------
 70
     0
 62
     7
  6
CONTINUOUS
  0
LAYER
  2
D40_FENSTER_VON_E---MW-L--
 70
     0
 62
     7
  6
CONTINUOUS
  0
LAYER
  2
D40_FENSTER_VON_B---MW-N--
 70
     0
 62
     7
  6
CONTINUOUS
  0
LAYER
  2
D40_E---SCHN--------
 70
     0
 62
     7
  6
CONTINUOUS
  0
LAYER
  2
D40_E---AUFZ--------
 70
     0
 62
     7
  6
CONTINUOUS
  0
LAYER
  2
D40_E---DECK--------
 70
     0
 62
     7
  6
CONTINUOUS
  0
LAYER
  2
D40_E---RAUMINF-----
 70
     0
 62
     7
  6
CONTINUOUS
  0
LAYER
  2
D40_E---TEXT--------
 70
     0
 62
     7
  6
CONTINUOUS
  0
LAYER
  2
D40_B---TEXT--------
 70
     0
 62
     7
  6
CONTINUOUS
  0
LAYER
  2
D40_B---MW-N--------
 70
     0
 62
     7
  6
CONTINUOUS
  0
LAYER
  2
D40_B---DECK--------
 70
     0
 62
     7
  6
CONTINUOUS
  0
LAYER
  2
D40_B---AUFZ--------
 70
     0
 62
     7
  6
CONTINUOUS
  0
LAYER
  2
D40_B---MW-S--------
 70
     0
 62
     7
  6
CONTINUOUS
  0
LAYER
  2
D40_B---MW----------
 70
     0
 62
     7
  6
CONTINUOUS
  0
LAYER
  2
D40_E---MOEB--------
 70
     0
 62
     7
  6
CONTINUOUS
  0
LAYER
  2
D40_B---UMGB--------
 70
     0
 62
     7
  6
CONTINUOUS
  0
LAYER
  2
D40_B---FASS--------
 70
     0
 62
     7
  6
CONTINUOUS
  0
LAYER
  2
D40_E---DACH--------
 70
     0
 62
     7
  6
CONTINUOUS
  0
LAYER
  2
D40_E---BODE--------
 70
     0
 62
     7
  6
CONTINUOUS
  0
LAYER
  2
D40_E---TREP--------
 70
     0
 62
     7
  6
CONTINUOUS
  0
LAYER
  2
D40_E---RASG--------
 70
     0
 62
     7
  6
CONTINUOUS
  0
LAYER
  2
D40_B---MW-K--------
 70
     0
 62
     7
  6
CONTINUOUS
  0
LAYER
  2
D40_E---FASSGLA-----
 70
     0
 62
     7
  6
CONTINUOUS
  0
LAYER
  2
D40_B---VERM--------
 70
     0
 62
     7
  6
CONTINUOUS
  0
LAYER
  2
D40_E---UMGBGSG-----
 70
     0
 62
     7
  6
CONTINUOUS
  0
LAYER
  2
D40_E---RASF--------
 70
     0
 62
     7
  6
CONTINUOUS
  0
LAYER
  2
D40_E---PFLA--------
 70
     0
 62
     7
  6
CONTINUOUS
  0
LAYER
  2
D40_E---KONS-ST-----
 70
     0
 62
     7
  6
CONTINUOUS
  0
LAYER
  2
D40_E---WERB--------
 70
     0
 62
     7
  6
CONTINUOUS
  0
LAYER
  2
D40_E---TUERINF-----
 70
     0
 62
     7
  6
CONTINUOUS
  0
LAYER
  2
D40_E---WOLK--------
 70
     0
 62
     7
  6
CONTINUOUS
  0
LAYER
  2
D40_B---MW-L--------
 70
     0
 62
     7
  6
CONTINUOUS
  0
LAYER
  2
D40_B---SANI--------
 70
     0
 62
     7
  6
CONTINUOUS
  0
LAYER
  2
D40_E---SANI--------
 70
     0
 62
     7
  6
CONTINUOUS
  0
LAYER
  2
D40_E---MW-K------
 70
     0
 62
     7
  6
CONTINUOUS
  0
LAYER
  2
D40_E---OBJE--------
 70
     0
 62
     7
  6
CONTINUOUS
  0
LAYER
  2
D40_E---ASPR--------
 70
     0
 62
     7
  6
CONTINUOUS
  0
LAYER
  2
D40_E---VERMTGA-----
 70
     0
 62
     7
  6
CONTINUOUS
  0
LAYER
  2
D40_E---PARK--------
 70
     0
 62
     7
  6
CONTINUOUS
  0
LAYER
  2
D40_E---ISOL--------
 70
     0
 62
     7
  6
CONTINUOUS
  0
LAYER
  2
D40_E---TUER--------
 70
     0
 62
     7
  6
CONTINUOUS
  0
LAYER
  2
D40_E---MW--BRA---
 70
     0
 62
     7
  6
CONTINUOUS
  0
LAYER
  2
D41_ARCHICAD
 70
     0
 62
     7
  6
CONTINUOUS
  0
LAYER
  2
D41_E---MW--------
 70
     0
 62
     7
  6
CONTINUOUS
  0
LAYER
  2
D41_E---FASSKON-----
 70
     0
 62
     7
  6
CONTINUOUS
  0
LAYER
  2
D41_TÜREN_VON_B---MW-N----
 70
     0
 62
     7
  6
CONTINUOUS
  0
LAYER
  2
D41_E---MW-L------
 70
     0
 62
     7
  6
CONTINUOUS
  0
LAYER
  2
D41_TÜREN_VON_B---MW------
 70
     0
 62
     7
  6
CONTINUOUS
  0
LAYER
  2
D41_E---VERM--------
 70
     0
 62
     7
  6
CONTINUOUS
  0
LAYER
  2
D41_FENSTER_VON_E---MW-L--
 70
     0
 62
     7
  6
CONTINUOUS
  0
LAYER
  2
D41_FENSTER_VON_B---MW-N--
 70
     0
 62
     7
  6
CONTINUOUS
  0
LAYER
  2
D41_E---SCHN--------
 70
     0
 62
     7
  6
CONTINUOUS
  0
LAYER
  2
D41_E---AUFZ--------
 70
     0
 62
     7
  6
CONTINUOUS
  0
LAYER
  2
D41_E---DECK--------
 70
     0
 62
     7
  6
CONTINUOUS
  0
LAYER
  2
D41_E---RAUMINF-----
 70
     0
 62
     7
  6
CONTINUOUS
  0
LAYER
  2
D41_E---TEXT--------
 70
     0
 62
     7
  6
CONTINUOUS
  0
LAYER
  2
D41_B---TEXT--------
 70
     0
 62
     7
  6
CONTINUOUS
  0
LAYER
  2
D41_B---MW-N--------
 70
     0
 62
     7
  6
CONTINUOUS
  0
LAYER
  2
D41_B---DECK--------
 70
     0
 62
     7
  6
CONTINUOUS
  0
LAYER
  2
D41_B---AUFZ--------
 70
     0
 62
     7
  6
CONTINUOUS
  0
LAYER
  2
D41_B---MW-S--------
 70
     0
 62
     7
  6
CONTINUOUS
  0
LAYER
  2
D41_B---MW----------
 70
     0
 62
     7
  6
CONTINUOUS
  0
LAYER
  2
D41_E---MOEB--------
 70
     0
 62
     7
  6
CONTINUOUS
  0
LAYER
  2
D41_B---UMGB--------
 70
     0
 62
     7
  6
CONTINUOUS
  0
LAYER
  2
D41_B---FASS--------
 70
     0
 62
     7
  6
CONTINUOUS
  0
LAYER
  2
D41_E---DACH--------
 70
     0
 62
     7
  6
CONTINUOUS
  0
LAYER
  2
D41_E---BODE--------
 70
     0
 62
     7
  6
CONTINUOUS
  0
LAYER
  2
D41_E---TREP--------
 70
     0
 62
     7
  6
CONTINUOUS
  0
LAYER
  2
D41_E---RASG--------
 70
     0
 62
     7
  6
CONTINUOUS
  0
LAYER
  2
D41_B---MW-K--------
 70
     0
 62
     7
  6
CONTINUOUS
  0
LAYER
  2
D41_E---FASSGLA-----
 70
     0
 62
     7
  6
CONTINUOUS
  0
LAYER
  2
D41_B---VERM--------
 70
     0
 62
     7
  6
CONTINUOUS
  0
LAYER
  2
D41_E---UMGBGSG-----
 70
     0
 62
     7
  6
CONTINUOUS
  0
LAYER
  2
D41_E---RASF--------
 70
     0
 62
     7
  6
CONTINUOUS
  0
LAYER
  2
D41_E---PFLA--------
 70
     0
 62
     7
  6
CONTINUOUS
  0
LAYER
  2
D41_E---KONS-ST-----
 70
     0
 62
     7
  6
CONTINUOUS
  0
LAYER
  2
D41_E---WERB--------
 70
     0
 62
     7
  6
CONTINUOUS
  0
LAYER
  2
D41_E---TUERINF-----
 70
     0
 62
     7
  6
CONTINUOUS
  0
LAYER
  2
D41_E---WOLK--------
 70
     0
 62
     7
  6
CONTINUOUS
  0
LAYER
  2
D41_B---MW-L--------
 70
     0
 62
     7
  6
CONTINUOUS
  0
LAYER
  2
D41_B---SANI--------
 70
     0
 62
     7
  6
CONTINUOUS
  0
LAYER
  2
D41_E---SANI--------
 70
     0
 62
     7
  6
CONTINUOUS
  0
LAYER
  2
D41_E---MW-K------
 70
     0
 62
     7
  6
CONTINUOUS
  0
LAYER
  2
D41_E---OBJE--------
 70
     0
 62
     7
  6
CONTINUOUS
  0
LAYER
  2
D41_E---ASPR--------
 70
     0
 62
     7
  6
CONTINUOUS
  0
LAYER
  2
D41_E---VERMTGA-----
 70
     0
 62
     7
  6
CONTINUOUS
  0
LAYER
  2
D41_E---PARK--------
 70
     0
 62
     7
  6
CONTINUOUS
  0
LAYER
  2
D41_E---ISOL--------
 70
     0
 62
     7
  6
CONTINUOUS
  0
LAYER
  2
D41_E---TUER--------
 70
     0
 62
     7
  6
CONTINUOUS
  0
LAYER
  2
D41_E---MW--BRA---
 70
     0
 62
     7
  6
CONTINUOUS
  0
LAYER
  2
D42_ARCHICAD
 70
     0
 62
     7
  6
CONTINUOUS
  0
LAYER
  2
D42_FENSTER_VON_B---FASS--
 70
     0
 62
     7
  6
CONTINUOUS
  0
LAYER
  2
D42_E---SCHN--------
 70
     0
 62
     7
  6
CONTINUOUS
  0
LAYER
  2
D42_B---MW-N--------
 70
     0
 62
     7
  6
CONTINUOUS
  0
LAYER
  2
D42_B---DECK--------
 70
     0
 62
     7
  6
CONTINUOUS
  0
LAYER
  2
D42_B---MW-S--------
 70
     0
 62
     7
  6
CONTINUOUS
  0
LAYER
  2
D42_B---MW----------
 70
     0
 62
     7
  6
CONTINUOUS
  0
LAYER
  2
D42_B---FASS--------
 70
     0
 62
     7
  6
CONTINUOUS
  0
LAYER
  2
D42_E---RASG--------
 70
     0
 62
     7
  6
CONTINUOUS
  0
LAYER
  2
CONSTRUCTION_CLASS
 70
     0
 62
     7
  6
CONTINUOUS
  0
LAYER
  2
PATTERN_CLASS
 70
     0
 62
     7
  6
CONTINUOUS
  0
LAYER
  2
KONSTRUKTION
 70
     0
 62
     7
  6
CONTINUOUS
  0
LAYER
  2
BEMAßUNG
 70
     0
 62
     7
  6
CONTINUOUS
  0
LAYER
  2
HILFSGEOMETRIE
 70
     0
 62
     7
  6
CONTINUOUS
  0
LAYER
  2
UNSICHTBAR
 70
     0
 62
     7
  6
CONTINUOUS
  0
LAYER
  2
LOGO
 70
     0
 62
     7
  6
CONTINUOUS
  0
LAYER
  2
VERWALTUNG
 70
     0
 62
     7
  6
CONTINUOUS
  0
LAYER
  2
UNSICHTBARE_GEWINDE
 70
     0
 62
     7
  6
CONTINUOUS
  0
LAYER
  2
SICHTBARE_GEWINDE
 70
     0
 62
     7
  6
CONTINUOUS
  0
LAYER
  2
DEFPOINTS
 70
     0
 62
     7
  6
CONTINUOUS
  0
LAYER
  2
THICK
 70
     0
 62
     7
  6
CONTINUOUS
  0
LAYER
  2
HIDDEN
 70
     0
 62
     7
  6
CONTINUOUS
  0
LAYER
  2
SCHRAFFURGRUNDRISS
 70
     0
 62
     7
  6
CONTINUOUS
  0
LAYER
  2
BEMASSUNG_GRUNDRISS
 70
     0
 62
     7
  6
CONTINUOUS
  0
LAYER
  2
STATIK
 70
     0
 62
     7
  6
CONTINUOUS
  0
LAYER
  2
TÜREN
 70
     0
 62
     7
  6
CONTINUOUS
  0
LAYER
  2
SANITÄR
 70
     0
 62
     7
  6
CONTINUOUS
  0
LAYER
  2
BEMASSUNG_GIPSKARTON
 70
     0
 62
     7
  6
CONTINUOUS
  0
LAYER
  2
EINRICHTUNGEN
 70
     0
 62
     7
  6
CONTINUOUS
  0
LAYER
  2
BECKEN
 70
     0
 62
     7
  6
CONTINUOUS
  0
LAYER
  2
BELEUCHTUNG
 70
     0
 62
     7
  6
CONTINUOUS
  0
LAYER
  2
BESCHRIFTUNGEN
 70
     0
 62
     7
  6
CONTINUOUS
  0
LAYER
  2
ELEKTRO_1__DOSEN_SCHALTER
 70
     0
 62
     7
  6
CONTINUOUS
  0
LAYER
  2
DEFAULT_1
 70
     0
 62
     7
  6
CONTINUOUS
  0
LAYER
  2
AM_0
 70
     0
 62
     7
  6
CONTINUOUS
  0
LAYER
  2
FRAME0_7
 70
     0
 62
     7
  6
CONTINUOUS
  0
LAYER
  2
AM_BOR
 70
     0
 62
     7
  6
CONTINUOUS
  0
LAYER
  2
RAHM2
 70
     0
 62
     7
  6
CONTINUOUS
  0
LAYER
  2
RAHM3
 70
     0
 62
     7
  6
CONTINUOUS
  0
LAYER
  2
FRAME0_5
 70
     0
 62
     7
  6
CONTINUOUS
  0
LAYER
  2
8
 70
     0
 62
     7
  6
CONTINUOUS
  0
LAYER
  2
AM_5
 70
     0
 62
     7
  6
CONTINUOUS
  0
LAYER
  2
AM_7
 70
     0
 62
     7
  6
CONTINUOUS
  0
LAYER
  2
HILFSLINIEN
 70
     0
 62
     7
  6
CONTINUOUS
  0
LAYER
  2
DRAWING_TEMPLATE
 70
     0
 62
     7
  6
CONTINUOUS
  0
LAYER
  2
TECHNOBOX_EXTERNALREFSYMBO
 70
     0
 62
     7
  6
CONTINUOUS
  0
LAYER
  2
TECHNOBOX_POLYCLIPSYMBOL_L
 70
     0
 62
     7
  6
CONTINUOUS
  0
LAYER
  2
100
 70
     0
 62
     7
  6
CONTINUOUS
  0
LAYER
  2
101
 70
     0
 62
     7
  6
CONTINUOUS
  0
LAYER
  2
KONTUR
 70
     0
 62
     7
  6
CONTINUOUS
  0
LAYER
  2
MITTELLINIE
 70
     0
 62
     7
  6
CONTINUOUS
  0
LAYER
  2
GESTRICHELT
 70
     0
 62
     7
  6
CONTINUOUS
  0
LAYER
  2
HILFSLINIE
 70
     0
 62
     7
  6
CONTINUOUS
  0
LAYER
  2
TEXT-25
 70
     0
 62
     7
  6
CONTINUOUS
  0
LAYER
  2
TEXT35
 70
     0
 62
     7
  6
CONTINUOUS
  0
LAYER
  2
TEXT-50
 70
     0
 62
     7
  6
CONTINUOUS
  0
LAYER
  2
TEXT-70
 70
     0
 62
     7
  6
CONTINUOUS
  0
LAYER
  2
ANSICHTSFENSTER
 70
     0
 62
     7
  6
CONTINUOUS
  0
LAYER
  2
KERA0
 70
     0
 62
     7
  6
CONTINUOUS
  0
LAYER
  2
KERA1
 70
     0
 62
     7
  6
CONTINUOUS
  0
LAYER
  2
KERA2
 70
     0
 62
     7
  6
CONTINUOUS
  0
LAYER
  2
KERA3
 70
     0
 62
     7
  6
CONTINUOUS
  0
LAYER
  2
KERA4
 70
     0
 62
     7
  6
CONTINUOUS
  0
LAYER
  2
KERA5
 70
     0
 62
     7
  6
CONTINUOUS
  0
LAYER
  2
KERA6
 70
     0
 62
     7
  6
CONTINUOUS
  0
LAYER
  2
KERA7
 70
     0
 62
     7
  6
CONTINUOUS
  0
LAYER
  2
20
 70
     0
 62
     7
  6
CONTINUOUS
  0
LAYER
  2
50
 70
     0
 62
     7
  6
CONTINUOUS
  0
LAYER
  2
KERA4___1
 70
     0
 62
     7
  6
CONTINUOUS
  0
LAYER
  2
ACTIVE_PROFIL
 70
     0
 62
     7
  6
CONTINUOUS
  0
LAYER
  2
ACTIVE_DRAUFSICHT
 70
     0
 62
     7
  6
CONTINUOUS
  0
LAYER
  2
EBENE_1
 70
     0
 62
     7
  6
CONTINUOUS
  0
LAYER
  2
EBENE_2
 70
     0
 62
     7
  6
CONTINUOUS
  0
LAYER
  2
EBENE_5
 70
     0
 62
     7
  6
CONTINUOUS
  0
LAYER
  2
3
 70
     0
 62
     7
  6
CONTINUOUS
  0
LAYER
  2
GEB-KONTUR-A
 70
     0
 62
     7
  6
CONTINUOUS
  0
LAYER
  2
GEB-SYMETRIE
 70
     0
 62
     7
  6
CONTINUOUS
  0
LAYER
  2
GEB-ART-NR
 70
     0
 62
     7
  6
CONTINUOUS
  0
LAYER
  2
PROJECTION
 70
     0
 62
     7
  6
CONTINUOUS
  0
LAYER
  2
FORMAT
 70
     0
 62
     7
  6
CONTINUOUS
  0
LAYER
  2
BECKEN_FUTURA_EBENE_1
 70
     0
 62
     7
  6
CONTINUOUS
  0
ENDTAB
  0
TABLE
  2
STYLE
 70
     3
  0
STYLE
  2
STANDARD
 70
     0
 40
0.0
 41
1.0
 50
0.0
 71
     0
 42
0.0
  3
txt
  4

  0
STYLE
  2
ANNOTATIVE
 70
     0
 40
0.0
 41
1.0
 50
0.0
 71
     0
 42
0.2
  3
txt
  4

  0
STYLE
  2
SIMPLEX
 70
     0
 40
0.0
 41
1.0
 50
0.0
 71
     0
 42
0.0
  3
simplex
  4

  0
ENDTAB
  0
TABLE
  2
VIEW
 70
     0
  0
ENDTAB
  0
TABLE
  2
UCS
 70
     0
  0
ENDTAB
  0
TABLE
  2
APPID
 70
     3
  0
APPID
  2
ACAD
 70
     0
  0
APPID
  2
ACADANNOTATIVE
 70
     0
  0
APPID
  2
ACAD_MLEADERVER
 70
     0
  0
ENDTAB
  0
TABLE
  2
DIMSTYLE
 70
     2
  0
DIMSTYLE
  2
STANDARD
 70
     0
  3

  4

  5

  6

  7

 40
1.0
 41
0.18
 42
0.0625
 43
0.38
 44
0.18
 45
0.0
 46
0.0
 47
0.0
 48
0.0
140
0.18
141
0.09
142
0.0
143
25.399999999999999
144
1.0
145
0.0
146
1.0
147
0.09
 71
     0
 72
     0
 73
     1
 74
     1
 75
     0
 76
     0
 77
     0
 78
     0
170
     0
171
     2
172
     0
173
     0
174
     0
175
     0
176
     0
177
     0
178
     0
  0
DIMSTYLE
  2
ANNOTATIVE
 70
     0
  3

  4

  5

  6

  7

 40
1.0
 41
0.18
 42
0.0625
 43
0.38
 44
0.18
 45
0.0
 46
0.0
 47
0.0
 48
0.0
140
0.18
141
0.09
142
0.0
143
25.399999999999999
144
1.0
145
0.0
146
1.0
147
0.09
 71
     0
 72
     0
 73
     1
 74
     1
 75
     0
 76
     0
 77
     0
 78
     0
170
     0
171
     2
172
     0
173
     0
174
     0
175
     0
176
     0
177
     0
178
     0
  0
ENDTAB
  0
ENDSEC
  0
SECTION
  2
BLOCKS
  0
BLOCK
  8
0
  2
$MODEL_SPACE
 70
     0
 10
0.0
 20
0.0
 30
0.0
  3
$MODEL_SPACE
  1

  0
ENDBLK
  5
76
  8
0
  0
BLOCK
 67
     1
  8
0
  2
$PAPER_SPACE
 70
     0
 10
0.0
 20
0.0
 30
0.0
  3
$PAPER_SPACE
  1

  0
ENDBLK
  5
72
 67
     1
  8
0
  0
BLOCK
  8
0
  2
*D0
 70
     1
 10
0.0
 20
0.0
 30
0.0
  3
*D0
  1

  0
POINT
  5
D1C
  8
DEFPOINTS
 62
     0
 10
114.69210200000001
 20
1150.8706070000001
 30
0.0
  0
POINT
  5
D1D
  8
DEFPOINTS
 62
     0
 10
0.0
 20
0.0
 30
0.0
  0
POINT
  5
D1E
  8
DEFPOINTS
 62
     0
 10
0.0
 20
0.0
 30
0.0
  0
POINT
  5
D1F
  8
DEFPOINTS
 62
     0
 10
0.0
 20
0.0
 30
0.0
  0
POINT
  5
D20
  8
DEFPOINTS
 62
     0
 10
0.0
 20
0.0
 30
0.0
  0
ENDBLK
  5
18F
  8
0
  0
BLOCK
  8
0
  2
*D1
 70
     1
 10
0.0
 20
0.0
 30
0.0
  3
*D1
  1

  0
LINE
  5
192
  8
LAYER01
 62
     7
 10
191.77933899999999
 20
1546.6470260000001
 30
0.0
 11
-1608.2206610000001
 21
1546.6470260000001
 31
0.0
  0
LINE
  5
193
  8
LAYER01
 62
     7
 10
191.77933899999999
 20
1238.8639760000001
 30
0.0
 11
191.77933899999999
 21
1581.6470260000001
 31
0.0
  0
LINE
  5
194
  8
LAYER01
 62
     7
 10
-1608.2206610000001
 20
1238.8639760000001
 30
0.0
 11
-1608.2206610000001
 21
1581.6470260000001
 31
0.0
  0
SOLID
  5
195
  8
LAYER01
 62
     7
 10
135.77933899999999
 20
1555.9799860000001
 30
0.0
 11
191.77933899999999
 21
1546.6470260000001
 31
0.0
 12
135.77933899999999
 22
1537.3140659999999
 32
0.0
 13
135.77933899999999
 23
1537.3140659999999
 33
0.0
  0
SOLID
  5
196
  8
LAYER01
 62
     7
 10
-1552.2206610000001
 20
1555.9799860000001
 30
0.0
 11
-1608.2206610000001
 21
1546.6470260000001
 31
0.0
 12
-1552.2206610000001
 22
1537.3140659999999
 32
0.0
 13
-1552.2206610000001
 23
1537.3140659999999
 33
0.0
  0
TEXT
  5
197
  8
LAYER01
  6
VERDECKT
 62
     7
 10
-780.16025300000001
 20
1581.6470260000001
 30
0.0
 40
70.0
  1
1800
  0
POINT
  5
198
  8
LAYER01
 62
     7
 10
191.77933899999999
 20
1210.8639760000001
 30
0.0
  0
POINT
  5
199
  8
LAYER01
 62
     7
 10
-1608.2206610000001
 20
1210.8639760000001
 30
0.0
  0
POINT
  5
19A
  8
LAYER01
 62
     7
 10
-1608.2206610000001
 20
1546.6470260000001
 30
0.0
  0
ENDBLK
  5
19B
  8
0
  0
BLOCK
  8
0
  2
*D2
 70
     1
 10
0.0
 20
0.0
 30
0.0
  3
*D2
  1

  0
LINE
  5
19E
  8
LAYER01
 62
     7
 10
191.77933899999999
 20
664.32908299999986
 30
0.0
 11
-708.22066099999995
 21
664.32908299999986
 31
0.0
  0
LINE
  5
19F
  8
LAYER01
 62
     7
 10
191.77933899999999
 20
782.86397599999987
 30
0.0
 11
191.77933899999999
 21
629.32908299999997
 31
0.0
  0
LINE
  5
1A0
  8
LAYER01
 62
     7
 10
-708.22066099999995
 20
782.86397599999987
 30
0.0
 11
-708.22066099999995
 21
629.32908299999997
 31
0.0
  0
SOLID
  5
1A1
  8
LAYER01
 62
     7
 10
135.77933899999999
 20
673.66204299999993
 30
0.0
 11
191.77933899999999
 21
664.32908299999986
 31
0.0
 12
135.77933899999999
 22
654.99612300000001
 32
0.0
 13
135.77933899999999
 23
654.99612300000001
 33
0.0
  0
SOLID
  5
1A2
  8
LAYER01
 62
     7
 10
-652.22066099999995
 20
673.66204299999993
 30
0.0
 11
-708.22066099999995
 21
664.32908299999986
 31
0.0
 12
-652.22066099999995
 22
654.99612300000001
 32
0.0
 13
-652.22066099999995
 23
654.99612300000001
 33
0.0
  0
TEXT
  5
1A3
  8
LAYER01
  6
CONTINUOUS
 62
     7
 10
-310.88120099999998
 20
699.32908299999986
 30
0.0
 40
70.0
  1
900
  0
POINT
  5
1A4
  8
LAYER01
 62
     7
 10
191.77933899999999
 20
810.86397599999987
 30
0.0
  0
POINT
  5
1A5
  8
LAYER01
 62
     7
 10
-708.22066099999995
 20
810.86397599999987
 30
0.0
  0
POINT
  5
1A6
  8
LAYER01
 62
     7
 10
-708.22066099999995
 20
664.32908299999986
 30
0.0
  0
ENDBLK
  5
1A7
  8
0
  0
BLOCK
  8
0
  2
*D3
 70
     1
 10
0.0
 20
0.0
 30
0.0
  3
*D3
  1

  0
LINE
  5
1AA
  8
LAYER01
 62
     7
 10
-1643.5032940000001
 20
358.348702
 30
0.0
 11
-1643.5032940000001
 21
246.348702
 31
0.0
  0
LINE
  5
1AB
  8
LAYER01
 62
     7
 10
-1643.5032940000001
 20
363.348702
 30
0.0
 11
-1643.5032940000001
 21
475.34870199999989
 31
0.0
  0
LINE
  5
1AC
  8
LAYER01
 62
     7
 10
-1636.2206610000001
 20
358.348702
 30
0.0
 11
-1678.5032940000001
 21
358.348702
 31
0.0
  0
LINE
  5
1AD
  8
LAYER01
 62
     7
 10
-1636.2206610000001
 20
363.348702
 30
0.0
 11
-1678.5032940000001
 21
363.348702
 31
0.0
  0
SOLID
  5
1AE
  8
LAYER01
 62
     7
 10
-1634.1703339999999
 20
302.348702
 30
0.0
 11
-1643.5032940000001
 21
358.348702
 31
0.0
 12
-1652.8362540000001
 22
302.348702
 32
0.0
 13
-1652.8362540000001
 23
302.348702
 33
0.0
  0
SOLID
  5
1AF
  8
LAYER01
 62
     7
 10
-1634.1703339999999
 20
419.348702
 30
0.0
 11
-1643.5032940000001
 21
363.348702
 31
0.0
 12
-1652.8362540000001
 22
419.348702
 32
0.0
 13
-1652.8362540000001
 23
419.348702
 33
0.0
  0
TEXT
  5
1B0
  8
LAYER01
  6
CONTINUOUS
 62
     7
 10
-1678.5032940000001
 20
466.513215
 30
0.0
 40
70.0
  1
5
 50
90.0
  0
POINT
  5
1B1
  8
LAYER01
 62
     7
 10
-1608.2206610000001
 20
358.348702
 30
0.0
  0
POINT
  5
1B2
  8
LAYER01
 62
     7
 10
-1608.2206610000001
 20
363.348702
 30
0.0
  0
POINT
  5
1B3
  8
LAYER01
 62
     7
 10
-1643.5032940000001
 20
363.348702
 30
0.0
  0
ENDBLK
  5
1B4
  8
0
  0
BLOCK
  8
0
  2
*D4
 70
     1
 10
0.0
 20
0.0
 30
0.0
  3
*D4
  1

  0
LINE
  5
1B7
  8
LAYER01
 62
     7
 10
-1740.5715079999991
 20
408.34870199999989
 30
0.0
 11
-1740.5715079999991
 21
520.34870199999989
 31
0.0
  0
LINE
  5
1B8
  8
LAYER01
 62
     7
 10
-1740.5715079999991
 20
358.348702
 30
0.0
 11
-1740.5715079999991
 21
246.348702
 31
0.0
  0
LINE
  5
1B9
  8
LAYER01
 62
     7
 10
-1636.2206610000001
 20
408.34870199999989
 30
0.0
 11
-1775.571508
 21
408.34870199999989
 31
0.0
  0
LINE
  5
1BA
  8
LAYER01
 62
     7
 10
-1636.2206610000001
 20
358.348702
 30
0.0
 11
-1775.571508
 21
358.348702
 31
0.0
  0
SOLID
  5
1BB
  8
LAYER01
 62
     7
 10
-1749.904468
 20
464.34870199999989
 30
0.0
 11
-1740.5715079999991
 21
408.34870199999989
 31
0.0
 12
-1731.238548
 22
464.34870199999989
 32
0.0
 13
-1731.238548
 23
464.34870199999989
 33
0.0
  0
SOLID
  5
1BC
  8
LAYER01
 62
     7
 10
-1749.904468
 20
302.348702
 30
0.0
 11
-1740.5715079999991
 21
358.348702
 31
0.0
 12
-1731.238548
 22
302.348702
 32
0.0
 13
-1731.238548
 23
302.348702
 33
0.0
  0
TEXT
  5
1BD
  8
LAYER01
  6
CONTINUOUS
 62
     7
 10
-1775.571508
 20
479.63286099999999
 30
0.0
 40
70.0
  1
50
 50
90.0
  0
POINT
  5
1BE
  8
LAYER01
 62
     7
 10
-1608.2206610000001
 20
408.34870199999989
 30
0.0
  0
POINT
  5
1BF
  8
LAYER01
 62
     7
 10
-1608.2206610000001
 20
358.348702
 30
0.0
  0
POINT
  5
1C0
  8
LAYER01
 62
     7
 10
-1740.5715079999991
 20
358.348702
 30
0.0
  0
ENDBLK
  5
1C1
  8
0
  0
BLOCK
  8
0
  2
*D5
 70
     1
 10
0.0
 20
0.0
 30
0.0
  3
*D5
  1

  0
LINE
  5
1C4
  8
LAYER01
 62
     7
 10
-848.22066099999995
 20
2.563682
 30
0.0
 11
-1128.2206610000001
 21
2.563682
 31
0.0
  0
LINE
  5
1C5
  8
LAYER01
 62
     7
 10
-848.22066099999995
 20
111.454354
 30
0.0
 11
-848.22066099999995
 21
-32.436318
 31
0.0
  0
LINE
  5
1C6
  8
LAYER01
 62
     7
 10
-1128.2206610000001
 20
111.454354
 30
0.0
 11
-1128.2206610000001
 21
-32.436318
 31
0.0
  0
SOLID
  5
1C7
  8
LAYER01
 62
     7
 10
-904.22066099999995
 20
11.896642
 30
0.0
 11
-848.22066099999995
 21
2.563682
 31
0.0
 12
-904.22066099999995
 22
-6.769277999999999
 32
0.0
 13
-904.22066099999995
 23
-6.769277999999999
 33
0.0
  0
SOLID
  5
1C8
  8
LAYER01
 62
     7
 10
-1072.2206610000001
 20
11.896642
 30
0.0
 11
-1128.2206610000001
 21
2.563682
 31
0.0
 12
-1072.2206610000001
 22
-6.769277999999999
 32
0.0
 13
-1072.2206610000001
 23
-6.769277999999999
 33
0.0
  0
TEXT
  5
1C9
  8
LAYER01
  6
CONTINUOUS
 62
     7
 10
-1040.8812009999999
 20
37.563682
 30
0.0
 40
70.0
  1
280
  0
POINT
  5
1CA
  8
LAYER01
 62
     7
 10
-848.22066099999995
 20
139.454354
 30
0.0
  0
POINT
  5
1CB
  8
LAYER01
 62
     7
 10
-1128.2206610000001
 20
139.454354
 30
0.0
  0
POINT
  5
1CC
  8
LAYER01
 62
     7
 10
-1128.2206610000001
 20
2.563682
 30
0.0
  0
ENDBLK
  5
1CD
  8
0
  0
BLOCK
  8
0
  2
ACT40_WE-G7
 70
     0
 10
0.0
 20
0.0
 30
0.0
  3
ACT40_WE-G7
  1

  0
LINE
  5
1D0
  8
LAYER01
  6
STRICHPUNKTIERT
 62
     1
 10
-1408.2206610000001
 20
325.54378500000001
 30
0.0
 11
-1408.2206610000001
 21
291.81220500000001
 31
0.0
  0
ARC
  5
1D1
  8
LAYER01
  6
ENG_PUNKTIERT
 62
     5
 10
-1402.7206610000001
 20
308.348702
 30
0.0
 40
11.0
 50
269.99482999999998
 51
90.0
  0
LINE
  5
1D2
  8
LAYER01
  6
ENG_PUNKTIERT
 62
     5
 10
-1413.7206610000001
 20
319.348702
 30
0.0
 11
-1402.7206610000001
 21
319.348702
 31
0.0
  0
LINE
  5
1D3
  8
LAYER01
  6
ENG_PUNKTIERT
 62
     5
 10
-1413.7206610000001
 20
297.348702
 30
0.0
 11
-1402.7206610000001
 21
297.348702
 31
0.0
  0
ARC
  5
1D4
  8
LAYER01
  6
ENG_PUNKTIERT
 62
     5
 10
-1413.7206610000001
 20
308.348702
 30
0.0
 40
11.0
 50
90.0
 51
270.0
  0
LINE
  5
1D5
  8
LAYER01
  6
STRICHPUNKTIERT
 62
     1
 10
-1435.774703
 20
308.348702
 30
0.0
 11
-1379.088407
 21
308.348702
 31
0.0
  0
ENDBLK
  5
1D6
  8
0
  0
BLOCK
  8
0
  2
*D7
 70
     1
 10
0.0
 20
0.0
 30
0.0
  3
*D7
  1

  0
LINE
  5
1D9
  8
LAYER01
 62
     7
 10
-1128.2206610000001
 20
2.563682
 30
0.0
 11
-1408.2206610000001
 21
2.563682
 31
0.0
  0
LINE
  5
1DA
  8
LAYER01
 62
     7
 10
-1128.2206610000001
 20
111.454354
 30
0.0
 11
-1128.2206610000001
 21
-32.436318
 31
0.0
  0
LINE
  5
1DB
  8
LAYER01
 62
     7
 10
-1408.2206610000001
 20
111.454354
 30
0.0
 11
-1408.2206610000001
 21
-32.436318
 31
0.0
  0
SOLID
  5
1DC
  8
LAYER01
 62
     7
 10
-1184.2206610000001
 20
11.896642
 30
0.0
 11
-1128.2206610000001
 21
2.563682
 31
0.0
 12
-1184.2206610000001
 22
-6.769277999999999
 32
0.0
 13
-1184.2206610000001
 23
-6.769277999999999
 33
0.0
  0
SOLID
  5
1DD
  8
LAYER01
 62
     7
 10
-1352.2206610000001
 20
11.896642
 30
0.0
 11
-1408.2206610000001
 21
2.563682
 31
0.0
 12
-1352.2206610000001
 22
-6.769277999999999
 32
0.0
 13
-1352.2206610000001
 23
-6.769277999999999
 33
0.0
  0
TEXT
  5
1DE
  8
LAYER01
  6
CONTINUOUS
 62
     7
 10
-1320.8812009999999
 20
37.563682
 30
0.0
 40
70.0
  1
280
  0
POINT
  5
1DF
  8
LAYER01
 62
     7
 10
-1128.2206610000001
 20
139.454354
 30
0.0
  0
POINT
  5
1E0
  8
LAYER01
 62
     7
 10
-1408.2206610000001
 20
139.454354
 30
0.0
  0
POINT
  5
1E1
  8
LAYER01
 62
     7
 10
-1408.2206610000001
 20
2.563682
 30
0.0
  0
ENDBLK
  5
1E2
  8
0
  0
BLOCK
  8
0
  2
ACT40_WE-G9
 70
     0
 10
0.0
 20
0.0
 30
0.0
  3
ACT40_WE-G9
  1

  0
LINE
  5
1E5
  8
LAYER01
  6
STRICHPUNKTIERT
 62
     1
 10
-1128.2206610000001
 20
325.54378500000001
 30
0.0
 11
-1128.2206610000001
 21
291.81220500000001
 31
0.0
  0
ARC
  5
1E6
  8
LAYER01
  6
ENG_PUNKTIERT
 62
     5
 10
-1122.7206610000001
 20
308.348702
 30
0.0
 40
11.0
 50
269.99482999999998
 51
90.0
  0
LINE
  5
1E7
  8
LAYER01
  6
ENG_PUNKTIERT
 62
     5
 10
-1133.7206610000001
 20
319.348702
 30
0.0
 11
-1122.7206610000001
 21
319.348702
 31
0.0
  0
LINE
  5
1E8
  8
LAYER01
  6
ENG_PUNKTIERT
 62
     5
 10
-1133.7206610000001
 20
297.348702
 30
0.0
 11
-1122.7206610000001
 21
297.348702
 31
0.0
  0
ARC
  5
1E9
  8
LAYER01
  6
ENG_PUNKTIERT
 62
     5
 10
-1133.7206610000001
 20
308.348702
 30
0.0
 40
11.0
 50
90.0
 51
270.0
  0
LINE
  5
1EA
  8
LAYER01
  6
STRICHPUNKTIERT
 62
     1
 10
-1155.774703
 20
308.348702
 30
0.0
 11
-1099.088407
 21
308.348702
 31
0.0
  0
ENDBLK
  5
1EB
  8
0
  0
BLOCK
  8
0
  2
*D9
 70
     1
 10
0.0
 20
0.0
 30
0.0
  3
*D9
  1

  0
LINE
  5
1EE
  8
LAYER01
 62
     7
 10
-568.22066099999995
 20
2.563682
 30
0.0
 11
-288.22066100000001
 21
2.563682
 31
0.0
  0
LINE
  5
1EF
  8
LAYER01
 62
     7
 10
-568.22066099999995
 20
111.454354
 30
0.0
 11
-568.22066099999995
 21
-32.436318
 31
0.0
  0
LINE
  5
1F0
  8
LAYER01
 62
     7
 10
-288.22066100000001
 20
111.454354
 30
0.0
 11
-288.22066100000001
 21
-32.436318
 31
0.0
  0
SOLID
  5
1F1
  8
LAYER01
 62
     7
 10
-512.22066099999995
 20
-6.769277999999999
 30
0.0
 11
-568.22066099999995
 21
2.563682
 31
0.0
 12
-512.22066099999995
 22
11.896642
 32
0.0
 13
-512.22066099999995
 23
11.896642
 33
0.0
  0
SOLID
  5
1F2
  8
LAYER01
 62
     7
 10
-344.22066100000001
 20
-6.769277999999999
 30
0.0
 11
-288.22066100000001
 21
2.563682
 31
0.0
 12
-344.22066100000001
 22
11.896642
 32
0.0
 13
-344.22066100000001
 23
11.896642
 33
0.0
  0
TEXT
  5
1F3
  8
LAYER01
  6
CONTINUOUS
 62
     7
 10
-480.88120099999992
 20
37.563682
 30
0.0
 40
70.0
  1
280
  0
POINT
  5
1F4
  8
LAYER01
 62
     7
 10
-568.22066099999995
 20
139.454354
 30
0.0
  0
POINT
  5
1F5
  8
LAYER01
 62
     7
 10
-288.22066100000001
 20
139.454354
 30
0.0
  0
POINT
  5
1F6
  8
LAYER01
 62
     7
 10
-288.22066100000001
 20
2.563682
 30
0.0
  0
ENDBLK
  5
1F7
  8
0
  0
BLOCK
  8
0
  2
*D10
 70
     1
 10
0.0
 20
0.0
 30
0.0
  3
*D10
  1

  0
LINE
  5
1FA
  8
LAYER01
 62
     7
 10
-708.22066099999995
 20
1.6607929999999991
 30
0.0
 11
-568.22066099999995
 21
1.6607929999999991
 31
0.0
  0
LINE
  5
1FB
  8
LAYER01
 62
     7
 10
-708.22066099999995
 20
111.454354
 30
0.0
 11
-708.22066099999995
 21
-33.339207000000002
 31
0.0
  0
LINE
  5
1FC
  8
LAYER01
 62
     7
 10
-568.22066099999995
 20
111.454354
 30
0.0
 11
-568.22066099999995
 21
-33.339207000000002
 31
0.0
  0
SOLID
  5
1FD
  8
LAYER01
 62
     7
 10
-652.22066099999995
 20
-7.6721669999999991
 30
0.0
 11
-708.22066099999995
 21
1.6607929999999991
 31
0.0
 12
-652.22066099999995
 22
10.993753
 32
0.0
 13
-652.22066099999995
 23
10.993753
 33
0.0
  0
SOLID
  5
1FE
  8
LAYER01
 62
     7
 10
-624.22066100000006
 20
-7.6721669999999991
 30
0.0
 11
-568.22066099999995
 21
1.6607929999999991
 31
0.0
 12
-624.22066100000006
 22
10.993753
 32
0.0
 13
-624.22066100000006
 23
10.993753
 33
0.0
  0
TEXT
  5
1FF
  8
LAYER01
  6
CONTINUOUS
 62
     7
 10
-690.88120100000003
 20
36.660792999999998
 30
0.0
 40
70.0
  1
140
  0
POINT
  5
200
  8
LAYER01
 62
     7
 10
-708.22066099999995
 20
139.454354
 30
0.0
  0
POINT
  5
201
  8
LAYER01
 62
     7
 10
-568.22066099999995
 20
139.454354
 30
0.0
  0
POINT
  5
202
  8
LAYER01
 62
     7
 10
-568.22066099999995
 20
1.6607929999999991
 30
0.0
  0
ENDBLK
  5
203
  8
0
  0
BLOCK
  8
0
  2
*D11
 70
     1
 10
0.0
 20
0.0
 30
0.0
  3
*D11
  1

  0
LINE
  5
206
  8
LAYER01
 62
     7
 10
-708.22066099999995
 20
1.6607929999999991
 30
0.0
 11
-848.22066099999995
 21
1.6607929999999991
 31
0.0
  0
LINE
  5
207
  8
LAYER01
 62
     7
 10
-708.22066099999995
 20
111.454354
 30
0.0
 11
-708.22066099999995
 21
-33.339207000000002
 31
0.0
  0
LINE
  5
208
  8
LAYER01
 62
     7
 10
-848.22066099999995
 20
111.454354
 30
0.0
 11
-848.22066099999995
 21
-33.339207000000002
 31
0.0
  0
SOLID
  5
209
  8
LAYER01
 62
     7
 10
-764.22066099999995
 20
10.993753
 30
0.0
 11
-708.22066099999995
 21
1.6607929999999991
 31
0.0
 12
-764.22066099999995
 22
-7.6721669999999991
 32
0.0
 13
-764.22066099999995
 23
-7.6721669999999991
 33
0.0
  0
SOLID
  5
20A
  8
LAYER01
 62
     7
 10
-792.22066099999995
 20
10.993753
 30
0.0
 11
-848.22066099999995
 21
1.6607929999999991
 31
0.0
 12
-792.22066099999995
 22
-7.6721669999999991
 32
0.0
 13
-792.22066099999995
 23
-7.6721669999999991
 33
0.0
  0
TEXT
  5
20B
  8
LAYER01
  6
CONTINUOUS
 62
     7
 10
-830.88120100000003
 20
36.660792999999998
 30
0.0
 40
70.0
  1
140
  0
POINT
  5
20C
  8
LAYER01
 62
     7
 10
-708.22066099999995
 20
139.454354
 30
0.0
  0
POINT
  5
20D
  8
LAYER01
 62
     7
 10
-848.22066099999995
 20
139.454354
 30
0.0
  0
POINT
  5
20E
  8
LAYER01
 62
     7
 10
-848.22066099999995
 20
1.6607929999999991
 30
0.0
  0
ENDBLK
  5
20F
  8
0
  0
BLOCK
  8
0
  2
ACT40_WE-G13
 70
     0
 10
0.0
 20
0.0
 30
0.0
  3
ACT40_WE-G13
  1

  0
LINE
  5
212
  8
LAYER01
  6
STRICHPUNKTIERT
 62
     1
 10
-848.22066099999995
 20
325.54378500000001
 30
0.0
 11
-848.22066099999995
 21
291.81220500000001
 31
0.0
  0
ARC
  5
213
  8
LAYER01
  6
ENG_PUNKTIERT
 62
     5
 10
-842.72066099999984
 20
308.348702
 30
0.0
 40
11.0
 50
269.99482999999998
 51
90.0
  0
LINE
  5
214
  8
LAYER01
  6
ENG_PUNKTIERT
 62
     5
 10
-853.72066099999995
 20
319.348702
 30
0.0
 11
-842.72066099999984
 21
319.348702
 31
0.0
  0
LINE
  5
215
  8
LAYER01
  6
ENG_PUNKTIERT
 62
     5
 10
-853.72066099999995
 20
297.348702
 30
0.0
 11
-842.72066099999984
 21
297.348702
 31
0.0
  0
ARC
  5
216
  8
LAYER01
  6
ENG_PUNKTIERT
 62
     5
 10
-853.72066099999995
 20
308.348702
 30
0.0
 40
11.0
 50
90.0
 51
270.0
  0
LINE
  5
217
  8
LAYER01
  6
STRICHPUNKTIERT
 62
     1
 10
-875.77470299999993
 20
308.348702
 30
0.0
 11
-819.08840699999996
 21
308.348702
 31
0.0
  0
ENDBLK
  5
218
  8
0
  0
BLOCK
  8
0
  2
ACT40_WE-G14
 70
     0
 10
0.0
 20
0.0
 30
0.0
  3
ACT40_WE-G14
  1

  0
LINE
  5
21B
  8
LAYER01
  6
STRICHPUNKTIERT
 62
     1
 10
-568.22066099999995
 20
325.54378500000001
 30
0.0
 11
-568.22066099999995
 21
291.81220500000001
 31
0.0
  0
ARC
  5
21C
  8
LAYER01
  6
ENG_PUNKTIERT
 62
     5
 10
-562.72066099999995
 20
308.348702
 30
0.0
 40
11.0
 50
269.99482999999998
 51
90.0
  0
LINE
  5
21D
  8
LAYER01
  6
ENG_PUNKTIERT
 62
     5
 10
-573.72066099999995
 20
319.348702
 30
0.0
 11
-562.72066099999995
 21
319.348702
 31
0.0
  0
LINE
  5
21E
  8
LAYER01
  6
ENG_PUNKTIERT
 62
     5
 10
-573.72066099999995
 20
297.348702
 30
0.0
 11
-562.72066099999995
 21
297.348702
 31
0.0
  0
ARC
  5
21F
  8
LAYER01
  6
ENG_PUNKTIERT
 62
     5
 10
-573.72066099999995
 20
308.348702
 30
0.0
 40
11.0
 50
90.0
 51
270.0
  0
LINE
  5
220
  8
LAYER01
  6
STRICHPUNKTIERT
 62
     1
 10
-595.77470300000004
 20
308.348702
 30
0.0
 11
-539.08840700000007
 21
308.348702
 31
0.0
  0
ENDBLK
  5
221
  8
0
  0
BLOCK
  8
0
  2
*D14
 70
     1
 10
0.0
 20
0.0
 30
0.0
  3
*D14
  1

  0
LINE
  5
224
  8
LAYER01
 62
     7
 10
-288.22066100000001
 20
2.563682
 30
0.0
 11
-8.2206609999999998
 21
2.563682
 31
0.0
  0
LINE
  5
225
  8
LAYER01
 62
     7
 10
-288.22066100000001
 20
111.454354
 30
0.0
 11
-288.22066100000001
 21
-32.436318
 31
0.0
  0
LINE
  5
226
  8
LAYER01
 62
     7
 10
-8.2206609999999998
 20
111.454354
 30
0.0
 11
-8.2206609999999998
 21
-32.436318
 31
0.0
  0
SOLID
  5
227
  8
LAYER01
 62
     7
 10
-232.22066100000001
 20
-6.769277999999999
 30
0.0
 11
-288.22066100000001
 21
2.563682
 31
0.0
 12
-232.22066100000001
 22
11.896642
 32
0.0
 13
-232.22066100000001
 23
11.896642
 33
0.0
  0
SOLID
  5
228
  8
LAYER01
 62
     7
 10
-64.220660999999993
 20
-6.769277999999999
 30
0.0
 11
-8.2206609999999998
 21
2.563682
 31
0.0
 12
-64.220660999999993
 22
11.896642
 32
0.0
 13
-64.220660999999993
 23
11.896642
 33
0.0
  0
TEXT
  5
229
  8
LAYER01
  6
CONTINUOUS
 62
     7
 10
-200.881201
 20
37.563682
 30
0.0
 40
70.0
  1
280
  0
POINT
  5
22A
  8
LAYER01
 62
     7
 10
-288.22066100000001
 20
139.454354
 30
0.0
  0
POINT
  5
22B
  8
LAYER01
 62
     7
 10
-8.2206609999999998
 20
139.454354
 30
0.0
  0
POINT
  5
22C
  8
LAYER01
 62
     7
 10
-8.2206609999999998
 20
2.563682
 30
0.0
  0
ENDBLK
  5
22D
  8
0
  0
BLOCK
  8
0
  2
ACT40_WE-G16
 70
     0
 10
0.0
 20
0.0
 30
0.0
  3
ACT40_WE-G16
  1

  0
LINE
  5
230
  8
LAYER01
  6
STRICHPUNKTIERT
 62
     1
 10
-288.22066100000001
 20
325.54378500000001
 30
0.0
 11
-288.22066100000001
 21
291.81220500000001
 31
0.0
  0
ARC
  5
231
  8
LAYER01
  6
ENG_PUNKTIERT
 62
     5
 10
-282.72066100000001
 20
308.348702
 30
0.0
 40
11.0
 50
269.99482999999998
 51
90.0
  0
LINE
  5
232
  8
LAYER01
  6
ENG_PUNKTIERT
 62
     5
 10
-293.72066100000001
 20
319.348702
 30
0.0
 11
-282.72066100000001
 21
319.348702
 31
0.0
  0
LINE
  5
233
  8
LAYER01
  6
ENG_PUNKTIERT
 62
     5
 10
-293.72066100000001
 20
297.348702
 30
0.0
 11
-282.72066100000001
 21
297.348702
 31
0.0
  0
ARC
  5
234
  8
LAYER01
  6
ENG_PUNKTIERT
 62
     5
 10
-293.72066100000001
 20
308.348702
 30
0.0
 40
11.0
 50
90.0
 51
270.0
  0
LINE
  5
235
  8
LAYER01
  6
STRICHPUNKTIERT
 62
     1
 10
-315.77470299999999
 20
308.348702
 30
0.0
 11
-259.0884069999999
 21
308.348702
 31
0.0
  0
ENDBLK
  5
236
  8
0
  0
BLOCK
  8
0
  2
ACT40_WE-G17
 70
     0
 10
0.0
 20
0.0
 30
0.0
  3
ACT40_WE-G17
  1

  0
LINE
  5
239
  8
LAYER01
  6
STRICHPUNKTIERT
 62
     1
 10
-8.2206609999999998
 20
325.54378500000001
 30
0.0
 11
-8.2206609999999998
 21
291.81220500000001
 31
0.0
  0
ARC
  5
23A
  8
LAYER01
  6
ENG_PUNKTIERT
 62
     5
 10
-2.7206610000000002
 20
308.348702
 30
0.0
 40
11.0
 50
269.99482999999998
 51
90.0
  0
LINE
  5
23B
  8
LAYER01
  6
ENG_PUNKTIERT
 62
     5
 10
-13.720661
 20
319.348702
 30
0.0
 11
-2.7206610000000002
 21
319.348702
 31
0.0
  0
LINE
  5
23C
  8
LAYER01
  6
ENG_PUNKTIERT
 62
     5
 10
-13.720661
 20
297.348702
 30
0.0
 11
-2.7206610000000002
 21
297.348702
 31
0.0
  0
ARC
  5
23D
  8
LAYER01
  6
ENG_PUNKTIERT
 62
     5
 10
-13.720661
 20
308.348702
 30
0.0
 40
11.0
 50
90.0
 51
270.0
  0
LINE
  5
23E
  8
LAYER01
  6
STRICHPUNKTIERT
 62
     1
 10
-35.774703000000002
 20
308.348702
 30
0.0
 11
20.911593
 21
308.348702
 31
0.0
  0
ENDBLK
  5
23F
  8
0
  0
BLOCK
  8
0
  2
*D17
 70
     1
 10
0.0
 20
0.0
 30
0.0
  3
*D17
  1

  0
LINE
  5
242
  8
LAYER01
 62
     7
 10
119.817369
 20
1396.4202299999999
 30
0.0
 11
-1536.1826309999999
 21
1396.4202299999999
 31
0.0
  0
LINE
  5
243
  8
LAYER01
 62
     7
 10
119.817369
 20
1238.8639760000001
 30
0.0
 11
119.817369
 21
1431.4202299999999
 31
0.0
  0
LINE
  5
244
  8
LAYER01
 62
     7
 10
-1536.1826309999999
 20
1238.8639760000001
 30
0.0
 11
-1536.1826309999999
 21
1431.4202299999999
 31
0.0
  0
SOLID
  5
245
  8
LAYER01
 62
     7
 10
63.817368999999992
 20
1405.7531899999999
 30
0.0
 11
119.817369
 21
1396.4202299999999
 31
0.0
 12
63.817368999999992
 22
1387.08727
 32
0.0
 13
63.817368999999992
 23
1387.08727
 33
0.0
  0
SOLID
  5
246
  8
LAYER01
 62
     7
 10
-1480.1826309999999
 20
1405.7531899999999
 30
0.0
 11
-1536.1826309999999
 21
1396.4202299999999
 31
0.0
 12
-1480.1826309999999
 22
1387.08727
 32
0.0
 13
-1480.1826309999999
 23
1387.08727
 33
0.0
  0
TEXT
  5
247
  8
LAYER01
  6
VERDECKT
 62
     7
 10
-780.12222400000007
 20
1431.4202299999999
 30
0.0
 40
70.0
  1
1656
  0
POINT
  5
248
  8
LAYER01
 62
     7
 10
119.817369
 20
1210.8639760000001
 30
0.0
  0
POINT
  5
249
  8
LAYER01
 62
     7
 10
-1536.1826309999999
 20
1210.8639760000001
 30
0.0
  0
POINT
  5
24A
  8
LAYER01
 62
     7
 10
-1536.1826309999999
 20
1396.4202299999999
 30
0.0
  0
ENDBLK
  5
24B
  8
0
  0
BLOCK
  8
0
  2
*D18
 70
     1
 10
0.0
 20
0.0
 30
0.0
  3
*D18
  1

  0
LINE
  5
24E
  8
LAYER01
 62
     7
 10
-1258.2206610000001
 20
1271.5838779999999
 30
0.0
 11
-158.22066100000001
 21
1271.5838779999999
 31
0.0
  0
LINE
  5
24F
  8
LAYER01
 62
     7
 10
-1258.2206610000001
 20
1238.8639760000001
 30
0.0
 11
-1258.2206610000001
 21
1306.5838779999999
 31
0.0
  0
LINE
  5
250
  8
LAYER01
 62
     7
 10
-158.22066100000001
 20
1238.8639760000001
 30
0.0
 11
-158.22066100000001
 21
1306.5838779999999
 31
0.0
  0
SOLID
  5
251
  8
LAYER01
 62
     7
 10
-1202.2206610000001
 20
1262.250918
 30
0.0
 11
-1258.2206610000001
 21
1271.5838779999999
 31
0.0
 12
-1202.2206610000001
 22
1280.9168380000001
 32
0.0
 13
-1202.2206610000001
 23
1280.9168380000001
 33
0.0
  0
SOLID
  5
252
  8
LAYER01
 62
     7
 10
-214.22066100000001
 20
1262.250918
 30
0.0
 11
-158.22066100000001
 21
1271.5838779999999
 31
0.0
 12
-214.22066100000001
 22
1280.9168380000001
 32
0.0
 13
-214.22066100000001
 23
1280.9168380000001
 33
0.0
  0
TEXT
  5
253
  8
LAYER01
  6
VERDECKT
 62
     7
 10
-780.16025300000001
 20
1306.5838779999999
 30
0.0
 40
70.0
  1
1100
  0
POINT
  5
254
  8
LAYER01
 62
     7
 10
-1258.2206610000001
 20
1210.8639760000001
 30
0.0
  0
POINT
  5
255
  8
LAYER01
 62
     7
 10
-158.22066100000001
 20
1210.8639760000001
 30
0.0
  0
POINT
  5
256
  8
LAYER01
 62
     7
 10
-158.22066100000001
 20
1271.5838779999999
 30
0.0
  0
ENDBLK
  5
257
  8
0
  0
BLOCK
  8
0
  2
*D19
 70
     1
 10
0.0
 20
0.0
 30
0.0
  3
*D19
  1

  0
LINE
  5
25A
  8
LAYER01
 62
     7
 10
-708.22066099999995
 20
663.89450199999999
 30
0.0
 11
-1608.2206610000001
 21
663.89450199999999
 31
0.0
  0
LINE
  5
25B
  8
LAYER01
 62
     7
 10
-708.22066099999995
 20
782.86397599999987
 30
0.0
 11
-708.22066099999995
 21
628.89450199999987
 31
0.0
  0
LINE
  5
25C
  8
LAYER01
 62
     7
 10
-1608.2206610000001
 20
782.86397599999987
 30
0.0
 11
-1608.2206610000001
 21
628.89450199999987
 31
0.0
  0
SOLID
  5
25D
  8
LAYER01
 62
     7
 10
-764.22066099999995
 20
673.22746199999995
 30
0.0
 11
-708.22066099999995
 21
663.89450199999999
 31
0.0
 12
-764.22066099999995
 22
654.56154200000003
 32
0.0
 13
-764.22066099999995
 23
654.56154200000003
 33
0.0
  0
SOLID
  5
25E
  8
LAYER01
 62
     7
 10
-1552.2206610000001
 20
673.22746199999995
 30
0.0
 11
-1608.2206610000001
 21
663.89450199999999
 31
0.0
 12
-1552.2206610000001
 22
654.56154200000003
 32
0.0
 13
-1552.2206610000001
 23
654.56154200000003
 33
0.0
  0
TEXT
  5
25F
  8
LAYER01
  6
VERDECKT
 62
     7
 10
-1212.3939909999999
 20
698.89450199999999
 30
0.0
 40
70.0
  1
900
  0
POINT
  5
260
  8
LAYER01
 62
     7
 10
-708.22066099999995
 20
810.86397599999987
 30
0.0
  0
POINT
  5
261
  8
LAYER01
 62
     7
 10
-1608.2206610000001
 20
810.86397599999987
 30
0.0
  0
POINT
  5
262
  8
LAYER01
 62
     7
 10
-1608.2206610000001
 20
663.89450199999999
 30
0.0
  0
ENDBLK
  5
263
  8
0
  0
BLOCK
  8
0
  2
*D20
 70
     1
 10
0.0
 20
0.0
 30
0.0
  3
*D20
  1

  0
POINT
  5
D21
  8
DEFPOINTS
 62
     0
 10
-1533.0540599999999
 20
1170.8030209999999
 30
0.0
  0
POINT
  5
D22
  8
DEFPOINTS
 62
     0
 10
0.0
 20
0.0
 30
0.0
  0
POINT
  5
D23
  8
DEFPOINTS
 62
     0
 10
0.0
 20
0.0
 30
0.0
  0
POINT
  5
D24
  8
DEFPOINTS
 62
     0
 10
0.0
 20
0.0
 30
0.0
  0
POINT
  5
D25
  8
DEFPOINTS
 62
     0
 10
0.0
 20
0.0
 30
0.0
  0
ENDBLK
  5
26B
  8
0
  0
BLOCK
  8
0
  2
*D21
 70
     1
 10
0.0
 20
0.0
 30
0.0
  3
*D21
  1

  0
LINE
  5
26E
  8
LAYER01
 62
     7
 10
-1775.8679440000001
 20
1210.8639760000001
 30
0.0
 11
-1775.8679440000001
 21
810.86397599999987
 31
0.0
  0
LINE
  5
26F
  8
LAYER01
 62
     7
 10
-1636.2206610000001
 20
1210.8639760000001
 30
0.0
 11
-1810.8679440000001
 21
1210.8639760000001
 31
0.0
  0
LINE
  5
270
  8
LAYER01
 62
     7
 10
-1636.2206610000001
 20
810.86397599999987
 30
0.0
 11
-1810.8679440000001
 21
810.86397599999987
 31
0.0
  0
SOLID
  5
271
  8
LAYER01
 62
     7
 10
-1785.200904
 20
1154.8639760000001
 30
0.0
 11
-1775.8679440000001
 21
1210.8639760000001
 31
0.0
 12
-1766.5349839999999
 22
1154.8639760000001
 32
0.0
 13
-1766.5349839999999
 23
1154.8639760000001
 33
0.0
  0
SOLID
  5
272
  8
LAYER01
 62
     7
 10
-1785.200904
 20
866.86397599999987
 30
0.0
 11
-1775.8679440000001
 21
810.86397599999987
 31
0.0
 12
-1766.5349839999999
 22
866.86397599999987
 32
0.0
 13
-1766.5349839999999
 23
866.86397599999987
 33
0.0
  0
TEXT
  5
273
  8
LAYER01
  6
CONTINUOUS
 62
     7
 10
-1810.8679440000001
 20
958.2034359999999
 30
0.0
 40
70.0
  1
400
 50
90.0
  0
POINT
  5
274
  8
LAYER01
 62
     7
 10
-1608.2206610000001
 20
1210.8639760000001
 30
0.0
  0
POINT
  5
275
  8
LAYER01
 62
     7
 10
-1608.2206610000001
 20
810.86397599999987
 30
0.0
  0
POINT
  5
276
  8
LAYER01
 62
     7
 10
-1775.8679440000001
 20
810.86397599999987
 30
0.0
  0
ENDBLK
  5
277
  8
0
  0
BLOCK
  8
0
  2
*D22
 70
     1
 10
0.0
 20
0.0
 30
0.0
  3
*D22
  1

  0
LINE
  5
27A
  8
LAYER01
 62
     7
 10
-1662.411288
 20
1110.711489
 30
0.0
 11
-1662.411288
 21
998.71148900000003
 31
0.0
  0
LINE
  5
27B
  8
LAYER01
 62
     7
 10
-1662.411288
 20
1210.8639760000001
 30
0.0
 11
-1662.411288
 21
1322.8639760000001
 31
0.0
  0
LINE
  5
27C
  8
LAYER01
 62
     7
 10
-1636.2206610000001
 20
1110.711489
 30
0.0
 11
-1697.411288
 21
1110.711489
 31
0.0
  0
LINE
  5
27D
  8
LAYER01
 62
     7
 10
-1636.2206610000001
 20
1210.8639760000001
 30
0.0
 11
-1697.411288
 21
1210.8639760000001
 31
0.0
  0
SOLID
  5
27E
  8
LAYER01
 62
     7
 10
-1653.0783280000001
 20
1054.711489
 30
0.0
 11
-1662.411288
 21
1110.711489
 31
0.0
 12
-1671.744248
 22
1054.711489
 32
0.0
 13
-1671.744248
 23
1054.711489
 33
0.0
  0
SOLID
  5
27F
  8
LAYER01
 62
     7
 10
-1653.0783280000001
 20
1266.8639760000001
 30
0.0
 11
-1662.411288
 21
1210.8639760000001
 31
0.0
 12
-1671.744248
 22
1266.8639760000001
 32
0.0
 13
-1671.744248
 23
1266.8639760000001
 33
0.0
  0
TEXT
  5
280
  8
LAYER01
  6
CONTINUOUS
 62
     7
 10
-1697.411288
 20
1303.607663
 30
0.0
 40
70.0
  1
100
 50
90.0
  0
POINT
  5
281
  8
LAYER01
 62
     7
 10
-1608.2206610000001
 20
1110.711489
 30
0.0
  0
POINT
  5
282
  8
LAYER01
 62
     7
 10
-1608.2206610000001
 20
1210.8639760000001
 30
0.0
  0
POINT
  5
283
  8
LAYER01
 62
     7
 10
-1662.411288
 20
1210.8639760000001
 30
0.0
  0
ENDBLK
  5
284
  8
0
  0
BLOCK
  8
0
  2
*D23
 70
     1
 10
0.0
 20
0.0
 30
0.0
  3
*D23
  1

  0
LINE
  5
287
  8
LAYER01
 62
     7
 10
-1662.411288
 20
1110.711489
 30
0.0
 11
-1662.411288
 21
845.71148899999991
 31
0.0
  0
LINE
  5
288
  8
LAYER01
 62
     7
 10
-1636.2206610000001
 20
1110.711489
 30
0.0
 11
-1697.411288
 21
1110.711489
 31
0.0
  0
LINE
  5
289
  8
LAYER01
 62
     7
 10
-1636.2206610000001
 20
845.71148899999991
 30
0.0
 11
-1697.411288
 21
845.71148899999991
 31
0.0
  0
SOLID
  5
28A
  8
LAYER01
 62
     7
 10
-1671.744248
 20
1054.711489
 30
0.0
 11
-1662.411288
 21
1110.711489
 31
0.0
 12
-1653.0783280000001
 22
1054.711489
 32
0.0
 13
-1653.0783280000001
 23
1054.711489
 33
0.0
  0
SOLID
  5
28B
  8
LAYER01
 62
     7
 10
-1671.744248
 20
901.71148900000003
 30
0.0
 11
-1662.411288
 21
845.71148899999991
 31
0.0
 12
-1653.0783280000001
 22
901.71148900000003
 32
0.0
 13
-1653.0783280000001
 23
901.71148900000003
 33
0.0
  0
TEXT
  5
28C
  8
LAYER01
  6
CONTINUOUS
 62
     7
 10
-1697.411288
 20
925.55094900000006
 30
0.0
 40
70.0
  1
265
 50
90.0
  0
POINT
  5
28D
  8
LAYER01
 62
     7
 10
-1608.2206610000001
 20
1110.711489
 30
0.0
  0
POINT
  5
28E
  8
LAYER01
 62
     7
 10
-1608.2206610000001
 20
845.71148899999991
 30
0.0
  0
POINT
  5
28F
  8
LAYER01
 62
     7
 10
-1662.411288
 20
845.71148899999991
 30
0.0
  0
ENDBLK
  5
290
  8
0
  0
BLOCK
  8
0
  2
*D24
 70
     1
 10
0.0
 20
0.0
 30
0.0
  3
*D24
  1

  0
LINE
  5
293
  8
LAYER01
 62
     7
 10
1582.372034
 20
408.34870199999989
 30
0.0
 11
1582.372034
 21
520.34870199999989
 31
0.0
  0
LINE
  5
294
  8
LAYER01
 62
     7
 10
1582.372034
 20
358.348702
 30
0.0
 11
1582.372034
 21
246.348702
 31
0.0
  0
LINE
  5
295
  8
LAYER01
 62
     7
 10
1502.0158710000001
 20
408.34870199999989
 30
0.0
 11
1617.372034
 21
408.34870199999989
 31
0.0
  0
LINE
  5
296
  8
LAYER01
 62
     7
 10
1502.0158710000001
 20
358.348702
 30
0.0
 11
1617.372034
 21
358.348702
 31
0.0
  0
SOLID
  5
297
  8
LAYER01
 62
     7
 10
1573.039074
 20
464.34870199999989
 30
0.0
 11
1582.372034
 21
408.34870199999989
 31
0.0
 12
1591.7049939999999
 22
464.34870199999989
 32
0.0
 13
1591.7049939999999
 23
464.34870199999989
 33
0.0
  0
SOLID
  5
298
  8
LAYER01
 62
     7
 10
1573.039074
 20
302.348702
 30
0.0
 11
1582.372034
 21
358.348702
 31
0.0
 12
1591.7049939999999
 22
302.348702
 32
0.0
 13
1591.7049939999999
 23
302.348702
 33
0.0
  0
TEXT
  5
299
  8
LAYER01
  6
CONTINUOUS
 62
     7
 10
1547.372034
 20
555.348702
 30
0.0
 40
70.0
  1
50
 50
90.0
  0
POINT
  5
29A
  8
LAYER01
 62
     7
 10
1474.0158710000001
 20
408.34870199999989
 30
0.0
  0
POINT
  5
29B
  8
LAYER01
 62
     7
 10
1474.0158710000001
 20
358.348702
 30
0.0
  0
POINT
  5
29C
  8
LAYER01
 62
     7
 10
1582.372034
 20
358.348702
 30
0.0
  0
ENDBLK
  5
29D
  8
0
  0
BLOCK
  8
0
  2
ACT40_WE-G27
 70
     0
 10
0.0
 20
0.0
 30
0.0
  3
ACT40_WE-G27
  1

  0
TEXT
  5
2A0
  8
LAYER01
  6
VERDECKT
 62
     1
 10
634.70353899999998
 20
-538.79336699999988
 30
0.0
 40
14.0
  1
A. Sprenger GmbH
  7
SIMPLEX
  0
TEXT
  5
2A1
  8
LAYER01
  6
VERDECKT
 62
     1
 10
634.70353899999998
 20
-562.79336699999988
 30
0.0
 40
14.0
  1
Berner Str. 10
  7
SIMPLEX
  0
TEXT
  5
2A2
  8
LAYER01
  6
VERDECKT
 62
     1
 10
634.70353899999998
 20
-586.79336699999999
 30
0.0
 40
14.0
  1
60437 Frankfurt
  7
SIMPLEX
  0
TEXT
  5
2A3
  8
LAYER01
  6
VERDECKT
 62
     1
 10
634.70353899999998
 20
-610.79336699999999
 30
0.0
 40
14.0
  1
Tel.: 069 - 507 27 41
  7
SIMPLEX
  0
TEXT
  5
2A4
  8
LAYER01
  6
VERDECKT
 62
     1
 10
634.70353899999998
 20
-634.79336699999988
 30
0.0
 40
14.0
  1
Fax: 069 - 507 72 91
  7
SIMPLEX
  0
TEXT
  5
2A5
  8
LAYER01
  6
VERDECKT
 62
     1
 10
634.70353899999998
 20
-658.79336699999988
 30
0.0
 40
14.0
  1
info@varicor.org
  7
SIMPLEX
  0
ENDBLK
  5
2A6
  8
0
  0
BLOCK
  8
0
  2
ACT40_WE-G26
 70
     0
 10
0.0
 20
0.0
 30
0.0
  3
ACT40_WE-G26
  1

  0
TEXT
  5
2A9
  8
LAYER01
  6
CONTINUOUS
 62
     1
 10
2105.8493749999998
 20
-867.90562999999997
 30
0.0
 40
14.0
  1
Blatt
  7
SIMPLEX
  0
LINE
  5
2AA
  8
LAYER01
  6
CONTINUOUS
 62
     1
 10
614.84937500000001
 20
-769.90562999999986
 30
0.0
 11
1454.849375
 21
-769.90562999999986
 31
0.0
  0
LINE
  5
2AB
  8
LAYER01
  6
CONTINUOUS
 62
     1
 10
614.84937500000001
 20
-804.90562999999997
 30
0.0
 11
1454.849375
 21
-804.90562999999997
 31
0.0
  0
LINE
  5
2AC
  8
LAYER01
  6
CONTINUOUS
 62
     1
 10
614.84937500000001
 20
-839.90563000000009
 30
0.0
 11
2196.8493749999998
 21
-839.90563000000009
 31
0.0
  0
LINE
  5
2AD
  8
LAYER01
  6
CONTINUOUS
 62
     1
 10
614.84937500000001
 20
-944.90562999999997
 30
0.0
 11
2196.8493749999998
 21
-944.90562999999997
 31
0.0
  0
LINE
  5
2AE
  8
LAYER01
  6
CONTINUOUS
 62
     1
 10
614.84937500000001
 20
-664.90562999999986
 30
0.0
 11
2196.8493749999998
 21
-664.90562999999986
 31
0.0
  0
POLYLINE
  5
2AF
  8
LAYER01
  6
CONTINUOUS
 62
     1
 66
     1
 10
0.0
 20
0.0
 30
0.0
 70
     1
  0
VERTEX
  5
B40
  8
LAYER01
  6
CONTINUOUS
 62
     1
 10
614.84937500000001
 20
-986.90562999999997
 30
0.0
  0
VERTEX
  5
B41
  8
LAYER01
  6
CONTINUOUS
 62
     1
 10
614.84937500000001
 20
-517.90562999999997
 30
0.0
  0
VERTEX
  5
B42
  8
LAYER01
  6
CONTINUOUS
 62
     1
 10
2196.8493749999998
 20
-517.90562999999997
 30
0.0
  0
VERTEX
  5
B43
  8
LAYER01
  6
CONTINUOUS
 62
     1
 10
2196.8493749999998
 20
-986.90562999999997
 30
0.0
  0
SEQEND
  5
B44
  8
LAYER01
  6
CONTINUOUS
 62
     1
  0
LINE
  5
2B5
  8
LAYER01
  6
CONTINUOUS
 62
     1
 10
614.84937500000001
 20
-699.90562999999986
 30
0.0
 11
1454.849375
 21
-699.90562999999986
 31
0.0
  0
LINE
  5
2B6
  8
LAYER01
  6
CONTINUOUS
 62
     1
 10
614.84937500000001
 20
-734.90562999999986
 30
0.0
 11
1454.849375
 21
-734.90562999999986
 31
0.0
  0
LINE
  5
2B7
  8
LAYER01
  6
CONTINUOUS
 62
     1
 10
1069.849375
 20
-517.90562999999997
 30
0.0
 11
1069.849375
 21
-986.90562999999997
 31
0.0
  0
INSERT
  5
2B8
  8
LAYER01
  2
ACT40_WE-G27
 10
0.0
 20
0.0
 30
0.0
  0
LINE
  5
2B9
  8
LAYER01
  6
CONTINUOUS
 62
     1
 10
614.84937500000001
 20
-909.90562999999997
 30
0.0
 11
1069.849375
 21
-909.90562999999997
 31
0.0
  0
LINE
  5
2BA
  8
LAYER01
  6
CONTINUOUS
 62
     1
 10
614.84937500000001
 20
-874.90563000000009
 30
0.0
 11
1069.849375
 21
-874.90563000000009
 31
0.0
  0
LINE
  5
2BB
  8
LAYER01
  6
CONTINUOUS
 62
     1
 10
677.8493749999999
 20
-664.90562999999986
 30
0.0
 11
677.8493749999999
 21
-986.90562999999997
 31
0.0
  0
TEXT
  5
2BC
  8
LAYER01
  6
CONTINUOUS
 62
     1
 10
626.60834599999987
 20
-972.90563000000009
 30
0.0
 40
13.300000000000001
  1
Zust
  7
SIMPLEX
  0
LINE
  5
2BD
  8
LAYER01
  6
CONTINUOUS
 62
     1
 10
898.74783599999989
 20
-986.90562999999997
 30
0.0
 11
898.74783599999989
 21
-664.90562999999986
 31
0.0
  0
LINE
  5
2BE
  8
LAYER01
  6
CONTINUOUS
 62
     1
 10
1006.849375
 20
-664.90562999999986
 30
0.0
 11
1006.849375
 21
-986.90562999999997
 31
0.0
  0
TEXT
  5
2BF
  8
LAYER01
  6
CONTINUOUS
 62
     1
 10
739.62933399999986
 20
-972.90563000000009
 30
0.0
 40
13.300000000000001
  1
Änderung
  7
SIMPLEX
  0
TEXT
  5
2C0
  8
LAYER01
  6
CONTINUOUS
 62
     1
 10
918.44517799999994
 20
-972.90563000000009
 30
0.0
 40
13.300000000000001
  1
Datum
  7
SIMPLEX
  0
TEXT
  5
2C1
  8
LAYER01
  6
CONTINUOUS
 62
     1
 10
1012.11884
 20
-972.90563000000009
 30
0.0
 40
13.300000000000001
  1
Name
  7
SIMPLEX
  0
LINE
  5
2C2
  8
LAYER01
  6
CONTINUOUS
 62
     1
 10
2196.8493749999998
 20
-573.90562999999986
 30
0.0
 11
1454.849375
 21
-573.90562999999986
 31
0.0
  0
LINE
  5
2C3
  8
LAYER01
  6
CONTINUOUS
 62
     1
 10
1160.849375
 20
-804.90562999999997
 30
0.0
 11
1160.849375
 21
-664.90562999999986
 31
0.0
  0
TEXT
  5
2C4
  8
LAYER01
  6
CONTINUOUS
 62
     1
 10
1083.849375
 20
-727.90562999999986
 30
0.0
 40
14.0
  1
Bearb.
  7
SIMPLEX
  0
TEXT
  5
2C5
  8
LAYER01
  6
CONTINUOUS
 62
     1
 10
1083.849375
 20
-797.90562999999986
 30
0.0
 40
14.0
  1
Norm
  7
SIMPLEX
  0
TEXT
  5
2C6
  8
LAYER01
  6
CONTINUOUS
 62
     1
 10
1083.849375
 20
-762.90562999999997
 30
0.0
 40
14.0
  1
Gepr.
  7
SIMPLEX
  0
TEXT
  5
2C7
  8
LAYER01
  6
CONTINUOUS
 62
     1
 10
1195.849375
 20
-692.90562999999997
 30
0.0
 40
14.0
  1
Datum
  7
SIMPLEX
  0
TEXT
  5
2C8
  8
LAYER01
  6
CONTINUOUS
 62
     1
 10
1335.849375
 20
-692.90562999999997
 30
0.0
 40
14.0
  1
Name
  7
SIMPLEX
  0
TEXT
  5
2C9
  8
LAYER01
  6
CONTINUOUS
 62
     1
 10
2161.8493749999998
 20
-937.90562999999997
 30
0.0
 40
14.0
  1
Bl.
  7
SIMPLEX
  0
LINE
  5
2CA
  8
LAYER01
  6
CONTINUOUS
 62
     1
 10
1454.849375
 20
-986.90562999999997
 30
0.0
 11
1454.849375
 21
-517.90562999999997
 31
0.0
  0
LINE
  5
2CB
  8
LAYER01
  6
CONTINUOUS
 62
     1
 10
1293.849375
 20
-839.90563000000009
 30
0.0
 11
1293.849375
 21
-517.90562999999997
 31
0.0
  0
LINE
  5
2CC
  8
LAYER01
  6
CONTINUOUS
 62
     1
 10
1895.849375
 20
-517.90562999999997
 30
0.0
 11
1895.849375
 21
-573.90562999999986
 31
0.0
  0
TEXT
  5
2CD
  8
LAYER01
  6
CONTINUOUS
 62
     1
 10
1470.1009750000001
 20
-553.64763300000004
 30
0.0
 40
14.0
  1
Maßstab
  7
SIMPLEX
  0
LINE
  5
2CE
  8
LAYER01
  6
CONTINUOUS
 62
     1
 10
2091.8493749999998
 20
-839.90563000000009
 30
0.0
 11
2091.8493749999998
 21
-944.90562999999997
 31
0.0
  0
LINE
  5
2CF
  8
LAYER01
  6
CONTINUOUS
 62
     1
 10
2091.8493749999998
 20
-909.90562999999997
 30
0.0
 11
2196.8493749999998
 21
-909.90562999999997
 31
0.0
  0
ENDBLK
  5
2D0
  8
0
  0
BLOCK
  8
0
  2
*D27
 70
     1
 10
0.0
 20
0.0
 30
0.0
  3
*D27
  1

  0
LINE
  5
2D3
  8
LAYER01
 62
     7
 10
1449.4265339999999
 20
35.879593999999997
 30
0.0
 11
1199.7638280000001
 21
35.879593999999997
 31
0.0
  0
LINE
  5
2D4
  8
LAYER01
 62
     7
 10
1449.4265339999999
 20
175.348702
 30
0.0
 11
1449.4265339999999
 21
0.8795940000000001
 31
0.0
  0
LINE
  5
2D5
  8
LAYER01
 62
     7
 10
1199.7638280000001
 20
183.310855
 30
0.0
 11
1199.7638280000001
 21
0.8795940000000001
 31
0.0
  0
SOLID
  5
2D6
  8
LAYER01
 62
     7
 10
1393.4265339999999
 20
45.212553999999997
 30
0.0
 11
1449.4265339999999
 21
35.879593999999997
 31
0.0
 12
1393.4265339999999
 22
26.546634000000001
 32
0.0
 13
1393.4265339999999
 23
26.546634000000001
 33
0.0
  0
SOLID
  5
2D7
  8
LAYER01
 62
     7
 10
1255.7638280000001
 20
45.212553999999997
 30
0.0
 11
1199.7638280000001
 21
35.879593999999997
 31
0.0
 12
1255.7638280000001
 22
26.546634000000001
 32
0.0
 13
1255.7638280000001
 23
26.546634000000001
 33
0.0
  0
TEXT
  5
2D8
  8
LAYER01
  6
CONTINUOUS
 62
     7
 10
1268.9295629999999
 20
70.879593999999983
 30
0.0
 40
70.0
  1
220
  0
POINT
  5
2D9
  8
LAYER01
 62
     7
 10
1449.4265339999999
 20
203.348702
 30
0.0
  0
POINT
  5
2DA
  8
LAYER01
 62
     7
 10
1199.7638280000001
 20
211.310855
 30
0.0
  0
POINT
  5
2DB
  8
LAYER01
 62
     7
 10
1199.7638280000001
 20
35.879593999999997
 30
0.0
  0
ENDBLK
  5
2DC
  8
0
  0
BLOCK
  8
0
  2
ACT40_WE-G29
 70
     0
 10
0.0
 20
0.0
 30
0.0
  3
ACT40_WE-G29
  1

  0
POLYLINE
  5
2DF
  8
LAYER01
  6
CONTINUOUS
 62
     7
 66
     1
 10
0.0
 20
0.0
 30
0.0
 70
     1
  0
VERTEX
  5
B45
  8
LAYER01
  6
CONTINUOUS
 62
     7
 10
922.78028399999982
 20
-60.505499999999998
 30
0.0
  0
VERTEX
  5
B46
  8
LAYER01
  6
CONTINUOUS
 62
     7
 10
964.20997100000011
 20
-60.505499999999998
 30
0.0
  0
VERTEX
  5
B47
  8
LAYER01
  6
CONTINUOUS
 62
     7
 10
1016.237949
 20
-179.01367300000001
 30
0.0
  0
VERTEX
  5
B48
  8
LAYER01
  6
CONTINUOUS
 62
     7
 10
1068.265928
 20
-60.505499999999998
 30
0.0
  0
VERTEX
  5
B49
  8
LAYER01
  6
CONTINUOUS
 62
     7
 10
1111.6225770000001
 20
-60.505499999999998
 30
0.0
  0
VERTEX
  5
B4A
  8
LAYER01
  6
CONTINUOUS
 62
     7
 10
1016.237949
 20
-272.471339
 30
0.0
  0
VERTEX
  5
B4B
  8
LAYER01
  6
CONTINUOUS
 62
     7
 10
922.78028399999982
 20
-60.505499999999998
 30
0.0
  0
VERTEX
  5
B4C
  8
LAYER01
  6
CONTINUOUS
 62
     7
 10
922.78028399999982
 20
-60.505499999999998
 30
0.0
  0
SEQEND
  5
B4D
  8
LAYER01
  6
CONTINUOUS
 62
     7
  0
POLYLINE
  5
2E9
  8
LAYER01
  6
CONTINUOUS
 62
     7
 66
     1
 10
0.0
 20
0.0
 30
0.0
 70
     1
  0
VERTEX
  5
B4E
  8
LAYER01
  6
CONTINUOUS
 62
     7
 10
1064.412004
 20
-205.02766299999999
 30
0.0
  0
VERTEX
  5
B4F
  8
LAYER01
  6
CONTINUOUS
 62
     7
 10
1078.8642199999999
 20
-171.305825
 30
0.0
  0
VERTEX
  5
B50
  8
LAYER01
  6
CONTINUOUS
 62
     7
 10
1141.490491
 20
-171.305825
 30
0.0
  0
VERTEX
  5
B51
  8
LAYER01
  6
CONTINUOUS
 62
     7
 10
1109.6956150000001
 20
-101.935186
 30
0.0
  0
VERTEX
  5
B52
  8
LAYER01
  6
CONTINUOUS
 62
     7
 10
1128.0017559999999
 20
-57.615056000000003
 30
0.0
  0
VERTEX
  5
B53
  8
LAYER01
  6
CONTINUOUS
 62
     7
 10
1213.751573
 20
-238.74950100000001
 30
0.0
  0
VERTEX
  5
B54
  8
LAYER01
  6
CONTINUOUS
 62
     7
 10
1213.751573
 20
-60.505499999999998
 30
0.0
  0
VERTEX
  5
B55
  8
LAYER01
  6
CONTINUOUS
 62
     7
 10
1328.4058219999999
 20
-60.505499999999998
 30
0.0
  0
VERTEX
  5
B56
  8
LAYER01
  6
CONTINUOUS
 62
     7
 10
1328.4058219999999
 20
-60.505499999999998
 30
0.0
  0
VERTEX
  5
B57
  8
LAYER01
  6
CONTINUOUS
 62
     7
 10
1339.0041140000001
 20
-62.432462000000001
 30
0.0
  0
VERTEX
  5
B58
  8
LAYER01
  6
CONTINUOUS
 62
     7
 10
1348.638925
 20
-66.286385999999993
 30
0.0
  0
VERTEX
  5
B59
  8
LAYER01
  6
CONTINUOUS
 62
     7
 10
1357.3102550000001
 20
-73.030754000000002
 30
0.0
  0
VERTEX
  5
B5A
  8
LAYER01
  6
CONTINUOUS
 62
     7
 10
1365.0181030000001
 20
-79.775120999999999
 30
0.0
  0
VERTEX
  5
B5B
  8
LAYER01
  6
CONTINUOUS
 62
     7
 10
1371.762471
 20
-88.446450999999996
 30
0.0
  0
VERTEX
  5
B5C
  8
LAYER01
  6
CONTINUOUS
 62
     7
 10
1376.579876
 20
-98.081261999999995
 30
0.0
  0
VERTEX
  5
B5D
  8
LAYER01
  6
CONTINUOUS
 62
     7
 10
1380.4338009999999
 20
-109.643035
 30
0.0
  0
VERTEX
  5
B5E
  8
LAYER01
  6
CONTINUOUS
 62
     7
 10
1381.3972819999999
 20
-120.241327
 30
0.0
  0
VERTEX
  5
B5F
  8
LAYER01
  6
CONTINUOUS
 62
     7
 10
1381.3972819999999
 20
-120.241327
 30
0.0
  0
VERTEX
  5
B60
  8
LAYER01
  6
CONTINUOUS
 62
     7
 10
1381.3972819999999
 20
-131.8031
 30
0.0
  0
VERTEX
  5
B61
  8
LAYER01
  6
CONTINUOUS
 62
     7
 10
1379.4703199999999
 20
-141.43791100000001
 30
0.0
  0
VERTEX
  5
B62
  8
LAYER01
  6
CONTINUOUS
 62
     7
 10
1375.616395
 20
-151.072722
 30
0.0
  0
VERTEX
  5
B63
  8
LAYER01
  6
CONTINUOUS
 62
     7
 10
1370.79899
 20
-159.74405200000001
 30
0.0
  0
VERTEX
  5
B64
  8
LAYER01
  6
CONTINUOUS
 62
     7
 10
1364.0546220000001
 20
-167.45189999999999
 30
0.0
  0
VERTEX
  5
B65
  8
LAYER01
  6
CONTINUOUS
 62
     7
 10
1356.3467740000001
 20
-174.196268
 30
0.0
  0
VERTEX
  5
B66
  8
LAYER01
  6
CONTINUOUS
 62
     7
 10
1347.675444
 20
-179.01367300000001
 30
0.0
  0
VERTEX
  5
B67
  8
LAYER01
  6
CONTINUOUS
 62
     7
 10
1337.0771520000001
 20
-182.86759799999999
 30
0.0
  0
VERTEX
  5
B68
  8
LAYER01
  6
CONTINUOUS
 62
     7
 10
1398.739941
 20
-264.76348999999999
 30
0.0
  0
VERTEX
  5
B69
  8
LAYER01
  6
CONTINUOUS
 62
     7
 10
1398.739941
 20
-60.505499999999998
 30
0.0
  0
VERTEX
  5
B6A
  8
LAYER01
  6
CONTINUOUS
 62
     7
 10
1439.2061470000001
 20
-60.505499999999998
 30
0.0
  0
VERTEX
  5
B6B
  8
LAYER01
  6
CONTINUOUS
 62
     7
 10
1439.2061470000001
 20
-266.69045199999999
 30
0.0
  0
VERTEX
  5
B6C
  8
LAYER01
  6
CONTINUOUS
 62
     7
 10
1352.492849
 20
-266.69045199999999
 30
0.0
  0
VERTEX
  5
B6D
  8
LAYER01
  6
CONTINUOUS
 62
     7
 10
1268.669995
 20
-159.74405200000001
 30
0.0
  0
VERTEX
  5
B6E
  8
LAYER01
  6
CONTINUOUS
 62
     7
 10
1311.0631619999999
 20
-159.74405200000001
 30
0.0
  0
VERTEX
  5
B6F
  8
LAYER01
  6
CONTINUOUS
 62
     7
 10
1311.0631619999999
 20
-159.74405200000001
 30
0.0
  0
VERTEX
  5
B70
  8
LAYER01
  6
CONTINUOUS
 62
     7
 10
1316.844049
 20
-158.78057100000001
 30
0.0
  0
VERTEX
  5
B71
  8
LAYER01
  6
CONTINUOUS
 62
     7
 10
1322.6249350000001
 20
-156.85360800000001
 30
0.0
  0
VERTEX
  5
B72
  8
LAYER01
  6
CONTINUOUS
 62
     7
 10
1327.4423409999999
 20
-153.963165
 30
0.0
  0
VERTEX
  5
B73
  8
LAYER01
  6
CONTINUOUS
 62
     7
 10
1332.259746
 20
-150.109241
 30
0.0
  0
VERTEX
  5
B74
  8
LAYER01
  6
CONTINUOUS
 62
     7
 10
1335.1501900000001
 20
-145.29183499999999
 30
0.0
  0
VERTEX
  5
B75
  8
LAYER01
  6
CONTINUOUS
 62
     7
 10
1338.0406330000001
 20
-139.51094900000001
 30
0.0
  0
VERTEX
  5
B76
  8
LAYER01
  6
CONTINUOUS
 62
     7
 10
1339.9675950000001
 20
-133.730062
 30
0.0
  0
VERTEX
  5
B77
  8
LAYER01
  6
CONTINUOUS
 62
     7
 10
1339.9675950000001
 20
-126.98569500000001
 30
0.0
  0
VERTEX
  5
B78
  8
LAYER01
  6
CONTINUOUS
 62
     7
 10
1339.9675950000001
 20
-126.98569500000001
 30
0.0
  0
VERTEX
  5
B79
  8
LAYER01
  6
CONTINUOUS
 62
     7
 10
1339.9675950000001
 20
-121.204808
 30
0.0
  0
VERTEX
  5
B7A
  8
LAYER01
  6
CONTINUOUS
 62
     7
 10
1338.0406330000001
 20
-115.423922
 30
0.0
  0
VERTEX
  5
B7B
  8
LAYER01
  6
CONTINUOUS
 62
     7
 10
1336.1136710000001
 20
-109.643035
 30
0.0
  0
VERTEX
  5
B7C
  8
LAYER01
  6
CONTINUOUS
 62
     7
 10
1332.259746
 20
-104.82563
 30
0.0
  0
VERTEX
  5
B7D
  8
LAYER01
  6
CONTINUOUS
 62
     7
 10
1328.4058219999999
 20
-100.971705
 30
0.0
  0
VERTEX
  5
B7E
  8
LAYER01
  6
CONTINUOUS
 62
     7
 10
1322.6249350000001
 20
-98.081261999999995
 30
0.0
  0
VERTEX
  5
B7F
  8
LAYER01
  6
CONTINUOUS
 62
     7
 10
1316.844049
 20
-96.154300000000006
 30
0.0
  0
VERTEX
  5
B80
  8
LAYER01
  6
CONTINUOUS
 62
     7
 10
1311.0631619999999
 20
-95.190818999999991
 30
0.0
  0
VERTEX
  5
B81
  8
LAYER01
  6
CONTINUOUS
 62
     7
 10
1257.1082220000001
 20
-95.190818999999991
 30
0.0
  0
VERTEX
  5
B82
  8
LAYER01
  6
CONTINUOUS
 62
     7
 10
1257.1082220000001
 20
-266.69045199999999
 30
0.0
  0
VERTEX
  5
B83
  8
LAYER01
  6
CONTINUOUS
 62
     7
 10
1187.7375830000001
 20
-266.69045199999999
 30
0.0
  0
VERTEX
  5
B84
  8
LAYER01
  6
CONTINUOUS
 62
     7
 10
1158.833151
 20
-205.02766299999999
 30
0.0
  0
VERTEX
  5
B85
  8
LAYER01
  6
CONTINUOUS
 62
     7
 10
1064.412004
 20
-205.02766299999999
 30
0.0
  0
VERTEX
  5
B86
  8
LAYER01
  6
CONTINUOUS
 62
     7
 10
1064.412004
 20
-205.02766299999999
 30
0.0
  0
SEQEND
  5
B87
  8
LAYER01
  6
CONTINUOUS
 62
     7
  0
POLYLINE
  5
324
  8
LAYER01
  6
CONTINUOUS
 62
     7
 66
     1
 10
0.0
 20
0.0
 30
0.0
 70
     1
  0
VERTEX
  5
B88
  8
LAYER01
  6
CONTINUOUS
 62
     7
 10
1626.121478
 20
-73.994235000000003
 30
0.0
  0
VERTEX
  5
B89
  8
LAYER01
  6
CONTINUOUS
 62
     7
 10
1600.107489
 20
-106.75259200000001
 30
0.0
  0
VERTEX
  5
B8A
  8
LAYER01
  6
CONTINUOUS
 62
     7
 10
1600.107489
 20
-106.75259200000001
 30
0.0
  0
VERTEX
  5
B8B
  8
LAYER01
  6
CONTINUOUS
 62
     7
 10
1591.4361590000001
 20
-100.971705
 30
0.0
  0
VERTEX
  5
B8C
  8
LAYER01
  6
CONTINUOUS
 62
     7
 10
1582.764829
 20
-96.154300000000006
 30
0.0
  0
VERTEX
  5
B8D
  8
LAYER01
  6
CONTINUOUS
 62
     7
 10
1573.1300180000001
 20
-93.263857000000016
 30
0.0
  0
VERTEX
  5
B8E
  8
LAYER01
  6
CONTINUOUS
 62
     7
 10
1562.5317259999999
 20
-93.263857000000016
 30
0.0
  0
VERTEX
  5
B8F
  8
LAYER01
  6
CONTINUOUS
 62
     7
 10
1562.5317259999999
 20
-93.263857000000016
 30
0.0
  0
VERTEX
  5
B90
  8
LAYER01
  6
CONTINUOUS
 62
     7
 10
1555.7873589999999
 20
-93.263857000000016
 30
0.0
  0
VERTEX
  5
B91
  8
LAYER01
  6
CONTINUOUS
 62
     7
 10
1549.042991
 20
-94.227338000000003
 30
0.0
  0
VERTEX
  5
B92
  8
LAYER01
  6
CONTINUOUS
 62
     7
 10
1542.298624
 20
-96.154300000000006
 30
0.0
  0
VERTEX
  5
B93
  8
LAYER01
  6
CONTINUOUS
 62
     7
 10
1535.5542559999999
 20
-99.044743000000025
 30
0.0
  0
VERTEX
  5
B94
  8
LAYER01
  6
CONTINUOUS
 62
     7
 10
1529.773369
 20
-101.935186
 30
0.0
  0
VERTEX
  5
B95
  8
LAYER01
  6
CONTINUOUS
 62
     7
 10
1524.955964
 20
-105.78911100000001
 30
0.0
  0
VERTEX
  5
B96
  8
LAYER01
  6
CONTINUOUS
 62
     7
 10
1519.1750770000001
 20
-109.643035
 30
0.0
  0
VERTEX
  5
B97
  8
LAYER01
  6
CONTINUOUS
 62
     7
 10
1515.3211530000001
 20
-114.460441
 30
0.0
  0
VERTEX
  5
B98
  8
LAYER01
  6
CONTINUOUS
 62
     7
 10
1510.5037480000001
 20
-120.241327
 30
0.0
  0
VERTEX
  5
B99
  8
LAYER01
  6
CONTINUOUS
 62
     7
 10
1507.613304
 20
-126.02221400000001
 30
0.0
  0
VERTEX
  5
B9A
  8
LAYER01
  6
CONTINUOUS
 62
     7
 10
1503.75938
 20
-131.8031
 30
0.0
  0
VERTEX
  5
B9B
  8
LAYER01
  6
CONTINUOUS
 62
     7
 10
1500.868937
 20
-137.58398700000001
 30
0.0
  0
VERTEX
  5
B9C
  8
LAYER01
  6
CONTINUOUS
 62
     7
 10
1498.941975
 20
-144.32835399999999
 30
0.0
  0
VERTEX
  5
B9D
  8
LAYER01
  6
CONTINUOUS
 62
     7
 10
1497.978494
 20
-151.072722
 30
0.0
  0
VERTEX
  5
B9E
  8
LAYER01
  6
CONTINUOUS
 62
     7
 10
1497.0150120000001
 20
-157.81709000000001
 30
0.0
  0
VERTEX
  5
B9F
  8
LAYER01
  6
CONTINUOUS
 62
     7
 10
1496.0515310000001
 20
-165.52493799999999
 30
0.0
  0
VERTEX
  5
BA0
  8
LAYER01
  6
CONTINUOUS
 62
     7
 10
1496.0515310000001
 20
-165.52493799999999
 30
0.0
  0
VERTEX
  5
BA1
  8
LAYER01
  6
CONTINUOUS
 62
     7
 10
1497.0150120000001
 20
-172.269306
 30
0.0
  0
VERTEX
  5
BA2
  8
LAYER01
  6
CONTINUOUS
 62
     7
 10
1497.978494
 20
-179.01367300000001
 30
0.0
  0
VERTEX
  5
BA3
  8
LAYER01
  6
CONTINUOUS
 62
     7
 10
1498.941975
 20
-185.75804099999999
 30
0.0
  0
VERTEX
  5
BA4
  8
LAYER01
  6
CONTINUOUS
 62
     7
 10
1501.832418
 20
-191.538928
 30
0.0
  0
VERTEX
  5
BA5
  8
LAYER01
  6
CONTINUOUS
 62
     7
 10
1503.75938
 20
-197.31981400000001
 30
0.0
  0
VERTEX
  5
BA6
  8
LAYER01
  6
CONTINUOUS
 62
     7
 10
1507.613304
 20
-203.10070099999999
 30
0.0
  0
VERTEX
  5
BA7
  8
LAYER01
  6
CONTINUOUS
 62
     7
 10
1511.4672290000001
 20
-208.881587
 30
0.0
  0
VERTEX
  5
BA8
  8
LAYER01
  6
CONTINUOUS
 62
     7
 10
1515.3211530000001
 20
-213.698993
 30
0.0
  0
VERTEX
  5
BA9
  8
LAYER01
  6
CONTINUOUS
 62
     7
 10
1520.138559
 20
-218.51639800000001
 30
0.0
  0
VERTEX
  5
BAA
  8
LAYER01
  6
CONTINUOUS
 62
     7
 10
1524.955964
 20
-222.37032199999999
 30
0.0
  0
VERTEX
  5
BAB
  8
LAYER01
  6
CONTINUOUS
 62
     7
 10
1530.7368509999999
 20
-225.26076599999999
 30
0.0
  0
VERTEX
  5
BAC
  8
LAYER01
  6
CONTINUOUS
 62
     7
 10
1536.5177369999999
 20
-228.15120899999999
 30
0.0
  0
VERTEX
  5
BAD
  8
LAYER01
  6
CONTINUOUS
 62
     7
 10
1543.262105
 20
-231.041652
 30
0.0
  0
VERTEX
  5
BAE
  8
LAYER01
  6
CONTINUOUS
 62
     7
 10
1549.042991
 20
-232.968614
 30
0.0
  0
VERTEX
  5
BAF
  8
LAYER01
  6
CONTINUOUS
 62
     7
 10
1555.7873589999999
 20
-233.932095
 30
0.0
  0
VERTEX
  5
BB0
  8
LAYER01
  6
CONTINUOUS
 62
     7
 10
1563.495208
 20
-233.932095
 30
0.0
  0
VERTEX
  5
BB1
  8
LAYER01
  6
CONTINUOUS
 62
     7
 10
1563.495208
 20
-233.932095
 30
0.0
  0
VERTEX
  5
BB2
  8
LAYER01
  6
CONTINUOUS
 62
     7
 10
1574.0934990000001
 20
-232.968614
 30
0.0
  0
VERTEX
  5
BB3
  8
LAYER01
  6
CONTINUOUS
 62
     7
 10
1582.764829
 20
-231.041652
 30
0.0
  0
VERTEX
  5
BB4
  8
LAYER01
  6
CONTINUOUS
 62
     7
 10
1591.4361590000001
 20
-226.22424699999999
 30
0.0
  0
VERTEX
  5
BB5
  8
LAYER01
  6
CONTINUOUS
 62
     7
 10
1600.107489
 20
-220.44336000000001
 30
0.0
  0
VERTEX
  5
BB6
  8
LAYER01
  6
CONTINUOUS
 62
     7
 10
1625.157997
 20
-254.165198
 30
0.0
  0
VERTEX
  5
BB7
  8
LAYER01
  6
CONTINUOUS
 62
     7
 10
1625.157997
 20
-254.165198
 30
0.0
  0
VERTEX
  5
BB8
  8
LAYER01
  6
CONTINUOUS
 62
     7
 10
1610.7057809999999
 20
-262.83652799999999
 30
0.0
  0
VERTEX
  5
BB9
  8
LAYER01
  6
CONTINUOUS
 62
     7
 10
1602.997932
 20
-265.72697099999999
 30
0.0
  0
VERTEX
  5
BBA
  8
LAYER01
  6
CONTINUOUS
 62
     7
 10
1596.253565
 20
-268.61741499999999
 30
0.0
  0
VERTEX
  5
BBB
  8
LAYER01
  6
CONTINUOUS
 62
     7
 10
1588.5457160000001
 20
-270.544377
 30
0.0
  0
VERTEX
  5
BBC
  8
LAYER01
  6
CONTINUOUS
 62
     7
 10
1580.837867
 20
-271.507858
 30
0.0
  0
VERTEX
  5
BBD
  8
LAYER01
  6
CONTINUOUS
 62
     7
 10
1563.495208
 20
-272.471339
 30
0.0
  0
VERTEX
  5
BBE
  8
LAYER01
  6
CONTINUOUS
 62
     7
 10
1563.495208
 20
-272.471339
 30
0.0
  0
VERTEX
  5
BBF
  8
LAYER01
  6
CONTINUOUS
 62
     7
 10
1551.933434
 20
-271.507858
 30
0.0
  0
VERTEX
  5
BC0
  8
LAYER01
  6
CONTINUOUS
 62
     7
 10
1541.335143
 20
-269.580896
 30
0.0
  0
VERTEX
  5
BC1
  8
LAYER01
  6
CONTINUOUS
 62
     7
 10
1530.7368509999999
 20
-267.65393399999999
 30
0.0
  0
VERTEX
  5
BC2
  8
LAYER01
  6
CONTINUOUS
 62
     7
 10
1521.10204
 20
-263.80000899999999
 30
0.0
  0
VERTEX
  5
BC3
  8
LAYER01
  6
CONTINUOUS
 62
     7
 10
1511.4672290000001
 20
-258.98260399999998
 30
0.0
  0
VERTEX
  5
BC4
  8
LAYER01
  6
CONTINUOUS
 62
     7
 10
1502.795899
 20
-254.165198
 30
0.0
  0
VERTEX
  5
BC5
  8
LAYER01
  6
CONTINUOUS
 62
     7
 10
1494.1245690000001
 20
-247.42083099999999
 30
0.0
  0
VERTEX
  5
BC6
  8
LAYER01
  6
CONTINUOUS
 62
     7
 10
1486.4167199999999
 20
-240.67646300000001
 30
0.0
  0
VERTEX
  5
BC7
  8
LAYER01
  6
CONTINUOUS
 62
     7
 10
1478.7088719999999
 20
-232.968614
 30
0.0
  0
VERTEX
  5
BC8
  8
LAYER01
  6
CONTINUOUS
 62
     7
 10
1472.927985
 20
-224.29728499999999
 30
0.0
  0
VERTEX
  5
BC9
  8
LAYER01
  6
CONTINUOUS
 62
     7
 10
1467.147099
 20
-215.625955
 30
0.0
  0
VERTEX
  5
BCA
  8
LAYER01
  6
CONTINUOUS
 62
     7
 10
1462.3296929999999
 20
-205.99114399999999
 30
0.0
  0
VERTEX
  5
BCB
  8
LAYER01
  6
CONTINUOUS
 62
     7
 10
1459.4392499999999
 20
-196.35633300000001
 30
0.0
  0
VERTEX
  5
BCC
  8
LAYER01
  6
CONTINUOUS
 62
     7
 10
1456.5488069999999
 20
-185.75804099999999
 30
0.0
  0
VERTEX
  5
BCD
  8
LAYER01
  6
CONTINUOUS
 62
     7
 10
1454.6218449999999
 20
-175.15974900000001
 30
0.0
  0
VERTEX
  5
BCE
  8
LAYER01
  6
CONTINUOUS
 62
     7
 10
1453.658363
 20
-163.59797599999999
 30
0.0
  0
VERTEX
  5
BCF
  8
LAYER01
  6
CONTINUOUS
 62
     7
 10
1453.658363
 20
-163.59797599999999
 30
0.0
  0
VERTEX
  5
BD0
  8
LAYER01
  6
CONTINUOUS
 62
     7
 10
1454.6218449999999
 20
-152.999684
 30
0.0
  0
VERTEX
  5
BD1
  8
LAYER01
  6
CONTINUOUS
 62
     7
 10
1456.5488069999999
 20
-141.43791100000001
 30
0.0
  0
VERTEX
  5
BD2
  8
LAYER01
  6
CONTINUOUS
 62
     7
 10
1458.4757689999999
 20
-131.8031
 30
0.0
  0
VERTEX
  5
BD3
  8
LAYER01
  6
CONTINUOUS
 62
     7
 10
1462.3296929999999
 20
-121.204808
 30
0.0
  0
VERTEX
  5
BD4
  8
LAYER01
  6
CONTINUOUS
 62
     7
 10
1467.147099
 20
-111.569997
 30
0.0
  0
VERTEX
  5
BD5
  8
LAYER01
  6
CONTINUOUS
 62
     7
 10
1471.9645039999989
 20
-102.898668
 30
0.0
  0
VERTEX
  5
BD6
  8
LAYER01
  6
CONTINUOUS
 62
     7
 10
1478.7088719999999
 20
-94.227338000000003
 30
0.0
  0
VERTEX
  5
BD7
  8
LAYER01
  6
CONTINUOUS
 62
     7
 10
1485.4532389999999
 20
-86.519488999999993
 30
0.0
  0
VERTEX
  5
BD8
  8
LAYER01
  6
CONTINUOUS
 62
     7
 10
1493.1610880000001
 20
-79.775120999999999
 30
0.0
  0
VERTEX
  5
BD9
  8
LAYER01
  6
CONTINUOUS
 62
     7
 10
1501.832418
 20
-73.030754000000002
 30
0.0
  0
VERTEX
  5
BDA
  8
LAYER01
  6
CONTINUOUS
 62
     7
 10
1510.5037480000001
 20
-68.213347999999996
 30
0.0
  0
VERTEX
  5
BDB
  8
LAYER01
  6
CONTINUOUS
 62
     7
 10
1520.138559
 20
-63.395943000000003
 30
0.0
  0
VERTEX
  5
BDC
  8
LAYER01
  6
CONTINUOUS
 62
     7
 10
1529.773369
 20
-59.542019000000003
 30
0.0
  0
VERTEX
  5
BDD
  8
LAYER01
  6
CONTINUOUS
 62
     7
 10
1540.3716609999999
 20
-56.651575000000001
 30
0.0
  0
VERTEX
  5
BDE
  8
LAYER01
  6
CONTINUOUS
 62
     7
 10
1551.933434
 20
-55.688093999999992
 30
0.0
  0
VERTEX
  5
BDF
  8
LAYER01
  6
CONTINUOUS
 62
     7
 10
1562.5317259999999
 20
-54.724612999999991
 30
0.0
  0
VERTEX
  5
BE0
  8
LAYER01
  6
CONTINUOUS
 62
     7
 10
1562.5317259999999
 20
-54.724612999999991
 30
0.0
  0
VERTEX
  5
BE1
  8
LAYER01
  6
CONTINUOUS
 62
     7
 10
1579.874386
 20
-55.688093999999992
 30
0.0
  0
VERTEX
  5
BE2
  8
LAYER01
  6
CONTINUOUS
 62
     7
 10
1588.5457160000001
 20
-56.651575000000001
 30
0.0
  0
VERTEX
  5
BE3
  8
LAYER01
  6
CONTINUOUS
 62
     7
 10
1596.253565
 20
-58.57853699999999
 30
0.0
  0
VERTEX
  5
BE4
  8
LAYER01
  6
CONTINUOUS
 62
     7
 10
1602.997932
 20
-61.468981000000007
 30
0.0
  0
VERTEX
  5
BE5
  8
LAYER01
  6
CONTINUOUS
 62
     7
 10
1610.7057809999999
 20
-64.359424000000004
 30
0.0
  0
VERTEX
  5
BE6
  8
LAYER01
  6
CONTINUOUS
 62
     7
 10
1618.41363
 20
-69.176828999999984
 30
0.0
  0
VERTEX
  5
BE7
  8
LAYER01
  6
CONTINUOUS
 62
     7
 10
1626.121478
 20
-73.994235000000003
 30
0.0
  0
VERTEX
  5
BE8
  8
LAYER01
  6
CONTINUOUS
 62
     7
 10
1626.121478
 20
-73.994235000000003
 30
0.0
  0
SEQEND
  5
BE9
  8
LAYER01
  6
CONTINUOUS
 62
     7
  0
POLYLINE
  5
387
  8
LAYER01
  6
CONTINUOUS
 62
     7
 66
     1
 10
0.0
 20
0.0
 30
0.0
 70
     1
  0
VERTEX
  5
BEA
  8
LAYER01
  6
CONTINUOUS
 62
     7
 10
1719.579144
 20
-55.688093999999992
 30
0.0
  0
VERTEX
  5
BEB
  8
LAYER01
  6
CONTINUOUS
 62
     7
 10
1719.579144
 20
-55.688093999999992
 30
0.0
  0
VERTEX
  5
BEC
  8
LAYER01
  6
CONTINUOUS
 62
     7
 10
1708.9808519999999
 20
-56.651575000000001
 30
0.0
  0
VERTEX
  5
BED
  8
LAYER01
  6
CONTINUOUS
 62
     7
 10
1697.419079
 20
-57.615056000000003
 30
0.0
  0
VERTEX
  5
BEE
  8
LAYER01
  6
CONTINUOUS
 62
     7
 10
1687.7842680000001
 20
-60.505499999999998
 30
0.0
  0
VERTEX
  5
BEF
  8
LAYER01
  6
CONTINUOUS
 62
     7
 10
1677.185976
 20
-64.359424000000004
 30
0.0
  0
VERTEX
  5
BF0
  8
LAYER01
  6
CONTINUOUS
 62
     7
 10
1667.5511650000001
 20
-68.213347999999996
 30
0.0
  0
VERTEX
  5
BF1
  8
LAYER01
  6
CONTINUOUS
 62
     7
 10
1658.879835
 20
-73.994235000000003
 30
0.0
  0
VERTEX
  5
BF2
  8
LAYER01
  6
CONTINUOUS
 62
     7
 10
1650.2085050000001
 20
-79.775120999999999
 30
0.0
  0
VERTEX
  5
BF3
  8
LAYER01
  6
CONTINUOUS
 62
     7
 10
1642.500657
 20
-87.482969999999995
 30
0.0
  0
VERTEX
  5
BF4
  8
LAYER01
  6
CONTINUOUS
 62
     7
 10
1635.7562889999999
 20
-95.190818999999991
 30
0.0
  0
VERTEX
  5
BF5
  8
LAYER01
  6
CONTINUOUS
 62
     7
 10
1629.0119219999999
 20
-102.898668
 30
0.0
  0
VERTEX
  5
BF6
  8
LAYER01
  6
CONTINUOUS
 62
     7
 10
1623.231035
 20
-111.569997
 30
0.0
  0
VERTEX
  5
BF7
  8
LAYER01
  6
CONTINUOUS
 62
     7
 10
1618.41363
 20
-121.204808
 30
0.0
  0
VERTEX
  5
BF8
  8
LAYER01
  6
CONTINUOUS
 62
     7
 10
1615.5231859999999
 20
-131.8031
 30
0.0
  0
VERTEX
  5
BF9
  8
LAYER01
  6
CONTINUOUS
 62
     7
 10
1612.6327429999999
 20
-141.43791100000001
 30
0.0
  0
VERTEX
  5
BFA
  8
LAYER01
  6
CONTINUOUS
 62
     7
 10
1610.7057809999999
 20
-152.999684
 30
0.0
  0
VERTEX
  5
BFB
  8
LAYER01
  6
CONTINUOUS
 62
     7
 10
1609.7422999999999
 20
-163.59797599999999
 30
0.0
  0
VERTEX
  5
BFC
  8
LAYER01
  6
CONTINUOUS
 62
     7
 10
1609.7422999999999
 20
-163.59797599999999
 30
0.0
  0
VERTEX
  5
BFD
  8
LAYER01
  6
CONTINUOUS
 62
     7
 10
1610.7057809999999
 20
-175.15974900000001
 30
0.0
  0
VERTEX
  5
BFE
  8
LAYER01
  6
CONTINUOUS
 62
     7
 10
1611.6692619999999
 20
-185.75804099999999
 30
0.0
  0
VERTEX
  5
BFF
  8
LAYER01
  6
CONTINUOUS
 62
     7
 10
1614.5597049999999
 20
-196.35633300000001
 30
0.0
  0
VERTEX
  5
C00
  8
LAYER01
  6
CONTINUOUS
 62
     7
 10
1618.41363
 20
-205.99114399999999
 30
0.0
  0
VERTEX
  5
C01
  8
LAYER01
  6
CONTINUOUS
 62
     7
 10
1622.267554
 20
-215.625955
 30
0.0
  0
VERTEX
  5
C02
  8
LAYER01
  6
CONTINUOUS
 62
     7
 10
1628.04844
 20
-224.29728499999999
 30
0.0
  0
VERTEX
  5
C03
  8
LAYER01
  6
CONTINUOUS
 62
     7
 10
1633.8293269999999
 20
-232.968614
 30
0.0
  0
VERTEX
  5
C04
  8
LAYER01
  6
CONTINUOUS
 62
     7
 10
1640.573695
 20
-240.67646300000001
 30
0.0
  0
VERTEX
  5
C05
  8
LAYER01
  6
CONTINUOUS
 62
     7
 10
1648.2815430000001
 20
-248.38431199999999
 30
0.0
  0
VERTEX
  5
C06
  8
LAYER01
  6
CONTINUOUS
 62
     7
 10
1656.952873
 20
-254.165198
 30
0.0
  0
VERTEX
  5
C07
  8
LAYER01
  6
CONTINUOUS
 62
     7
 10
1665.6242030000001
 20
-259.94608499999998
 30
0.0
  0
VERTEX
  5
C08
  8
LAYER01
  6
CONTINUOUS
 62
     7
 10
1675.259014
 20
-264.76348999999999
 30
0.0
  0
VERTEX
  5
C09
  8
LAYER01
  6
CONTINUOUS
 62
     7
 10
1684.8938250000001
 20
-268.61741499999999
 30
0.0
  0
VERTEX
  5
C0A
  8
LAYER01
  6
CONTINUOUS
 62
     7
 10
1695.492117
 20
-270.544377
 30
0.0
  0
VERTEX
  5
C0B
  8
LAYER01
  6
CONTINUOUS
 62
     7
 10
1706.0904089999999
 20
-272.471339
 30
0.0
  0
VERTEX
  5
C0C
  8
LAYER01
  6
CONTINUOUS
 62
     7
 10
1716.688701
 20
-273.43482
 30
0.0
  0
VERTEX
  5
C0D
  8
LAYER01
  6
CONTINUOUS
 62
     7
 10
1716.688701
 20
-273.43482
 30
0.0
  0
VERTEX
  5
C0E
  8
LAYER01
  6
CONTINUOUS
 62
     7
 10
1728.2504739999999
 20
-272.471339
 30
0.0
  0
VERTEX
  5
C0F
  8
LAYER01
  6
CONTINUOUS
 62
     7
 10
1738.8487660000001
 20
-270.544377
 30
0.0
  0
VERTEX
  5
C10
  8
LAYER01
  6
CONTINUOUS
 62
     7
 10
1749.447058
 20
-267.65393399999999
 30
0.0
  0
VERTEX
  5
C11
  8
LAYER01
  6
CONTINUOUS
 62
     7
 10
1759.081868
 20
-263.80000899999999
 30
0.0
  0
VERTEX
  5
C12
  8
LAYER01
  6
CONTINUOUS
 62
     7
 10
1768.7166790000001
 20
-258.98260399999998
 30
0.0
  0
VERTEX
  5
C13
  8
LAYER01
  6
CONTINUOUS
 62
     7
 10
1777.388009
 20
-253.201717
 30
0.0
  0
VERTEX
  5
C14
  8
LAYER01
  6
CONTINUOUS
 62
     7
 10
1786.0593389999999
 20
-247.42083099999999
 30
0.0
  0
VERTEX
  5
C15
  8
LAYER01
  6
CONTINUOUS
 62
     7
 10
1793.767188
 20
-239.71298200000001
 30
0.0
  0
VERTEX
  5
C16
  8
LAYER01
  6
CONTINUOUS
 62
     7
 10
1800.511555
 20
-232.005133
 30
0.0
  0
VERTEX
  5
C17
  8
LAYER01
  6
CONTINUOUS
 62
     7
 10
1806.2924419999999
 20
-223.33380399999999
 30
0.0
  0
VERTEX
  5
C18
  8
LAYER01
  6
CONTINUOUS
 62
     7
 10
1811.1098469999999
 20
-214.662474
 30
0.0
  0
VERTEX
  5
C19
  8
LAYER01
  6
CONTINUOUS
 62
     7
 10
1815.9272530000001
 20
-205.02766299999999
 30
0.0
  0
VERTEX
  5
C1A
  8
LAYER01
  6
CONTINUOUS
 62
     7
 10
1819.7811770000001
 20
-194.429371
 30
0.0
  0
VERTEX
  5
C1B
  8
LAYER01
  6
CONTINUOUS
 62
     7
 10
1821.7081390000001
 20
-183.83107899999999
 30
0.0
  0
VERTEX
  5
C1C
  8
LAYER01
  6
CONTINUOUS
 62
     7
 10
1822.6716200000001
 20
-173.232787
 30
0.0
  0
VERTEX
  5
C1D
  8
LAYER01
  6
CONTINUOUS
 62
     7
 10
1823.6351010000001
 20
-161.67101400000001
 30
0.0
  0
VERTEX
  5
C1E
  8
LAYER01
  6
CONTINUOUS
 62
     7
 10
1823.6351010000001
 20
-161.67101400000001
 30
0.0
  0
VERTEX
  5
C1F
  8
LAYER01
  6
CONTINUOUS
 62
     7
 10
1822.6716200000001
 20
-151.072722
 30
0.0
  0
VERTEX
  5
C20
  8
LAYER01
  6
CONTINUOUS
 62
     7
 10
1820.7446580000001
 20
-140.47443000000001
 30
0.0
  0
VERTEX
  5
C21
  8
LAYER01
  6
CONTINUOUS
 62
     7
 10
1817.8542150000001
 20
-130.839619
 30
0.0
  0
VERTEX
  5
C22
  8
LAYER01
  6
CONTINUOUS
 62
     7
 10
1814.9637720000001
 20
-121.204808
 30
0.0
  0
VERTEX
  5
C23
  8
LAYER01
  6
CONTINUOUS
 62
     7
 10
1810.1463659999999
 20
-112.533478
 30
0.0
  0
VERTEX
  5
C24
  8
LAYER01
  6
CONTINUOUS
 62
     7
 10
1805.3289609999999
 20
-103.862149
 30
0.0
  0
VERTEX
  5
C25
  8
LAYER01
  6
CONTINUOUS
 62
     7
 10
1799.548074
 20
-95.190818999999991
 30
0.0
  0
VERTEX
  5
C26
  8
LAYER01
  6
CONTINUOUS
 62
     7
 10
1792.803707
 20
-88.446450999999996
 30
0.0
  0
VERTEX
  5
C27
  8
LAYER01
  6
CONTINUOUS
 62
     7
 10
1785.0958579999999
 20
-81.702083999999985
 30
0.0
  0
VERTEX
  5
C28
  8
LAYER01
  6
CONTINUOUS
 62
     7
 10
1777.388009
 20
-74.957716000000005
 30
0.0
  0
VERTEX
  5
C29
  8
LAYER01
  6
CONTINUOUS
 62
     7
 10
1768.7166790000001
 20
-70.140310999999997
 30
0.0
  0
VERTEX
  5
C2A
  8
LAYER01
  6
CONTINUOUS
 62
     7
 10
1760.0453500000001
 20
-65.322905000000006
 30
0.0
  0
VERTEX
  5
C2B
  8
LAYER01
  6
CONTINUOUS
 62
     7
 10
1750.410539
 20
-61.468981000000007
 30
0.0
  0
VERTEX
  5
C2C
  8
LAYER01
  6
CONTINUOUS
 62
     7
 10
1740.7757280000001
 20
-58.57853699999999
 30
0.0
  0
VERTEX
  5
C2D
  8
LAYER01
  6
CONTINUOUS
 62
     7
 10
1730.1774359999999
 20
-56.651575000000001
 30
0.0
  0
VERTEX
  5
C2E
  8
LAYER01
  6
CONTINUOUS
 62
     7
 10
1719.579144
 20
-55.688093999999992
 30
0.0
  0
VERTEX
  5
C2F
  8
LAYER01
  6
CONTINUOUS
 62
     7
 10
1719.579144
 20
-55.688093999999992
 30
0.0
  0
SEQEND
  5
C30
  8
LAYER01
  6
CONTINUOUS
 62
     7
  0
POLYLINE
  5
3CF
  8
LAYER01
  6
CONTINUOUS
 62
     7
 66
     1
 10
0.0
 20
0.0
 30
0.0
 70
     1
  0
VERTEX
  5
C31
  8
LAYER01
  6
CONTINUOUS
 62
     7
 10
1716.688701
 20
-233.932095
 30
0.0
  0
VERTEX
  5
C32
  8
LAYER01
  6
CONTINUOUS
 62
     7
 10
1716.688701
 20
-233.932095
 30
0.0
  0
VERTEX
  5
C33
  8
LAYER01
  6
CONTINUOUS
 62
     7
 10
1709.9443329999999
 20
-232.968614
 30
0.0
  0
VERTEX
  5
C34
  8
LAYER01
  6
CONTINUOUS
 62
     7
 10
1703.199965
 20
-232.005133
 30
0.0
  0
VERTEX
  5
C35
  8
LAYER01
  6
CONTINUOUS
 62
     7
 10
1696.455598
 20
-231.041652
 30
0.0
  0
VERTEX
  5
C36
  8
LAYER01
  6
CONTINUOUS
 62
     7
 10
1689.7112299999999
 20
-228.15120899999999
 30
0.0
  0
VERTEX
  5
C37
  8
LAYER01
  6
CONTINUOUS
 62
     7
 10
1683.9303440000001
 20
-225.26076599999999
 30
0.0
  0
VERTEX
  5
C38
  8
LAYER01
  6
CONTINUOUS
 62
     7
 10
1678.149457
 20
-221.40684099999999
 30
0.0
  0
VERTEX
  5
C39
  8
LAYER01
  6
CONTINUOUS
 62
     7
 10
1673.332052
 20
-217.55291700000001
 30
0.0
  0
VERTEX
  5
C3A
  8
LAYER01
  6
CONTINUOUS
 62
     7
 10
1668.5146460000001
 20
-212.735512
 30
0.0
  0
VERTEX
  5
C3B
  8
LAYER01
  6
CONTINUOUS
 62
     7
 10
1663.6972410000001
 20
-207.91810599999999
 30
0.0
  0
VERTEX
  5
C3C
  8
LAYER01
  6
CONTINUOUS
 62
     7
 10
1659.843316
 20
-203.10070099999999
 30
0.0
  0
VERTEX
  5
C3D
  8
LAYER01
  6
CONTINUOUS
 62
     7
 10
1656.952873
 20
-197.31981400000001
 30
0.0
  0
VERTEX
  5
C3E
  8
LAYER01
  6
CONTINUOUS
 62
     7
 10
1654.0624299999999
 20
-190.575447
 30
0.0
  0
VERTEX
  5
C3F
  8
LAYER01
  6
CONTINUOUS
 62
     7
 10
1651.1719869999999
 20
-184.79455999999999
 30
0.0
  0
VERTEX
  5
C40
  8
LAYER01
  6
CONTINUOUS
 62
     7
 10
1650.2085050000001
 20
-178.05019200000001
 30
0.0
  0
VERTEX
  5
C41
  8
LAYER01
  6
CONTINUOUS
 62
     7
 10
1648.2815430000001
 20
-171.305825
 30
0.0
  0
VERTEX
  5
C42
  8
LAYER01
  6
CONTINUOUS
 62
     7
 10
1648.2815430000001
 20
-163.59797599999999
 30
0.0
  0
VERTEX
  5
C43
  8
LAYER01
  6
CONTINUOUS
 62
     7
 10
1648.2815430000001
 20
-163.59797599999999
 30
0.0
  0
VERTEX
  5
C44
  8
LAYER01
  6
CONTINUOUS
 62
     7
 10
1649.2450240000001
 20
-156.85360800000001
 30
0.0
  0
VERTEX
  5
C45
  8
LAYER01
  6
CONTINUOUS
 62
     7
 10
1650.2085050000001
 20
-150.109241
 30
0.0
  0
VERTEX
  5
C46
  8
LAYER01
  6
CONTINUOUS
 62
     7
 10
1652.1354679999999
 20
-143.3648729999999
 30
0.0
  0
VERTEX
  5
C47
  8
LAYER01
  6
CONTINUOUS
 62
     7
 10
1654.0624299999999
 20
-136.62050600000001
 30
0.0
  0
VERTEX
  5
C48
  8
LAYER01
  6
CONTINUOUS
 62
     7
 10
1656.952873
 20
-130.839619
 30
0.0
  0
VERTEX
  5
C49
  8
LAYER01
  6
CONTINUOUS
 62
     7
 10
1660.806797
 20
-125.058733
 30
0.0
  0
VERTEX
  5
C4A
  8
LAYER01
  6
CONTINUOUS
 62
     7
 10
1664.6607220000001
 20
-120.241327
 30
0.0
  0
VERTEX
  5
C4B
  8
LAYER01
  6
CONTINUOUS
 62
     7
 10
1669.4781270000001
 20
-115.423922
 30
0.0
  0
VERTEX
  5
C4C
  8
LAYER01
  6
CONTINUOUS
 62
     7
 10
1674.295533
 20
-110.6065159999999
 30
0.0
  0
VERTEX
  5
C4D
  8
LAYER01
  6
CONTINUOUS
 62
     7
 10
1679.112938
 20
-106.75259200000001
 30
0.0
  0
VERTEX
  5
C4E
  8
LAYER01
  6
CONTINUOUS
 62
     7
 10
1684.8938250000001
 20
-102.898668
 30
0.0
  0
VERTEX
  5
C4F
  8
LAYER01
  6
CONTINUOUS
 62
     7
 10
1691.6381919999999
 20
-100.008224
 30
0.0
  0
VERTEX
  5
C50
  8
LAYER01
  6
CONTINUOUS
 62
     7
 10
1697.419079
 20
-98.081261999999995
 30
0.0
  0
VERTEX
  5
C51
  8
LAYER01
  6
CONTINUOUS
 62
     7
 10
1704.163446
 20
-96.154300000000006
 30
0.0
  0
VERTEX
  5
C52
  8
LAYER01
  6
CONTINUOUS
 62
     7
 10
1710.9078139999999
 20
-95.190818999999991
 30
0.0
  0
VERTEX
  5
C53
  8
LAYER01
  6
CONTINUOUS
 62
     7
 10
1718.615663
 20
-95.190818999999991
 30
0.0
  0
VERTEX
  5
C54
  8
LAYER01
  6
CONTINUOUS
 62
     7
 10
1718.615663
 20
-95.190818999999991
 30
0.0
  0
VERTEX
  5
C55
  8
LAYER01
  6
CONTINUOUS
 62
     7
 10
1725.3600300000001
 20
-96.154300000000006
 30
0.0
  0
VERTEX
  5
C56
  8
LAYER01
  6
CONTINUOUS
 62
     7
 10
1732.1043979999999
 20
-97.117781000000008
 30
0.0
  0
VERTEX
  5
C57
  8
LAYER01
  6
CONTINUOUS
 62
     7
 10
1737.885284
 20
-99.044743000000025
 30
0.0
  0
VERTEX
  5
C58
  8
LAYER01
  6
CONTINUOUS
 62
     7
 10
1744.6296520000001
 20
-100.971705
 30
0.0
  0
VERTEX
  5
C59
  8
LAYER01
  6
CONTINUOUS
 62
     7
 10
1749.447058
 20
-103.862149
 30
0.0
  0
VERTEX
  5
C5A
  8
LAYER01
  6
CONTINUOUS
 62
     7
 10
1755.227944
 20
-107.71607299999999
 30
0.0
  0
VERTEX
  5
C5B
  8
LAYER01
  6
CONTINUOUS
 62
     7
 10
1760.0453500000001
 20
-111.569997
 30
0.0
  0
VERTEX
  5
C5C
  8
LAYER01
  6
CONTINUOUS
 62
     7
 10
1764.8627550000001
 20
-115.423922
 30
0.0
  0
VERTEX
  5
C5D
  8
LAYER01
  6
CONTINUOUS
 62
     7
 10
1768.7166790000001
 20
-120.241327
 30
0.0
  0
VERTEX
  5
C5E
  8
LAYER01
  6
CONTINUOUS
 62
     7
 10
1772.570604
 20
-126.02221400000001
 30
0.0
  0
VERTEX
  5
C5F
  8
LAYER01
  6
CONTINUOUS
 62
     7
 10
1776.424528
 20
-130.839619
 30
0.0
  0
VERTEX
  5
C60
  8
LAYER01
  6
CONTINUOUS
 62
     7
 10
1779.314971
 20
-136.62050600000001
 30
0.0
  0
VERTEX
  5
C61
  8
LAYER01
  6
CONTINUOUS
 62
     7
 10
1781.2419329999991
 20
-143.3648729999999
 30
0.0
  0
VERTEX
  5
C62
  8
LAYER01
  6
CONTINUOUS
 62
     7
 10
1783.1688959999999
 20
-149.14576
 30
0.0
  0
VERTEX
  5
C63
  8
LAYER01
  6
CONTINUOUS
 62
     7
 10
1784.1323769999999
 20
-155.89012700000001
 30
0.0
  0
VERTEX
  5
C64
  8
LAYER01
  6
CONTINUOUS
 62
     7
 10
1784.1323769999999
 20
-162.63449499999999
 30
0.0
  0
VERTEX
  5
C65
  8
LAYER01
  6
CONTINUOUS
 62
     7
 10
1784.1323769999999
 20
-162.63449499999999
 30
0.0
  0
VERTEX
  5
C66
  8
LAYER01
  6
CONTINUOUS
 62
     7
 10
1784.1323769999999
 20
-170.342344
 30
0.0
  0
VERTEX
  5
C67
  8
LAYER01
  6
CONTINUOUS
 62
     7
 10
1783.1688959999999
 20
-177.08671100000001
 30
0.0
  0
VERTEX
  5
C68
  8
LAYER01
  6
CONTINUOUS
 62
     7
 10
1782.2054149999999
 20
-183.83107899999999
 30
0.0
  0
VERTEX
  5
C69
  8
LAYER01
  6
CONTINUOUS
 62
     7
 10
1779.314971
 20
-189.611965
 30
0.0
  0
VERTEX
  5
C6A
  8
LAYER01
  6
CONTINUOUS
 62
     7
 10
1777.388009
 20
-196.35633300000001
 30
0.0
  0
VERTEX
  5
C6B
  8
LAYER01
  6
CONTINUOUS
 62
     7
 10
1773.534085
 20
-202.13722000000001
 30
0.0
  0
VERTEX
  5
C6C
  8
LAYER01
  6
CONTINUOUS
 62
     7
 10
1769.6801599999999
 20
-207.91810599999999
 30
0.0
  0
VERTEX
  5
C6D
  8
LAYER01
  6
CONTINUOUS
 62
     7
 10
1764.8627550000001
 20
-212.735512
 30
0.0
  0
VERTEX
  5
C6E
  8
LAYER01
  6
CONTINUOUS
 62
     7
 10
1760.0453500000001
 20
-217.55291700000001
 30
0.0
  0
VERTEX
  5
C6F
  8
LAYER01
  6
CONTINUOUS
 62
     7
 10
1755.227944
 20
-221.40684099999999
 30
0.0
  0
VERTEX
  5
C70
  8
LAYER01
  6
CONTINUOUS
 62
     7
 10
1749.447058
 20
-225.26076599999999
 30
0.0
  0
VERTEX
  5
C71
  8
LAYER01
  6
CONTINUOUS
 62
     7
 10
1743.6661710000001
 20
-228.15120899999999
 30
0.0
  0
VERTEX
  5
C72
  8
LAYER01
  6
CONTINUOUS
 62
     7
 10
1736.921803
 20
-230.078171
 30
0.0
  0
VERTEX
  5
C73
  8
LAYER01
  6
CONTINUOUS
 62
     7
 10
1730.1774359999999
 20
-232.005133
 30
0.0
  0
VERTEX
  5
C74
  8
LAYER01
  6
CONTINUOUS
 62
     7
 10
1723.433068
 20
-232.968614
 30
0.0
  0
VERTEX
  5
C75
  8
LAYER01
  6
CONTINUOUS
 62
     7
 10
1716.688701
 20
-233.932095
 30
0.0
  0
VERTEX
  5
C76
  8
LAYER01
  6
CONTINUOUS
 62
     7
 10
1716.688701
 20
-233.932095
 30
0.0
  0
SEQEND
  5
C77
  8
LAYER01
  6
CONTINUOUS
 62
     7
  0
POLYLINE
  5
417
  8
LAYER01
  6
CONTINUOUS
 62
     7
 66
     1
 10
0.0
 20
0.0
 30
0.0
 70
     1
  0
VERTEX
  5
C78
  8
LAYER01
  6
CONTINUOUS
 62
     7
 10
1793.767188
 20
-60.505499999999998
 30
0.0
  0
VERTEX
  5
C79
  8
LAYER01
  6
CONTINUOUS
 62
     7
 10
1895.8961830000001
 20
-60.505499999999998
 30
0.0
  0
VERTEX
  5
C7A
  8
LAYER01
  6
CONTINUOUS
 62
     7
 10
1895.8961830000001
 20
-60.505499999999998
 30
0.0
  0
VERTEX
  5
C7B
  8
LAYER01
  6
CONTINUOUS
 62
     7
 10
1907.457956
 20
-62.432462000000001
 30
0.0
  0
VERTEX
  5
C7C
  8
LAYER01
  6
CONTINUOUS
 62
     7
 10
1918.0562480000001
 20
-67.249867000000009
 30
0.0
  0
VERTEX
  5
C7D
  8
LAYER01
  6
CONTINUOUS
 62
     7
 10
1926.727578
 20
-73.030754000000002
 30
0.0
  0
VERTEX
  5
C7E
  8
LAYER01
  6
CONTINUOUS
 62
     7
 10
1934.435426
 20
-80.738602
 30
0.0
  0
VERTEX
  5
C7F
  8
LAYER01
  6
CONTINUOUS
 62
     7
 10
1941.1797939999999
 20
-88.446450999999996
 30
0.0
  0
VERTEX
  5
C80
  8
LAYER01
  6
CONTINUOUS
 62
     7
 10
1945.9972
 20
-98.081261999999995
 30
0.0
  0
VERTEX
  5
C81
  8
LAYER01
  6
CONTINUOUS
 62
     7
 10
1948.887643
 20
-109.643035
 30
0.0
  0
VERTEX
  5
C82
  8
LAYER01
  6
CONTINUOUS
 62
     7
 10
1949.851124
 20
-120.241327
 30
0.0
  0
VERTEX
  5
C83
  8
LAYER01
  6
CONTINUOUS
 62
     7
 10
1949.851124
 20
-120.241327
 30
0.0
  0
VERTEX
  5
C84
  8
LAYER01
  6
CONTINUOUS
 62
     7
 10
1948.887643
 20
-131.8031
 30
0.0
  0
VERTEX
  5
C85
  8
LAYER01
  6
CONTINUOUS
 62
     7
 10
1946.960681
 20
-141.43791100000001
 30
0.0
  0
VERTEX
  5
C86
  8
LAYER01
  6
CONTINUOUS
 62
     7
 10
1943.1067559999999
 20
-151.072722
 30
0.0
  0
VERTEX
  5
C87
  8
LAYER01
  6
CONTINUOUS
 62
     7
 10
1938.2893509999999
 20
-159.74405200000001
 30
0.0
  0
VERTEX
  5
C88
  8
LAYER01
  6
CONTINUOUS
 62
     7
 10
1931.544983
 20
-167.45189999999999
 30
0.0
  0
VERTEX
  5
C89
  8
LAYER01
  6
CONTINUOUS
 62
     7
 10
1924.800616
 20
-173.232787
 30
0.0
  0
VERTEX
  5
C8A
  8
LAYER01
  6
CONTINUOUS
 62
     7
 10
1915.1658050000001
 20
-179.01367300000001
 30
0.0
  0
VERTEX
  5
C8B
  8
LAYER01
  6
CONTINUOUS
 62
     7
 10
1905.530994
 20
-182.86759799999999
 30
0.0
  0
VERTEX
  5
C8C
  8
LAYER01
  6
CONTINUOUS
 62
     7
 10
1968.1572650000001
 20
-266.69045199999999
 30
0.0
  0
VERTEX
  5
C8D
  8
LAYER01
  6
CONTINUOUS
 62
     7
 10
1919.9832100000001
 20
-266.69045199999999
 30
0.0
  0
VERTEX
  5
C8E
  8
LAYER01
  6
CONTINUOUS
 62
     7
 10
1836.160355
 20
-159.74405200000001
 30
0.0
  0
VERTEX
  5
C8F
  8
LAYER01
  6
CONTINUOUS
 62
     7
 10
1883.370928999999
 20
-159.74405200000001
 30
0.0
  0
VERTEX
  5
C90
  8
LAYER01
  6
CONTINUOUS
 62
     7
 10
1883.370928999999
 20
-159.74405200000001
 30
0.0
  0
VERTEX
  5
C91
  8
LAYER01
  6
CONTINUOUS
 62
     7
 10
1889.1518149999999
 20
-157.81709000000001
 30
0.0
  0
VERTEX
  5
C92
  8
LAYER01
  6
CONTINUOUS
 62
     7
 10
1893.9692210000001
 20
-155.89012700000001
 30
0.0
  0
VERTEX
  5
C93
  8
LAYER01
  6
CONTINUOUS
 62
     7
 10
1897.8231450000001
 20
-152.036203
 30
0.0
  0
VERTEX
  5
C94
  8
LAYER01
  6
CONTINUOUS
 62
     7
 10
1901.6770690000001
 20
-148.18227899999999
 30
0.0
  0
VERTEX
  5
C95
  8
LAYER01
  6
CONTINUOUS
 62
     7
 10
1904.567513
 20
-143.3648729999999
 30
0.0
  0
VERTEX
  5
C96
  8
LAYER01
  6
CONTINUOUS
 62
     7
 10
1907.457956
 20
-138.5474679999999
 30
0.0
  0
VERTEX
  5
C97
  8
LAYER01
  6
CONTINUOUS
 62
     7
 10
1908.421437
 20
-132.766581
 30
0.0
  0
VERTEX
  5
C98
  8
LAYER01
  6
CONTINUOUS
 62
     7
 10
1908.421437
 20
-126.98569500000001
 30
0.0
  0
VERTEX
  5
C99
  8
LAYER01
  6
CONTINUOUS
 62
     7
 10
1908.421437
 20
-126.98569500000001
 30
0.0
  0
VERTEX
  5
C9A
  8
LAYER01
  6
CONTINUOUS
 62
     7
 10
1908.421437
 20
-121.204808
 30
0.0
  0
VERTEX
  5
C9B
  8
LAYER01
  6
CONTINUOUS
 62
     7
 10
1906.494475
 20
-116.38740300000001
 30
0.0
  0
VERTEX
  5
C9C
  8
LAYER01
  6
CONTINUOUS
 62
     7
 10
1904.567513
 20
-111.569997
 30
0.0
  0
VERTEX
  5
C9D
  8
LAYER01
  6
CONTINUOUS
 62
     7
 10
1901.6770690000001
 20
-106.75259200000001
 30
0.0
  0
VERTEX
  5
C9E
  8
LAYER01
  6
CONTINUOUS
 62
     7
 10
1897.8231450000001
 20
-102.898668
 30
0.0
  0
VERTEX
  5
C9F
  8
LAYER01
  6
CONTINUOUS
 62
     7
 10
1893.9692210000001
 20
-100.008224
 30
0.0
  0
VERTEX
  5
CA0
  8
LAYER01
  6
CONTINUOUS
 62
     7
 10
1888.1883339999999
 20
-97.117781000000008
 30
0.0
  0
VERTEX
  5
CA1
  8
LAYER01
  6
CONTINUOUS
 62
     7
 10
1883.370928999999
 20
-95.190818999999991
 30
0.0
  0
VERTEX
  5
CA2
  8
LAYER01
  6
CONTINUOUS
 62
     7
 10
1828.452507
 20
-95.190818999999991
 30
0.0
  0
VERTEX
  5
CA3
  8
LAYER01
  6
CONTINUOUS
 62
     7
 10
1793.767188
 20
-60.505499999999998
 30
0.0
  0
VERTEX
  5
CA4
  8
LAYER01
  6
CONTINUOUS
 62
     7
 10
1793.767188
 20
-60.505499999999998
 30
0.0
  0
SEQEND
  5
CA5
  8
LAYER01
  6
CONTINUOUS
 62
     7
  0
POLYLINE
  5
446
  8
LAYER01
  6
CONTINUOUS
 62
     7
 66
     1
 10
0.0
 20
0.0
 30
0.0
 70
     1
  0
VERTEX
  5
CA6
  8
LAYER01
  6
CONTINUOUS
 62
     7
 10
1994.1712540000001
 20
-111.569997
 30
0.0
  0
VERTEX
  5
CA7
  8
LAYER01
  6
CONTINUOUS
 62
     7
 10
1994.1712540000001
 20
-111.569997
 30
0.0
  0
VERTEX
  5
CA8
  8
LAYER01
  6
CONTINUOUS
 62
     7
 10
1998.9886590000001
 20
-110.6065159999999
 30
0.0
  0
VERTEX
  5
CA9
  8
LAYER01
  6
CONTINUOUS
 62
     7
 10
2003.806065
 20
-109.643035
 30
0.0
  0
VERTEX
  5
CAA
  8
LAYER01
  6
CONTINUOUS
 62
     7
 10
2008.62347
 20
-106.75259200000001
 30
0.0
  0
VERTEX
  5
CAB
  8
LAYER01
  6
CONTINUOUS
 62
     7
 10
2012.4773949999999
 20
-103.862149
 30
0.0
  0
VERTEX
  5
CAC
  8
LAYER01
  6
CONTINUOUS
 62
     7
 10
2015.3678379999999
 20
-100.008224
 30
0.0
  0
VERTEX
  5
CAD
  8
LAYER01
  6
CONTINUOUS
 62
     7
 10
2017.2947999999999
 20
-96.154300000000006
 30
0.0
  0
VERTEX
  5
CAE
  8
LAYER01
  6
CONTINUOUS
 62
     7
 10
2019.2217619999999
 20
-91.336893999999987
 30
0.0
  0
VERTEX
  5
CAF
  8
LAYER01
  6
CONTINUOUS
 62
     7
 10
2019.2217619999999
 20
-85.556007999999977
 30
0.0
  0
VERTEX
  5
CB0
  8
LAYER01
  6
CONTINUOUS
 62
     7
 10
2019.2217619999999
 20
-85.556007999999977
 30
0.0
  0
VERTEX
  5
CB1
  8
LAYER01
  6
CONTINUOUS
 62
     7
 10
2019.2217619999999
 20
-80.738602
 30
0.0
  0
VERTEX
  5
CB2
  8
LAYER01
  6
CONTINUOUS
 62
     7
 10
2017.2947999999999
 20
-75.921196999999992
 30
0.0
  0
VERTEX
  5
CB3
  8
LAYER01
  6
CONTINUOUS
 62
     7
 10
2015.3678379999999
 20
-72.067273
 30
0.0
  0
VERTEX
  5
CB4
  8
LAYER01
  6
CONTINUOUS
 62
     7
 10
2012.4773949999999
 20
-68.213347999999996
 30
0.0
  0
VERTEX
  5
CB5
  8
LAYER01
  6
CONTINUOUS
 62
     7
 10
2008.62347
 20
-65.322905000000006
 30
0.0
  0
VERTEX
  5
CB6
  8
LAYER01
  6
CONTINUOUS
 62
     7
 10
2003.806065
 20
-62.432462000000001
 30
0.0
  0
VERTEX
  5
CB7
  8
LAYER01
  6
CONTINUOUS
 62
     7
 10
1998.9886590000001
 20
-61.468981000000007
 30
0.0
  0
VERTEX
  5
CB8
  8
LAYER01
  6
CONTINUOUS
 62
     7
 10
1994.1712540000001
 20
-60.505499999999998
 30
0.0
  0
VERTEX
  5
CB9
  8
LAYER01
  6
CONTINUOUS
 62
     7
 10
1994.1712540000001
 20
-60.505499999999998
 30
0.0
  0
VERTEX
  5
CBA
  8
LAYER01
  6
CONTINUOUS
 62
     7
 10
1989.353848
 20
-61.468981000000007
 30
0.0
  0
VERTEX
  5
CBB
  8
LAYER01
  6
CONTINUOUS
 62
     7
 10
1984.536443
 20
-62.432462000000001
 30
0.0
  0
VERTEX
  5
CBC
  8
LAYER01
  6
CONTINUOUS
 62
     7
 10
1979.719038
 20
-65.322905000000006
 30
0.0
  0
VERTEX
  5
CBD
  8
LAYER01
  6
CONTINUOUS
 62
     7
 10
1975.8651130000001
 20
-68.213347999999996
 30
0.0
  0
VERTEX
  5
CBE
  8
LAYER01
  6
CONTINUOUS
 62
     7
 10
1972.9746700000001
 20
-72.067273
 30
0.0
  0
VERTEX
  5
CBF
  8
LAYER01
  6
CONTINUOUS
 62
     7
 10
1971.0477080000001
 20
-75.921196999999992
 30
0.0
  0
VERTEX
  5
CC0
  8
LAYER01
  6
CONTINUOUS
 62
     7
 10
1969.1207460000001
 20
-80.738602
 30
0.0
  0
VERTEX
  5
CC1
  8
LAYER01
  6
CONTINUOUS
 62
     7
 10
1969.1207460000001
 20
-85.556007999999977
 30
0.0
  0
VERTEX
  5
CC2
  8
LAYER01
  6
CONTINUOUS
 62
     7
 10
1969.1207460000001
 20
-85.556007999999977
 30
0.0
  0
VERTEX
  5
CC3
  8
LAYER01
  6
CONTINUOUS
 62
     7
 10
1969.1207460000001
 20
-91.336893999999987
 30
0.0
  0
VERTEX
  5
CC4
  8
LAYER01
  6
CONTINUOUS
 62
     7
 10
1971.0477080000001
 20
-96.154300000000006
 30
0.0
  0
VERTEX
  5
CC5
  8
LAYER01
  6
CONTINUOUS
 62
     7
 10
1972.9746700000001
 20
-100.008224
 30
0.0
  0
VERTEX
  5
CC6
  8
LAYER01
  6
CONTINUOUS
 62
     7
 10
1975.8651130000001
 20
-103.862149
 30
0.0
  0
VERTEX
  5
CC7
  8
LAYER01
  6
CONTINUOUS
 62
     7
 10
1979.719038
 20
-106.75259200000001
 30
0.0
  0
VERTEX
  5
CC8
  8
LAYER01
  6
CONTINUOUS
 62
     7
 10
1984.536443
 20
-109.643035
 30
0.0
  0
VERTEX
  5
CC9
  8
LAYER01
  6
CONTINUOUS
 62
     7
 10
1989.353848
 20
-110.6065159999999
 30
0.0
  0
VERTEX
  5
CCA
  8
LAYER01
  6
CONTINUOUS
 62
     7
 10
1994.1712540000001
 20
-111.569997
 30
0.0
  0
VERTEX
  5
CCB
  8
LAYER01
  6
CONTINUOUS
 62
     7
 10
1994.1712540000001
 20
-111.569997
 30
0.0
  0
SEQEND
  5
CCC
  8
LAYER01
  6
CONTINUOUS
 62
     7
  0
POLYLINE
  5
46E
  8
LAYER01
  6
CONTINUOUS
 62
     7
 66
     1
 10
0.0
 20
0.0
 30
0.0
 70
     1
  0
VERTEX
  5
CCD
  8
LAYER01
  6
CONTINUOUS
 62
     7
 10
1994.1712540000001
 20
-64.359424000000004
 30
0.0
  0
VERTEX
  5
CCE
  8
LAYER01
  6
CONTINUOUS
 62
     7
 10
1994.1712540000001
 20
-64.359424000000004
 30
0.0
  0
VERTEX
  5
CCF
  8
LAYER01
  6
CONTINUOUS
 62
     7
 10
1998.0251780000001
 20
-65.322905000000006
 30
0.0
  0
VERTEX
  5
CD0
  8
LAYER01
  6
CONTINUOUS
 62
     7
 10
2001.879103
 20
-66.286385999999993
 30
0.0
  0
VERTEX
  5
CD1
  8
LAYER01
  6
CONTINUOUS
 62
     7
 10
2005.733027
 20
-68.213347999999996
 30
0.0
  0
VERTEX
  5
CD2
  8
LAYER01
  6
CONTINUOUS
 62
     7
 10
2008.62347
 20
-71.103791999999999
 30
0.0
  0
VERTEX
  5
CD3
  8
LAYER01
  6
CONTINUOUS
 62
     7
 10
2011.5139140000001
 20
-73.994235000000003
 30
0.0
  0
VERTEX
  5
CD4
  8
LAYER01
  6
CONTINUOUS
 62
     7
 10
2013.4408759999999
 20
-77.848158999999995
 30
0.0
  0
VERTEX
  5
CD5
  8
LAYER01
  6
CONTINUOUS
 62
     7
 10
2015.3678379999999
 20
-81.702083999999985
 30
0.0
  0
VERTEX
  5
CD6
  8
LAYER01
  6
CONTINUOUS
 62
     7
 10
2015.3678379999999
 20
-85.556007999999977
 30
0.0
  0
VERTEX
  5
CD7
  8
LAYER01
  6
CONTINUOUS
 62
     7
 10
2015.3678379999999
 20
-85.556007999999977
 30
0.0
  0
VERTEX
  5
CD8
  8
LAYER01
  6
CONTINUOUS
 62
     7
 10
2015.3678379999999
 20
-90.373412999999985
 30
0.0
  0
VERTEX
  5
CD9
  8
LAYER01
  6
CONTINUOUS
 62
     7
 10
2013.4408759999999
 20
-94.227338000000003
 30
0.0
  0
VERTEX
  5
CDA
  8
LAYER01
  6
CONTINUOUS
 62
     7
 10
2011.5139140000001
 20
-98.081261999999995
 30
0.0
  0
VERTEX
  5
CDB
  8
LAYER01
  6
CONTINUOUS
 62
     7
 10
2008.62347
 20
-100.971705
 30
0.0
  0
VERTEX
  5
CDC
  8
LAYER01
  6
CONTINUOUS
 62
     7
 10
2005.733027
 20
-103.862149
 30
0.0
  0
VERTEX
  5
CDD
  8
LAYER01
  6
CONTINUOUS
 62
     7
 10
2001.879103
 20
-105.78911100000001
 30
0.0
  0
VERTEX
  5
CDE
  8
LAYER01
  6
CONTINUOUS
 62
     7
 10
1998.0251780000001
 20
-106.75259200000001
 30
0.0
  0
VERTEX
  5
CDF
  8
LAYER01
  6
CONTINUOUS
 62
     7
 10
1994.1712540000001
 20
-106.75259200000001
 30
0.0
  0
VERTEX
  5
CE0
  8
LAYER01
  6
CONTINUOUS
 62
     7
 10
1994.1712540000001
 20
-106.75259200000001
 30
0.0
  0
VERTEX
  5
CE1
  8
LAYER01
  6
CONTINUOUS
 62
     7
 10
1990.3173300000001
 20
-106.75259200000001
 30
0.0
  0
VERTEX
  5
CE2
  8
LAYER01
  6
CONTINUOUS
 62
     7
 10
1985.499924
 20
-105.78911100000001
 30
0.0
  0
VERTEX
  5
CE3
  8
LAYER01
  6
CONTINUOUS
 62
     7
 10
1982.609481
 20
-103.862149
 30
0.0
  0
VERTEX
  5
CE4
  8
LAYER01
  6
CONTINUOUS
 62
     7
 10
1978.755557
 20
-100.971705
 30
0.0
  0
VERTEX
  5
CE5
  8
LAYER01
  6
CONTINUOUS
 62
     7
 10
1976.8285940000001
 20
-98.081261999999995
 30
0.0
  0
VERTEX
  5
CE6
  8
LAYER01
  6
CONTINUOUS
 62
     7
 10
1974.9016320000001
 20
-94.227338000000003
 30
0.0
  0
VERTEX
  5
CE7
  8
LAYER01
  6
CONTINUOUS
 62
     7
 10
1972.9746700000001
 20
-90.373412999999985
 30
0.0
  0
VERTEX
  5
CE8
  8
LAYER01
  6
CONTINUOUS
 62
     7
 10
1972.9746700000001
 20
-85.556007999999977
 30
0.0
  0
VERTEX
  5
CE9
  8
LAYER01
  6
CONTINUOUS
 62
     7
 10
1972.9746700000001
 20
-85.556007999999977
 30
0.0
  0
VERTEX
  5
CEA
  8
LAYER01
  6
CONTINUOUS
 62
     7
 10
1972.9746700000001
 20
-81.702083999999985
 30
0.0
  0
VERTEX
  5
CEB
  8
LAYER01
  6
CONTINUOUS
 62
     7
 10
1974.9016320000001
 20
-77.848158999999995
 30
0.0
  0
VERTEX
  5
CEC
  8
LAYER01
  6
CONTINUOUS
 62
     7
 10
1976.8285940000001
 20
-73.994235000000003
 30
0.0
  0
VERTEX
  5
CED
  8
LAYER01
  6
CONTINUOUS
 62
     7
 10
1978.755557
 20
-71.103791999999999
 30
0.0
  0
VERTEX
  5
CEE
  8
LAYER01
  6
CONTINUOUS
 62
     7
 10
1982.609481
 20
-68.213347999999996
 30
0.0
  0
VERTEX
  5
CEF
  8
LAYER01
  6
CONTINUOUS
 62
     7
 10
1985.499924
 20
-66.286385999999993
 30
0.0
  0
VERTEX
  5
CF0
  8
LAYER01
  6
CONTINUOUS
 62
     7
 10
1990.3173300000001
 20
-65.322905000000006
 30
0.0
  0
VERTEX
  5
CF1
  8
LAYER01
  6
CONTINUOUS
 62
     7
 10
1994.1712540000001
 20
-64.359424000000004
 30
0.0
  0
VERTEX
  5
CF2
  8
LAYER01
  6
CONTINUOUS
 62
     7
 10
1994.1712540000001
 20
-64.359424000000004
 30
0.0
  0
SEQEND
  5
CF3
  8
LAYER01
  6
CONTINUOUS
 62
     7
  0
POLYLINE
  5
496
  8
LAYER01
  6
CONTINUOUS
 62
     7
 66
     1
 10
0.0
 20
0.0
 30
0.0
 70
     1
  0
VERTEX
  5
CF4
  8
LAYER01
  6
CONTINUOUS
 62
     7
 10
1998.0251780000001
 20
-87.482969999999995
 30
0.0
  0
VERTEX
  5
CF5
  8
LAYER01
  6
CONTINUOUS
 62
     7
 10
1998.0251780000001
 20
-87.482969999999995
 30
0.0
  0
VERTEX
  5
CF6
  8
LAYER01
  6
CONTINUOUS
 62
     7
 10
2000.915622
 20
-86.519488999999993
 30
0.0
  0
VERTEX
  5
CF7
  8
LAYER01
  6
CONTINUOUS
 62
     7
 10
2003.806065
 20
-85.556007999999977
 30
0.0
  0
VERTEX
  5
CF8
  8
LAYER01
  6
CONTINUOUS
 62
     7
 10
2005.733027
 20
-82.665565000000001
 30
0.0
  0
VERTEX
  5
CF9
  8
LAYER01
  6
CONTINUOUS
 62
     7
 10
2005.733027
 20
-79.775120999999999
 30
0.0
  0
VERTEX
  5
CFA
  8
LAYER01
  6
CONTINUOUS
 62
     7
 10
2005.733027
 20
-79.775120999999999
 30
0.0
  0
VERTEX
  5
CFB
  8
LAYER01
  6
CONTINUOUS
 62
     7
 10
2005.733027
 20
-75.921196999999992
 30
0.0
  0
VERTEX
  5
CFC
  8
LAYER01
  6
CONTINUOUS
 62
     7
 10
2002.842584
 20
-73.030754000000002
 30
0.0
  0
VERTEX
  5
CFD
  8
LAYER01
  6
CONTINUOUS
 62
     7
 10
1999.9521400000001
 20
-72.067273
 30
0.0
  0
VERTEX
  5
CFE
  8
LAYER01
  6
CONTINUOUS
 62
     7
 10
1996.0982160000001
 20
-72.067273
 30
0.0
  0
VERTEX
  5
CFF
  8
LAYER01
  6
CONTINUOUS
 62
     7
 10
1984.536443
 20
-72.067273
 30
0.0
  0
VERTEX
  5
D00
  8
LAYER01
  6
CONTINUOUS
 62
     7
 10
1984.536443
 20
-100.008224
 30
0.0
  0
VERTEX
  5
D01
  8
LAYER01
  6
CONTINUOUS
 62
     7
 10
1988.390367
 20
-100.008224
 30
0.0
  0
VERTEX
  5
D02
  8
LAYER01
  6
CONTINUOUS
 62
     7
 10
1988.390367
 20
-87.482969999999995
 30
0.0
  0
VERTEX
  5
D03
  8
LAYER01
  6
CONTINUOUS
 62
     7
 10
1994.1712540000001
 20
-87.482969999999995
 30
0.0
  0
VERTEX
  5
D04
  8
LAYER01
  6
CONTINUOUS
 62
     7
 10
2000.915622
 20
-100.008224
 30
0.0
  0
VERTEX
  5
D05
  8
LAYER01
  6
CONTINUOUS
 62
     7
 10
2005.733027
 20
-100.008224
 30
0.0
  0
VERTEX
  5
D06
  8
LAYER01
  6
CONTINUOUS
 62
     7
 10
1998.0251780000001
 20
-87.482969999999995
 30
0.0
  0
VERTEX
  5
D07
  8
LAYER01
  6
CONTINUOUS
 62
     7
 10
1998.0251780000001
 20
-87.482969999999995
 30
0.0
  0
SEQEND
  5
D08
  8
LAYER01
  6
CONTINUOUS
 62
     7
  0
POLYLINE
  5
4AC
  8
LAYER01
  6
CONTINUOUS
 62
     7
 66
     1
 10
0.0
 20
0.0
 30
0.0
 70
     1
  0
VERTEX
  5
D09
  8
LAYER01
  6
CONTINUOUS
 62
     7
 10
1995.1347350000001
 20
-75.921196999999992
 30
0.0
  0
VERTEX
  5
D0A
  8
LAYER01
  6
CONTINUOUS
 62
     7
 10
1995.1347350000001
 20
-75.921196999999992
 30
0.0
  0
VERTEX
  5
D0B
  8
LAYER01
  6
CONTINUOUS
 62
     7
 10
1999.9521400000001
 20
-76.884678000000008
 30
0.0
  0
VERTEX
  5
D0C
  8
LAYER01
  6
CONTINUOUS
 62
     7
 10
2001.879103
 20
-77.848158999999995
 30
0.0
  0
VERTEX
  5
D0D
  8
LAYER01
  6
CONTINUOUS
 62
     7
 10
2001.879103
 20
-79.775120999999999
 30
0.0
  0
VERTEX
  5
D0E
  8
LAYER01
  6
CONTINUOUS
 62
     7
 10
2001.879103
 20
-79.775120999999999
 30
0.0
  0
VERTEX
  5
D0F
  8
LAYER01
  6
CONTINUOUS
 62
     7
 10
2000.915622
 20
-81.702083999999985
 30
0.0
  0
VERTEX
  5
D10
  8
LAYER01
  6
CONTINUOUS
 62
     7
 10
1998.9886590000001
 20
-82.665565000000001
 30
0.0
  0
VERTEX
  5
D11
  8
LAYER01
  6
CONTINUOUS
 62
     7
 10
1993.2077730000001
 20
-83.629046000000002
 30
0.0
  0
VERTEX
  5
D12
  8
LAYER01
  6
CONTINUOUS
 62
     7
 10
1988.390367
 20
-83.629046000000002
 30
0.0
  0
VERTEX
  5
D13
  8
LAYER01
  6
CONTINUOUS
 62
     7
 10
1988.390367
 20
-75.921196999999992
 30
0.0
  0
VERTEX
  5
D14
  8
LAYER01
  6
CONTINUOUS
 62
     7
 10
1995.1347350000001
 20
-75.921196999999992
 30
0.0
  0
VERTEX
  5
D15
  8
LAYER01
  6
CONTINUOUS
 62
     7
 10
1995.1347350000001
 20
-75.921196999999992
 30
0.0
  0
SEQEND
  5
D16
  8
LAYER01
  6
CONTINUOUS
 62
     7
  0
ENDBLK
  5
4BB
  8
0
  0
BLOCK
  8
0
  2
*D29
 70
     1
 10
0.0
 20
0.0
 30
0.0
  3
*D29
  1

  0
LINE
  5
4BE
  8
LAYER01
 62
     7
 10
1222.7237689999999
 20
156.822857
 30
0.0
 11
1334.7237689999999
 21
156.822857
 31
0.0
  0
LINE
  5
4BF
  8
LAYER01
 62
     7
 10
1176.803887
 20
156.822857
 30
0.0
 11
1064.803887
 21
156.822857
 31
0.0
  0
LINE
  5
4C0
  8
LAYER01
 62
     7
 10
1222.7237689999999
 20
175.348702
 30
0.0
 11
1222.7237689999999
 21
121.822857
 31
0.0
  0
LINE
  5
4C1
  8
LAYER01
 62
     7
 10
1176.803887
 20
175.348702
 30
0.0
 11
1176.803887
 21
121.822857
 31
0.0
  0
SOLID
  5
4C2
  8
LAYER01
 62
     7
 10
1278.7237689999999
 20
166.15581700000001
 30
0.0
 11
1222.7237689999999
 21
156.822857
 31
0.0
 12
1278.7237689999999
 22
147.48989700000001
 32
0.0
 13
1278.7237689999999
 23
147.48989700000001
 33
0.0
  0
SOLID
  5
4C3
  8
LAYER01
 62
     7
 10
1120.803887
 20
166.15581700000001
 30
0.0
 11
1176.803887
 21
156.822857
 31
0.0
 12
1120.803887
 22
147.48989700000001
 32
0.0
 13
1120.803887
 23
147.48989700000001
 33
0.0
  0
TEXT
  5
4C4
  8
LAYER01
  6
CONTINUOUS
 62
     7
 10
1299.452164
 20
164.849918
 30
0.0
 40
70.0
  1
46
  0
POINT
  5
4C5
  8
LAYER01
 62
     7
 10
1222.7237689999999
 20
203.348702
 30
0.0
  0
POINT
  5
4C6
  8
LAYER01
 62
     7
 10
1176.803887
 20
203.348702
 30
0.0
  0
POINT
  5
4C7
  8
LAYER01
 62
     7
 10
1176.803887
 20
156.822857
 30
0.0
  0
ENDBLK
  5
4C8
  8
0
  0
BLOCK
  8
0
  2
*D30
 70
     1
 10
0.0
 20
0.0
 30
0.0
  3
*D30
  1

  0
LINE
  5
4CB
  8
LAYER01
 62
     7
 10
339.50374199999999
 20
363.348702
 30
0.0
 11
339.50374199999999
 21
179.348702
 31
0.0
  0
LINE
  5
4CC
  8
LAYER01
 62
     7
 10
219.77933899999999
 20
363.348702
 30
0.0
 11
374.50374199999999
 21
363.348702
 31
0.0
  0
LINE
  5
4CD
  8
LAYER01
 62
     7
 10
219.77933899999999
 20
179.348702
 30
0.0
 11
374.50374199999999
 21
179.348702
 31
0.0
  0
SOLID
  5
4CE
  8
LAYER01
 62
     7
 10
330.17078199999997
 20
307.348702
 30
0.0
 11
339.50374199999999
 21
363.348702
 31
0.0
 12
348.836702
 22
307.348702
 32
0.0
 13
348.836702
 23
307.348702
 33
0.0
  0
SOLID
  5
4CF
  8
LAYER01
 62
     7
 10
330.17078199999997
 20
235.348702
 30
0.0
 11
339.50374199999999
 21
179.348702
 31
0.0
 12
348.836702
 22
235.348702
 32
0.0
 13
348.836702
 23
235.348702
 33
0.0
  0
TEXT
  5
4D0
  8
LAYER01
  6
VERDECKT
 62
     7
 10
304.50374199999999
 20
218.90231900000001
 30
0.0
 40
70.0
  1
184
 50
90.0
  0
POINT
  5
4D1
  8
LAYER01
 62
     7
 10
191.77933899999999
 20
363.348702
 30
0.0
  0
POINT
  5
4D2
  8
LAYER01
 62
     7
 10
191.77933899999999
 20
179.348702
 30
0.0
  0
POINT
  5
4D3
  8
LAYER01
 62
     7
 10
339.50374199999999
 20
179.348702
 30
0.0
  0
ENDBLK
  5
4D4
  8
0
  0
BLOCK
  8
0
  2
*D31
 70
     1
 10
0.0
 20
0.0
 30
0.0
  3
*D31
  1

  0
LINE
  5
4D7
  8
LAYER01
 62
     7
 10
904.30594299999996
 20
179.348702
 30
0.0
 11
904.30594299999996
 21
367.446845
 31
0.0
  0
LINE
  5
4D8
  8
LAYER01
 62
     7
 10
1007.450044
 20
179.348702
 30
0.0
 11
869.30594299999996
 21
179.348702
 31
0.0
  0
LINE
  5
4D9
  8
LAYER01
 62
     7
 10
1007.450044
 20
367.446845
 30
0.0
 11
869.30594299999996
 21
367.446845
 31
0.0
  0
SOLID
  5
4DA
  8
LAYER01
 62
     7
 10
913.63890300000003
 20
235.348702
 30
0.0
 11
904.30594299999996
 21
179.348702
 31
0.0
 12
894.972983
 22
235.348702
 32
0.0
 13
894.972983
 23
235.348702
 33
0.0
  0
SOLID
  5
4DB
  8
LAYER01
 62
     7
 10
913.63890300000003
 20
311.446845
 30
0.0
 11
904.30594299999996
 21
367.446845
 31
0.0
 12
894.972983
 22
311.446845
 32
0.0
 13
894.972983
 23
311.446845
 33
0.0
  0
TEXT
  5
4DC
  8
LAYER01
  6
CONTINUOUS
 62
     7
 10
869.30594299999996
 20
220.66059799999999
 30
0.0
 40
70.0
  1
184
 50
90.0
  0
POINT
  5
4DD
  8
LAYER01
 62
     7
 10
1035.4500439999999
 20
179.348702
 30
0.0
  0
POINT
  5
4DE
  8
LAYER01
 62
     7
 10
1035.4500439999999
 20
367.446845
 30
0.0
  0
POINT
  5
4DF
  8
LAYER01
 62
     7
 10
904.30594299999996
 20
367.446845
 30
0.0
  0
ENDBLK
  5
4E0
  8
0
  0
BLOCK
  8
0
  2
*D32
 70
     1
 10
0.0
 20
0.0
 30
0.0
  3
*D32
  1

  0
LINE
  5
4E3
  8
LAYER01
 62
     7
 10
1718.393601
 20
203.348702
 30
0.0
 11
1718.393601
 21
408.34870199999989
 31
0.0
  0
LINE
  5
4E4
  8
LAYER01
 62
     7
 10
1589.0137569999999
 20
203.348702
 30
0.0
 11
1753.393601
 21
203.348702
 31
0.0
  0
LINE
  5
4E5
  8
LAYER01
 62
     7
 10
1589.0137569999999
 20
408.34870199999989
 30
0.0
 11
1753.393601
 21
408.34870199999989
 31
0.0
  0
SOLID
  5
4E6
  8
LAYER01
 62
     7
 10
1727.7265609999999
 20
259.348702
 30
0.0
 11
1718.393601
 21
203.348702
 31
0.0
 12
1709.060641
 22
259.348702
 32
0.0
 13
1709.060641
 23
259.348702
 33
0.0
  0
SOLID
  5
4E7
  8
LAYER01
 62
     7
 10
1727.7265609999999
 20
352.348702
 30
0.0
 11
1718.393601
 21
408.34870199999989
 31
0.0
 12
1709.060641
 22
352.348702
 32
0.0
 13
1709.060641
 23
352.348702
 33
0.0
  0
TEXT
  5
4E8
  8
LAYER01
  6
CONTINUOUS
 62
     7
 10
1683.393601
 20
253.111527
 30
0.0
 40
70.0
  1
205
 50
90.0
  0
POINT
  5
4E9
  8
LAYER01
 62
     7
 10
1561.0137569999999
 20
203.348702
 30
0.0
  0
POINT
  5
4EA
  8
LAYER01
 62
     7
 10
1561.0137569999999
 20
408.34870199999989
 30
0.0
  0
POINT
  5
4EB
  8
LAYER01
 62
     7
 10
1718.393601
 20
408.34870199999989
 30
0.0
  0
ENDBLK
  5
4EC
  8
0
  0
ENDSEC
  0
SECTION
  2
ENTITIES
  0
POLYLINE
  5
4ED
  8
LAYER01
  6
CONTINUOUS
 62
     7
 66
     1
 10
0.0
 20
0.0
 30
0.0
 70
     1
  0
VERTEX
  5
D17
  8
LAYER01
  6
CONTINUOUS
 62
     7
 10
-1882.9907740000001
 20
-987.88219200000003
 30
0.0
  0
VERTEX
  5
D18
  8
LAYER01
  6
CONTINUOUS
 62
     7
 10
-1882.9907740000001
 20
1868.5238059999999
 30
0.0
  0
VERTEX
  5
D19
  8
LAYER01
  6
CONTINUOUS
 62
     7
 10
2196.8493749999998
 20
1868.5238059999999
 30
0.0
  0
VERTEX
  5
D1A
  8
LAYER01
  6
CONTINUOUS
 62
     7
 10
2196.8493749999998
 20
-986.90562999999997
 30
0.0
  0
SEQEND
  5
D1B
  8
LAYER01
  6
CONTINUOUS
 62
     7
  0
LINE
  5
4F3
  8
LAYER01
  6
VERDECKT
 62
     7
 10
-1596.2206610000001
 20
822.86397599999998
 30
0.0
 11
179.77933899999999
 21
822.86397599999998
 31
0.0
  0
DIMENSION
  5
4F4
  8
LAYER01
 62
     7
  2
*D0
 10
0.0
 20
0.0
 30
0.0
 11
114.69210200000001
 21
1150.8706070000001
 31
0.0
 70
     2
 13
0.0
 23
0.0
 33
0.0
 14
0.0
 24
0.0
 34
0.0
 15
0.0
 25
0.0
 35
0.0
 16
114.69210200000001
 26
1150.8706070000001
 36
0.0
1001
ACAD
1000
DSTYLE
1002
{
1070
   271
1070
     0
1002
}
  0
DIMENSION
  5
4F5
  8
LAYER01
 62
     7
  2
*D1
 10
-1608.2206610000001
 20
1546.6470260000001
 30
0.0
 11
-709.94620099999986
 21
1616.6470260000001
 31
0.0
 70
     0
 13
191.77933899999999
 23
1210.8639760000001
 33
0.0
 14
-1608.2206610000001
 24
1210.8639760000001
 34
0.0
  0
LINE
  5
4F6
  8
LAYER01
  6
VERDECKT
 62
     7
 10
-1608.2206610000001
 20
358.348702
 30
0.0
 11
191.77933899999999
 21
358.348702
 31
0.0
  0
LINE
  5
4F7
  8
LAYER01
  6
CONTINUOUS
 62
     7
 10
191.77933899999999
 20
1209.8639760000001
 30
0.0
 11
-1608.2206610000001
 21
1209.8639760000001
 31
0.0
  0
LINE
  5
4F8
  8
LAYER01
  6
CONTINUOUS
 62
     7
 10
191.77933899999999
 20
1211.8639760000001
 30
0.0
 11
-1608.2206610000001
 21
1211.8639760000001
 31
0.0
  0
LINE
  5
4F9
  8
LAYER01
  6
CONTINUOUS
 62
     7
 10
191.77933899999999
 20
1209.8639760000001
 30
0.0
 11
191.77933899999999
 21
1211.8639760000001
 31
0.0
  0
LINE
  5
4FA
  8
LAYER01
  6
CONTINUOUS
 62
     7
 10
-1608.2206610000001
 20
1209.8639760000001
 30
0.0
 11
-1608.2206610000001
 21
1211.8639760000001
 31
0.0
  0
SOLID
  5
4FB
  8
LAYER01
  6
CONTINUOUS
 62
     7
 10
191.77933899999999
 20
1209.8639760000001
 30
0.0
 11
-1608.2206610000001
 21
1209.8639760000001
 31
0.0
 12
191.77933899999999
 22
1211.8639760000001
 32
0.0
 13
-1608.2206610000001
 23
1211.8639760000001
 33
0.0
  0
LINE
  5
4FC
  8
LAYER01
  6
CONTINUOUS
 62
     7
 10
191.77933899999999
 20
1197.8639760000001
 30
0.0
 11
-1608.2206610000001
 21
1197.8639760000001
 31
0.0
  0
LINE
  5
4FD
  8
LAYER01
  6
CONTINUOUS
 62
     7
 10
191.77933899999999
 20
1199.8639760000001
 30
0.0
 11
-1608.2206610000001
 21
1199.8639760000001
 31
0.0
  0
LINE
  5
4FE
  8
LAYER01
  6
CONTINUOUS
 62
     7
 10
191.77933899999999
 20
1197.8639760000001
 30
0.0
 11
191.77933899999999
 21
1199.8639760000001
 31
0.0
  0
LINE
  5
4FF
  8
LAYER01
  6
CONTINUOUS
 62
     7
 10
-1608.2206610000001
 20
1197.8639760000001
 30
0.0
 11
-1608.2206610000001
 21
1199.8639760000001
 31
0.0
  0
SOLID
  5
500
  8
LAYER01
  6
CONTINUOUS
 62
     7
 10
191.77933899999999
 20
1197.8639760000001
 30
0.0
 11
-1608.2206610000001
 21
1197.8639760000001
 31
0.0
 12
191.77933899999999
 22
1199.8639760000001
 32
0.0
 13
-1608.2206610000001
 23
1199.8639760000001
 33
0.0
  0
LINE
  5
501
  8
LAYER01
  6
CONTINUOUS
 62
     7
 10
-1608.2206610000001
 20
409.348702
 30
0.0
 11
191.77933899999999
 21
409.348702
 31
0.0
  0
LINE
  5
502
  8
LAYER01
  6
CONTINUOUS
 62
     7
 10
-1608.2206610000001
 20
407.34870199999989
 30
0.0
 11
191.77933899999999
 21
407.34870199999989
 31
0.0
  0
LINE
  5
503
  8
LAYER01
  6
CONTINUOUS
 62
     7
 10
-1608.2206610000001
 20
409.348702
 30
0.0
 11
-1608.2206610000001
 21
407.34870199999989
 31
0.0
  0
LINE
  5
504
  8
LAYER01
  6
CONTINUOUS
 62
     7
 10
191.77933899999999
 20
409.348702
 30
0.0
 11
191.77933899999999
 21
407.34870199999989
 31
0.0
  0
SOLID
  5
505
  8
LAYER01
  6
CONTINUOUS
 62
     7
 10
-1608.2206610000001
 20
409.348702
 30
0.0
 11
191.77933899999999
 21
409.348702
 31
0.0
 12
-1608.2206610000001
 22
407.34870199999989
 32
0.0
 13
191.77933899999999
 23
407.34870199999989
 33
0.0
  0
LINE
  5
506
  8
LAYER01
  6
CONTINUOUS
 62
     7
 10
-1608.2206610000001
 20
364.348702
 30
0.0
 11
191.77933899999999
 21
364.348702
 31
0.0
  0
LINE
  5
507
  8
LAYER01
  6
CONTINUOUS
 62
     7
 10
-1608.2206610000001
 20
362.348702
 30
0.0
 11
191.77933899999999
 21
362.348702
 31
0.0
  0
LINE
  5
508
  8
LAYER01
  6
CONTINUOUS
 62
     7
 10
-1608.2206610000001
 20
364.348702
 30
0.0
 11
-1608.2206610000001
 21
362.348702
 31
0.0
  0
LINE
  5
509
  8
LAYER01
  6
CONTINUOUS
 62
     7
 10
191.77933899999999
 20
364.348702
 30
0.0
 11
191.77933899999999
 21
362.348702
 31
0.0
  0
SOLID
  5
50A
  8
LAYER01
  6
CONTINUOUS
 62
     7
 10
-1608.2206610000001
 20
364.348702
 30
0.0
 11
191.77933899999999
 21
364.348702
 31
0.0
 12
-1608.2206610000001
 22
362.348702
 32
0.0
 13
191.77933899999999
 23
362.348702
 33
0.0
  0
LINE
  5
50B
  8
LAYER01
  6
CONTINUOUS
 62
     7
 10
-1608.2206610000001
 20
180.348702
 30
0.0
 11
191.77933899999999
 21
180.348702
 31
0.0
  0
LINE
  5
50C
  8
LAYER01
  6
CONTINUOUS
 62
     7
 10
-1608.2206610000001
 20
178.348702
 30
0.0
 11
191.77933899999999
 21
178.348702
 31
0.0
  0
LINE
  5
50D
  8
LAYER01
  6
CONTINUOUS
 62
     7
 10
-1608.2206610000001
 20
180.348702
 30
0.0
 11
-1608.2206610000001
 21
178.348702
 31
0.0
  0
LINE
  5
50E
  8
LAYER01
  6
CONTINUOUS
 62
     7
 10
191.77933899999999
 20
180.348702
 30
0.0
 11
191.77933899999999
 21
178.348702
 31
0.0
  0
SOLID
  5
50F
  8
LAYER01
  6
CONTINUOUS
 62
     7
 10
-1608.2206610000001
 20
180.348702
 30
0.0
 11
191.77933899999999
 21
180.348702
 31
0.0
 12
-1608.2206610000001
 22
178.348702
 32
0.0
 13
191.77933899999999
 23
178.348702
 33
0.0
  0
DIMENSION
  5
510
  8
LAYER01
 62
     7
  2
*D2
 10
-708.22066099999995
 20
664.32908299999986
 30
0.0
 11
-258.22066100000001
 21
734.32908299999986
 31
0.0
 70
     0
 13
191.77933899999999
 23
810.86397599999987
 33
0.0
 14
-708.22066099999995
 24
810.86397599999987
 34
0.0
  0
LINE
  5
511
  8
LAYER01
  6
CONTINUOUS
 62
     7
 10
-1608.2206610000001
 20
811.86397599999998
 30
0.0
 11
191.77933899999999
 21
811.86397599999998
 31
0.0
  0
LINE
  5
512
  8
LAYER01
  6
CONTINUOUS
 62
     7
 10
-1608.2206610000001
 20
809.86397599999987
 30
0.0
 11
191.77933899999999
 21
809.86397599999987
 31
0.0
  0
LINE
  5
513
  8
LAYER01
  6
CONTINUOUS
 62
     7
 10
-1608.2206610000001
 20
811.86397599999998
 30
0.0
 11
-1608.2206610000001
 21
809.86397599999987
 31
0.0
  0
LINE
  5
514
  8
LAYER01
  6
CONTINUOUS
 62
     7
 10
191.77933899999999
 20
811.86397599999998
 30
0.0
 11
191.77933899999999
 21
809.86397599999987
 31
0.0
  0
SOLID
  5
515
  8
LAYER01
  6
CONTINUOUS
 62
     7
 10
-1608.2206610000001
 20
811.86397599999998
 30
0.0
 11
191.77933899999999
 21
811.86397599999998
 31
0.0
 12
-1608.2206610000001
 22
809.86397599999987
 32
0.0
 13
191.77933899999999
 23
809.86397599999987
 33
0.0
  0
DIMENSION
  5
516
  8
LAYER01
 62
     7
  2
*D3
 10
-1643.5032940000001
 20
363.348702
 30
0.0
 11
-1713.5032940000001
 21
484.0667279999999
 31
0.0
 70
     0
 53
90.0
 13
-1608.2206610000001
 23
358.348702
 33
0.0
 14
-1608.2206610000001
 24
363.348702
 34
0.0
 50
90.0
  0
DIMENSION
  5
517
  8
LAYER01
 62
     7
  2
*D4
 10
-1740.5715079999991
 20
358.348702
 30
0.0
 11
-1810.571508
 21
514.73988799999995
 31
0.0
 70
     0
 53
90.0
 13
-1608.2206610000001
 23
408.34870199999989
 33
0.0
 14
-1608.2206610000001
 24
358.348702
 34
0.0
 50
90.0
  0
TEXT
  5
518
  8
LAYER01
  6
CONTINUOUS
 62
     7
 10
-1545.8720840000001
 20
-318.92368099999999
 30
0.0
 40
80.0
  1
Waschrinne Active400
  0
TEXT
  5
519
  8
LAYER01
  6
CONTINUOUS
 62
     7
 10
-1545.8720840000001
 20
-398.92368099999999
 30
0.0
 40
80.0
  1
mit Seitenteilen links und rechts
  0
DIMENSION
  5
51A
  8
LAYER01
 62
     7
  2
*D5
 10
-1128.2206610000001
 20
2.563682
 30
0.0
 11
-988.22066099999995
 21
72.563682
 31
0.0
 70
     0
 13
-848.22066099999995
 23
139.454354
 33
0.0
 14
-1128.2206610000001
 24
139.454354
 34
0.0
  0
INSERT
  5
51B
  8
LAYER01
  2
ACT40_WE-G7
 10
0.0
 20
0.0
 30
0.0
  0
LINE
  5
51C
  8
LAYER01
  6
CONTINUOUS
 62
     7
 10
-1609.2206610000001
 20
179.348702
 30
0.0
 11
-1609.2206610000001
 21
408.34870199999989
 31
0.0
  0
LINE
  5
51D
  8
LAYER01
  6
CONTINUOUS
 62
     7
 10
-1607.2206610000001
 20
179.348702
 30
0.0
 11
-1607.2206610000001
 21
408.34870199999989
 31
0.0
  0
LINE
  5
51E
  8
LAYER01
  6
CONTINUOUS
 62
     7
 10
-1609.2206610000001
 20
179.348702
 30
0.0
 11
-1607.2206610000001
 21
179.348702
 31
0.0
  0
LINE
  5
51F
  8
LAYER01
  6
CONTINUOUS
 62
     7
 10
-1609.2206610000001
 20
408.34870199999989
 30
0.0
 11
-1607.2206610000001
 21
408.34870199999989
 31
0.0
  0
SOLID
  5
520
  8
LAYER01
  6
CONTINUOUS
 62
     7
 10
-1609.2206610000001
 20
179.348702
 30
0.0
 11
-1609.2206610000001
 21
408.34870199999989
 31
0.0
 12
-1607.2206610000001
 22
179.348702
 32
0.0
 13
-1607.2206610000001
 23
408.34870199999989
 33
0.0
  0
DIMENSION
  5
521
  8
LAYER01
 62
     7
  2
*D7
 10
-1408.2206610000001
 20
2.563682
 30
0.0
 11
-1268.2206610000001
 21
72.563682
 31
0.0
 70
     0
 13
-1128.2206610000001
 23
139.454354
 33
0.0
 14
-1408.2206610000001
 24
139.454354
 34
0.0
  0
INSERT
  5
522
  8
LAYER01
  2
ACT40_WE-G9
 10
0.0
 20
0.0
 30
0.0
  0
DIMENSION
  5
523
  8
LAYER01
 62
     7
  2
*D9
 10
-288.22066100000001
 20
2.563682
 30
0.0
 11
-428.22066100000001
 21
72.563682
 31
0.0
 70
     0
 13
-568.22066099999995
 23
139.454354
 33
0.0
 14
-288.22066100000001
 24
139.454354
 34
0.0
  0
DIMENSION
  5
524
  8
LAYER01
 62
     7
  2
*D10
 10
-568.22066099999995
 20
1.6607929999999991
 30
0.0
 11
-638.22066099999995
 21
71.660792999999984
 31
0.0
 70
     0
 13
-708.22066099999995
 23
139.454354
 33
0.0
 14
-568.22066099999995
 24
139.454354
 34
0.0
  0
DIMENSION
  5
525
  8
LAYER01
 62
     7
  2
*D11
 10
-848.22066099999995
 20
1.6607929999999991
 30
0.0
 11
-778.22066100000006
 21
71.660792999999984
 31
0.0
 70
     0
 13
-708.22066099999995
 23
139.454354
 33
0.0
 14
-848.22066099999995
 24
139.454354
 34
0.0
  0
INSERT
  5
526
  8
LAYER01
  2
ACT40_WE-G13
 10
0.0
 20
0.0
 30
0.0
  0
INSERT
  5
527
  8
LAYER01
  2
ACT40_WE-G14
 10
0.0
 20
0.0
 30
0.0
  0
DIMENSION
  5
528
  8
LAYER01
 62
     7
  2
*D14
 10
-8.2206609999999998
 20
2.563682
 30
0.0
 11
-148.22066100000001
 21
72.563682
 31
0.0
 70
     0
 13
-288.22066100000001
 23
139.454354
 33
0.0
 14
-8.2206609999999998
 24
139.454354
 34
0.0
  0
INSERT
  5
529
  8
LAYER01
  2
ACT40_WE-G16
 10
0.0
 20
0.0
 30
0.0
  0
INSERT
  5
52A
  8
LAYER01
  2
ACT40_WE-G17
 10
0.0
 20
0.0
 30
0.0
  0
DIMENSION
  5
52B
  8
LAYER01
 62
     7
  2
*D17
 10
-1536.1826309999999
 20
1396.4202299999999
 30
0.0
 11
-709.90817100000004
 21
1466.4202299999999
 31
0.0
 70
     0
 13
119.817369
 23
1210.8639760000001
 33
0.0
 14
-1536.1826309999999
 24
1210.8639760000001
 34
0.0
  0
DIMENSION
  5
52C
  8
LAYER01
 62
     7
  2
*D18
 10
-158.22066100000001
 20
1271.5838779999999
 30
0.0
 11
-709.94620099999986
 21
1341.5838779999999
 31
0.0
 70
     0
 13
-1258.2206610000001
 23
1210.8639760000001
 33
0.0
 14
-158.22066100000001
 24
1210.8639760000001
 34
0.0
  0
DIMENSION
  5
52D
  8
LAYER01
 62
     7
  2
*D19
 10
-1608.2206610000001
 20
663.89450199999999
 30
0.0
 11
-1159.7334519999999
 21
733.89450199999987
 31
0.0
 70
     0
 13
-708.22066099999995
 23
810.86397599999987
 33
0.0
 14
-1608.2206610000001
 24
810.86397599999987
 34
0.0
  0
LINE
  5
52E
  8
LAYER01
  6
CONTINUOUS
 62
     7
 10
-708.78102899999999
 20
937.81340699999987
 30
0.0
 11
-1516.781029
 21
937.81340699999987
 31
0.0
  0
LINE
  5
52F
  8
LAYER01
  6
CONTINUOUS
 62
     7
 10
-708.78102899999999
 20
939.81340699999987
 30
0.0
 11
-1516.781029
 21
939.81340699999987
 31
0.0
  0
LINE
  5
530
  8
LAYER01
  6
CONTINUOUS
 62
     7
 10
-708.78102899999999
 20
937.81340699999987
 30
0.0
 11
-708.78102899999999
 21
939.81340699999987
 31
0.0
  0
LINE
  5
531
  8
LAYER01
  6
CONTINUOUS
 62
     7
 10
-1516.781029
 20
937.81340699999987
 30
0.0
 11
-1516.781029
 21
939.81340699999987
 31
0.0
  0
SOLID
  5
532
  8
LAYER01
  6
CONTINUOUS
 62
     7
 10
-708.78102899999999
 20
937.81340699999987
 30
0.0
 11
-1516.781029
 21
937.81340699999987
 31
0.0
 12
-708.78102899999999
 22
939.81340699999987
 32
0.0
 13
-1516.781029
 23
939.81340699999987
 33
0.0
  0
LINE
  5
533
  8
LAYER01
  6
CONTINUOUS
 62
     7
 10
-709.24994200000003
 20
1039.7445660000001
 30
0.0
 11
-1517.2499419999999
 21
1039.7445660000001
 31
0.0
  0
LINE
  5
534
  8
LAYER01
  6
CONTINUOUS
 62
     7
 10
-709.24994200000003
 20
1041.7445660000001
 30
0.0
 11
-1517.2499419999999
 21
1041.7445660000001
 31
0.0
  0
LINE
  5
535
  8
LAYER01
  6
CONTINUOUS
 62
     7
 10
-709.24994200000003
 20
1039.7445660000001
 30
0.0
 11
-709.24994200000003
 21
1041.7445660000001
 31
0.0
  0
LINE
  5
536
  8
LAYER01
  6
CONTINUOUS
 62
     7
 10
-1517.2499419999999
 20
1039.7445660000001
 30
0.0
 11
-1517.2499419999999
 21
1041.7445660000001
 31
0.0
  0
SOLID
  5
537
  8
LAYER01
  6
CONTINUOUS
 62
     7
 10
-709.24994200000003
 20
1039.7445660000001
 30
0.0
 11
-1517.2499419999999
 21
1039.7445660000001
 31
0.0
 12
-709.24994200000003
 22
1041.7445660000001
 32
0.0
 13
-1517.2499419999999
 23
1041.7445660000001
 33
0.0
  0
LINE
  5
538
  8
LAYER01
  6
CONTINUOUS
 62
     7
 10
-1516.1826309999999
 20
1111.711489
 30
0.0
 11
99.817369000000014
 21
1111.711489
 31
0.0
  0
LINE
  5
539
  8
LAYER01
  6
CONTINUOUS
 62
     7
 10
-1516.1826309999999
 20
1109.711489
 30
0.0
 11
99.817369000000014
 21
1109.711489
 31
0.0
  0
LINE
  5
53A
  8
LAYER01
  6
CONTINUOUS
 62
     7
 10
-1516.1826309999999
 20
1111.711489
 30
0.0
 11
-1516.1826309999999
 21
1109.711489
 31
0.0
  0
LINE
  5
53B
  8
LAYER01
  6
CONTINUOUS
 62
     7
 10
99.817369000000014
 20
1111.711489
 30
0.0
 11
99.817369000000014
 21
1109.711489
 31
0.0
  0
SOLID
  5
53C
  8
LAYER01
  6
CONTINUOUS
 62
     7
 10
-1516.1826309999999
 20
1111.711489
 30
0.0
 11
99.817369000000014
 21
1111.711489
 31
0.0
 12
-1516.1826309999999
 22
1109.711489
 32
0.0
 13
99.817369000000014
 23
1109.711489
 33
0.0
  0
LINE
  5
53D
  8
LAYER01
  6
CONTINUOUS
 62
     7
 10
-1516.1826309999999
 20
846.71148900000014
 30
0.0
 11
99.817369000000014
 21
846.71148900000014
 31
0.0
  0
LINE
  5
53E
  8
LAYER01
  6
CONTINUOUS
 62
     7
 10
-1516.1826309999999
 20
844.71148899999991
 30
0.0
 11
99.817369000000014
 21
844.71148899999991
 31
0.0
  0
LINE
  5
53F
  8
LAYER01
  6
CONTINUOUS
 62
     7
 10
-1516.1826309999999
 20
846.71148900000014
 30
0.0
 11
-1516.1826309999999
 21
844.71148899999991
 31
0.0
  0
LINE
  5
540
  8
LAYER01
  6
CONTINUOUS
 62
     7
 10
99.817369000000014
 20
846.71148900000014
 30
0.0
 11
99.817369000000014
 21
844.71148899999991
 31
0.0
  0
SOLID
  5
541
  8
LAYER01
  6
CONTINUOUS
 62
     7
 10
-1516.1826309999999
 20
846.71148900000014
 30
0.0
 11
99.817369000000014
 21
846.71148900000014
 31
0.0
 12
-1516.1826309999999
 22
844.71148899999991
 32
0.0
 13
99.817369000000014
 23
844.71148899999991
 33
0.0
  0
LINE
  5
542
  8
LAYER01
  6
VERDECKT
 62
     7
 10
-1596.2206610000001
 20
1210.8639760000001
 30
0.0
 11
-1596.2206610000001
 21
822.86397599999998
 31
0.0
  0
DIMENSION
  5
543
  8
LAYER01
 62
     7
  2
*D20
 10
0.0
 20
0.0
 30
0.0
 11
-1533.0540599999999
 21
1170.8030209999999
 31
0.0
 70
     2
 13
0.0
 23
0.0
 33
0.0
 14
0.0
 24
0.0
 34
0.0
 15
0.0
 25
0.0
 35
0.0
 16
-1533.0540599999999
 26
1170.8030209999999
 36
0.0
1001
ACAD
1000
DSTYLE
1002
{
1070
   271
1070
     0
1002
}
  0
DIMENSION
  5
544
  8
LAYER01
 62
     7
  2
*D21
 10
-1775.8679440000001
 20
810.86397599999987
 30
0.0
 11
-1845.8679440000001
 21
1010.863976
 31
0.0
 70
     0
 53
90.0
 13
-1608.2206610000001
 23
1210.8639760000001
 33
0.0
 14
-1608.2206610000001
 24
810.86397599999987
 34
0.0
 50
90.0
  0
DIMENSION
  5
545
  8
LAYER01
 62
     7
  2
*D22
 10
-1662.411288
 20
1210.8639760000001
 30
0.0
 11
-1732.4112879999991
 21
1356.268202
 31
0.0
 70
     0
 53
90.0
 13
-1608.2206610000001
 23
1110.711489
 33
0.0
 14
-1608.2206610000001
 24
1210.8639760000001
 34
0.0
 50
90.0
  0
LINE
  5
546
  8
LAYER01
  6
CONTINUOUS
 62
     7
 10
-1607.2206610000001
 20
1210.8639760000001
 30
0.0
 11
-1607.2206610000001
 21
810.86397599999987
 31
0.0
  0
LINE
  5
547
  8
LAYER01
  6
CONTINUOUS
 62
     7
 10
-1609.2206610000001
 20
1210.8639760000001
 30
0.0
 11
-1609.2206610000001
 21
810.86397599999987
 31
0.0
  0
LINE
  5
548
  8
LAYER01
  6
CONTINUOUS
 62
     7
 10
-1607.2206610000001
 20
1210.8639760000001
 30
0.0
 11
-1609.2206610000001
 21
1210.8639760000001
 31
0.0
  0
LINE
  5
549
  8
LAYER01
  6
CONTINUOUS
 62
     7
 10
-1607.2206610000001
 20
810.86397599999987
 30
0.0
 11
-1609.2206610000001
 21
810.86397599999987
 31
0.0
  0
SOLID
  5
54A
  8
LAYER01
  6
CONTINUOUS
 62
     7
 10
-1607.2206610000001
 20
1210.8639760000001
 30
0.0
 11
-1607.2206610000001
 21
810.86397599999987
 31
0.0
 12
-1609.2206610000001
 22
1210.8639760000001
 32
0.0
 13
-1609.2206610000001
 23
810.86397599999987
 33
0.0
  0
LINE
  5
54B
  8
LAYER01
  6
VERDECKT
 62
     5
 10
-1273.2206610000001
 20
1110.711489
 30
0.0
 11
-1273.2206610000001
 21
1210.8639760000001
 31
0.0
  0
LINE
  5
54C
  8
LAYER01
  6
VERDECKT
 62
     5
 10
-1243.2206610000001
 20
1110.711489
 30
0.0
 11
-1243.2206610000001
 21
1210.8639760000001
 31
0.0
  0
DIMENSION
  5
54D
  8
LAYER01
 62
     7
  2
*D23
 10
-1662.411288
 20
845.71148899999991
 30
0.0
 11
-1732.4112879999991
 21
978.21148900000003
 31
0.0
 70
     0
 53
90.0
 13
-1608.2206610000001
 23
1110.711489
 33
0.0
 14
-1608.2206610000001
 24
845.71148899999991
 34
0.0
 50
90.0
  0
LINE
  5
54E
  8
LAYER01
  6
CONTINUOUS
 62
     7
 10
-1535.1826309999999
 20
1090.711489
 30
0.0
 11
-1535.1826309999999
 21
865.71148900000003
 31
0.0
  0
LINE
  5
54F
  8
LAYER01
  6
CONTINUOUS
 62
     7
 10
-1537.1826309999999
 20
1090.711489
 30
0.0
 11
-1537.1826309999999
 21
865.71148900000003
 31
0.0
  0
LINE
  5
550
  8
LAYER01
  6
CONTINUOUS
 62
     7
 10
-1535.1826309999999
 20
1090.711489
 30
0.0
 11
-1537.1826309999999
 21
1090.711489
 31
0.0
  0
LINE
  5
551
  8
LAYER01
  6
CONTINUOUS
 62
     7
 10
-1535.1826309999999
 20
865.71148900000003
 30
0.0
 11
-1537.1826309999999
 21
865.71148900000003
 31
0.0
  0
SOLID
  5
552
  8
LAYER01
  6
CONTINUOUS
 62
     7
 10
-1535.1826309999999
 20
1090.711489
 30
0.0
 11
-1535.1826309999999
 21
865.71148900000003
 31
0.0
 12
-1537.1826309999999
 22
1090.711489
 32
0.0
 13
-1537.1826309999999
 23
865.71148900000003
 33
0.0
  0
ARC
  5
553
  8
LAYER01
  6
CONTINUOUS
 62
     7
 10
-1516.235977
 20
958.80330199999992
 30
0.0
 40
19.0
 50
180.0
 51
270.0
  0
ARC
  5
554
  8
LAYER01
  6
CONTINUOUS
 62
     7
 10
-1516.235977
 20
958.80330199999992
 30
0.0
 40
21.0
 50
180.0
 51
270.0
  0
LINE
  5
555
  8
LAYER01
  6
CONTINUOUS
 62
     7
 10
-1537.235977
 20
958.80330199999992
 30
0.0
 11
-1535.235977
 21
958.80330199999992
 31
0.0
  0
LINE
  5
556
  8
LAYER01
  6
CONTINUOUS
 62
     7
 10
-1516.235977
 20
937.80330200000003
 30
0.0
 11
-1516.235977
 21
939.80330199999992
 31
0.0
  0
ARC
  5
557
  8
LAYER01
  6
CONTINUOUS
 62
     7
 10
-1516.246112
 20
1020.7035969999999
 30
0.0
 40
19.0
 50
90.0
 51
180.0
  0
ARC
  5
558
  8
LAYER01
  6
CONTINUOUS
 62
     7
 10
-1516.246112
 20
1020.7035969999999
 30
0.0
 40
21.0
 50
90.0
 51
180.0
  0
LINE
  5
559
  8
LAYER01
  6
CONTINUOUS
 62
     7
 10
-1516.246112
 20
1041.7035969999999
 30
0.0
 11
-1516.246112
 21
1039.7035969999999
 31
0.0
  0
LINE
  5
55A
  8
LAYER01
  6
CONTINUOUS
 62
     7
 10
-1537.246112
 20
1020.7035969999999
 30
0.0
 11
-1535.246112
 21
1020.7035969999999
 31
0.0
  0
ARC
  5
55B
  8
LAYER01
  6
CONTINUOUS
 62
     7
 10
-1516.1826309999999
 20
1090.711489
 30
0.0
 40
19.0
 50
90.0
 51
180.0
  0
ARC
  5
55C
  8
LAYER01
  6
CONTINUOUS
 62
     7
 10
-1516.1826309999999
 20
1090.711489
 30
0.0
 40
21.0
 50
90.0
 51
180.0
  0
LINE
  5
55D
  8
LAYER01
  6
CONTINUOUS
 62
     7
 10
-1516.1826309999999
 20
1111.711489
 30
0.0
 11
-1516.1826309999999
 21
1109.711489
 31
0.0
  0
LINE
  5
55E
  8
LAYER01
  6
CONTINUOUS
 62
     7
 10
-1537.1826309999999
 20
1090.711489
 30
0.0
 11
-1535.1826309999999
 21
1090.711489
 31
0.0
  0
ARC
  5
55F
  8
LAYER01
  6
CONTINUOUS
 62
     7
 10
-1516.1826309999999
 20
865.71148900000003
 30
0.0
 40
19.0
 50
180.0
 51
270.0
  0
ARC
  5
560
  8
LAYER01
  6
CONTINUOUS
 62
     7
 10
-1516.1826309999999
 20
865.71148900000003
 30
0.0
 40
21.0
 50
180.0
 51
270.0
  0
LINE
  5
561
  8
LAYER01
  6
CONTINUOUS
 62
     7
 10
-1537.1826309999999
 20
865.71148900000003
 30
0.0
 11
-1535.1826309999999
 21
865.71148900000003
 31
0.0
  0
LINE
  5
562
  8
LAYER01
  6
CONTINUOUS
 62
     7
 10
-1516.1826309999999
 20
844.71148899999991
 30
0.0
 11
-1516.1826309999999
 21
846.71148900000014
 31
0.0
  0
LINE
  5
563
  8
LAYER01
  6
VERDECKT
 62
     5
 10
-143.22066100000001
 20
1110.711489
 30
0.0
 11
-143.22066100000001
 21
1210.8639760000001
 31
0.0
  0
LINE
  5
564
  8
LAYER01
  6
VERDECKT
 62
     5
 10
-173.22066100000001
 20
1110.711489
 30
0.0
 11
-173.22066100000001
 21
1210.8639760000001
 31
0.0
  0
LINE
  5
565
  8
LAYER01
  6
CONTINUOUS
 62
     7
 10
-709.24994200000003
 20
1041.7445660000001
 30
0.0
 11
98.750057999999996
 21
1041.7445660000001
 31
0.0
  0
LINE
  5
566
  8
LAYER01
  6
CONTINUOUS
 62
     7
 10
-709.24994200000003
 20
1039.7445660000001
 30
0.0
 11
98.750057999999996
 21
1039.7445660000001
 31
0.0
  0
LINE
  5
567
  8
LAYER01
  6
CONTINUOUS
 62
     7
 10
-709.24994200000003
 20
1041.7445660000001
 30
0.0
 11
-709.24994200000003
 21
1039.7445660000001
 31
0.0
  0
LINE
  5
568
  8
LAYER01
  6
CONTINUOUS
 62
     7
 10
98.750057999999996
 20
1041.7445660000001
 30
0.0
 11
98.750057999999996
 21
1039.7445660000001
 31
0.0
  0
SOLID
  5
569
  8
LAYER01
  6
CONTINUOUS
 62
     7
 10
-709.24994200000003
 20
1041.7445660000001
 30
0.0
 11
98.750057999999996
 21
1041.7445660000001
 31
0.0
 12
-709.24994200000003
 22
1039.7445660000001
 32
0.0
 13
98.750057999999996
 23
1039.7445660000001
 33
0.0
  0
LINE
  5
56A
  8
LAYER01
  6
CONTINUOUS
 62
     7
 10
-708.78102899999999
 20
939.81340699999987
 30
0.0
 11
99.218970999999996
 21
939.81340699999987
 31
0.0
  0
LINE
  5
56B
  8
LAYER01
  6
CONTINUOUS
 62
     7
 10
-708.78102899999999
 20
937.81340699999987
 30
0.0
 11
99.218970999999996
 21
937.81340699999987
 31
0.0
  0
LINE
  5
56C
  8
LAYER01
  6
CONTINUOUS
 62
     7
 10
-708.78102899999999
 20
939.81340699999987
 30
0.0
 11
-708.78102899999999
 21
937.81340699999987
 31
0.0
  0
LINE
  5
56D
  8
LAYER01
  6
CONTINUOUS
 62
     7
 10
99.218970999999996
 20
939.81340699999987
 30
0.0
 11
99.218970999999996
 21
937.81340699999987
 31
0.0
  0
SOLID
  5
56E
  8
LAYER01
  6
CONTINUOUS
 62
     7
 10
-708.78102899999999
 20
939.81340699999987
 30
0.0
 11
99.218970999999996
 21
939.81340699999987
 31
0.0
 12
-708.78102899999999
 22
937.81340699999987
 32
0.0
 13
99.218970999999996
 23
937.81340699999987
 33
0.0
  0
LINE
  5
56F
  8
LAYER01
  6
STRICHPUNKTIERT
 62
     7
 10
-709.34372399999995
 20
1049.7378510000001
 30
0.0
 11
-709.34372399999995
 21
930.89220799999998
 31
0.0
  0
LINE
  5
570
  8
LAYER01
  6
STRICHPUNKTIERT
 62
     7
 10
-769.62186499999996
 20
989.92650399999991
 30
0.0
 11
-643.07595500000002
 21
989.92650399999991
 31
0.0
  0
CIRCLE
  5
571
  8
LAYER01
  6
CONTINUOUS
 62
     7
 10
-709.34372399999995
 20
989.92650399999991
 30
0.0
 40
22.0
  0
CIRCLE
  5
572
  8
LAYER01
  6
CONTINUOUS
 62
     7
 10
-709.34372399999995
 20
989.92650399999991
 30
0.0
 40
24.0
  0
CIRCLE
  5
573
  8
LAYER01
  6
CONTINUOUS
 62
     7
 10
-709.34372399999995
 20
989.92650399999991
 30
0.0
 40
35.0
  0
CIRCLE
  5
574
  8
LAYER01
  6
CONTINUOUS
 62
     7
 10
-709.34372399999995
 20
989.92650399999991
 30
0.0
 40
37.0
  0
LINE
  5
575
  8
LAYER01
  6
CONTINUOUS
 62
     7
 10
120.817369
 20
1090.711489
 30
0.0
 11
120.817369
 21
865.71148900000003
 31
0.0
  0
LINE
  5
576
  8
LAYER01
  6
CONTINUOUS
 62
     7
 10
118.817369
 20
1090.711489
 30
0.0
 11
118.817369
 21
865.71148900000003
 31
0.0
  0
LINE
  5
577
  8
LAYER01
  6
CONTINUOUS
 62
     7
 10
120.817369
 20
1090.711489
 30
0.0
 11
118.817369
 21
1090.711489
 31
0.0
  0
LINE
  5
578
  8
LAYER01
  6
CONTINUOUS
 62
     7
 10
120.817369
 20
865.71148900000003
 30
0.0
 11
118.817369
 21
865.71148900000003
 31
0.0
  0
SOLID
  5
579
  8
LAYER01
  6
CONTINUOUS
 62
     7
 10
120.817369
 20
1090.711489
 30
0.0
 11
120.817369
 21
865.71148900000003
 31
0.0
 12
118.817369
 22
1090.711489
 32
0.0
 13
118.817369
 23
865.71148900000003
 33
0.0
  0
ARC
  5
57A
  8
LAYER01
  6
CONTINUOUS
 62
     7
 10
99.817369000000014
 20
865.71148900000003
 30
0.0
 40
19.0
 50
270.0
 51
0.0
  0
ARC
  5
57B
  8
LAYER01
  6
CONTINUOUS
 62
     7
 10
99.817369000000014
 20
865.71148900000003
 30
0.0
 40
21.0
 50
270.0
 51
0.0
  0
LINE
  5
57C
  8
LAYER01
  6
CONTINUOUS
 62
     7
 10
99.817369000000014
 20
844.71148899999991
 30
0.0
 11
99.817369000000014
 21
846.71148900000014
 31
0.0
  0
LINE
  5
57D
  8
LAYER01
  6
CONTINUOUS
 62
     7
 10
120.817369
 20
865.71148900000003
 30
0.0
 11
118.817369
 21
865.71148900000003
 31
0.0
  0
ARC
  5
57E
  8
LAYER01
  6
CONTINUOUS
 62
     7
 10
99.623031000000012
 20
958.69082199999991
 30
0.0
 40
19.0
 50
270.0
 51
0.0
  0
ARC
  5
57F
  8
LAYER01
  6
CONTINUOUS
 62
     7
 10
99.623031000000012
 20
958.69082199999991
 30
0.0
 40
21.0
 50
270.0
 51
0.0
  0
LINE
  5
580
  8
LAYER01
  6
CONTINUOUS
 62
     7
 10
99.623031000000012
 20
937.69082200000003
 30
0.0
 11
99.623031000000012
 21
939.69082200000003
 31
0.0
  0
LINE
  5
581
  8
LAYER01
  6
CONTINUOUS
 62
     7
 10
120.623031
 20
958.69082199999991
 30
0.0
 11
118.623031
 21
958.69082199999991
 31
0.0
  0
ARC
  5
582
  8
LAYER01
  6
CONTINUOUS
 62
     7
 10
99.398410999999996
 20
1020.694823
 30
0.0
 40
19.0
 50
0.5906570000000001
 51
90.590656999999993
  0
ARC
  5
583
  8
LAYER01
  6
CONTINUOUS
 62
     7
 10
99.398410999999996
 20
1020.694823
 30
0.0
 40
21.0
 50
0.5906570000000001
 51
90.590656999999993
  0
LINE
  5
584
  8
LAYER01
  6
CONTINUOUS
 62
     7
 10
120.397295
 20
1020.911307
 30
0.0
 11
118.397401
 21
1020.890689
 31
0.0
  0
LINE
  5
585
  8
LAYER01
  6
CONTINUOUS
 62
     7
 10
99.181927000000002
 20
1041.6937069999999
 30
0.0
 11
99.202545000000001
 21
1039.693814
 31
0.0
  0
ARC
  5
586
  8
LAYER01
  6
CONTINUOUS
 62
     7
 10
99.817369000000014
 20
1090.711489
 30
0.0
 40
19.0
 50
0.0
 51
90.0
  0
ARC
  5
587
  8
LAYER01
  6
CONTINUOUS
 62
     7
 10
99.817369000000014
 20
1090.711489
 30
0.0
 40
21.0
 50
0.0
 51
90.0
  0
LINE
  5
588
  8
LAYER01
  6
CONTINUOUS
 62
     7
 10
120.817369
 20
1090.711489
 30
0.0
 11
118.817369
 21
1090.711489
 31
0.0
  0
LINE
  5
589
  8
LAYER01
  6
CONTINUOUS
 62
     7
 10
99.817369000000014
 20
1111.711489
 30
0.0
 11
99.817369000000014
 21
1109.711489
 31
0.0
  0
DIMENSION
  5
58A
  8
LAYER01
 62
     7
  2
*D24
 10
1582.372034
 20
358.348702
 30
0.0
 11
1512.372034
 21
590.45572800000002
 31
0.0
 70
     0
 53
90.0
 13
1474.0158710000001
 23
408.34870199999989
 33
0.0
 14
1474.0158710000001
 24
358.348702
 34
0.0
 50
90.0
  0
INSERT
  5
58B
  8
LAYER01
  2
ACT40_WE-G26
 10
0.0
 20
0.0
 30
0.0
  0
TEXT
  5
58C
  8
LAYER01
  6
STRICHPUNKTIERT
 62
     7
 10
937.09958200000005
 20
-372.387924
 30
0.0
 40
43.651061999999989
  1
http://www.mineralwerkstoff.de
  0
TEXT
  5
58D
  8
LAYER01
  6
VERDECKT
 62
     1
 10
1173.173393
 20
-725.61726599999986
 30
0.0
 40
14.0
  1
16.12.2018
  7
SIMPLEX
  0
DIMENSION
  5
58E
  8
LAYER01
 62
     7
  2
*D27
 10
1199.7638280000001
 20
35.879593999999997
 30
0.0
 11
1319.9943290000001
 21
105.879594
 31
0.0
 70
     0
 13
1449.4265339999999
 23
203.348702
 33
0.0
 14
1199.7638280000001
 24
211.310855
 34
0.0
  0
INSERT
  5
58F
  8
LAYER01
  2
ACT40_WE-G29
 10
0.0
 20
0.0
 30
0.0
  0
LINE
  5
590
  8
LAYER01
  6
CONTINUOUS
 62
     7
 10
1167.1715059999999
 20
252.10248000000001
 30
0.0
 11
1232.436269
 21
252.10248000000001
 31
0.0
  0
LINE
  5
591
  8
LAYER01
  6
CONTINUOUS
 62
     7
 10
1167.1715059999999
 20
250.10248000000001
 30
0.0
 11
1232.436269
 21
250.10248000000001
 31
0.0
  0
LINE
  5
592
  8
LAYER01
  6
CONTINUOUS
 62
     7
 10
1167.1715059999999
 20
252.10248000000001
 30
0.0
 11
1167.1715059999999
 21
250.10248000000001
 31
0.0
  0
LINE
  5
593
  8
LAYER01
  6
CONTINUOUS
 62
     7
 10
1232.436269
 20
252.10248000000001
 30
0.0
 11
1232.436269
 21
250.10248000000001
 31
0.0
  0
SOLID
  5
594
  8
LAYER01
  6
CONTINUOUS
 62
     7
 10
1167.1715059999999
 20
252.10248000000001
 30
0.0
 11
1232.436269
 21
252.10248000000001
 31
0.0
 12
1167.1715059999999
 22
250.10248000000001
 32
0.0
 13
1232.436269
 23
250.10248000000001
 33
0.0
  0
LINE
  5
595
  8
LAYER01
  6
CONTINUOUS
 62
     7
 10
1176.803887
 20
229.82396
 30
0.0
 11
1222.639764
 21
229.82396
 31
0.0
  0
LINE
  5
596
  8
LAYER01
  6
CONTINUOUS
 62
     7
 10
1176.803887
 20
227.82396
 30
0.0
 11
1222.639764
 21
227.82396
 31
0.0
  0
LINE
  5
597
  8
LAYER01
  6
CONTINUOUS
 62
     7
 10
1176.803887
 20
229.82396
 30
0.0
 11
1176.803887
 21
227.82396
 31
0.0
  0
LINE
  5
598
  8
LAYER01
  6
CONTINUOUS
 62
     7
 10
1222.639764
 20
229.82396
 30
0.0
 11
1222.639764
 21
227.82396
 31
0.0
  0
SOLID
  5
599
  8
LAYER01
  6
CONTINUOUS
 62
     7
 10
1176.803887
 20
229.82396
 30
0.0
 11
1222.639764
 21
229.82396
 31
0.0
 12
1176.803887
 22
227.82396
 32
0.0
 13
1222.639764
 23
227.82396
 33
0.0
  0
LINE
  5
59A
  8
LAYER01
  6
CONTINUOUS
 62
     7
 10
1176.803887
 20
244.01995199999999
 30
0.0
 11
1222.803887
 21
244.01995199999999
 31
0.0
  0
LINE
  5
59B
  8
LAYER01
  6
CONTINUOUS
 62
     7
 10
1176.803887
 20
242.01995199999999
 30
0.0
 11
1222.803887
 21
242.01995199999999
 31
0.0
  0
LINE
  5
59C
  8
LAYER01
  6
CONTINUOUS
 62
     7
 10
1176.803887
 20
244.01995199999999
 30
0.0
 11
1176.803887
 21
242.01995199999999
 31
0.0
  0
LINE
  5
59D
  8
LAYER01
  6
CONTINUOUS
 62
     7
 10
1222.803887
 20
244.01995199999999
 30
0.0
 11
1222.803887
 21
242.01995199999999
 31
0.0
  0
SOLID
  5
59E
  8
LAYER01
  6
CONTINUOUS
 62
     7
 10
1176.803887
 20
244.01995199999999
 30
0.0
 11
1222.803887
 21
244.01995199999999
 31
0.0
 12
1176.803887
 22
242.01995199999999
 32
0.0
 13
1222.803887
 23
242.01995199999999
 33
0.0
  0
DIMENSION
  5
59F
  8
LAYER01
 62
     7
  2
*D29
 10
1176.803887
 20
156.822857
 30
0.0
 11
1334.5591899999999
 21
199.849918
 31
0.0
 70
     0
 13
1222.7237689999999
 23
203.348702
 33
0.0
 14
1176.803887
 24
203.348702
 34
0.0
  0
TEXT
  5
5A0
  8
LAYER01
  6
VERDECKT
 62
     1
 10
1020.793412
 20
-935.66841699999986
 30
0.0
 40
14.0
  1
b.s.
  7
SIMPLEX
  0
TEXT
  5
5A1
  8
LAYER01
  6
VERDECKT
 62
     1
 10
903.59519
 20
-935.61726599999997
 30
0.0
 40
14.0
  1
15.3.2022
  7
SIMPLEX
  0
DIMENSION
  5
5A2
  8
LAYER01
 62
     7
  2
*D30
 10
339.50374199999999
 20
179.348702
 30
0.0
 11
269.50374199999999
 21
271.562859
 31
0.0
 70
     0
 53
90.0
 13
191.77933899999999
 23
363.348702
 33
0.0
 14
191.77933899999999
 24
179.348702
 34
0.0
 50
90.0
  0
LINE
  5
5A3
  8
LAYER01
  6
CONTINUOUS
 62
     7
 10
190.77933899999999
 20
179.348702
 30
0.0
 11
190.77933899999999
 21
408.34870199999989
 31
0.0
  0
LINE
  5
5A4
  8
LAYER01
  6
CONTINUOUS
 62
     7
 10
192.77933899999999
 20
179.348702
 30
0.0
 11
192.77933899999999
 21
408.34870199999989
 31
0.0
  0
LINE
  5
5A5
  8
LAYER01
  6
CONTINUOUS
 62
     7
 10
190.77933899999999
 20
179.348702
 30
0.0
 11
192.77933899999999
 21
179.348702
 31
0.0
  0
LINE
  5
5A6
  8
LAYER01
  6
CONTINUOUS
 62
     7
 10
190.77933899999999
 20
408.34870199999989
 30
0.0
 11
192.77933899999999
 21
408.34870199999989
 31
0.0
  0
SOLID
  5
5A7
  8
LAYER01
  6
CONTINUOUS
 62
     7
 10
190.77933899999999
 20
179.348702
 30
0.0
 11
190.77933899999999
 21
408.34870199999989
 31
0.0
 12
192.77933899999999
 22
179.348702
 32
0.0
 13
192.77933899999999
 23
408.34870199999989
 33
0.0
  0
DIMENSION
  5
5A8
  8
LAYER01
 62
     7
  2
*D31
 10
904.30594299999996
 20
367.446845
 30
0.0
 11
834.30594299999996
 21
271.72536400000001
 31
0.0
 70
     0
 53
90.0
 13
1035.4500439999999
 23
179.348702
 33
0.0
 14
1035.4500439999999
 24
367.446845
 34
0.0
 50
90.0
  0
LINE
  5
5A9
  8
LAYER01
  6
CONTINUOUS
 62
     7
 10
1036.4500439999999
 20
343.81003199999998
 30
0.0
 11
1036.4500439999999
 21
179.348702
 31
0.0
  0
LINE
  5
5AA
  8
LAYER01
  6
CONTINUOUS
 62
     7
 10
1034.4500439999999
 20
343.81003199999998
 30
0.0
 11
1034.4500439999999
 21
179.348702
 31
0.0
  0
LINE
  5
5AB
  8
LAYER01
  6
CONTINUOUS
 62
     7
 10
1036.4500439999999
 20
343.81003199999998
 30
0.0
 11
1034.4500439999999
 21
343.81003199999998
 31
0.0
  0
LINE
  5
5AC
  8
LAYER01
  6
CONTINUOUS
 62
     7
 10
1036.4500439999999
 20
179.348702
 30
0.0
 11
1034.4500439999999
 21
179.348702
 31
0.0
  0
SOLID
  5
5AD
  8
LAYER01
  6
CONTINUOUS
 62
     7
 10
1036.4500439999999
 20
343.81003199999998
 30
0.0
 11
1036.4500439999999
 21
179.348702
 31
0.0
 12
1034.4500439999999
 22
343.81003199999998
 32
0.0
 13
1034.4500439999999
 23
179.348702
 33
0.0
  0
LINE
  5
5AE
  8
LAYER01
  6
CONTINUOUS
 62
     7
 10
1090.011671
 20
335.87843199999998
 30
0.0
 11
1149.9764749999999
 21
255.27147500000001
 31
0.0
  0
LINE
  5
5AF
  8
LAYER01
  6
CONTINUOUS
 62
     7
 10
1088.406997
 20
334.68468899999999
 30
0.0
 11
1148.371801
 21
254.07773299999999
 31
0.0
  0
LINE
  5
5B0
  8
LAYER01
  6
CONTINUOUS
 62
     7
 10
1090.011671
 20
335.87843199999998
 30
0.0
 11
1088.406997
 21
334.68468899999999
 31
0.0
  0
LINE
  5
5B1
  8
LAYER01
  6
CONTINUOUS
 62
     7
 10
1149.9764749999999
 20
255.27147500000001
 30
0.0
 11
1148.371801
 21
254.07773299999999
 31
0.0
  0
SOLID
  5
5B2
  8
LAYER01
  6
CONTINUOUS
 62
     7
 10
1090.011671
 20
335.87843199999998
 30
0.0
 11
1149.9764749999999
 21
255.27147500000001
 31
0.0
 12
1088.406997
 22
334.68468899999999
 32
0.0
 13
1148.371801
 23
254.07773299999999
 33
0.0
  0
LINE
  5
5B3
  8
LAYER01
  6
CONTINUOUS
 62
     7
 10
1069.240896
 20
335.85513700000001
 30
0.0
 11
1125.682495
 21
255.24817999999999
 31
0.0
  0
LINE
  5
5B4
  8
LAYER01
  6
CONTINUOUS
 62
     7
 10
1067.602592
 20
334.70798400000001
 30
0.0
 11
1124.044191
 21
254.10102699999999
 31
0.0
  0
LINE
  5
5B5
  8
LAYER01
  6
CONTINUOUS
 62
     7
 10
1069.240896
 20
335.85513700000001
 30
0.0
 11
1067.602592
 21
334.70798400000001
 31
0.0
  0
LINE
  5
5B6
  8
LAYER01
  6
CONTINUOUS
 62
     7
 10
1125.682495
 20
255.24817999999999
 30
0.0
 11
1124.044191
 21
254.10102699999999
 31
0.0
  0
SOLID
  5
5B7
  8
LAYER01
  6
CONTINUOUS
 62
     7
 10
1069.240896
 20
335.85513700000001
 30
0.0
 11
1125.682495
 21
255.24817999999999
 31
0.0
 12
1067.602592
 22
334.70798400000001
 32
0.0
 13
1124.044191
 23
254.10102699999999
 33
0.0
  0
LINE
  5
5B8
  8
LAYER01
  6
CONTINUOUS
 62
     7
 10
1177.803887
 20
243.01995199999999
 30
0.0
 11
1177.803887
 21
228.82396
 31
0.0
  0
LINE
  5
5B9
  8
LAYER01
  6
CONTINUOUS
 62
     7
 10
1175.803887
 20
243.01995199999999
 30
0.0
 11
1175.803887
 21
228.82396
 31
0.0
  0
LINE
  5
5BA
  8
LAYER01
  6
CONTINUOUS
 62
     7
 10
1177.803887
 20
243.01995199999999
 30
0.0
 11
1175.803887
 21
243.01995199999999
 31
0.0
  0
LINE
  5
5BB
  8
LAYER01
  6
CONTINUOUS
 62
     7
 10
1177.803887
 20
228.82396
 30
0.0
 11
1175.803887
 21
228.82396
 31
0.0
  0
SOLID
  5
5BC
  8
LAYER01
  6
CONTINUOUS
 62
     7
 10
1177.803887
 20
243.01995199999999
 30
0.0
 11
1177.803887
 21
228.82396
 31
0.0
 12
1175.803887
 22
243.01995199999999
 32
0.0
 13
1175.803887
 23
228.82396
 33
0.0
  0
LINE
  5
5BD
  8
LAYER01
  6
CONTINUOUS
 62
     7
 10
1133.8431700000001
 20
243.59352899999999
 30
0.0
 11
1143.7833109999999
 21
229.397536
 31
0.0
  0
LINE
  5
5BE
  8
LAYER01
  6
CONTINUOUS
 62
     7
 10
1132.204866
 20
242.44637599999999
 30
0.0
 11
1142.1450070000001
 21
228.250383
 31
0.0
  0
LINE
  5
5BF
  8
LAYER01
  6
CONTINUOUS
 62
     7
 10
1133.8431700000001
 20
243.59352899999999
 30
0.0
 11
1132.204866
 21
242.44637599999999
 31
0.0
  0
LINE
  5
5C0
  8
LAYER01
  6
CONTINUOUS
 62
     7
 10
1143.7833109999999
 20
229.397536
 30
0.0
 11
1142.1450070000001
 21
228.250383
 31
0.0
  0
SOLID
  5
5C1
  8
LAYER01
  6
CONTINUOUS
 62
     7
 10
1133.8431700000001
 20
243.59352899999999
 30
0.0
 11
1143.7833109999999
 21
229.397536
 31
0.0
 12
1132.204866
 22
242.44637599999999
 32
0.0
 13
1142.1450070000001
 23
228.250383
 33
0.0
  0
LINE
  5
5C2
  8
LAYER01
  6
CONTINUOUS
 62
     7
 10
1176.8050940000001
 20
227.82396
 30
0.0
 11
1142.9939380000001
 21
227.78315599999999
 31
0.0
  0
LINE
  5
5C3
  8
LAYER01
  6
CONTINUOUS
 62
     7
 10
1176.80268
 20
229.823959
 30
0.0
 11
1142.991524
 21
229.783154
 31
0.0
  0
LINE
  5
5C4
  8
LAYER01
  6
CONTINUOUS
 62
     7
 10
1176.8050940000001
 20
227.82396
 30
0.0
 11
1176.80268
 21
229.823959
 31
0.0
  0
LINE
  5
5C5
  8
LAYER01
  6
CONTINUOUS
 62
     7
 10
1142.9939380000001
 20
227.78315599999999
 30
0.0
 11
1142.991524
 21
229.783154
 31
0.0
  0
SOLID
  5
5C6
  8
LAYER01
  6
CONTINUOUS
 62
     7
 10
1176.8050940000001
 20
227.82396
 30
0.0
 11
1142.9939380000001
 21
227.78315599999999
 31
0.0
 12
1176.80268
 22
229.823959
 32
0.0
 13
1142.991524
 23
229.783154
 33
0.0
  0
LINE
  5
5C7
  8
LAYER01
  6
CONTINUOUS
 62
     7
 10
1142.173579
 20
228.20957799999999
 30
0.0
 11
1142.1450070000001
 21
228.250383
 31
0.0
  0
LINE
  5
5C8
  8
LAYER01
  6
CONTINUOUS
 62
     7
 10
1143.8118830000001
 20
229.356731
 30
0.0
 11
1143.7833109999999
 21
229.397536
 31
0.0
  0
LINE
  5
5C9
  8
LAYER01
  6
CONTINUOUS
 62
     7
 10
1142.173579
 20
228.20957799999999
 30
0.0
 11
1143.8118830000001
 21
229.356731
 31
0.0
  0
LINE
  5
5CA
  8
LAYER01
  6
CONTINUOUS
 62
     7
 10
1142.1450070000001
 20
228.250383
 30
0.0
 11
1143.7833109999999
 21
229.397536
 31
0.0
  0
SOLID
  5
5CB
  8
LAYER01
  6
CONTINUOUS
 62
     7
 10
1142.173579
 20
228.20957799999999
 30
0.0
 11
1142.1450070000001
 21
228.250383
 31
0.0
 12
1143.8118830000001
 22
229.356731
 32
0.0
 13
1143.7833109999999
 23
229.397536
 33
0.0
  0
LINE
  5
5CC
  8
LAYER01
  6
CONTINUOUS
 62
     7
 10
1047.4500439999999
 20
178.348702
 30
0.0
 11
1035.4500439999999
 21
178.348702
 31
0.0
  0
LINE
  5
5CD
  8
LAYER01
  6
CONTINUOUS
 62
     7
 10
1047.4500439999999
 20
180.348702
 30
0.0
 11
1035.4500439999999
 21
180.348702
 31
0.0
  0
LINE
  5
5CE
  8
LAYER01
  6
CONTINUOUS
 62
     7
 10
1047.4500439999999
 20
178.348702
 30
0.0
 11
1047.4500439999999
 21
180.348702
 31
0.0
  0
LINE
  5
5CF
  8
LAYER01
  6
CONTINUOUS
 62
     7
 10
1035.4500439999999
 20
178.348702
 30
0.0
 11
1035.4500439999999
 21
180.348702
 31
0.0
  0
SOLID
  5
5D0
  8
LAYER01
  6
CONTINUOUS
 62
     7
 10
1047.4500439999999
 20
178.348702
 30
0.0
 11
1035.4500439999999
 21
178.348702
 31
0.0
 12
1047.4500439999999
 22
180.348702
 32
0.0
 13
1035.4500439999999
 23
180.348702
 33
0.0
  0
LINE
  5
5D1
  8
LAYER01
  6
CONTINUOUS
 62
     7
 10
1149.782899
 20
255.46795700000001
 30
0.0
 11
1153.217161
 21
252.83275499999999
 31
0.0
  0
LINE
  5
5D2
  8
LAYER01
  6
CONTINUOUS
 62
     7
 10
1148.5653769999999
 20
253.88125099999999
 30
0.0
 11
1151.999638
 21
251.246049
 31
0.0
  0
LINE
  5
5D3
  8
LAYER01
  6
CONTINUOUS
 62
     7
 10
1149.782899
 20
255.46795700000001
 30
0.0
 11
1148.5653769999999
 21
253.88125099999999
 31
0.0
  0
LINE
  5
5D4
  8
LAYER01
  6
CONTINUOUS
 62
     7
 10
1153.217161
 20
252.83275499999999
 30
0.0
 11
1151.999638
 21
251.246049
 31
0.0
  0
SOLID
  5
5D5
  8
LAYER01
  6
CONTINUOUS
 62
     7
 10
1149.782899
 20
255.46795700000001
 30
0.0
 11
1153.217161
 21
252.83275499999999
 31
0.0
 12
1148.5653769999999
 22
253.88125099999999
 32
0.0
 13
1151.999638
 23
251.246049
 33
0.0
  0
LINE
  5
5D6
  8
LAYER01
  6
CONTINUOUS
 62
     7
 10
1128.1837230000001
 20
251.67605599999999
 30
0.0
 11
1133.8431700000001
 21
243.59352899999999
 31
0.0
  0
LINE
  5
5D7
  8
LAYER01
  6
CONTINUOUS
 62
     7
 10
1126.545419
 20
250.52890400000001
 30
0.0
 11
1132.204866
 21
242.44637599999999
 31
0.0
  0
LINE
  5
5D8
  8
LAYER01
  6
CONTINUOUS
 62
     7
 10
1128.1837230000001
 20
251.67605599999999
 30
0.0
 11
1126.545419
 21
250.52890400000001
 31
0.0
  0
LINE
  5
5D9
  8
LAYER01
  6
CONTINUOUS
 62
     7
 10
1133.8431700000001
 20
243.59352899999999
 30
0.0
 11
1132.204866
 21
242.44637599999999
 31
0.0
  0
SOLID
  5
5DA
  8
LAYER01
  6
CONTINUOUS
 62
     7
 10
1128.1837230000001
 20
251.67605599999999
 30
0.0
 11
1133.8431700000001
 21
243.59352899999999
 31
0.0
 12
1126.545419
 22
250.52890400000001
 32
0.0
 13
1132.204866
 23
242.44637599999999
 33
0.0
  0
LINE
  5
5DB
  8
LAYER01
  6
CONTINUOUS
 62
     7
 10
1127.527683
 20
252.612979
 30
0.0
 11
1128.1837230000001
 21
251.67605599999999
 31
0.0
  0
LINE
  5
5DC
  8
LAYER01
  6
CONTINUOUS
 62
     7
 10
1125.889379
 20
251.46582599999999
 30
0.0
 11
1126.545419
 21
250.52890400000001
 31
0.0
  0
LINE
  5
5DD
  8
LAYER01
  6
CONTINUOUS
 62
     7
 10
1127.527683
 20
252.612979
 30
0.0
 11
1125.889379
 21
251.46582599999999
 31
0.0
  0
LINE
  5
5DE
  8
LAYER01
  6
CONTINUOUS
 62
     7
 10
1128.1837230000001
 20
251.67605599999999
 30
0.0
 11
1126.545419
 21
250.52890400000001
 31
0.0
  0
SOLID
  5
5DF
  8
LAYER01
  6
CONTINUOUS
 62
     7
 10
1127.527683
 20
252.612979
 30
0.0
 11
1128.1837230000001
 21
251.67605599999999
 31
0.0
 12
1125.889379
 22
251.46582599999999
 32
0.0
 13
1126.545419
 23
250.52890400000001
 33
0.0
  0
LINE
  5
5E0
  8
LAYER01
  6
CONTINUOUS
 62
     7
 10
1125.682495
 20
255.24817999999999
 30
0.0
 11
1127.527683
 21
252.612979
 31
0.0
  0
LINE
  5
5E1
  8
LAYER01
  6
CONTINUOUS
 62
     7
 10
1124.044191
 20
254.10102699999999
 30
0.0
 11
1125.889379
 21
251.46582599999999
 31
0.0
  0
LINE
  5
5E2
  8
LAYER01
  6
CONTINUOUS
 62
     7
 10
1125.682495
 20
255.24817999999999
 30
0.0
 11
1124.044191
 21
254.10102699999999
 31
0.0
  0
LINE
  5
5E3
  8
LAYER01
  6
CONTINUOUS
 62
     7
 10
1127.527683
 20
252.612979
 30
0.0
 11
1125.889379
 21
251.46582599999999
 31
0.0
  0
SOLID
  5
5E4
  8
LAYER01
  6
CONTINUOUS
 62
     7
 10
1125.682495
 20
255.24817999999999
 30
0.0
 11
1127.527683
 21
252.612979
 31
0.0
 12
1124.044191
 22
254.10102699999999
 32
0.0
 13
1125.889379
 23
251.46582599999999
 33
0.0
  0
LINE
  5
5E5
  8
LAYER01
  6
CONTINUOUS
 62
     7
 10
1167.1715059999999
 20
250.10248000000001
 30
0.0
 11
1156.834582
 21
250.10248000000001
 31
0.0
  0
LINE
  5
5E6
  8
LAYER01
  6
CONTINUOUS
 62
     7
 10
1167.1715059999999
 20
252.10248000000001
 30
0.0
 11
1156.834582
 21
252.10248000000001
 31
0.0
  0
LINE
  5
5E7
  8
LAYER01
  6
CONTINUOUS
 62
     7
 10
1167.1715059999999
 20
250.10248000000001
 30
0.0
 11
1167.1715059999999
 21
252.10248000000001
 31
0.0
  0
LINE
  5
5E8
  8
LAYER01
  6
CONTINUOUS
 62
     7
 10
1156.834582
 20
250.10248000000001
 30
0.0
 11
1156.834582
 21
252.10248000000001
 31
0.0
  0
SOLID
  5
5E9
  8
LAYER01
  6
CONTINUOUS
 62
     7
 10
1167.1715059999999
 20
250.10248000000001
 30
0.0
 11
1156.834582
 21
250.10248000000001
 31
0.0
 12
1167.1715059999999
 22
252.10248000000001
 32
0.0
 13
1156.834582
 23
252.10248000000001
 33
0.0
  0
LINE
  5
5EA
  8
LAYER01
  6
CONTINUOUS
 62
     7
 10
1167.8142929999999
 20
251.86852400000001
 30
0.0
 11
1177.4466749999999
 21
243.78599700000001
 31
0.0
  0
LINE
  5
5EB
  8
LAYER01
  6
CONTINUOUS
 62
     7
 10
1166.528718
 20
250.33643599999999
 30
0.0
 11
1176.1611
 21
242.253908
 31
0.0
  0
LINE
  5
5EC
  8
LAYER01
  6
CONTINUOUS
 62
     7
 10
1167.8142929999999
 20
251.86852400000001
 30
0.0
 11
1166.528718
 21
250.33643599999999
 31
0.0
  0
LINE
  5
5ED
  8
LAYER01
  6
CONTINUOUS
 62
     7
 10
1177.4466749999999
 20
243.78599700000001
 30
0.0
 11
1176.1611
 21
242.253908
 31
0.0
  0
SOLID
  5
5EE
  8
LAYER01
  6
CONTINUOUS
 62
     7
 10
1167.8142929999999
 20
251.86852400000001
 30
0.0
 11
1177.4466749999999
 21
243.78599700000001
 31
0.0
 12
1166.528718
 22
250.33643599999999
 32
0.0
 13
1176.1611
 23
242.253908
 33
0.0
  0
LINE
  5
5EF
  8
LAYER01
  6
CONTINUOUS
 62
     7
 10
1152.8248390000001
 20
253.01569799999999
 30
0.0
 11
1157.0510220000001
 21
252.078776
 31
0.0
  0
LINE
  5
5F0
  8
LAYER01
  6
CONTINUOUS
 62
     7
 10
1152.3919599999999
 20
251.063106
 30
0.0
 11
1156.6181429999999
 21
250.12618399999999
 31
0.0
  0
LINE
  5
5F1
  8
LAYER01
  6
CONTINUOUS
 62
     7
 10
1152.8248390000001
 20
253.01569799999999
 30
0.0
 11
1152.3919599999999
 21
251.063106
 31
0.0
  0
LINE
  5
5F2
  8
LAYER01
  6
CONTINUOUS
 62
     7
 10
1157.0510220000001
 20
252.078776
 30
0.0
 11
1156.6181429999999
 21
250.12618399999999
 31
0.0
  0
SOLID
  5
5F3
  8
LAYER01
  6
CONTINUOUS
 62
     7
 10
1152.8248390000001
 20
253.01569799999999
 30
0.0
 11
1157.0510220000001
 21
252.078776
 31
0.0
 12
1152.3919599999999
 22
251.063106
 32
0.0
 13
1156.6181429999999
 23
250.12618399999999
 33
0.0
  0
LINE
  5
5F4
  8
LAYER01
  6
CONTINUOUS
 62
     7
 10
1062.4011820000001
 20
356.81003199999998
 30
0.0
 11
1052.4500439999999
 21
356.81003199999998
 31
0.0
  0
LINE
  5
5F5
  8
LAYER01
  6
CONTINUOUS
 62
     7
 10
1062.4011820000001
 20
358.81003199999998
 30
0.0
 11
1052.4500439999999
 21
358.81003199999998
 31
0.0
  0
LINE
  5
5F6
  8
LAYER01
  6
CONTINUOUS
 62
     7
 10
1062.4011820000001
 20
356.81003199999998
 30
0.0
 11
1062.4011820000001
 21
358.81003199999998
 31
0.0
  0
LINE
  5
5F7
  8
LAYER01
  6
CONTINUOUS
 62
     7
 10
1052.4500439999999
 20
356.81003199999998
 30
0.0
 11
1052.4500439999999
 21
358.81003199999998
 31
0.0
  0
SOLID
  5
5F8
  8
LAYER01
  6
CONTINUOUS
 62
     7
 10
1062.4011820000001
 20
356.81003199999998
 30
0.0
 11
1052.4500439999999
 21
356.81003199999998
 31
0.0
 12
1062.4011820000001
 22
358.81003199999998
 32
0.0
 13
1052.4500439999999
 23
358.81003199999998
 33
0.0
  0
LINE
  5
5F9
  8
LAYER01
  6
CONTINUOUS
 62
     7
 10
1085.3482939999999
 20
342.14711999999997
 30
0.0
 11
1090.011671
 21
335.87843199999998
 31
0.0
  0
LINE
  5
5FA
  8
LAYER01
  6
CONTINUOUS
 62
     7
 10
1083.74362
 20
340.95337699999999
 30
0.0
 11
1088.406997
 21
334.68468899999999
 31
0.0
  0
LINE
  5
5FB
  8
LAYER01
  6
CONTINUOUS
 62
     7
 10
1085.3482939999999
 20
342.14711999999997
 30
0.0
 11
1083.74362
 21
340.95337699999999
 31
0.0
  0
LINE
  5
5FC
  8
LAYER01
  6
CONTINUOUS
 62
     7
 10
1090.011671
 20
335.87843199999998
 30
0.0
 11
1088.406997
 21
334.68468899999999
 31
0.0
  0
SOLID
  5
5FD
  8
LAYER01
  6
CONTINUOUS
 62
     7
 10
1085.3482939999999
 20
342.14711999999997
 30
0.0
 11
1090.011671
 21
335.87843199999998
 31
0.0
 12
1083.74362
 22
340.95337699999999
 32
0.0
 13
1088.406997
 23
334.68468899999999
 33
0.0
  0
LINE
  5
5FE
  8
LAYER01
  6
CONTINUOUS
 62
     7
 10
1061.9330210000001
 20
342.30208800000003
 30
0.0
 11
1069.0810899999999
 21
336.03339999999997
 31
0.0
  0
LINE
  5
5FF
  8
LAYER01
  6
CONTINUOUS
 62
     7
 10
1060.6143300000001
 20
340.79840899999999
 30
0.0
 11
1067.7623980000001
 21
334.529721
 31
0.0
  0
LINE
  5
600
  8
LAYER01
  6
CONTINUOUS
 62
     7
 10
1061.9330210000001
 20
342.30208800000003
 30
0.0
 11
1060.6143300000001
 21
340.79840899999999
 31
0.0
  0
LINE
  5
601
  8
LAYER01
  6
CONTINUOUS
 62
     7
 10
1069.0810899999999
 20
336.03339999999997
 30
0.0
 11
1067.7623980000001
 21
334.529721
 31
0.0
  0
SOLID
  5
602
  8
LAYER01
  6
CONTINUOUS
 62
     7
 10
1061.9330210000001
 20
342.30208800000003
 30
0.0
 11
1069.0810899999999
 21
336.03339999999997
 31
0.0
 12
1060.6143300000001
 22
340.79840899999999
 32
0.0
 13
1067.7623980000001
 23
334.529721
 33
0.0
  0
LINE
  5
603
  8
LAYER01
  6
CONTINUOUS
 62
     7
 10
1083.667205
 20
344.406903
 30
0.0
 11
1085.3482939999999
 21
342.14711999999997
 31
0.0
  0
LINE
  5
604
  8
LAYER01
  6
CONTINUOUS
 62
     7
 10
1082.062531
 20
343.21316100000001
 30
0.0
 11
1083.74362
 21
340.95337699999999
 31
0.0
  0
LINE
  5
605
  8
LAYER01
  6
CONTINUOUS
 62
     7
 10
1083.667205
 20
344.406903
 30
0.0
 11
1082.062531
 21
343.21316100000001
 31
0.0
  0
LINE
  5
606
  8
LAYER01
  6
CONTINUOUS
 62
     7
 10
1085.3482939999999
 20
342.14711999999997
 30
0.0
 11
1083.74362
 21
340.95337699999999
 31
0.0
  0
SOLID
  5
607
  8
LAYER01
  6
CONTINUOUS
 62
     7
 10
1083.667205
 20
344.406903
 30
0.0
 11
1085.3482939999999
 21
342.14711999999997
 31
0.0
 12
1082.062531
 22
343.21316100000001
 32
0.0
 13
1083.74362
 23
340.95337699999999
 33
0.0
  0
LINE
  5
608
  8
LAYER01
  6
CONTINUOUS
 62
     7
 10
1079.2502589999999
 20
350.34432900000002
 30
0.0
 11
1083.667205
 21
344.406903
 31
0.0
  0
LINE
  5
609
  8
LAYER01
  6
CONTINUOUS
 62
     7
 10
1077.645585
 20
349.15058700000009
 30
0.0
 11
1082.062531
 21
343.21316100000001
 31
0.0
  0
LINE
  5
60A
  8
LAYER01
  6
CONTINUOUS
 62
     7
 10
1079.2502589999999
 20
350.34432900000002
 30
0.0
 11
1077.645585
 21
349.15058700000009
 31
0.0
  0
LINE
  5
60B
  8
LAYER01
  6
CONTINUOUS
 62
     7
 10
1083.667205
 20
344.406903
 30
0.0
 11
1082.062531
 21
343.21316100000001
 31
0.0
  0
SOLID
  5
60C
  8
LAYER01
  6
CONTINUOUS
 62
     7
 10
1079.2502589999999
 20
350.34432900000002
 30
0.0
 11
1083.667205
 21
344.406903
 31
0.0
 12
1077.645585
 22
349.15058700000009
 32
0.0
 13
1082.062531
 23
343.21316100000001
 33
0.0
  0
LINE
  5
60D
  8
LAYER01
  6
CONTINUOUS
 62
     7
 10
1036.4500439999999
 20
349.74745799999999
 30
0.0
 11
1036.4500439999999
 21
343.81003199999998
 31
0.0
  0
LINE
  5
60E
  8
LAYER01
  6
CONTINUOUS
 62
     7
 10
1034.4500439999999
 20
349.74745799999999
 30
0.0
 11
1034.4500439999999
 21
343.81003199999998
 31
0.0
  0
LINE
  5
60F
  8
LAYER01
  6
CONTINUOUS
 62
     7
 10
1036.4500439999999
 20
349.74745799999999
 30
0.0
 11
1034.4500439999999
 21
349.74745799999999
 31
0.0
  0
LINE
  5
610
  8
LAYER01
  6
CONTINUOUS
 62
     7
 10
1036.4500439999999
 20
343.81003199999998
 30
0.0
 11
1034.4500439999999
 21
343.81003199999998
 31
0.0
  0
SOLID
  5
611
  8
LAYER01
  6
CONTINUOUS
 62
     7
 10
1036.4500439999999
 20
349.74745799999999
 30
0.0
 11
1036.4500439999999
 21
343.81003199999998
 31
0.0
 12
1034.4500439999999
 22
349.74745799999999
 32
0.0
 13
1034.4500439999999
 23
343.81003199999998
 33
0.0
  0
LINE
  5
612
  8
LAYER01
  6
CONTINUOUS
 62
     7
 10
1072.023359
 20
356.44694900000002
 30
0.0
 11
1079.090915
 21
350.51333
 31
0.0
  0
LINE
  5
613
  8
LAYER01
  6
CONTINUOUS
 62
     7
 10
1070.7373720000001
 20
354.91520500000001
 30
0.0
 11
1077.8049289999999
 21
348.98158599999999
 31
0.0
  0
LINE
  5
614
  8
LAYER01
  6
CONTINUOUS
 62
     7
 10
1072.023359
 20
356.44694900000002
 30
0.0
 11
1070.7373720000001
 21
354.91520500000001
 31
0.0
  0
LINE
  5
615
  8
LAYER01
  6
CONTINUOUS
 62
     7
 10
1079.090915
 20
350.51333
 30
0.0
 11
1077.8049289999999
 21
348.98158599999999
 31
0.0
  0
SOLID
  5
616
  8
LAYER01
  6
CONTINUOUS
 62
     7
 10
1072.023359
 20
356.44694900000002
 30
0.0
 11
1079.090915
 21
350.51333
 31
0.0
 12
1070.7373720000001
 22
354.91520500000001
 32
0.0
 13
1077.8049289999999
 23
348.98158599999999
 33
0.0
  0
LINE
  5
617
  8
LAYER01
  6
CONTINUOUS
 62
     7
 10
1036.4500439999999
 20
355.68107700000002
 30
0.0
 11
1036.4500439999999
 21
349.74745799999999
 31
0.0
  0
LINE
  5
618
  8
LAYER01
  6
CONTINUOUS
 62
     7
 10
1034.4500439999999
 20
355.68107700000002
 30
0.0
 11
1034.4500439999999
 21
349.74745799999999
 31
0.0
  0
LINE
  5
619
  8
LAYER01
  6
CONTINUOUS
 62
     7
 10
1036.4500439999999
 20
355.68107700000002
 30
0.0
 11
1034.4500439999999
 21
355.68107700000002
 31
0.0
  0
LINE
  5
61A
  8
LAYER01
  6
CONTINUOUS
 62
     7
 10
1036.4500439999999
 20
349.74745799999999
 30
0.0
 11
1034.4500439999999
 21
349.74745799999999
 31
0.0
  0
SOLID
  5
61B
  8
LAYER01
  6
CONTINUOUS
 62
     7
 10
1036.4500439999999
 20
355.68107700000002
 30
0.0
 11
1036.4500439999999
 21
349.74745799999999
 31
0.0
 12
1034.4500439999999
 22
355.68107700000002
 32
0.0
 13
1034.4500439999999
 23
349.74745799999999
 33
0.0
  0
LINE
  5
61C
  8
LAYER01
  6
CONTINUOUS
 62
     7
 10
1062.631885
 20
358.78305599999999
 30
0.0
 11
1071.611069
 21
356.65410100000003
 31
0.0
  0
LINE
  5
61D
  8
LAYER01
  6
CONTINUOUS
 62
     7
 10
1062.1704789999999
 20
356.83700800000003
 30
0.0
 11
1071.1496629999999
 21
354.70805300000001
 31
0.0
  0
LINE
  5
61E
  8
LAYER01
  6
CONTINUOUS
 62
     7
 10
1062.631885
 20
358.78305599999999
 30
0.0
 11
1062.1704789999999
 21
356.83700800000003
 31
0.0
  0
LINE
  5
61F
  8
LAYER01
  6
CONTINUOUS
 62
     7
 10
1071.611069
 20
356.65410100000003
 30
0.0
 11
1071.1496629999999
 21
354.70805300000001
 31
0.0
  0
SOLID
  5
620
  8
LAYER01
  6
CONTINUOUS
 62
     7
 10
1062.631885
 20
358.78305599999999
 30
0.0
 11
1071.611069
 21
356.65410100000003
 31
0.0
 12
1062.1704789999999
 22
356.83700800000003
 32
0.0
 13
1071.1496629999999
 23
354.70805300000001
 33
0.0
  0
LINE
  5
621
  8
LAYER01
  6
CONTINUOUS
 62
     7
 10
1036.4500439999999
 20
357.81003199999998
 30
0.0
 11
1036.4500439999999
 21
355.68107700000002
 31
0.0
  0
LINE
  5
622
  8
LAYER01
  6
CONTINUOUS
 62
     7
 10
1034.4500439999999
 20
357.81003199999998
 30
0.0
 11
1034.4500439999999
 21
355.68107700000002
 31
0.0
  0
LINE
  5
623
  8
LAYER01
  6
CONTINUOUS
 62
     7
 10
1036.4500439999999
 20
357.81003199999998
 30
0.0
 11
1034.4500439999999
 21
357.81003199999998
 31
0.0
  0
LINE
  5
624
  8
LAYER01
  6
CONTINUOUS
 62
     7
 10
1036.4500439999999
 20
355.68107700000002
 30
0.0
 11
1034.4500439999999
 21
355.68107700000002
 31
0.0
  0
SOLID
  5
625
  8
LAYER01
  6
CONTINUOUS
 62
     7
 10
1036.4500439999999
 20
357.81003199999998
 30
0.0
 11
1036.4500439999999
 21
355.68107700000002
 31
0.0
 12
1034.4500439999999
 22
357.81003199999998
 32
0.0
 13
1034.4500439999999
 23
355.68107700000002
 33
0.0
  0
LINE
  5
626
  8
LAYER01
  6
CONTINUOUS
 62
     7
 10
1049.297194
 20
360.19837799999999
 30
0.0
 11
1052.8327280000001
 21
358.73391099999998
 31
0.0
  0
LINE
  5
627
  8
LAYER01
  6
CONTINUOUS
 62
     7
 10
1048.531827
 20
358.350618
 30
0.0
 11
1052.0673609999999
 21
356.88615199999998
 31
0.0
  0
LINE
  5
628
  8
LAYER01
  6
CONTINUOUS
 62
     7
 10
1049.297194
 20
360.19837799999999
 30
0.0
 11
1048.531827
 21
358.350618
 31
0.0
  0
LINE
  5
629
  8
LAYER01
  6
CONTINUOUS
 62
     7
 10
1052.8327280000001
 20
358.73391099999998
 30
0.0
 11
1052.0673609999999
 21
356.88615199999998
 31
0.0
  0
SOLID
  5
62A
  8
LAYER01
  6
CONTINUOUS
 62
     7
 10
1049.297194
 20
360.19837799999999
 30
0.0
 11
1052.8327280000001
 21
358.73391099999998
 31
0.0
 12
1048.531827
 22
358.350618
 32
0.0
 13
1052.0673609999999
 23
356.88615199999998
 33
0.0
  0
LINE
  5
62B
  8
LAYER01
  6
CONTINUOUS
 62
     7
 10
1036.4500439999999
 20
359.27449799999999
 30
0.0
 11
1036.4500439999999
 21
357.81003199999998
 31
0.0
  0
LINE
  5
62C
  8
LAYER01
  6
CONTINUOUS
 62
     7
 10
1034.4500439999999
 20
359.27449799999999
 30
0.0
 11
1034.4500439999999
 21
357.81003199999998
 31
0.0
  0
LINE
  5
62D
  8
LAYER01
  6
CONTINUOUS
 62
     7
 10
1036.4500439999999
 20
359.27449799999999
 30
0.0
 11
1034.4500439999999
 21
359.27449799999999
 31
0.0
  0
LINE
  5
62E
  8
LAYER01
  6
CONTINUOUS
 62
     7
 10
1036.4500439999999
 20
357.81003199999998
 30
0.0
 11
1034.4500439999999
 21
357.81003199999998
 31
0.0
  0
SOLID
  5
62F
  8
LAYER01
  6
CONTINUOUS
 62
     7
 10
1036.4500439999999
 20
359.27449799999999
 30
0.0
 11
1036.4500439999999
 21
357.81003199999998
 31
0.0
 12
1034.4500439999999
 22
359.27449799999999
 32
0.0
 13
1034.4500439999999
 23
357.81003199999998
 33
0.0
  0
LINE
  5
630
  8
LAYER01
  6
CONTINUOUS
 62
     7
 10
1048.373924
 20
363.19271500000002
 30
0.0
 11
1049.8383899999999
 21
359.65718099999998
 31
0.0
  0
LINE
  5
631
  8
LAYER01
  6
CONTINUOUS
 62
     7
 10
1046.526165
 20
362.42734799999999
 30
0.0
 11
1047.9906309999999
 21
358.89181500000001
 31
0.0
  0
LINE
  5
632
  8
LAYER01
  6
CONTINUOUS
 62
     7
 10
1048.373924
 20
363.19271500000002
 30
0.0
 11
1046.526165
 21
362.42734799999999
 31
0.0
  0
LINE
  5
633
  8
LAYER01
  6
CONTINUOUS
 62
     7
 10
1049.8383899999999
 20
359.65718099999998
 30
0.0
 11
1047.9906309999999
 21
358.89181500000001
 31
0.0
  0
SOLID
  5
634
  8
LAYER01
  6
CONTINUOUS
 62
     7
 10
1048.373924
 20
363.19271500000002
 30
0.0
 11
1049.8383899999999
 21
359.65718099999998
 31
0.0
 12
1046.526165
 22
362.42734799999999
 32
0.0
 13
1047.9906309999999
 23
358.89181500000001
 33
0.0
  0
LINE
  5
635
  8
LAYER01
  6
CONTINUOUS
 62
     7
 10
1036.4500439999999
 20
362.81003199999998
 30
0.0
 11
1036.4500439999999
 21
359.27449799999999
 31
0.0
  0
LINE
  5
636
  8
LAYER01
  6
CONTINUOUS
 62
     7
 10
1034.4500439999999
 20
362.81003199999998
 30
0.0
 11
1034.4500439999999
 21
359.27449799999999
 31
0.0
  0
LINE
  5
637
  8
LAYER01
  6
CONTINUOUS
 62
     7
 10
1036.4500439999999
 20
362.81003199999998
 30
0.0
 11
1034.4500439999999
 21
362.81003199999998
 31
0.0
  0
LINE
  5
638
  8
LAYER01
  6
CONTINUOUS
 62
     7
 10
1036.4500439999999
 20
359.27449799999999
 30
0.0
 11
1034.4500439999999
 21
359.27449799999999
 31
0.0
  0
SOLID
  5
639
  8
LAYER01
  6
CONTINUOUS
 62
     7
 10
1036.4500439999999
 20
362.81003199999998
 30
0.0
 11
1036.4500439999999
 21
359.27449799999999
 31
0.0
 12
1034.4500439999999
 22
362.81003199999998
 32
0.0
 13
1034.4500439999999
 23
359.27449799999999
 33
0.0
  0
LINE
  5
63A
  8
LAYER01
  6
CONTINUOUS
 62
     7
 10
1046.9094580000001
 20
366.72824900000001
 30
0.0
 11
1048.373924
 21
363.19271500000002
 31
0.0
  0
LINE
  5
63B
  8
LAYER01
  6
CONTINUOUS
 62
     7
 10
1045.0616990000001
 20
365.96288199999998
 30
0.0
 11
1046.526165
 21
362.42734799999999
 31
0.0
  0
LINE
  5
63C
  8
LAYER01
  6
CONTINUOUS
 62
     7
 10
1046.9094580000001
 20
366.72824900000001
 30
0.0
 11
1045.0616990000001
 21
365.96288199999998
 31
0.0
  0
LINE
  5
63D
  8
LAYER01
  6
CONTINUOUS
 62
     7
 10
1048.373924
 20
363.19271500000002
 30
0.0
 11
1046.526165
 21
362.42734799999999
 31
0.0
  0
SOLID
  5
63E
  8
LAYER01
  6
CONTINUOUS
 62
     7
 10
1046.9094580000001
 20
366.72824900000001
 30
0.0
 11
1048.373924
 21
363.19271500000002
 31
0.0
 12
1045.0616990000001
 22
365.96288199999998
 32
0.0
 13
1046.526165
 23
362.42734799999999
 33
0.0
  0
LINE
  5
63F
  8
LAYER01
  6
CONTINUOUS
 62
     7
 10
1037.8383899999999
 20
365.96288199999998
 30
0.0
 11
1036.373924
 21
362.42734799999999
 31
0.0
  0
LINE
  5
640
  8
LAYER01
  6
CONTINUOUS
 62
     7
 10
1035.9906309999999
 20
366.72824900000001
 30
0.0
 11
1034.526165
 21
363.19271500000002
 31
0.0
  0
LINE
  5
641
  8
LAYER01
  6
CONTINUOUS
 62
     7
 10
1037.8383899999999
 20
365.96288199999998
 30
0.0
 11
1035.9906309999999
 21
366.72824900000001
 31
0.0
  0
LINE
  5
642
  8
LAYER01
  6
CONTINUOUS
 62
     7
 10
1036.373924
 20
362.42734799999999
 30
0.0
 11
1034.526165
 21
363.19271500000002
 31
0.0
  0
SOLID
  5
643
  8
LAYER01
  6
CONTINUOUS
 62
     7
 10
1037.8383899999999
 20
365.96288199999998
 30
0.0
 11
1036.373924
 21
362.42734799999999
 31
0.0
 12
1035.9906309999999
 22
366.72824900000001
 32
0.0
 13
1034.526165
 23
363.19271500000002
 33
0.0
  0
LINE
  5
644
  8
LAYER01
  6
CONTINUOUS
 62
     7
 10
1047.4500439999999
 20
363.81003199999998
 30
0.0
 11
1047.4500439999999
 21
361.81003199999998
 31
0.0
  0
LINE
  5
645
  8
LAYER01
  6
CONTINUOUS
 62
     7
 10
1047.4500439999999
 20
361.81003199999998
 30
0.0
 11
1047.4500439999999
 21
363.81003199999998
 31
0.0
  0
LINE
  5
646
  8
LAYER01
  6
CONTINUOUS
 62
     7
 10
1047.4500439999999
 20
363.81003199999998
 30
0.0
 11
1047.4500439999999
 21
361.81003199999998
 31
0.0
  0
LINE
  5
647
  8
LAYER01
  6
CONTINUOUS
 62
     7
 10
1047.4500439999999
 20
361.81003199999998
 30
0.0
 11
1047.4500439999999
 21
363.81003199999998
 31
0.0
  0
SOLID
  5
648
  8
LAYER01
  6
CONTINUOUS
 62
     7
 10
1047.4500439999999
 20
363.81003199999998
 30
0.0
 11
1047.4500439999999
 21
361.81003199999998
 31
0.0
 12
1047.4500439999999
 22
361.81003199999998
 32
0.0
 13
1047.4500439999999
 23
363.81003199999998
 33
0.0
  0
LINE
  5
649
  8
LAYER01
  6
CONTINUOUS
 62
     7
 10
1043.7461450000001
 20
368.35556200000002
 30
0.0
 11
1046.368262
 21
367.26944500000002
 31
0.0
  0
LINE
  5
64A
  8
LAYER01
  6
CONTINUOUS
 62
     7
 10
1042.9807780000001
 20
366.50780300000002
 30
0.0
 11
1045.602895
 21
365.42168600000002
 31
0.0
  0
LINE
  5
64B
  8
LAYER01
  6
CONTINUOUS
 62
     7
 10
1043.7461450000001
 20
368.35556200000002
 30
0.0
 11
1042.9807780000001
 21
366.50780300000002
 31
0.0
  0
LINE
  5
64C
  8
LAYER01
  6
CONTINUOUS
 62
     7
 10
1046.368262
 20
367.26944500000002
 30
0.0
 11
1045.602895
 21
365.42168600000002
 31
0.0
  0
SOLID
  5
64D
  8
LAYER01
  6
CONTINUOUS
 62
     7
 10
1043.7461450000001
 20
368.35556200000002
 30
0.0
 11
1046.368262
 21
367.26944500000002
 31
0.0
 12
1042.9807780000001
 22
366.50780300000002
 32
0.0
 13
1045.602895
 23
365.42168600000002
 33
0.0
  0
LINE
  5
64E
  8
LAYER01
  6
CONTINUOUS
 62
     7
 10
1039.9193110000001
 20
366.50780300000002
 30
0.0
 11
1037.297194
 21
365.42168600000002
 31
0.0
  0
LINE
  5
64F
  8
LAYER01
  6
CONTINUOUS
 62
     7
 10
1039.1539439999999
 20
368.35556200000002
 30
0.0
 11
1036.531827
 21
367.26944500000002
 31
0.0
  0
LINE
  5
650
  8
LAYER01
  6
CONTINUOUS
 62
     7
 10
1039.9193110000001
 20
366.50780300000002
 30
0.0
 11
1039.1539439999999
 21
368.35556200000002
 31
0.0
  0
LINE
  5
651
  8
LAYER01
  6
CONTINUOUS
 62
     7
 10
1037.297194
 20
365.42168600000002
 30
0.0
 11
1036.531827
 21
367.26944500000002
 31
0.0
  0
SOLID
  5
652
  8
LAYER01
  6
CONTINUOUS
 62
     7
 10
1039.9193110000001
 20
366.50780300000002
 30
0.0
 11
1037.297194
 21
365.42168600000002
 31
0.0
 12
1039.1539439999999
 22
368.35556200000002
 32
0.0
 13
1036.531827
 23
367.26944500000002
 33
0.0
  0
ARC
  5
653
  8
LAYER01
  6
CONTINUOUS
 62
     7
 10
1041.4500439999999
 20
362.81228399999998
 30
0.0
 40
4.0
 50
67.5
 51
112.5
  0
ARC
  5
654
  8
LAYER01
  6
CONTINUOUS
 62
     7
 10
1041.4500439999999
 20
362.81228399999998
 30
0.0
 40
6.0
 50
67.5
 51
112.5
  0
LINE
  5
655
  8
LAYER01
  6
CONTINUOUS
 62
     7
 10
1043.7461450000001
 20
368.35556200000002
 30
0.0
 11
1042.9807780000001
 21
366.50780300000002
 31
0.0
  0
LINE
  5
656
  8
LAYER01
  6
CONTINUOUS
 62
     7
 10
1039.1539439999999
 20
368.35556200000002
 30
0.0
 11
1039.9193110000001
 21
366.50780300000002
 31
0.0
  0
LINE
  5
657
  8
LAYER01
  6
CONTINUOUS
 62
     7
 10
1053.87616
 20
344.38991299999998
 30
0.0
 11
1061.511362
 21
342.521591
 31
0.0
  0
LINE
  5
658
  8
LAYER01
  6
CONTINUOUS
 62
     7
 10
1053.4007879999999
 20
342.447228
 30
0.0
 11
1061.0359900000001
 21
340.5789069999999
 31
0.0
  0
LINE
  5
659
  8
LAYER01
  6
CONTINUOUS
 62
     7
 10
1053.87616
 20
344.38991299999998
 30
0.0
 11
1053.4007879999999
 21
342.447228
 31
0.0
  0
LINE
  5
65A
  8
LAYER01
  6
CONTINUOUS
 62
     7
 10
1061.511362
 20
342.521591
 30
0.0
 11
1061.0359900000001
 21
340.5789069999999
 31
0.0
  0
SOLID
  5
65B
  8
LAYER01
  6
CONTINUOUS
 62
     7
 10
1053.87616
 20
344.38991299999998
 30
0.0
 11
1061.511362
 21
342.521591
 31
0.0
 12
1053.4007879999999
 22
342.447228
 32
0.0
 13
1061.0359900000001
 23
340.5789069999999
 33
0.0
  0
LINE
  5
65C
  8
LAYER01
  6
CONTINUOUS
 62
     7
 10
1048.4500439999999
 20
338.56186000000002
 30
0.0
 11
1048.4500439999999
 21
179.348702
 31
0.0
  0
LINE
  5
65D
  8
LAYER01
  6
CONTINUOUS
 62
     7
 10
1046.4500439999999
 20
338.56186000000002
 30
0.0
 11
1046.4500439999999
 21
179.348702
 31
0.0
  0
LINE
  5
65E
  8
LAYER01
  6
CONTINUOUS
 62
     7
 10
1048.4500439999999
 20
338.56186000000002
 30
0.0
 11
1046.4500439999999
 21
338.56186000000002
 31
0.0
  0
LINE
  5
65F
  8
LAYER01
  6
CONTINUOUS
 62
     7
 10
1048.4500439999999
 20
179.348702
 30
0.0
 11
1046.4500439999999
 21
179.348702
 31
0.0
  0
SOLID
  5
660
  8
LAYER01
  6
CONTINUOUS
 62
     7
 10
1048.4500439999999
 20
338.56186000000002
 30
0.0
 11
1048.4500439999999
 21
179.348702
 31
0.0
 12
1046.4500439999999
 22
338.56186000000002
 32
0.0
 13
1046.4500439999999
 23
179.348702
 33
0.0
  0
ARC
  5
661
  8
LAYER01
  6
CONTINUOUS
 62
     7
 10
1052.4500439999999
 20
338.56186000000002
 30
0.0
 40
4.0
 50
76.25
 51
180.0
  0
ARC
  5
662
  8
LAYER01
  6
CONTINUOUS
 62
     7
 10
1052.4500439999999
 20
338.56186000000002
 30
0.0
 40
6.0
 50
76.25
 51
180.0
  0
LINE
  5
663
  8
LAYER01
  6
CONTINUOUS
 62
     7
 10
1053.87616
 20
344.38991299999998
 30
0.0
 11
1053.4007879999999
 21
342.447228
 31
0.0
  0
LINE
  5
664
  8
LAYER01
  6
CONTINUOUS
 62
     7
 10
1046.4500439999999
 20
338.56186000000002
 30
0.0
 11
1048.4500439999999
 21
338.56186000000002
 31
0.0
  0
TEXT
  5
665
  8
LAYER01
  6
VERDECKT
 62
     1
 10
1497.5058819999999
 20
-644.57854899999995
 30
0.0
 40
35.0
  1
A. Sprenger GmbH
  7
SIMPLEX
  0
TEXT
  5
666
  8
LAYER01
  6
VERDECKT
 62
     1
 10
1589.8271010000001
 20
-554.30891199999985
 30
0.0
 40
14.0
  1
1 : 10 (DIN A1)
  7
SIMPLEX
  0
TEXT
  5
667
  8
LAYER01
  6
VERDECKT
 62
     1
 10
1497.5058819999999
 20
-782.03458599999988
 30
0.0
 40
49.0
  1
Active 400
  7
SIMPLEX
  0
TEXT
  5
668
  8
LAYER01
  6
CONTINUOUS
 62
     7
 10
1486.1516630000001
 20
-427.82821300000001
 30
0.0
 40
10.5
  1
Diese Zeichnung ist geistiges Eigentum der A. Sprenger GmbH
  7
SIMPLEX
  0
TEXT
  5
669
  8
LAYER01
  6
CONTINUOUS
 62
     7
 10
1486.1516630000001
 20
-445.82821299999989
 30
0.0
 40
10.5
  1
und urheberrechtlich geschützt. Ohne unsere Zustimmung darf 
  7
SIMPLEX
  0
TEXT
  5
66A
  8
LAYER01
  6
CONTINUOUS
 62
     7
 10
1486.1516630000001
 20
-463.82821300000001
 30
0.0
 40
10.5
  1
sie in keiner Form verwendet oder Dritten zugänglich gemacht
  7
SIMPLEX
  0
TEXT
  5
66B
  8
LAYER01
  6
CONTINUOUS
 62
     7
 10
1486.1516630000001
 20
-481.82821300000001
 30
0.0
 40
10.5
  1
werden. (§106 Urheberrecht)
  7
SIMPLEX
  0
TEXT
  5
66C
  8
LAYER01
  6
VERDECKT
 62
     1
 10
1307.793412
 20
-725.66841699999986
 30
0.0
 40
14.0
  1
b.s.
  7
SIMPLEX
  0
TEXT
  5
66D
  8
LAYER01
  6
VERDECKT
 62
     1
 10
1950.6471320000001
 20
-554.30891199999985
 30
0.0
 40
14.0
  1
active40.skd
  7
SIMPLEX
  0
DIMENSION
  5
66E
  8
LAYER01
 62
     7
  2
*D32
 10
1718.393601
 20
408.34870199999989
 30
0.0
 11
1648.393601
 21
305.77206699999999
 31
0.0
 70
     0
 53
90.0
 13
1561.0137569999999
 23
203.348702
 33
0.0
 14
1561.0137569999999
 24
408.34870199999989
 34
0.0
 50
90.0
  0
LINE
  5
66F
  8
LAYER01
  6
CONTINUOUS
 62
     7
 10
1437.4265339999999
 20
403.34870199999989
 30
0.0
 11
1437.4265339999999
 21
368.348702
 31
0.0
  0
LINE
  5
670
  8
LAYER01
  6
CONTINUOUS
 62
     7
 10
1449.4265339999999
 20
403.34870199999989
 30
0.0
 11
1449.4265339999999
 21
368.348702
 31
0.0
  0
SOLID
  5
671
  8
LAYER01
  6
CONTINUOUS
 62
     7
 10
1442.4265339999999
 20
408.34870199999989
 30
0.0
 11
1441.903892
 21
408.32131099999992
 31
0.0
 12
1449.4265339999999
 22
408.32131099999992
 32
0.0
 13
1449.4265339999999
 23
408.32131099999992
 33
0.0
  0
LINE
  5
672
  8
LAYER01
  6
CONTINUOUS
 62
     7
 10
1442.4265339999999
 20
408.34870199999989
 30
0.0
 11
1441.903892
 21
408.32131099999992
 31
0.0
  0
LINE
  5
673
  8
LAYER01
  6
CONTINUOUS
 62
     7
 10
1449.4265339999999
 20
408.34870199999989
 30
0.0
 11
1449.4265339999999
 21
408.32131099999992
 31
0.0
  0
LINE
  5
674
  8
LAYER01
  6
CONTINUOUS
 62
     7
 10
1441.903892
 20
408.32131099999992
 30
0.0
 11
1441.3869749999999
 21
408.23944
 31
0.0
  0
LINE
  5
675
  8
LAYER01
  6
CONTINUOUS
 62
     7
 10
1449.4265339999999
 20
408.32131099999992
 30
0.0
 11
1449.4265339999999
 21
408.23944
 31
0.0
  0
LINE
  5
676
  8
LAYER01
  6
CONTINUOUS
 62
     7
 10
1441.3869749999999
 20
408.23944
 30
0.0
 11
1440.881449
 21
408.10398500000002
 31
0.0
  0
LINE
  5
677
  8
LAYER01
  6
CONTINUOUS
 62
     7
 10
1449.4265339999999
 20
408.23944
 30
0.0
 11
1449.4265339999999
 21
408.10398500000002
 31
0.0
  0
LINE
  5
678
  8
LAYER01
  6
CONTINUOUS
 62
     7
 10
1440.881449
 20
408.10398500000002
 30
0.0
 11
1440.3928510000001
 21
407.91642899999988
 31
0.0
  0
LINE
  5
679
  8
LAYER01
  6
CONTINUOUS
 62
     7
 10
1449.4265339999999
 20
408.10398500000002
 30
0.0
 11
1449.4265339999999
 21
407.91642899999988
 31
0.0
  0
LINE
  5
67A
  8
LAYER01
  6
CONTINUOUS
 62
     7
 10
1440.3928510000001
 20
407.91642899999988
 30
0.0
 11
1439.9265339999999
 21
407.67882900000001
 31
0.0
  0
LINE
  5
67B
  8
LAYER01
  6
CONTINUOUS
 62
     7
 10
1449.4265339999999
 20
407.91642899999988
 30
0.0
 11
1449.4265339999999
 21
407.67882900000001
 31
0.0
  0
LINE
  5
67C
  8
LAYER01
  6
CONTINUOUS
 62
     7
 10
1439.9265339999999
 20
407.67882900000001
 30
0.0
 11
1439.4876079999999
 21
407.39378699999992
 31
0.0
  0
LINE
  5
67D
  8
LAYER01
  6
CONTINUOUS
 62
     7
 10
1449.4265339999999
 20
407.67882900000001
 30
0.0
 11
1449.4265339999999
 21
407.39378699999992
 31
0.0
  0
LINE
  5
67E
  8
LAYER01
  6
CONTINUOUS
 62
     7
 10
1439.4876079999999
 20
407.39378699999992
 30
0.0
 11
1439.0808810000001
 21
407.06442599999991
 31
0.0
  0
LINE
  5
67F
  8
LAYER01
  6
CONTINUOUS
 62
     7
 10
1449.4265339999999
 20
407.39378699999992
 30
0.0
 11
1449.4265339999999
 21
407.06442599999991
 31
0.0
  0
LINE
  5
680
  8
LAYER01
  6
CONTINUOUS
 62
     7
 10
1439.0808810000001
 20
407.06442599999991
 30
0.0
 11
1438.71081
 21
406.69435499999992
 31
0.0
  0
LINE
  5
681
  8
LAYER01
  6
CONTINUOUS
 62
     7
 10
1449.4265339999999
 20
407.06442599999991
 30
0.0
 11
1449.4265339999999
 21
406.69435499999992
 31
0.0
  0
LINE
  5
682
  8
LAYER01
  6
CONTINUOUS
 62
     7
 10
1438.71081
 20
406.69435499999992
 30
0.0
 11
1438.381449
 21
406.28762799999998
 31
0.0
  0
LINE
  5
683
  8
LAYER01
  6
CONTINUOUS
 62
     7
 10
1449.4265339999999
 20
406.69435499999992
 30
0.0
 11
1449.4265339999999
 21
406.28762799999998
 31
0.0
  0
LINE
  5
684
  8
LAYER01
  6
CONTINUOUS
 62
     7
 10
1438.381449
 20
406.28762799999998
 30
0.0
 11
1438.096407
 21
405.848702
 31
0.0
  0
LINE
  5
685
  8
LAYER01
  6
CONTINUOUS
 62
     7
 10
1449.4265339999999
 20
406.28762799999998
 30
0.0
 11
1449.4265339999999
 21
405.848702
 31
0.0
  0
LINE
  5
686
  8
LAYER01
  6
CONTINUOUS
 62
     7
 10
1438.096407
 20
405.848702
 30
0.0
 11
1437.8588070000001
 21
405.38238499999989
 31
0.0
  0
LINE
  5
687
  8
LAYER01
  6
CONTINUOUS
 62
     7
 10
1449.4265339999999
 20
405.848702
 30
0.0
 11
1449.4265339999999
 21
405.38238499999989
 31
0.0
  0
LINE
  5
688
  8
LAYER01
  6
CONTINUOUS
 62
     7
 10
1437.8588070000001
 20
405.38238499999989
 30
0.0
 11
1437.671251
 21
404.89378699999997
 31
0.0
  0
LINE
  5
689
  8
LAYER01
  6
CONTINUOUS
 62
     7
 10
1449.4265339999999
 20
405.38238499999989
 30
0.0
 11
1449.4265339999999
 21
404.89378699999997
 31
0.0
  0
LINE
  5
68A
  8
LAYER01
  6
CONTINUOUS
 62
     7
 10
1437.671251
 20
404.89378699999997
 30
0.0
 11
1437.5357959999999
 21
404.38825999999989
 31
0.0
  0
LINE
  5
68B
  8
LAYER01
  6
CONTINUOUS
 62
     7
 10
1449.4265339999999
 20
404.89378699999997
 30
0.0
 11
1449.4265339999999
 21
404.38825999999989
 31
0.0
  0
LINE
  5
68C
  8
LAYER01
  6
CONTINUOUS
 62
     7
 10
1437.5357959999999
 20
404.38825999999989
 30
0.0
 11
1437.4539239999999
 21
403.87134400000002
 31
0.0
  0
LINE
  5
68D
  8
LAYER01
  6
CONTINUOUS
 62
     7
 10
1449.4265339999999
 20
404.38825999999989
 30
0.0
 11
1449.4265339999999
 21
403.87134400000002
 31
0.0
  0
LINE
  5
68E
  8
LAYER01
  6
CONTINUOUS
 62
     7
 10
1437.4539239999999
 20
403.87134400000002
 30
0.0
 11
1437.4265339999999
 21
403.34870199999989
 31
0.0
  0
LINE
  5
68F
  8
LAYER01
  6
CONTINUOUS
 62
     7
 10
1449.4265339999999
 20
403.87134400000002
 30
0.0
 11
1449.4265339999999
 21
403.34870199999989
 31
0.0
  0
LINE
  5
690
  8
LAYER01
  6
CONTINUOUS
 62
     7
 10
1435.4235530000001
 20
341.47912300000002
 30
0.0
 11
1438.4262980000001
 21
203.370439
 31
0.0
  0
LINE
  5
691
  8
LAYER01
  6
CONTINUOUS
 62
     7
 10
1433.4240259999999
 20
341.43564900000001
 30
0.0
 11
1436.42677
 21
203.326965
 31
0.0
  0
LINE
  5
692
  8
LAYER01
  6
CONTINUOUS
 62
     7
 10
1435.4235530000001
 20
341.47912300000002
 30
0.0
 11
1433.4240259999999
 21
341.43564900000001
 31
0.0
  0
LINE
  5
693
  8
LAYER01
  6
CONTINUOUS
 62
     7
 10
1438.4262980000001
 20
203.370439
 30
0.0
 11
1436.42677
 21
203.326965
 31
0.0
  0
SOLID
  5
694
  8
LAYER01
  6
CONTINUOUS
 62
     7
 10
1435.4235530000001
 20
341.47912300000002
 30
0.0
 11
1438.4262980000001
 21
203.370439
 31
0.0
 12
1433.4240259999999
 22
341.43564900000001
 32
0.0
 13
1436.42677
 23
203.326965
 33
0.0
  0
LINE
  5
695
  8
LAYER01
  6
CONTINUOUS
 62
     7
 10
1450.4265339999999
 20
341.45738599999999
 30
0.0
 11
1450.4265339999999
 21
203.348702
 31
0.0
  0
LINE
  5
696
  8
LAYER01
  6
CONTINUOUS
 62
     7
 10
1448.4265339999999
 20
341.45738599999999
 30
0.0
 11
1448.4265339999999
 21
203.348702
 31
0.0
  0
LINE
  5
697
  8
LAYER01
  6
CONTINUOUS
 62
     7
 10
1450.4265339999999
 20
341.45738599999999
 30
0.0
 11
1448.4265339999999
 21
341.45738599999999
 31
0.0
  0
LINE
  5
698
  8
LAYER01
  6
CONTINUOUS
 62
     7
 10
1450.4265339999999
 20
203.348702
 30
0.0
 11
1448.4265339999999
 21
203.348702
 31
0.0
  0
SOLID
  5
699
  8
LAYER01
  6
CONTINUOUS
 62
     7
 10
1450.4265339999999
 20
341.45738599999999
 30
0.0
 11
1450.4265339999999
 21
203.348702
 31
0.0
 12
1448.4265339999999
 22
341.45738599999999
 32
0.0
 13
1448.4265339999999
 23
203.348702
 33
0.0
  0
LINE
  5
69A
  8
LAYER01
  6
CONTINUOUS
 62
     7
 10
1326.624699
 20
343.91985199999999
 30
0.0
 11
1251.1996810000001
 21
254.03181599999999
 31
0.0
  0
LINE
  5
69B
  8
LAYER01
  6
CONTINUOUS
 62
     7
 10
1325.0926099999999
 20
345.20542799999998
 30
0.0
 11
1249.667592
 21
255.31739099999999
 31
0.0
  0
LINE
  5
69C
  8
LAYER01
  6
CONTINUOUS
 62
     7
 10
1326.624699
 20
343.91985199999999
 30
0.0
 11
1325.0926099999999
 21
345.20542799999998
 31
0.0
  0
LINE
  5
69D
  8
LAYER01
  6
CONTINUOUS
 62
     7
 10
1251.1996810000001
 20
254.03181599999999
 30
0.0
 11
1249.667592
 21
255.31739099999999
 31
0.0
  0
SOLID
  5
69E
  8
LAYER01
  6
CONTINUOUS
 62
     7
 10
1326.624699
 20
343.91985199999999
 30
0.0
 11
1251.1996810000001
 21
254.03181599999999
 31
0.0
 12
1325.0926099999999
 22
345.20542799999998
 32
0.0
 13
1249.667592
 23
255.31739099999999
 33
0.0
  0
LINE
  5
69F
  8
LAYER01
  6
CONTINUOUS
 62
     7
 10
1348.693894
 20
343.91985199999999
 30
0.0
 11
1273.2688760000001
 21
254.03181599999999
 31
0.0
  0
LINE
  5
6A0
  8
LAYER01
  6
CONTINUOUS
 62
     7
 10
1347.1618060000001
 20
345.20542799999998
 30
0.0
 11
1271.7367879999999
 21
255.31739099999999
 31
0.0
  0
LINE
  5
6A1
  8
LAYER01
  6
CONTINUOUS
 62
     7
 10
1348.693894
 20
343.91985199999999
 30
0.0
 11
1347.1618060000001
 21
345.20542799999998
 31
0.0
  0
LINE
  5
6A2
  8
LAYER01
  6
CONTINUOUS
 62
     7
 10
1273.2688760000001
 20
254.03181599999999
 30
0.0
 11
1271.7367879999999
 21
255.31739099999999
 31
0.0
  0
SOLID
  5
6A3
  8
LAYER01
  6
CONTINUOUS
 62
     7
 10
1348.693894
 20
343.91985199999999
 30
0.0
 11
1273.2688760000001
 21
254.03181599999999
 31
0.0
 12
1347.1618060000001
 22
345.20542799999998
 32
0.0
 13
1271.7367879999999
 23
255.31739099999999
 33
0.0
  0
LINE
  5
6A4
  8
LAYER01
  6
CONTINUOUS
 62
     7
 10
1233.079056
 20
250.33643599999999
 30
0.0
 11
1223.4466749999999
 21
242.253908
 31
0.0
  0
LINE
  5
6A5
  8
LAYER01
  6
CONTINUOUS
 62
     7
 10
1231.7934809999999
 20
251.86852400000001
 30
0.0
 11
1222.1611
 21
243.78599700000001
 31
0.0
  0
LINE
  5
6A6
  8
LAYER01
  6
CONTINUOUS
 62
     7
 10
1233.079056
 20
250.33643599999999
 30
0.0
 11
1231.7934809999999
 21
251.86852400000001
 31
0.0
  0
LINE
  5
6A7
  8
LAYER01
  6
CONTINUOUS
 62
     7
 10
1223.4466749999999
 20
242.253908
 30
0.0
 11
1222.1611
 21
243.78599700000001
 31
0.0
  0
SOLID
  5
6A8
  8
LAYER01
  6
CONTINUOUS
 62
     7
 10
1233.079056
 20
250.33643599999999
 30
0.0
 11
1223.4466749999999
 21
242.253908
 31
0.0
 12
1231.7934809999999
 22
251.86852400000001
 32
0.0
 13
1222.1611
 23
243.78599700000001
 33
0.0
  0
LINE
  5
6A9
  8
LAYER01
  6
CONTINUOUS
 62
     7
 10
1223.8038710000001
 20
243.014309
 30
0.0
 11
1223.723753
 21
228.81831600000001
 31
0.0
  0
LINE
  5
6AA
  8
LAYER01
  6
CONTINUOUS
 62
     7
 10
1221.803903
 20
243.02559600000001
 30
0.0
 11
1221.7237849999999
 21
228.82960299999999
 31
0.0
  0
LINE
  5
6AB
  8
LAYER01
  6
CONTINUOUS
 62
     7
 10
1223.8038710000001
 20
243.014309
 30
0.0
 11
1221.803903
 21
243.02559600000001
 31
0.0
  0
LINE
  5
6AC
  8
LAYER01
  6
CONTINUOUS
 62
     7
 10
1223.723753
 20
228.81831600000001
 30
0.0
 11
1221.7237849999999
 21
228.82960299999999
 31
0.0
  0
SOLID
  5
6AD
  8
LAYER01
  6
CONTINUOUS
 62
     7
 10
1223.8038710000001
 20
243.014309
 30
0.0
 11
1223.723753
 21
228.81831600000001
 31
0.0
 12
1221.803903
 22
243.02559600000001
 32
0.0
 13
1221.7237849999999
 23
228.82960299999999
 33
0.0
  0
LINE
  5
6AE
  8
LAYER01
  6
CONTINUOUS
 62
     7
 10
1263.4894629999999
 20
242.37716499999999
 30
0.0
 11
1251.57761
 21
228.181172
 31
0.0
  0
LINE
  5
6AF
  8
LAYER01
  6
CONTINUOUS
 62
     7
 10
1261.9573740000001
 20
243.66274000000001
 30
0.0
 11
1250.0455219999999
 21
229.466747
 31
0.0
  0
LINE
  5
6B0
  8
LAYER01
  6
CONTINUOUS
 62
     7
 10
1263.4894629999999
 20
242.37716499999999
 30
0.0
 11
1261.9573740000001
 21
243.66274000000001
 31
0.0
  0
LINE
  5
6B1
  8
LAYER01
  6
CONTINUOUS
 62
     7
 10
1251.57761
 20
228.181172
 30
0.0
 11
1250.0455219999999
 21
229.466747
 31
0.0
  0
SOLID
  5
6B2
  8
LAYER01
  6
CONTINUOUS
 62
     7
 10
1263.4894629999999
 20
242.37716499999999
 30
0.0
 11
1251.57761
 21
228.181172
 31
0.0
 12
1261.9573740000001
 22
243.66274000000001
 32
0.0
 13
1250.0455219999999
 23
229.466747
 33
0.0
  0
LINE
  5
6B3
  8
LAYER01
  6
CONTINUOUS
 62
     7
 10
1270.2715089999999
 20
250.45969199999999
 30
0.0
 11
1263.4894629999999
 21
242.37716499999999
 31
0.0
  0
LINE
  5
6B4
  8
LAYER01
  6
CONTINUOUS
 62
     7
 10
1268.7394200000001
 20
251.74526800000001
 30
0.0
 11
1261.9573740000001
 21
243.66274000000001
 31
0.0
  0
LINE
  5
6B5
  8
LAYER01
  6
CONTINUOUS
 62
     7
 10
1270.2715089999999
 20
250.45969199999999
 30
0.0
 11
1268.7394200000001
 21
251.74526800000001
 31
0.0
  0
LINE
  5
6B6
  8
LAYER01
  6
CONTINUOUS
 62
     7
 10
1263.4894629999999
 20
242.37716499999999
 30
0.0
 11
1261.9573740000001
 21
243.66274000000001
 31
0.0
  0
SOLID
  5
6B7
  8
LAYER01
  6
CONTINUOUS
 62
     7
 10
1270.2715089999999
 20
250.45969199999999
 30
0.0
 11
1263.4894629999999
 21
242.37716499999999
 31
0.0
 12
1268.7394200000001
 22
251.74526800000001
 32
0.0
 13
1261.9573740000001
 23
243.66274000000001
 33
0.0
  0
LINE
  5
6B8
  8
LAYER01
  6
CONTINUOUS
 62
     7
 10
1270.310923
 20
250.506664
 30
0.0
 11
1270.2715089999999
 21
250.45969199999999
 31
0.0
  0
LINE
  5
6B9
  8
LAYER01
  6
CONTINUOUS
 62
     7
 10
1268.778834
 20
251.79223999999999
 30
0.0
 11
1268.7394200000001
 21
251.74526800000001
 31
0.0
  0
LINE
  5
6BA
  8
LAYER01
  6
CONTINUOUS
 62
     7
 10
1270.310923
 20
250.506664
 30
0.0
 11
1268.778834
 21
251.79223999999999
 31
0.0
  0
LINE
  5
6BB
  8
LAYER01
  6
CONTINUOUS
 62
     7
 10
1270.2715089999999
 20
250.45969199999999
 30
0.0
 11
1268.7394200000001
 21
251.74526800000001
 31
0.0
  0
SOLID
  5
6BC
  8
LAYER01
  6
CONTINUOUS
 62
     7
 10
1270.310923
 20
250.506664
 30
0.0
 11
1270.2715089999999
 21
250.45969199999999
 31
0.0
 12
1268.778834
 22
251.79223999999999
 32
0.0
 13
1268.7394200000001
 23
251.74526800000001
 33
0.0
  0
LINE
  5
6BD
  8
LAYER01
  6
CONTINUOUS
 62
     7
 10
1243.789763
 20
250.15062699999999
 30
0.0
 11
1242.8216540000001
 21
250.103655
 31
0.0
  0
LINE
  5
6BE
  8
LAYER01
  6
CONTINUOUS
 62
     7
 10
1243.6928379999999
 20
252.14827700000001
 30
0.0
 11
1242.7247299999999
 21
252.101305
 31
0.0
  0
LINE
  5
6BF
  8
LAYER01
  6
CONTINUOUS
 62
     7
 10
1243.789763
 20
250.15062699999999
 30
0.0
 11
1243.6928379999999
 21
252.14827700000001
 31
0.0
  0
LINE
  5
6C0
  8
LAYER01
  6
CONTINUOUS
 62
     7
 10
1242.8216540000001
 20
250.103655
 30
0.0
 11
1242.7247299999999
 21
252.101305
 31
0.0
  0
SOLID
  5
6C1
  8
LAYER01
  6
CONTINUOUS
 62
     7
 10
1243.789763
 20
250.15062699999999
 30
0.0
 11
1242.8216540000001
 21
250.103655
 31
0.0
 12
1243.6928379999999
 22
252.14827700000001
 32
0.0
 13
1242.7247299999999
 23
252.101305
 33
0.0
  0
LINE
  5
6C2
  8
LAYER01
  6
CONTINUOUS
 62
     7
 10
1270.428795
 20
250.64713900000001
 30
0.0
 11
1270.310923
 21
250.506664
 31
0.0
  0
LINE
  5
6C3
  8
LAYER01
  6
CONTINUOUS
 62
     7
 10
1268.896706
 20
251.932714
 30
0.0
 11
1268.778834
 21
251.79223999999999
 31
0.0
  0
LINE
  5
6C4
  8
LAYER01
  6
CONTINUOUS
 62
     7
 10
1270.428795
 20
250.64713900000001
 30
0.0
 11
1268.896706
 21
251.932714
 31
0.0
  0
LINE
  5
6C5
  8
LAYER01
  6
CONTINUOUS
 62
     7
 10
1270.310923
 20
250.506664
 30
0.0
 11
1268.778834
 21
251.79223999999999
 31
0.0
  0
SOLID
  5
6C6
  8
LAYER01
  6
CONTINUOUS
 62
     7
 10
1270.428795
 20
250.64713900000001
 30
0.0
 11
1270.310923
 21
250.506664
 31
0.0
 12
1268.896706
 22
251.932714
 32
0.0
 13
1268.778834
 23
251.79223999999999
 33
0.0
  0
LINE
  5
6C7
  8
LAYER01
  6
CONTINUOUS
 62
     7
 10
1244.8452460000001
 20
250.30048500000001
 30
0.0
 11
1243.8862329999999
 21
250.16001
 31
0.0
  0
LINE
  5
6C8
  8
LAYER01
  6
CONTINUOUS
 62
     7
 10
1244.5553829999999
 20
252.279369
 30
0.0
 11
1243.5963690000001
 21
252.13889399999999
 31
0.0
  0
LINE
  5
6C9
  8
LAYER01
  6
CONTINUOUS
 62
     7
 10
1244.8452460000001
 20
250.30048500000001
 30
0.0
 11
1244.5553829999999
 21
252.279369
 31
0.0
  0
LINE
  5
6CA
  8
LAYER01
  6
CONTINUOUS
 62
     7
 10
1243.8862329999999
 20
250.16001
 30
0.0
 11
1243.5963690000001
 21
252.13889399999999
 31
0.0
  0
SOLID
  5
6CB
  8
LAYER01
  6
CONTINUOUS
 62
     7
 10
1244.8452460000001
 20
250.30048500000001
 30
0.0
 11
1243.8862329999999
 21
250.16001
 31
0.0
 12
1244.5553829999999
 22
252.279369
 32
0.0
 13
1243.5963690000001
 23
252.13889399999999
 33
0.0
  0
LINE
  5
6CC
  8
LAYER01
  6
CONTINUOUS
 62
     7
 10
1270.624018
 20
250.879797
 30
0.0
 11
1270.428795
 21
250.64713900000001
 31
0.0
  0
LINE
  5
6CD
  8
LAYER01
  6
CONTINUOUS
 62
     7
 10
1269.09193
 20
252.16537199999999
 30
0.0
 11
1268.896706
 21
251.932714
 31
0.0
  0
LINE
  5
6CE
  8
LAYER01
  6
CONTINUOUS
 62
     7
 10
1270.624018
 20
250.879797
 30
0.0
 11
1269.09193
 21
252.16537199999999
 31
0.0
  0
LINE
  5
6CF
  8
LAYER01
  6
CONTINUOUS
 62
     7
 10
1270.428795
 20
250.64713900000001
 30
0.0
 11
1268.896706
 21
251.932714
 31
0.0
  0
SOLID
  5
6D0
  8
LAYER01
  6
CONTINUOUS
 62
     7
 10
1270.624018
 20
250.879797
 30
0.0
 11
1270.428795
 21
250.64713900000001
 31
0.0
 12
1269.09193
 22
252.16537199999999
 32
0.0
 13
1268.896706
 23
251.932714
 33
0.0
  0
LINE
  5
6D1
  8
LAYER01
  6
CONTINUOUS
 62
     7
 10
1245.8812640000001
 20
250.55182199999999
 30
0.0
 11
1244.9403540000001
 21
250.319164
 31
0.0
  0
LINE
  5
6D2
  8
LAYER01
  6
CONTINUOUS
 62
     7
 10
1245.4011840000001
 20
252.493348
 30
0.0
 11
1244.4602749999999
 21
252.26069000000001
 31
0.0
  0
LINE
  5
6D3
  8
LAYER01
  6
CONTINUOUS
 62
     7
 10
1245.8812640000001
 20
250.55182199999999
 30
0.0
 11
1245.4011840000001
 21
252.493348
 31
0.0
  0
LINE
  5
6D4
  8
LAYER01
  6
CONTINUOUS
 62
     7
 10
1244.9403540000001
 20
250.319164
 30
0.0
 11
1244.4602749999999
 21
252.26069000000001
 31
0.0
  0
SOLID
  5
6D5
  8
LAYER01
  6
CONTINUOUS
 62
     7
 10
1245.8812640000001
 20
250.55182199999999
 30
0.0
 11
1244.9403540000001
 21
250.319164
 31
0.0
 12
1245.4011840000001
 22
252.493348
 32
0.0
 13
1244.4602749999999
 23
252.26069000000001
 33
0.0
  0
LINE
  5
6D6
  8
LAYER01
  6
CONTINUOUS
 62
     7
 10
1270.8947579999999
 20
251.20245299999999
 30
0.0
 11
1270.624018
 21
250.879797
 31
0.0
  0
LINE
  5
6D7
  8
LAYER01
  6
CONTINUOUS
 62
     7
 10
1269.36267
 20
252.48802800000001
 30
0.0
 11
1269.09193
 21
252.16537199999999
 31
0.0
  0
LINE
  5
6D8
  8
LAYER01
  6
CONTINUOUS
 62
     7
 10
1270.8947579999999
 20
251.20245299999999
 30
0.0
 11
1269.36267
 21
252.48802800000001
 31
0.0
  0
LINE
  5
6D9
  8
LAYER01
  6
CONTINUOUS
 62
     7
 10
1270.624018
 20
250.879797
 30
0.0
 11
1269.09193
 21
252.16537199999999
 31
0.0
  0
SOLID
  5
6DA
  8
LAYER01
  6
CONTINUOUS
 62
     7
 10
1270.8947579999999
 20
251.20245299999999
 30
0.0
 11
1270.624018
 21
250.879797
 31
0.0
 12
1269.36267
 22
252.48802800000001
 32
0.0
 13
1269.09193
 23
252.16537199999999
 33
0.0
  0
LINE
  5
6DB
  8
LAYER01
  6
CONTINUOUS
 62
     7
 10
1246.8880830000001
 20
250.902276
 30
0.0
 11
1245.974117
 21
250.57962000000001
 31
0.0
  0
LINE
  5
6DC
  8
LAYER01
  6
CONTINUOUS
 62
     7
 10
1246.2222979999999
 20
252.788205
 30
0.0
 11
1245.3083320000001
 21
252.46555000000001
 31
0.0
  0
LINE
  5
6DD
  8
LAYER01
  6
CONTINUOUS
 62
     7
 10
1246.8880830000001
 20
250.902276
 30
0.0
 11
1246.2222979999999
 21
252.788205
 31
0.0
  0
LINE
  5
6DE
  8
LAYER01
  6
CONTINUOUS
 62
     7
 10
1245.974117
 20
250.57962000000001
 30
0.0
 11
1245.3083320000001
 21
252.46555000000001
 31
0.0
  0
SOLID
  5
6DF
  8
LAYER01
  6
CONTINUOUS
 62
     7
 10
1246.8880830000001
 20
250.902276
 30
0.0
 11
1245.974117
 21
250.57962000000001
 31
0.0
 12
1246.2222979999999
 22
252.788205
 32
0.0
 13
1245.3083320000001
 23
252.46555000000001
 33
0.0
  0
LINE
  5
6E0
  8
LAYER01
  6
CONTINUOUS
 62
     7
 10
1271.238472
 20
251.61207400000001
 30
0.0
 11
1270.8947579999999
 21
251.20245299999999
 31
0.0
  0
LINE
  5
6E1
  8
LAYER01
  6
CONTINUOUS
 62
     7
 10
1269.706383
 20
252.89765
 30
0.0
 11
1269.36267
 21
252.48802800000001
 31
0.0
  0
LINE
  5
6E2
  8
LAYER01
  6
CONTINUOUS
 62
     7
 10
1271.238472
 20
251.61207400000001
 30
0.0
 11
1269.706383
 21
252.89765
 31
0.0
  0
LINE
  5
6E3
  8
LAYER01
  6
CONTINUOUS
 62
     7
 10
1270.8947579999999
 20
251.20245299999999
 30
0.0
 11
1269.36267
 21
252.48802800000001
 31
0.0
  0
SOLID
  5
6E4
  8
LAYER01
  6
CONTINUOUS
 62
     7
 10
1271.238472
 20
251.61207400000001
 30
0.0
 11
1270.8947579999999
 21
251.20245299999999
 31
0.0
 12
1269.706383
 22
252.89765
 32
0.0
 13
1269.36267
 23
252.48802800000001
 33
0.0
  0
LINE
  5
6E5
  8
LAYER01
  6
CONTINUOUS
 62
     7
 10
1247.8562449999999
 20
251.34855400000001
 30
0.0
 11
1246.977809
 21
250.93893199999999
 31
0.0
  0
LINE
  5
6E6
  8
LAYER01
  6
CONTINUOUS
 62
     7
 10
1247.0110090000001
 20
253.16117
 30
0.0
 11
1246.132572
 21
252.75154800000001
 31
0.0
  0
LINE
  5
6E7
  8
LAYER01
  6
CONTINUOUS
 62
     7
 10
1247.8562449999999
 20
251.34855400000001
 30
0.0
 11
1247.0110090000001
 21
253.16117
 31
0.0
  0
LINE
  5
6E8
  8
LAYER01
  6
CONTINUOUS
 62
     7
 10
1246.977809
 20
250.93893199999999
 30
0.0
 11
1246.132572
 21
252.75154800000001
 31
0.0
  0
SOLID
  5
6E9
  8
LAYER01
  6
CONTINUOUS
 62
     7
 10
1247.8562449999999
 20
251.34855400000001
 30
0.0
 11
1246.977809
 21
250.93893199999999
 31
0.0
 12
1247.0110090000001
 22
253.16117
 32
0.0
 13
1246.132572
 23
252.75154800000001
 33
0.0
  0
LINE
  5
6EA
  8
LAYER01
  6
CONTINUOUS
 62
     7
 10
1271.65193
 20
252.104814
 30
0.0
 11
1271.238472
 21
251.61207400000001
 31
0.0
  0
LINE
  5
6EB
  8
LAYER01
  6
CONTINUOUS
 62
     7
 10
1270.119841
 20
253.390389
 30
0.0
 11
1269.706383
 21
252.89765
 31
0.0
  0
LINE
  5
6EC
  8
LAYER01
  6
CONTINUOUS
 62
     7
 10
1271.65193
 20
252.104814
 30
0.0
 11
1270.119841
 21
253.390389
 31
0.0
  0
LINE
  5
6ED
  8
LAYER01
  6
CONTINUOUS
 62
     7
 10
1271.238472
 20
251.61207400000001
 30
0.0
 11
1269.706383
 21
252.89765
 31
0.0
  0
SOLID
  5
6EE
  8
LAYER01
  6
CONTINUOUS
 62
     7
 10
1271.65193
 20
252.104814
 30
0.0
 11
1271.238472
 21
251.61207400000001
 31
0.0
 12
1270.119841
 22
253.390389
 32
0.0
 13
1269.706383
 23
252.89765
 33
0.0
  0
LINE
  5
6EF
  8
LAYER01
  6
CONTINUOUS
 62
     7
 10
1248.7766549999999
 20
251.88646499999999
 30
0.0
 11
1247.9420009999999
 21
251.39372499999999
 31
0.0
  0
LINE
  5
6F0
  8
LAYER01
  6
CONTINUOUS
 62
     7
 10
1247.759908
 20
253.60873799999999
 30
0.0
 11
1246.925254
 21
253.11599899999999
 31
0.0
  0
LINE
  5
6F1
  8
LAYER01
  6
CONTINUOUS
 62
     7
 10
1248.7766549999999
 20
251.88646499999999
 30
0.0
 11
1247.759908
 21
253.60873799999999
 31
0.0
  0
LINE
  5
6F2
  8
LAYER01
  6
CONTINUOUS
 62
     7
 10
1247.9420009999999
 20
251.39372499999999
 30
0.0
 11
1246.925254
 21
253.11599899999999
 31
0.0
  0
SOLID
  5
6F3
  8
LAYER01
  6
CONTINUOUS
 62
     7
 10
1248.7766549999999
 20
251.88646499999999
 30
0.0
 11
1247.9420009999999
 21
251.39372499999999
 31
0.0
 12
1247.759908
 22
253.60873799999999
 32
0.0
 13
1246.925254
 23
253.11599899999999
 33
0.0
  0
LINE
  5
6F4
  8
LAYER01
  6
CONTINUOUS
 62
     7
 10
1272.1312479999999
 20
252.67604299999999
 30
0.0
 11
1271.65193
 21
252.104814
 31
0.0
  0
LINE
  5
6F5
  8
LAYER01
  6
CONTINUOUS
 62
     7
 10
1270.5991590000001
 20
253.96161799999999
 30
0.0
 11
1270.119841
 21
253.390389
 31
0.0
  0
LINE
  5
6F6
  8
LAYER01
  6
CONTINUOUS
 62
     7
 10
1272.1312479999999
 20
252.67604299999999
 30
0.0
 11
1270.5991590000001
 21
253.96161799999999
 31
0.0
  0
LINE
  5
6F7
  8
LAYER01
  6
CONTINUOUS
 62
     7
 10
1271.65193
 20
252.104814
 30
0.0
 11
1270.119841
 21
253.390389
 31
0.0
  0
SOLID
  5
6F8
  8
LAYER01
  6
CONTINUOUS
 62
     7
 10
1272.1312479999999
 20
252.67604299999999
 30
0.0
 11
1271.65193
 21
252.104814
 31
0.0
 12
1270.5991590000001
 22
253.96161799999999
 32
0.0
 13
1270.119841
 23
253.390389
 33
0.0
  0
LINE
  5
6F9
  8
LAYER01
  6
CONTINUOUS
 62
     7
 10
1249.640666
 20
252.510955
 30
0.0
 11
1248.8576350000001
 21
251.93972600000001
 31
0.0
  0
LINE
  5
6FA
  8
LAYER01
  6
CONTINUOUS
 62
     7
 10
1248.4619600000001
 20
254.12670600000001
 30
0.0
 11
1247.6789289999999
 21
253.555477
 31
0.0
  0
LINE
  5
6FB
  8
LAYER01
  6
CONTINUOUS
 62
     7
 10
1249.640666
 20
252.510955
 30
0.0
 11
1248.4619600000001
 21
254.12670600000001
 31
0.0
  0
LINE
  5
6FC
  8
LAYER01
  6
CONTINUOUS
 62
     7
 10
1248.8576350000001
 20
251.93972600000001
 30
0.0
 11
1247.6789289999999
 21
253.555477
 31
0.0
  0
SOLID
  5
6FD
  8
LAYER01
  6
CONTINUOUS
 62
     7
 10
1249.640666
 20
252.510955
 30
0.0
 11
1248.8576350000001
 21
251.93972600000001
 31
0.0
 12
1248.4619600000001
 22
254.12670600000001
 32
0.0
 13
1247.6789289999999
 23
253.555477
 33
0.0
  0
LINE
  5
6FE
  8
LAYER01
  6
CONTINUOUS
 62
     7
 10
1272.6719230000001
 20
253.32039499999999
 30
0.0
 11
1272.1312479999999
 21
252.67604299999999
 31
0.0
  0
LINE
  5
6FF
  8
LAYER01
  6
CONTINUOUS
 62
     7
 10
1271.1398340000001
 20
254.60597000000001
 30
0.0
 11
1270.5991590000001
 21
253.96161799999999
 31
0.0
  0
LINE
  5
700
  8
LAYER01
  6
CONTINUOUS
 62
     7
 10
1272.6719230000001
 20
253.32039499999999
 30
0.0
 11
1271.1398340000001
 21
254.60597000000001
 31
0.0
  0
LINE
  5
701
  8
LAYER01
  6
CONTINUOUS
 62
     7
 10
1272.1312479999999
 20
252.67604299999999
 30
0.0
 11
1270.5991590000001
 21
253.96161799999999
 31
0.0
  0
SOLID
  5
702
  8
LAYER01
  6
CONTINUOUS
 62
     7
 10
1272.6719230000001
 20
253.32039499999999
 30
0.0
 11
1272.1312479999999
 21
252.67604299999999
 31
0.0
 12
1271.1398340000001
 22
254.60597000000001
 32
0.0
 13
1270.5991590000001
 23
253.96161799999999
 33
0.0
  0
LINE
  5
703
  8
LAYER01
  6
CONTINUOUS
 62
     7
 10
1250.440161
 20
253.21615800000001
 30
0.0
 11
1249.716109
 21
252.57180600000001
 31
0.0
  0
LINE
  5
704
  8
LAYER01
  6
CONTINUOUS
 62
     7
 10
1249.1105700000001
 20
254.71020799999999
 30
0.0
 11
1248.3865169999999
 21
254.065856
 31
0.0
  0
LINE
  5
705
  8
LAYER01
  6
CONTINUOUS
 62
     7
 10
1250.440161
 20
253.21615800000001
 30
0.0
 11
1249.1105700000001
 21
254.71020799999999
 31
0.0
  0
LINE
  5
706
  8
LAYER01
  6
CONTINUOUS
 62
     7
 10
1249.716109
 20
252.57180600000001
 30
0.0
 11
1248.3865169999999
 21
254.065856
 31
0.0
  0
SOLID
  5
707
  8
LAYER01
  6
CONTINUOUS
 62
     7
 10
1250.440161
 20
253.21615800000001
 30
0.0
 11
1249.716109
 21
252.57180600000001
 31
0.0
 12
1249.1105700000001
 22
254.71020799999999
 32
0.0
 13
1248.3865169999999
 23
254.065856
 33
0.0
  0
LINE
  5
708
  8
LAYER01
  6
CONTINUOUS
 62
     7
 10
1273.2688760000001
 20
254.03181599999999
 30
0.0
 11
1272.6719230000001
 21
253.32039499999999
 31
0.0
  0
LINE
  5
709
  8
LAYER01
  6
CONTINUOUS
 62
     7
 10
1271.7367879999999
 20
255.31739099999999
 30
0.0
 11
1271.1398340000001
 21
254.60597000000001
 31
0.0
  0
LINE
  5
70A
  8
LAYER01
  6
CONTINUOUS
 62
     7
 10
1273.2688760000001
 20
254.03181599999999
 30
0.0
 11
1271.7367879999999
 21
255.31739099999999
 31
0.0
  0
LINE
  5
70B
  8
LAYER01
  6
CONTINUOUS
 62
     7
 10
1272.6719230000001
 20
253.32039499999999
 30
0.0
 11
1271.1398340000001
 21
254.60597000000001
 31
0.0
  0
SOLID
  5
70C
  8
LAYER01
  6
CONTINUOUS
 62
     7
 10
1273.2688760000001
 20
254.03181599999999
 30
0.0
 11
1272.6719230000001
 21
253.32039499999999
 31
0.0
 12
1271.7367879999999
 22
255.31739099999999
 32
0.0
 13
1271.1398340000001
 23
254.60597000000001
 33
0.0
  0
LINE
  5
70D
  8
LAYER01
  6
CONTINUOUS
 62
     7
 10
1251.1676299999999
 20
253.99544700000001
 30
0.0
 11
1250.5093589999999
 21
253.28402600000001
 31
0.0
  0
LINE
  5
70E
  8
LAYER01
  6
CONTINUOUS
 62
     7
 10
1249.6996429999999
 20
255.35376099999999
 30
0.0
 11
1249.0413719999999
 21
254.64233899999999
 31
0.0
  0
LINE
  5
70F
  8
LAYER01
  6
CONTINUOUS
 62
     7
 10
1251.1676299999999
 20
253.99544700000001
 30
0.0
 11
1249.6996429999999
 21
255.35376099999999
 31
0.0
  0
LINE
  5
710
  8
LAYER01
  6
CONTINUOUS
 62
     7
 10
1250.5093589999999
 20
253.28402600000001
 30
0.0
 11
1249.0413719999999
 21
254.64233899999999
 31
0.0
  0
SOLID
  5
711
  8
LAYER01
  6
CONTINUOUS
 62
     7
 10
1251.1676299999999
 20
253.99544700000001
 30
0.0
 11
1250.5093589999999
 21
253.28402600000001
 31
0.0
 12
1249.6996429999999
 22
255.35376099999999
 32
0.0
 13
1249.0413719999999
 23
254.64233899999999
 33
0.0
  0
LINE
  5
712
  8
LAYER01
  6
CONTINUOUS
 62
     7
 10
1438.4251630000001
 20
368.29636599999998
 30
0.0
 11
1438.3703820000001
 21
367.251081
 31
0.0
  0
LINE
  5
713
  8
LAYER01
  6
CONTINUOUS
 62
     7
 10
1436.4279039999999
 20
368.40103800000003
 30
0.0
 11
1436.3731230000001
 21
367.35575299999999
 31
0.0
  0
LINE
  5
714
  8
LAYER01
  6
CONTINUOUS
 62
     7
 10
1438.4251630000001
 20
368.29636599999998
 30
0.0
 11
1436.4279039999999
 21
368.40103800000003
 31
0.0
  0
LINE
  5
715
  8
LAYER01
  6
CONTINUOUS
 62
     7
 10
1438.3703820000001
 20
367.251081
 30
0.0
 11
1436.3731230000001
 21
367.35575299999999
 31
0.0
  0
SOLID
  5
716
  8
LAYER01
  6
CONTINUOUS
 62
     7
 10
1438.4251630000001
 20
368.29636599999998
 30
0.0
 11
1438.3703820000001
 21
367.251081
 31
0.0
 12
1436.4279039999999
 22
368.40103800000003
 32
0.0
 13
1436.3731230000001
 23
367.35575299999999
 33
0.0
  0
LINE
  5
717
  8
LAYER01
  6
CONTINUOUS
 62
     7
 10
1450.4265339999999
 20
368.348702
 30
0.0
 11
1450.4265339999999
 21
367.30341700000002
 31
0.0
  0
LINE
  5
718
  8
LAYER01
  6
CONTINUOUS
 62
     7
 10
1448.4265339999999
 20
368.348702
 30
0.0
 11
1448.4265339999999
 21
367.30341700000002
 31
0.0
  0
LINE
  5
719
  8
LAYER01
  6
CONTINUOUS
 62
     7
 10
1450.4265339999999
 20
368.348702
 30
0.0
 11
1448.4265339999999
 21
368.348702
 31
0.0
  0
LINE
  5
71A
  8
LAYER01
  6
CONTINUOUS
 62
     7
 10
1450.4265339999999
 20
367.30341700000002
 30
0.0
 11
1448.4265339999999
 21
367.30341700000002
 31
0.0
  0
SOLID
  5
71B
  8
LAYER01
  6
CONTINUOUS
 62
     7
 10
1450.4265339999999
 20
368.348702
 30
0.0
 11
1450.4265339999999
 21
367.30341700000002
 31
0.0
 12
1448.4265339999999
 22
368.348702
 32
0.0
 13
1448.4265339999999
 23
367.30341700000002
 33
0.0
  0
LINE
  5
71C
  8
LAYER01
  6
CONTINUOUS
 62
     7
 10
1438.3594410000001
 20
367.14698299999998
 30
0.0
 11
1438.195698
 21
366.11315100000002
 31
0.0
  0
LINE
  5
71D
  8
LAYER01
  6
CONTINUOUS
 62
     7
 10
1436.384065
 20
367.45985200000001
 30
0.0
 11
1436.2203219999999
 21
366.42601999999999
 31
0.0
  0
LINE
  5
71E
  8
LAYER01
  6
CONTINUOUS
 62
     7
 10
1438.3594410000001
 20
367.14698299999998
 30
0.0
 11
1436.384065
 21
367.45985200000001
 31
0.0
  0
LINE
  5
71F
  8
LAYER01
  6
CONTINUOUS
 62
     7
 10
1438.195698
 20
366.11315100000002
 30
0.0
 11
1436.2203219999999
 21
366.42601999999999
 31
0.0
  0
SOLID
  5
720
  8
LAYER01
  6
CONTINUOUS
 62
     7
 10
1438.3594410000001
 20
367.14698299999998
 30
0.0
 11
1438.195698
 21
366.11315100000002
 31
0.0
 12
1436.384065
 22
367.45985200000001
 32
0.0
 13
1436.2203219999999
 23
366.42601999999999
 33
0.0
  0
LINE
  5
721
  8
LAYER01
  6
CONTINUOUS
 62
     7
 10
1450.4265339999999
 20
367.30341700000002
 30
0.0
 11
1450.4265339999999
 21
366.26958500000001
 31
0.0
  0
LINE
  5
722
  8
LAYER01
  6
CONTINUOUS
 62
     7
 10
1448.4265339999999
 20
367.30341700000002
 30
0.0
 11
1448.4265339999999
 21
366.26958500000001
 31
0.0
  0
LINE
  5
723
  8
LAYER01
  6
CONTINUOUS
 62
     7
 10
1450.4265339999999
 20
367.30341700000002
 30
0.0
 11
1448.4265339999999
 21
367.30341700000002
 31
0.0
  0
LINE
  5
724
  8
LAYER01
  6
CONTINUOUS
 62
     7
 10
1450.4265339999999
 20
366.26958500000001
 30
0.0
 11
1448.4265339999999
 21
366.26958500000001
 31
0.0
  0
SOLID
  5
725
  8
LAYER01
  6
CONTINUOUS
 62
     7
 10
1450.4265339999999
 20
367.30341700000002
 30
0.0
 11
1450.4265339999999
 21
366.26958500000001
 31
0.0
 12
1448.4265339999999
 22
367.30341700000002
 32
0.0
 13
1448.4265339999999
 23
366.26958500000001
 33
0.0
  0
LINE
  5
726
  8
LAYER01
  6
CONTINUOUS
 62
     7
 10
1438.1739359999999
 20
366.01076599999999
 30
0.0
 11
1437.9030250000001
 21
364.99971299999999
 31
0.0
  0
LINE
  5
727
  8
LAYER01
  6
CONTINUOUS
 62
     7
 10
1436.242084
 20
366.52840400000002
 30
0.0
 11
1435.9711729999999
 21
365.51735100000002
 31
0.0
  0
LINE
  5
728
  8
LAYER01
  6
CONTINUOUS
 62
     7
 10
1438.1739359999999
 20
366.01076599999999
 30
0.0
 11
1436.242084
 21
366.52840400000002
 31
0.0
  0
LINE
  5
729
  8
LAYER01
  6
CONTINUOUS
 62
     7
 10
1437.9030250000001
 20
364.99971299999999
 30
0.0
 11
1435.9711729999999
 21
365.51735100000002
 31
0.0
  0
SOLID
  5
72A
  8
LAYER01
  6
CONTINUOUS
 62
     7
 10
1438.1739359999999
 20
366.01076599999999
 30
0.0
 11
1437.9030250000001
 21
364.99971299999999
 31
0.0
 12
1436.242084
 22
366.52840400000002
 32
0.0
 13
1435.9711729999999
 23
365.51735100000002
 33
0.0
  0
LINE
  5
72B
  8
LAYER01
  6
CONTINUOUS
 62
     7
 10
1450.4265339999999
 20
366.26958500000001
 30
0.0
 11
1450.4265339999999
 21
365.258532
 31
0.0
  0
LINE
  5
72C
  8
LAYER01
  6
CONTINUOUS
 62
     7
 10
1448.4265339999999
 20
366.26958500000001
 30
0.0
 11
1448.4265339999999
 21
365.258532
 31
0.0
  0
LINE
  5
72D
  8
LAYER01
  6
CONTINUOUS
 62
     7
 10
1450.4265339999999
 20
366.26958500000001
 30
0.0
 11
1448.4265339999999
 21
366.26958500000001
 31
0.0
  0
LINE
  5
72E
  8
LAYER01
  6
CONTINUOUS
 62
     7
 10
1450.4265339999999
 20
365.258532
 30
0.0
 11
1448.4265339999999
 21
365.258532
 31
0.0
  0
SOLID
  5
72F
  8
LAYER01
  6
CONTINUOUS
 62
     7
 10
1450.4265339999999
 20
366.26958500000001
 30
0.0
 11
1450.4265339999999
 21
365.258532
 31
0.0
 12
1448.4265339999999
 22
366.26958500000001
 32
0.0
 13
1448.4265339999999
 23
365.258532
 33
0.0
  0
LINE
  5
730
  8
LAYER01
  6
CONTINUOUS
 62
     7
 10
1437.8706790000001
 20
364.90016400000002
 30
0.0
 11
1437.4955689999999
 21
363.92296800000003
 31
0.0
  0
LINE
  5
731
  8
LAYER01
  6
CONTINUOUS
 62
     7
 10
1436.0035190000001
 20
365.61689999999999
 30
0.0
 11
1435.628408
 21
364.63970399999999
 31
0.0
  0
LINE
  5
732
  8
LAYER01
  6
CONTINUOUS
 62
     7
 10
1437.8706790000001
 20
364.90016400000002
 30
0.0
 11
1436.0035190000001
 21
365.61689999999999
 31
0.0
  0
LINE
  5
733
  8
LAYER01
  6
CONTINUOUS
 62
     7
 10
1437.4955689999999
 20
363.92296800000003
 30
0.0
 11
1435.628408
 21
364.63970399999999
 31
0.0
  0
SOLID
  5
734
  8
LAYER01
  6
CONTINUOUS
 62
     7
 10
1437.8706790000001
 20
364.90016400000002
 30
0.0
 11
1437.4955689999999
 21
363.92296800000003
 31
0.0
 12
1436.0035190000001
 22
365.61689999999999
 32
0.0
 13
1435.628408
 23
364.63970399999999
 33
0.0
  0
LINE
  5
735
  8
LAYER01
  6
CONTINUOUS
 62
     7
 10
1450.4265339999999
 20
365.258532
 30
0.0
 11
1450.4265339999999
 21
364.28133600000001
 31
0.0
  0
LINE
  5
736
  8
LAYER01
  6
CONTINUOUS
 62
     7
 10
1448.4265339999999
 20
365.258532
 30
0.0
 11
1448.4265339999999
 21
364.28133600000001
 31
0.0
  0
LINE
  5
737
  8
LAYER01
  6
CONTINUOUS
 62
     7
 10
1450.4265339999999
 20
365.258532
 30
0.0
 11
1448.4265339999999
 21
365.258532
 31
0.0
  0
LINE
  5
738
  8
LAYER01
  6
CONTINUOUS
 62
     7
 10
1450.4265339999999
 20
364.28133600000001
 30
0.0
 11
1448.4265339999999
 21
364.28133600000001
 31
0.0
  0
SOLID
  5
739
  8
LAYER01
  6
CONTINUOUS
 62
     7
 10
1450.4265339999999
 20
365.258532
 30
0.0
 11
1450.4265339999999
 21
364.28133600000001
 31
0.0
 12
1448.4265339999999
 22
365.258532
 32
0.0
 13
1448.4265339999999
 23
364.28133600000001
 33
0.0
  0
LINE
  5
73A
  8
LAYER01
  6
CONTINUOUS
 62
     7
 10
1437.4529950000001
 20
363.82734499999998
 30
0.0
 11
1436.9777939999999
 21
362.89471200000003
 31
0.0
  0
LINE
  5
73B
  8
LAYER01
  6
CONTINUOUS
 62
     7
 10
1435.6709820000001
 20
364.73532599999999
 30
0.0
 11
1435.1957809999999
 21
363.80269299999998
 31
0.0
  0
LINE
  5
73C
  8
LAYER01
  6
CONTINUOUS
 62
     7
 10
1437.4529950000001
 20
363.82734499999998
 30
0.0
 11
1435.6709820000001
 21
364.73532599999999
 31
0.0
  0
LINE
  5
73D
  8
LAYER01
  6
CONTINUOUS
 62
     7
 10
1436.9777939999999
 20
362.89471200000003
 30
0.0
 11
1435.1957809999999
 21
363.80269299999998
 31
0.0
  0
SOLID
  5
73E
  8
LAYER01
  6
CONTINUOUS
 62
     7
 10
1437.4529950000001
 20
363.82734499999998
 30
0.0
 11
1436.9777939999999
 21
362.89471200000003
 31
0.0
 12
1435.6709820000001
 22
364.73532599999999
 32
0.0
 13
1435.1957809999999
 23
363.80269299999998
 33
0.0
  0
LINE
  5
73F
  8
LAYER01
  6
CONTINUOUS
 62
     7
 10
1450.4265339999999
 20
364.28133600000001
 30
0.0
 11
1450.4265339999999
 21
363.348702
 31
0.0
  0
LINE
  5
740
  8
LAYER01
  6
CONTINUOUS
 62
     7
 10
1448.4265339999999
 20
364.28133600000001
 30
0.0
 11
1448.4265339999999
 21
363.348702
 31
0.0
  0
LINE
  5
741
  8
LAYER01
  6
CONTINUOUS
 62
     7
 10
1450.4265339999999
 20
364.28133600000001
 30
0.0
 11
1448.4265339999999
 21
364.28133600000001
 31
0.0
  0
LINE
  5
742
  8
LAYER01
  6
CONTINUOUS
 62
     7
 10
1450.4265339999999
 20
363.348702
 30
0.0
 11
1448.4265339999999
 21
363.348702
 31
0.0
  0
SOLID
  5
743
  8
LAYER01
  6
CONTINUOUS
 62
     7
 10
1450.4265339999999
 20
364.28133600000001
 30
0.0
 11
1450.4265339999999
 21
363.348702
 31
0.0
 12
1448.4265339999999
 22
364.28133600000001
 32
0.0
 13
1448.4265339999999
 23
363.348702
 33
0.0
  0
LINE
  5
744
  8
LAYER01
  6
CONTINUOUS
 62
     7
 10
1436.9254579999999
 20
362.80406299999999
 30
0.0
 11
1436.355374
 21
361.92621000000003
 31
0.0
  0
LINE
  5
745
  8
LAYER01
  6
CONTINUOUS
 62
     7
 10
1435.2481170000001
 20
363.89334100000002
 30
0.0
 11
1434.6780329999999
 21
363.015489
 31
0.0
  0
LINE
  5
746
  8
LAYER01
  6
CONTINUOUS
 62
     7
 10
1436.9254579999999
 20
362.80406299999999
 30
0.0
 11
1435.2481170000001
 21
363.89334100000002
 31
0.0
  0
LINE
  5
747
  8
LAYER01
  6
CONTINUOUS
 62
     7
 10
1436.355374
 20
361.92621000000003
 30
0.0
 11
1434.6780329999999
 21
363.015489
 31
0.0
  0
SOLID
  5
748
  8
LAYER01
  6
CONTINUOUS
 62
     7
 10
1436.9254579999999
 20
362.80406299999999
 30
0.0
 11
1436.355374
 21
361.92621000000003
 31
0.0
 12
1435.2481170000001
 22
363.89334100000002
 32
0.0
 13
1434.6780329999999
 23
363.015489
 33
0.0
  0
LINE
  5
749
  8
LAYER01
  6
CONTINUOUS
 62
     7
 10
1450.4265339999999
 20
363.348702
 30
0.0
 11
1450.4265339999999
 21
362.4708490000001
 31
0.0
  0
LINE
  5
74A
  8
LAYER01
  6
CONTINUOUS
 62
     7
 10
1448.4265339999999
 20
363.348702
 30
0.0
 11
1448.4265339999999
 21
362.4708490000001
 31
0.0
  0
LINE
  5
74B
  8
LAYER01
  6
CONTINUOUS
 62
     7
 10
1450.4265339999999
 20
363.348702
 30
0.0
 11
1448.4265339999999
 21
363.348702
 31
0.0
  0
LINE
  5
74C
  8
LAYER01
  6
CONTINUOUS
 62
     7
 10
1450.4265339999999
 20
362.4708490000001
 30
0.0
 11
1448.4265339999999
 21
362.4708490000001
 31
0.0
  0
SOLID
  5
74D
  8
LAYER01
  6
CONTINUOUS
 62
     7
 10
1450.4265339999999
 20
363.348702
 30
0.0
 11
1450.4265339999999
 21
362.4708490000001
 31
0.0
 12
1448.4265339999999
 22
363.348702
 32
0.0
 13
1448.4265339999999
 23
362.4708490000001
 33
0.0
  0
LINE
  5
74E
  8
LAYER01
  6
CONTINUOUS
 62
     7
 10
1436.29385
 20
361.84152899999998
 30
0.0
 11
1435.6351279999999
 21
361.028076
 31
0.0
  0
LINE
  5
74F
  8
LAYER01
  6
CONTINUOUS
 62
     7
 10
1434.739558
 20
363.10016999999999
 30
0.0
 11
1434.0808360000001
 21
362.28671600000001
 31
0.0
  0
LINE
  5
750
  8
LAYER01
  6
CONTINUOUS
 62
     7
 10
1436.29385
 20
361.84152899999998
 30
0.0
 11
1434.739558
 21
363.10016999999999
 31
0.0
  0
LINE
  5
751
  8
LAYER01
  6
CONTINUOUS
 62
     7
 10
1435.6351279999999
 20
361.028076
 30
0.0
 11
1434.0808360000001
 21
362.28671600000001
 31
0.0
  0
SOLID
  5
752
  8
LAYER01
  6
CONTINUOUS
 62
     7
 10
1436.29385
 20
361.84152899999998
 30
0.0
 11
1435.6351279999999
 21
361.028076
 31
0.0
 12
1434.739558
 22
363.10016999999999
 32
0.0
 13
1434.0808360000001
 23
362.28671600000001
 33
0.0
  0
LINE
  5
753
  8
LAYER01
  6
CONTINUOUS
 62
     7
 10
1450.4265339999999
 20
362.4708490000001
 30
0.0
 11
1450.4265339999999
 21
361.65739600000001
 31
0.0
  0
LINE
  5
754
  8
LAYER01
  6
CONTINUOUS
 62
     7
 10
1448.4265339999999
 20
362.4708490000001
 30
0.0
 11
1448.4265339999999
 21
361.65739600000001
 31
0.0
  0
LINE
  5
755
  8
LAYER01
  6
CONTINUOUS
 62
     7
 10
1450.4265339999999
 20
362.4708490000001
 30
0.0
 11
1448.4265339999999
 21
362.4708490000001
 31
0.0
  0
LINE
  5
756
  8
LAYER01
  6
CONTINUOUS
 62
     7
 10
1450.4265339999999
 20
361.65739600000001
 30
0.0
 11
1448.4265339999999
 21
361.65739600000001
 31
0.0
  0
SOLID
  5
757
  8
LAYER01
  6
CONTINUOUS
 62
     7
 10
1450.4265339999999
 20
362.4708490000001
 30
0.0
 11
1450.4265339999999
 21
361.65739600000001
 31
0.0
 12
1448.4265339999999
 22
362.4708490000001
 32
0.0
 13
1448.4265339999999
 23
361.65739600000001
 33
0.0
  0
LINE
  5
758
  8
LAYER01
  6
CONTINUOUS
 62
     7
 10
1435.5650889999999
 20
360.950289
 30
0.0
 11
1434.8249470000001
 21
360.21014700000001
 31
0.0
  0
LINE
  5
759
  8
LAYER01
  6
CONTINUOUS
 62
     7
 10
1434.150875
 20
362.36450300000001
 30
0.0
 11
1433.4107329999999
 21
361.62436100000002
 31
0.0
  0
LINE
  5
75A
  8
LAYER01
  6
CONTINUOUS
 62
     7
 10
1435.5650889999999
 20
360.950289
 30
0.0
 11
1434.150875
 21
362.36450300000001
 31
0.0
  0
LINE
  5
75B
  8
LAYER01
  6
CONTINUOUS
 62
     7
 10
1434.8249470000001
 20
360.21014700000001
 30
0.0
 11
1433.4107329999999
 21
361.62436100000002
 31
0.0
  0
SOLID
  5
75C
  8
LAYER01
  6
CONTINUOUS
 62
     7
 10
1435.5650889999999
 20
360.950289
 30
0.0
 11
1434.8249470000001
 21
360.21014700000001
 31
0.0
 12
1434.150875
 22
362.36450300000001
 32
0.0
 13
1433.4107329999999
 23
361.62436100000002
 33
0.0
  0
LINE
  5
75D
  8
LAYER01
  6
CONTINUOUS
 62
     7
 10
1450.4265339999999
 20
361.65739600000001
 30
0.0
 11
1450.4265339999999
 21
360.91725400000001
 31
0.0
  0
LINE
  5
75E
  8
LAYER01
  6
CONTINUOUS
 62
     7
 10
1448.4265339999999
 20
361.65739600000001
 30
0.0
 11
1448.4265339999999
 21
360.91725400000001
 31
0.0
  0
LINE
  5
75F
  8
LAYER01
  6
CONTINUOUS
 62
     7
 10
1450.4265339999999
 20
361.65739600000001
 30
0.0
 11
1448.4265339999999
 21
361.65739600000001
 31
0.0
  0
LINE
  5
760
  8
LAYER01
  6
CONTINUOUS
 62
     7
 10
1450.4265339999999
 20
360.91725400000001
 30
0.0
 11
1448.4265339999999
 21
360.91725400000001
 31
0.0
  0
SOLID
  5
761
  8
LAYER01
  6
CONTINUOUS
 62
     7
 10
1450.4265339999999
 20
361.65739600000001
 30
0.0
 11
1450.4265339999999
 21
360.91725400000001
 31
0.0
 12
1448.4265339999999
 22
361.65739600000001
 32
0.0
 13
1448.4265339999999
 23
360.91725400000001
 33
0.0
  0
LINE
  5
762
  8
LAYER01
  6
CONTINUOUS
 62
     7
 10
1434.7471599999999
 20
360.140108
 30
0.0
 11
1433.9337069999999
 21
359.48138599999999
 31
0.0
  0
LINE
  5
763
  8
LAYER01
  6
CONTINUOUS
 62
     7
 10
1433.4885200000001
 20
361.69439999999997
 30
0.0
 11
1432.675066
 21
361.03567800000002
 31
0.0
  0
LINE
  5
764
  8
LAYER01
  6
CONTINUOUS
 62
     7
 10
1434.7471599999999
 20
360.140108
 30
0.0
 11
1433.4885200000001
 21
361.69439999999997
 31
0.0
  0
LINE
  5
765
  8
LAYER01
  6
CONTINUOUS
 62
     7
 10
1433.9337069999999
 20
359.48138599999999
 30
0.0
 11
1432.675066
 21
361.03567800000002
 31
0.0
  0
SOLID
  5
766
  8
LAYER01
  6
CONTINUOUS
 62
     7
 10
1434.7471599999999
 20
360.140108
 30
0.0
 11
1433.9337069999999
 21
359.48138599999999
 31
0.0
 12
1433.4885200000001
 22
361.69439999999997
 32
0.0
 13
1432.675066
 23
361.03567800000002
 33
0.0
  0
LINE
  5
767
  8
LAYER01
  6
CONTINUOUS
 62
     7
 10
1450.4265339999999
 20
360.91725400000001
 30
0.0
 11
1450.4265339999999
 21
360.258532
 31
0.0
  0
LINE
  5
768
  8
LAYER01
  6
CONTINUOUS
 62
     7
 10
1448.4265339999999
 20
360.91725400000001
 30
0.0
 11
1448.4265339999999
 21
360.258532
 31
0.0
  0
LINE
  5
769
  8
LAYER01
  6
CONTINUOUS
 62
     7
 10
1450.4265339999999
 20
360.91725400000001
 30
0.0
 11
1448.4265339999999
 21
360.91725400000001
 31
0.0
  0
LINE
  5
76A
  8
LAYER01
  6
CONTINUOUS
 62
     7
 10
1450.4265339999999
 20
360.258532
 30
0.0
 11
1448.4265339999999
 21
360.258532
 31
0.0
  0
SOLID
  5
76B
  8
LAYER01
  6
CONTINUOUS
 62
     7
 10
1450.4265339999999
 20
360.91725400000001
 30
0.0
 11
1450.4265339999999
 21
360.258532
 31
0.0
 12
1448.4265339999999
 22
360.91725400000001
 32
0.0
 13
1448.4265339999999
 23
360.258532
 33
0.0
  0
LINE
  5
76C
  8
LAYER01
  6
CONTINUOUS
 62
     7
 10
1433.849025
 20
359.41986200000002
 30
0.0
 11
1432.9711729999999
 21
358.84977700000002
 31
0.0
  0
LINE
  5
76D
  8
LAYER01
  6
CONTINUOUS
 62
     7
 10
1432.7597470000001
 20
361.09720299999998
 30
0.0
 11
1431.881895
 21
360.52711900000003
 31
0.0
  0
LINE
  5
76E
  8
LAYER01
  6
CONTINUOUS
 62
     7
 10
1433.849025
 20
359.41986200000002
 30
0.0
 11
1432.7597470000001
 21
361.09720299999998
 31
0.0
  0
LINE
  5
76F
  8
LAYER01
  6
CONTINUOUS
 62
     7
 10
1432.9711729999999
 20
358.84977700000002
 30
0.0
 11
1431.881895
 21
360.52711900000003
 31
0.0
  0
SOLID
  5
770
  8
LAYER01
  6
CONTINUOUS
 62
     7
 10
1433.849025
 20
359.41986200000002
 30
0.0
 11
1432.9711729999999
 21
358.84977700000002
 31
0.0
 12
1432.7597470000001
 22
361.09720299999998
 32
0.0
 13
1431.881895
 23
360.52711900000003
 33
0.0
  0
LINE
  5
771
  8
LAYER01
  6
CONTINUOUS
 62
     7
 10
1450.4265339999999
 20
360.258532
 30
0.0
 11
1450.4265339999999
 21
359.68844799999999
 31
0.0
  0
LINE
  5
772
  8
LAYER01
  6
CONTINUOUS
 62
     7
 10
1448.4265339999999
 20
360.258532
 30
0.0
 11
1448.4265339999999
 21
359.68844799999999
 31
0.0
  0
LINE
  5
773
  8
LAYER01
  6
CONTINUOUS
 62
     7
 10
1450.4265339999999
 20
360.258532
 30
0.0
 11
1448.4265339999999
 21
360.258532
 31
0.0
  0
LINE
  5
774
  8
LAYER01
  6
CONTINUOUS
 62
     7
 10
1450.4265339999999
 20
359.68844799999999
 30
0.0
 11
1448.4265339999999
 21
359.68844799999999
 31
0.0
  0
SOLID
  5
775
  8
LAYER01
  6
CONTINUOUS
 62
     7
 10
1450.4265339999999
 20
360.258532
 30
0.0
 11
1450.4265339999999
 21
359.68844799999999
 31
0.0
 12
1448.4265339999999
 22
360.258532
 32
0.0
 13
1448.4265339999999
 23
359.68844799999999
 33
0.0
  0
LINE
  5
776
  8
LAYER01
  6
CONTINUOUS
 62
     7
 10
1432.8805239999999
 20
358.79744099999999
 30
0.0
 11
1431.947891
 21
358.32224100000002
 31
0.0
  0
LINE
  5
777
  8
LAYER01
  6
CONTINUOUS
 62
     7
 10
1431.9725430000001
 20
360.579455
 30
0.0
 11
1431.03991
 21
360.10425400000003
 31
0.0
  0
LINE
  5
778
  8
LAYER01
  6
CONTINUOUS
 62
     7
 10
1432.8805239999999
 20
358.79744099999999
 30
0.0
 11
1431.9725430000001
 21
360.579455
 31
0.0
  0
LINE
  5
779
  8
LAYER01
  6
CONTINUOUS
 62
     7
 10
1431.947891
 20
358.32224100000002
 30
0.0
 11
1431.03991
 21
360.10425400000003
 31
0.0
  0
SOLID
  5
77A
  8
LAYER01
  6
CONTINUOUS
 62
     7
 10
1432.8805239999999
 20
358.79744099999999
 30
0.0
 11
1431.947891
 21
358.32224100000002
 31
0.0
 12
1431.9725430000001
 22
360.579455
 32
0.0
 13
1431.03991
 23
360.10425400000003
 33
0.0
  0
LINE
  5
77B
  8
LAYER01
  6
CONTINUOUS
 62
     7
 10
1450.4265339999999
 20
359.68844799999999
 30
0.0
 11
1450.4265339999999
 21
359.21324700000002
 31
0.0
  0
LINE
  5
77C
  8
LAYER01
  6
CONTINUOUS
 62
     7
 10
1448.4265339999999
 20
359.68844799999999
 30
0.0
 11
1448.4265339999999
 21
359.21324700000002
 31
0.0
  0
LINE
  5
77D
  8
LAYER01
  6
CONTINUOUS
 62
     7
 10
1450.4265339999999
 20
359.68844799999999
 30
0.0
 11
1448.4265339999999
 21
359.68844799999999
 31
0.0
  0
LINE
  5
77E
  8
LAYER01
  6
CONTINUOUS
 62
     7
 10
1450.4265339999999
 20
359.21324700000002
 30
0.0
 11
1448.4265339999999
 21
359.21324700000002
 31
0.0
  0
SOLID
  5
77F
  8
LAYER01
  6
CONTINUOUS
 62
     7
 10
1450.4265339999999
 20
359.68844799999999
 30
0.0
 11
1450.4265339999999
 21
359.21324700000002
 31
0.0
 12
1448.4265339999999
 22
359.68844799999999
 32
0.0
 13
1448.4265339999999
 23
359.21324700000002
 33
0.0
  0
LINE
  5
780
  8
LAYER01
  6
CONTINUOUS
 62
     7
 10
1431.8522680000001
 20
358.27966700000002
 30
0.0
 11
1430.875072
 21
357.90455600000001
 31
0.0
  0
LINE
  5
781
  8
LAYER01
  6
CONTINUOUS
 62
     7
 10
1431.135532
 20
360.14682800000003
 30
0.0
 11
1430.158336
 21
359.77171700000002
 31
0.0
  0
LINE
  5
782
  8
LAYER01
  6
CONTINUOUS
 62
     7
 10
1431.8522680000001
 20
358.27966700000002
 30
0.0
 11
1431.135532
 21
360.14682800000003
 31
0.0
  0
LINE
  5
783
  8
LAYER01
  6
CONTINUOUS
 62
     7
 10
1430.875072
 20
357.90455600000001
 30
0.0
 11
1430.158336
 21
359.77171700000002
 31
0.0
  0
SOLID
  5
784
  8
LAYER01
  6
CONTINUOUS
 62
     7
 10
1431.8522680000001
 20
358.27966700000002
 30
0.0
 11
1430.875072
 21
357.90455600000001
 31
0.0
 12
1431.135532
 22
360.14682800000003
 32
0.0
 13
1430.158336
 23
359.77171700000002
 33
0.0
  0
LINE
  5
785
  8
LAYER01
  6
CONTINUOUS
 62
     7
 10
1450.4265339999999
 20
359.21324700000002
 30
0.0
 11
1450.4265339999999
 21
358.83813700000002
 31
0.0
  0
LINE
  5
786
  8
LAYER01
  6
CONTINUOUS
 62
     7
 10
1448.4265339999999
 20
359.21324700000002
 30
0.0
 11
1448.4265339999999
 21
358.83813700000002
 31
0.0
  0
LINE
  5
787
  8
LAYER01
  6
CONTINUOUS
 62
     7
 10
1450.4265339999999
 20
359.21324700000002
 30
0.0
 11
1448.4265339999999
 21
359.21324700000002
 31
0.0
  0
LINE
  5
788
  8
LAYER01
  6
CONTINUOUS
 62
     7
 10
1450.4265339999999
 20
358.83813700000002
 30
0.0
 11
1448.4265339999999
 21
358.83813700000002
 31
0.0
  0
SOLID
  5
789
  8
LAYER01
  6
CONTINUOUS
 62
     7
 10
1450.4265339999999
 20
359.21324700000002
 30
0.0
 11
1450.4265339999999
 21
358.83813700000002
 31
0.0
 12
1448.4265339999999
 22
359.21324700000002
 32
0.0
 13
1448.4265339999999
 23
358.83813700000002
 33
0.0
  0
LINE
  5
78A
  8
LAYER01
  6
CONTINUOUS
 62
     7
 10
1430.775523
 20
357.87221099999999
 30
0.0
 11
1429.7644700000001
 21
357.60129999999998
 31
0.0
  0
LINE
  5
78B
  8
LAYER01
  6
CONTINUOUS
 62
     7
 10
1430.257885
 20
359.80406299999999
 30
0.0
 11
1429.246832
 21
359.53315199999997
 31
0.0
  0
LINE
  5
78C
  8
LAYER01
  6
CONTINUOUS
 62
     7
 10
1430.775523
 20
357.87221099999999
 30
0.0
 11
1430.257885
 21
359.80406299999999
 31
0.0
  0
LINE
  5
78D
  8
LAYER01
  6
CONTINUOUS
 62
     7
 10
1429.7644700000001
 20
357.60129999999998
 30
0.0
 11
1429.246832
 21
359.53315199999997
 31
0.0
  0
SOLID
  5
78E
  8
LAYER01
  6
CONTINUOUS
 62
     7
 10
1430.775523
 20
357.87221099999999
 30
0.0
 11
1429.7644700000001
 21
357.60129999999998
 31
0.0
 12
1430.257885
 22
359.80406299999999
 32
0.0
 13
1429.246832
 23
359.53315199999997
 33
0.0
  0
LINE
  5
78F
  8
LAYER01
  6
CONTINUOUS
 62
     7
 10
1450.4265339999999
 20
358.83813700000002
 30
0.0
 11
1450.4265339999999
 21
358.56722600000001
 31
0.0
  0
LINE
  5
790
  8
LAYER01
  6
CONTINUOUS
 62
     7
 10
1448.4265339999999
 20
358.83813700000002
 30
0.0
 11
1448.4265339999999
 21
358.56722600000001
 31
0.0
  0
LINE
  5
791
  8
LAYER01
  6
CONTINUOUS
 62
     7
 10
1450.4265339999999
 20
358.83813700000002
 30
0.0
 11
1448.4265339999999
 21
358.83813700000002
 31
0.0
  0
LINE
  5
792
  8
LAYER01
  6
CONTINUOUS
 62
     7
 10
1450.4265339999999
 20
358.56722600000001
 30
0.0
 11
1448.4265339999999
 21
358.56722600000001
 31
0.0
  0
SOLID
  5
793
  8
LAYER01
  6
CONTINUOUS
 62
     7
 10
1450.4265339999999
 20
358.83813700000002
 30
0.0
 11
1450.4265339999999
 21
358.56722600000001
 31
0.0
 12
1448.4265339999999
 22
358.83813700000002
 32
0.0
 13
1448.4265339999999
 23
358.56722600000001
 33
0.0
  0
LINE
  5
794
  8
LAYER01
  6
CONTINUOUS
 62
     7
 10
1429.6620849999999
 20
357.57953800000001
 30
0.0
 11
1428.6282530000001
 21
357.415795
 31
0.0
  0
LINE
  5
795
  8
LAYER01
  6
CONTINUOUS
 62
     7
 10
1429.3492160000001
 20
359.554914
 30
0.0
 11
1428.315384
 21
359.39117099999999
 31
0.0
  0
LINE
  5
796
  8
LAYER01
  6
CONTINUOUS
 62
     7
 10
1429.6620849999999
 20
357.57953800000001
 30
0.0
 11
1429.3492160000001
 21
359.554914
 31
0.0
  0
LINE
  5
797
  8
LAYER01
  6
CONTINUOUS
 62
     7
 10
1428.6282530000001
 20
357.415795
 30
0.0
 11
1428.315384
 21
359.39117099999999
 31
0.0
  0
SOLID
  5
798
  8
LAYER01
  6
CONTINUOUS
 62
     7
 10
1429.6620849999999
 20
357.57953800000001
 30
0.0
 11
1428.6282530000001
 21
357.415795
 31
0.0
 12
1429.3492160000001
 22
359.554914
 32
0.0
 13
1428.315384
 23
359.39117099999999
 33
0.0
  0
LINE
  5
799
  8
LAYER01
  6
CONTINUOUS
 62
     7
 10
1450.4265339999999
 20
358.56722600000001
 30
0.0
 11
1450.4265339999999
 21
358.40348299999999
 31
0.0
  0
LINE
  5
79A
  8
LAYER01
  6
CONTINUOUS
 62
     7
 10
1448.4265339999999
 20
358.56722600000001
 30
0.0
 11
1448.4265339999999
 21
358.40348299999999
 31
0.0
  0
LINE
  5
79B
  8
LAYER01
  6
CONTINUOUS
 62
     7
 10
1450.4265339999999
 20
358.56722600000001
 30
0.0
 11
1448.4265339999999
 21
358.56722600000001
 31
0.0
  0
LINE
  5
79C
  8
LAYER01
  6
CONTINUOUS
 62
     7
 10
1450.4265339999999
 20
358.40348299999999
 30
0.0
 11
1448.4265339999999
 21
358.40348299999999
 31
0.0
  0
SOLID
  5
79D
  8
LAYER01
  6
CONTINUOUS
 62
     7
 10
1450.4265339999999
 20
358.56722600000001
 30
0.0
 11
1450.4265339999999
 21
358.40348299999999
 31
0.0
 12
1448.4265339999999
 22
358.56722600000001
 32
0.0
 13
1448.4265339999999
 23
358.40348299999999
 33
0.0
  0
LINE
  5
79E
  8
LAYER01
  6
CONTINUOUS
 62
     7
 10
1428.524154
 20
357.404854
 30
0.0
 11
1427.4788699999999
 21
357.35007200000001
 31
0.0
  0
LINE
  5
79F
  8
LAYER01
  6
CONTINUOUS
 62
     7
 10
1428.4194829999999
 20
359.40211299999999
 30
0.0
 11
1427.374198
 21
359.34733199999999
 31
0.0
  0
LINE
  5
7A0
  8
LAYER01
  6
CONTINUOUS
 62
     7
 10
1428.524154
 20
357.404854
 30
0.0
 11
1428.4194829999999
 21
359.40211299999999
 31
0.0
  0
LINE
  5
7A1
  8
LAYER01
  6
CONTINUOUS
 62
     7
 10
1427.4788699999999
 20
357.35007200000001
 30
0.0
 11
1427.374198
 21
359.34733199999999
 31
0.0
  0
SOLID
  5
7A2
  8
LAYER01
  6
CONTINUOUS
 62
     7
 10
1428.524154
 20
357.404854
 30
0.0
 11
1427.4788699999999
 21
357.35007200000001
 31
0.0
 12
1428.4194829999999
 22
359.40211299999999
 32
0.0
 13
1427.374198
 23
359.34733199999999
 33
0.0
  0
LINE
  5
7A3
  8
LAYER01
  6
CONTINUOUS
 62
     7
 10
1450.4265339999999
 20
358.40348299999999
 30
0.0
 11
1450.4265339999999
 21
358.348702
 31
0.0
  0
LINE
  5
7A4
  8
LAYER01
  6
CONTINUOUS
 62
     7
 10
1448.4265339999999
 20
358.40348299999999
 30
0.0
 11
1448.4265339999999
 21
358.348702
 31
0.0
  0
LINE
  5
7A5
  8
LAYER01
  6
CONTINUOUS
 62
     7
 10
1450.4265339999999
 20
358.40348299999999
 30
0.0
 11
1448.4265339999999
 21
358.40348299999999
 31
0.0
  0
LINE
  5
7A6
  8
LAYER01
  6
CONTINUOUS
 62
     7
 10
1450.4265339999999
 20
358.348702
 30
0.0
 11
1448.4265339999999
 21
358.348702
 31
0.0
  0
SOLID
  5
7A7
  8
LAYER01
  6
CONTINUOUS
 62
     7
 10
1450.4265339999999
 20
358.40348299999999
 30
0.0
 11
1450.4265339999999
 21
358.348702
 31
0.0
 12
1448.4265339999999
 22
358.40348299999999
 32
0.0
 13
1448.4265339999999
 23
358.348702
 33
0.0
  0
LINE
  5
7A8
  8
LAYER01
  6
CONTINUOUS
 62
     7
 10
1341.2054579999999
 20
357.34987699999999
 30
0.0
 11
1340.430971
 21
357.312299
 31
0.0
  0
LINE
  5
7A9
  8
LAYER01
  6
CONTINUOUS
 62
     7
 10
1341.1085330000001
 20
359.34752700000001
 30
0.0
 11
1340.3340459999999
 21
359.30994900000002
 31
0.0
  0
LINE
  5
7AA
  8
LAYER01
  6
CONTINUOUS
 62
     7
 10
1341.2054579999999
 20
357.34987699999999
 30
0.0
 11
1341.1085330000001
 21
359.34752700000001
 31
0.0
  0
LINE
  5
7AB
  8
LAYER01
  6
CONTINUOUS
 62
     7
 10
1340.430971
 20
357.312299
 30
0.0
 11
1340.3340459999999
 21
359.30994900000002
 31
0.0
  0
SOLID
  5
7AC
  8
LAYER01
  6
CONTINUOUS
 62
     7
 10
1341.2054579999999
 20
357.34987699999999
 30
0.0
 11
1340.430971
 21
357.312299
 31
0.0
 12
1341.1085330000001
 22
359.34752700000001
 32
0.0
 13
1340.3340459999999
 23
359.30994900000002
 33
0.0
  0
LINE
  5
7AD
  8
LAYER01
  6
CONTINUOUS
 62
     7
 10
1450.4265339999999
 20
358.348702
 30
0.0
 11
1450.4265339999999
 21
358.31112400000001
 31
0.0
  0
LINE
  5
7AE
  8
LAYER01
  6
CONTINUOUS
 62
     7
 10
1448.4265339999999
 20
358.348702
 30
0.0
 11
1448.4265339999999
 21
358.31112400000001
 31
0.0
  0
LINE
  5
7AF
  8
LAYER01
  6
CONTINUOUS
 62
     7
 10
1450.4265339999999
 20
358.348702
 30
0.0
 11
1448.4265339999999
 21
358.348702
 31
0.0
  0
LINE
  5
7B0
  8
LAYER01
  6
CONTINUOUS
 62
     7
 10
1450.4265339999999
 20
358.31112400000001
 30
0.0
 11
1448.4265339999999
 21
358.31112400000001
 31
0.0
  0
SOLID
  5
7B1
  8
LAYER01
  6
CONTINUOUS
 62
     7
 10
1450.4265339999999
 20
358.348702
 30
0.0
 11
1450.4265339999999
 21
358.31112400000001
 31
0.0
 12
1448.4265339999999
 22
358.348702
 32
0.0
 13
1448.4265339999999
 23
358.31112400000001
 33
0.0
  0
LINE
  5
7B2
  8
LAYER01
  6
CONTINUOUS
 62
     7
 10
1340.5274400000001
 20
357.32168300000001
 30
0.0
 11
1339.760229
 21
357.20930299999998
 31
0.0
  0
LINE
  5
7B3
  8
LAYER01
  6
CONTINUOUS
 62
     7
 10
1340.237576
 20
359.300566
 30
0.0
 11
1339.4703649999999
 21
359.18818599999997
 31
0.0
  0
LINE
  5
7B4
  8
LAYER01
  6
CONTINUOUS
 62
     7
 10
1340.5274400000001
 20
357.32168300000001
 30
0.0
 11
1340.237576
 21
359.300566
 31
0.0
  0
LINE
  5
7B5
  8
LAYER01
  6
CONTINUOUS
 62
     7
 10
1339.760229
 20
357.20930299999998
 30
0.0
 11
1339.4703649999999
 21
359.18818599999997
 31
0.0
  0
SOLID
  5
7B6
  8
LAYER01
  6
CONTINUOUS
 62
     7
 10
1340.5274400000001
 20
357.32168300000001
 30
0.0
 11
1339.760229
 21
357.20930299999998
 31
0.0
 12
1340.237576
 22
359.300566
 32
0.0
 13
1339.4703649999999
 23
359.18818599999997
 33
0.0
  0
LINE
  5
7B7
  8
LAYER01
  6
CONTINUOUS
 62
     7
 10
1450.4265339999999
 20
358.31112400000001
 30
0.0
 11
1450.4265339999999
 21
358.19874499999997
 31
0.0
  0
LINE
  5
7B8
  8
LAYER01
  6
CONTINUOUS
 62
     7
 10
1448.4265339999999
 20
358.31112400000001
 30
0.0
 11
1448.4265339999999
 21
358.19874499999997
 31
0.0
  0
LINE
  5
7B9
  8
LAYER01
  6
CONTINUOUS
 62
     7
 10
1450.4265339999999
 20
358.31112400000001
 30
0.0
 11
1448.4265339999999
 21
358.31112400000001
 31
0.0
  0
LINE
  5
7BA
  8
LAYER01
  6
CONTINUOUS
 62
     7
 10
1450.4265339999999
 20
358.19874499999997
 30
0.0
 11
1448.4265339999999
 21
358.19874499999997
 31
0.0
  0
SOLID
  5
7BB
  8
LAYER01
  6
CONTINUOUS
 62
     7
 10
1450.4265339999999
 20
358.31112400000001
 30
0.0
 11
1450.4265339999999
 21
358.19874499999997
 31
0.0
 12
1448.4265339999999
 22
358.31112400000001
 32
0.0
 13
1448.4265339999999
 23
358.19874499999997
 33
0.0
  0
LINE
  5
7BC
  8
LAYER01
  6
CONTINUOUS
 62
     7
 10
1339.855337
 20
357.227981
 30
0.0
 11
1339.102609
 21
357.041855
 31
0.0
  0
LINE
  5
7BD
  8
LAYER01
  6
CONTINUOUS
 62
     7
 10
1339.3752569999999
 20
359.16950800000001
 30
0.0
 11
1338.622529
 21
358.98338100000001
 31
0.0
  0
LINE
  5
7BE
  8
LAYER01
  6
CONTINUOUS
 62
     7
 10
1339.855337
 20
357.227981
 30
0.0
 11
1339.3752569999999
 21
359.16950800000001
 31
0.0
  0
LINE
  5
7BF
  8
LAYER01
  6
CONTINUOUS
 62
     7
 10
1339.102609
 20
357.041855
 30
0.0
 11
1338.622529
 21
358.98338100000001
 31
0.0
  0
SOLID
  5
7C0
  8
LAYER01
  6
CONTINUOUS
 62
     7
 10
1339.855337
 20
357.227981
 30
0.0
 11
1339.102609
 21
357.041855
 31
0.0
 12
1339.3752569999999
 22
359.16950800000001
 32
0.0
 13
1338.622529
 23
358.98338100000001
 33
0.0
  0
LINE
  5
7C1
  8
LAYER01
  6
CONTINUOUS
 62
     7
 10
1450.4265339999999
 20
358.19874499999997
 30
0.0
 11
1450.4265339999999
 21
358.01261800000009
 31
0.0
  0
LINE
  5
7C2
  8
LAYER01
  6
CONTINUOUS
 62
     7
 10
1448.4265339999999
 20
358.19874499999997
 30
0.0
 11
1448.4265339999999
 21
358.01261800000009
 31
0.0
  0
LINE
  5
7C3
  8
LAYER01
  6
CONTINUOUS
 62
     7
 10
1450.4265339999999
 20
358.19874499999997
 30
0.0
 11
1448.4265339999999
 21
358.19874499999997
 31
0.0
  0
LINE
  5
7C4
  8
LAYER01
  6
CONTINUOUS
 62
     7
 10
1450.4265339999999
 20
358.01261800000009
 30
0.0
 11
1448.4265339999999
 21
358.01261800000009
 31
0.0
  0
SOLID
  5
7C5
  8
LAYER01
  6
CONTINUOUS
 62
     7
 10
1450.4265339999999
 20
358.19874499999997
 30
0.0
 11
1450.4265339999999
 21
358.01261800000009
 31
0.0
 12
1448.4265339999999
 22
358.19874499999997
 32
0.0
 13
1448.4265339999999
 23
358.01261800000009
 33
0.0
  0
LINE
  5
7C6
  8
LAYER01
  6
CONTINUOUS
 62
     7
 10
1339.1954619999999
 20
357.06965300000002
 30
0.0
 11
1338.464289
 21
356.81152900000001
 31
0.0
  0
LINE
  5
7C7
  8
LAYER01
  6
CONTINUOUS
 62
     7
 10
1338.529677
 20
358.95558299999999
 30
0.0
 11
1337.7985040000001
 21
358.69745799999998
 31
0.0
  0
LINE
  5
7C8
  8
LAYER01
  6
CONTINUOUS
 62
     7
 10
1339.1954619999999
 20
357.06965300000002
 30
0.0
 11
1338.529677
 21
358.95558299999999
 31
0.0
  0
LINE
  5
7C9
  8
LAYER01
  6
CONTINUOUS
 62
     7
 10
1338.464289
 20
356.81152900000001
 30
0.0
 11
1337.7985040000001
 21
358.69745799999998
 31
0.0
  0
SOLID
  5
7CA
  8
LAYER01
  6
CONTINUOUS
 62
     7
 10
1339.1954619999999
 20
357.06965300000002
 30
0.0
 11
1338.464289
 21
356.81152900000001
 31
0.0
 12
1338.529677
 22
358.95558299999999
 32
0.0
 13
1337.7985040000001
 23
358.69745799999998
 33
0.0
  0
LINE
  5
7CB
  8
LAYER01
  6
CONTINUOUS
 62
     7
 10
1450.4265339999999
 20
358.01261800000009
 30
0.0
 11
1450.4265339999999
 21
357.75449400000002
 31
0.0
  0
LINE
  5
7CC
  8
LAYER01
  6
CONTINUOUS
 62
     7
 10
1448.4265339999999
 20
358.01261800000009
 30
0.0
 11
1448.4265339999999
 21
357.75449400000002
 31
0.0
  0
LINE
  5
7CD
  8
LAYER01
  6
CONTINUOUS
 62
     7
 10
1450.4265339999999
 20
358.01261800000009
 30
0.0
 11
1448.4265339999999
 21
358.01261800000009
 31
0.0
  0
LINE
  5
7CE
  8
LAYER01
  6
CONTINUOUS
 62
     7
 10
1450.4265339999999
 20
357.75449400000002
 30
0.0
 11
1448.4265339999999
 21
357.75449400000002
 31
0.0
  0
SOLID
  5
7CF
  8
LAYER01
  6
CONTINUOUS
 62
     7
 10
1450.4265339999999
 20
358.01261800000009
 30
0.0
 11
1450.4265339999999
 21
357.75449400000002
 31
0.0
 12
1448.4265339999999
 22
358.01261800000009
 32
0.0
 13
1448.4265339999999
 23
357.75449400000002
 33
0.0
  0
LINE
  5
7D0
  8
LAYER01
  6
CONTINUOUS
 62
     7
 10
1338.5540149999999
 20
356.848186
 30
0.0
 11
1337.851265
 21
356.520489
 31
0.0
  0
LINE
  5
7D1
  8
LAYER01
  6
CONTINUOUS
 62
     7
 10
1337.7087779999999
 20
358.66080199999999
 30
0.0
 11
1337.0060289999999
 21
358.33310399999999
 31
0.0
  0
LINE
  5
7D2
  8
LAYER01
  6
CONTINUOUS
 62
     7
 10
1338.5540149999999
 20
356.848186
 30
0.0
 11
1337.7087779999999
 21
358.66080199999999
 31
0.0
  0
LINE
  5
7D3
  8
LAYER01
  6
CONTINUOUS
 62
     7
 10
1337.851265
 20
356.520489
 30
0.0
 11
1337.0060289999999
 21
358.33310399999999
 31
0.0
  0
SOLID
  5
7D4
  8
LAYER01
  6
CONTINUOUS
 62
     7
 10
1338.5540149999999
 20
356.848186
 30
0.0
 11
1337.851265
 21
356.520489
 31
0.0
 12
1337.7087779999999
 22
358.66080199999999
 32
0.0
 13
1337.0060289999999
 23
358.33310399999999
 33
0.0
  0
LINE
  5
7D5
  8
LAYER01
  6
CONTINUOUS
 62
     7
 10
1450.4265339999999
 20
357.75449400000002
 30
0.0
 11
1450.4265339999999
 21
357.42679600000002
 31
0.0
  0
LINE
  5
7D6
  8
LAYER01
  6
CONTINUOUS
 62
     7
 10
1448.4265339999999
 20
357.75449400000002
 30
0.0
 11
1448.4265339999999
 21
357.42679600000002
 31
0.0
  0
LINE
  5
7D7
  8
LAYER01
  6
CONTINUOUS
 62
     7
 10
1450.4265339999999
 20
357.75449400000002
 30
0.0
 11
1448.4265339999999
 21
357.75449400000002
 31
0.0
  0
LINE
  5
7D8
  8
LAYER01
  6
CONTINUOUS
 62
     7
 10
1450.4265339999999
 20
357.42679600000002
 30
0.0
 11
1448.4265339999999
 21
357.42679600000002
 31
0.0
  0
SOLID
  5
7D9
  8
LAYER01
  6
CONTINUOUS
 62
     7
 10
1450.4265339999999
 20
357.75449400000002
 30
0.0
 11
1450.4265339999999
 21
357.42679600000002
 31
0.0
 12
1448.4265339999999
 22
357.75449400000002
 32
0.0
 13
1448.4265339999999
 23
357.42679600000002
 33
0.0
  0
LINE
  5
7DA
  8
LAYER01
  6
CONTINUOUS
 62
     7
 10
1337.937021
 20
356.56565999999998
 30
0.0
 11
1337.2692970000001
 21
356.171468
 31
0.0
  0
LINE
  5
7DB
  8
LAYER01
  6
CONTINUOUS
 62
     7
 10
1336.920273
 20
358.28793300000001
 30
0.0
 11
1336.2525499999999
 21
357.89374099999998
 31
0.0
  0
LINE
  5
7DC
  8
LAYER01
  6
CONTINUOUS
 62
     7
 10
1337.937021
 20
356.56565999999998
 30
0.0
 11
1336.920273
 21
358.28793300000001
 31
0.0
  0
LINE
  5
7DD
  8
LAYER01
  6
CONTINUOUS
 62
     7
 10
1337.2692970000001
 20
356.171468
 30
0.0
 11
1336.2525499999999
 21
357.89374099999998
 31
0.0
  0
SOLID
  5
7DE
  8
LAYER01
  6
CONTINUOUS
 62
     7
 10
1337.937021
 20
356.56565999999998
 30
0.0
 11
1337.2692970000001
 21
356.171468
 31
0.0
 12
1336.920273
 22
358.28793300000001
 32
0.0
 13
1336.2525499999999
 23
357.89374099999998
 33
0.0
  0
LINE
  5
7DF
  8
LAYER01
  6
CONTINUOUS
 62
     7
 10
1450.4265339999999
 20
357.42679600000002
 30
0.0
 11
1450.4265339999999
 21
357.03260499999999
 31
0.0
  0
LINE
  5
7E0
  8
LAYER01
  6
CONTINUOUS
 62
     7
 10
1448.4265339999999
 20
357.42679600000002
 30
0.0
 11
1448.4265339999999
 21
357.03260499999999
 31
0.0
  0
LINE
  5
7E1
  8
LAYER01
  6
CONTINUOUS
 62
     7
 10
1450.4265339999999
 20
357.42679600000002
 30
0.0
 11
1448.4265339999999
 21
357.42679600000002
 31
0.0
  0
LINE
  5
7E2
  8
LAYER01
  6
CONTINUOUS
 62
     7
 10
1450.4265339999999
 20
357.03260499999999
 30
0.0
 11
1448.4265339999999
 21
357.03260499999999
 31
0.0
  0
SOLID
  5
7E3
  8
LAYER01
  6
CONTINUOUS
 62
     7
 10
1450.4265339999999
 20
357.42679600000002
 30
0.0
 11
1450.4265339999999
 21
357.03260499999999
 31
0.0
 12
1448.4265339999999
 22
357.42679600000002
 32
0.0
 13
1448.4265339999999
 23
357.03260499999999
 33
0.0
  0
LINE
  5
7E4
  8
LAYER01
  6
CONTINUOUS
 62
     7
 10
1337.3502759999999
 20
356.22472900000002
 30
0.0
 11
1336.723851
 21
355.76774599999999
 31
0.0
  0
LINE
  5
7E5
  8
LAYER01
  6
CONTINUOUS
 62
     7
 10
1336.17157
 20
357.8404799999999
 30
0.0
 11
1335.545145
 21
357.38349699999998
 31
0.0
  0
LINE
  5
7E6
  8
LAYER01
  6
CONTINUOUS
 62
     7
 10
1337.3502759999999
 20
356.22472900000002
 30
0.0
 11
1336.17157
 21
357.8404799999999
 31
0.0
  0
LINE
  5
7E7
  8
LAYER01
  6
CONTINUOUS
 62
     7
 10
1336.723851
 20
355.76774599999999
 30
0.0
 11
1335.545145
 21
357.38349699999998
 31
0.0
  0
SOLID
  5
7E8
  8
LAYER01
  6
CONTINUOUS
 62
     7
 10
1337.3502759999999
 20
356.22472900000002
 30
0.0
 11
1336.723851
 21
355.76774599999999
 31
0.0
 12
1336.17157
 22
357.8404799999999
 32
0.0
 13
1335.545145
 23
357.38349699999998
 33
0.0
  0
LINE
  5
7E9
  8
LAYER01
  6
CONTINUOUS
 62
     7
 10
1450.4265339999999
 20
357.03260499999999
 30
0.0
 11
1450.4265339999999
 21
356.57562100000001
 31
0.0
  0
LINE
  5
7EA
  8
LAYER01
  6
CONTINUOUS
 62
     7
 10
1448.4265339999999
 20
357.03260499999999
 30
0.0
 11
1448.4265339999999
 21
356.57562100000001
 31
0.0
  0
LINE
  5
7EB
  8
LAYER01
  6
CONTINUOUS
 62
     7
 10
1450.4265339999999
 20
357.03260499999999
 30
0.0
 11
1448.4265339999999
 21
357.03260499999999
 31
0.0
  0
LINE
  5
7EC
  8
LAYER01
  6
CONTINUOUS
 62
     7
 10
1450.4265339999999
 20
356.57562100000001
 30
0.0
 11
1448.4265339999999
 21
356.57562100000001
 31
0.0
  0
SOLID
  5
7ED
  8
LAYER01
  6
CONTINUOUS
 62
     7
 10
1450.4265339999999
 20
357.03260499999999
 30
0.0
 11
1450.4265339999999
 21
356.57562100000001
 31
0.0
 12
1448.4265339999999
 22
357.03260499999999
 32
0.0
 13
1448.4265339999999
 23
356.57562100000001
 33
0.0
  0
LINE
  5
7EE
  8
LAYER01
  6
CONTINUOUS
 62
     7
 10
1336.7992939999999
 20
355.828596
 30
0.0
 11
1336.2200519999999
 21
355.31311499999998
 31
0.0
  0
LINE
  5
7EF
  8
LAYER01
  6
CONTINUOUS
 62
     7
 10
1335.4697020000001
 20
357.32264600000002
 30
0.0
 11
1334.890461
 21
356.807165
 31
0.0
  0
LINE
  5
7F0
  8
LAYER01
  6
CONTINUOUS
 62
     7
 10
1336.7992939999999
 20
355.828596
 30
0.0
 11
1335.4697020000001
 21
357.32264600000002
 31
0.0
  0
LINE
  5
7F1
  8
LAYER01
  6
CONTINUOUS
 62
     7
 10
1336.2200519999999
 20
355.31311499999998
 30
0.0
 11
1334.890461
 21
356.807165
 31
0.0
  0
SOLID
  5
7F2
  8
LAYER01
  6
CONTINUOUS
 62
     7
 10
1336.7992939999999
 20
355.828596
 30
0.0
 11
1336.2200519999999
 21
355.31311499999998
 31
0.0
 12
1335.4697020000001
 22
357.32264600000002
 32
0.0
 13
1334.890461
 23
356.807165
 33
0.0
  0
LINE
  5
7F3
  8
LAYER01
  6
CONTINUOUS
 62
     7
 10
1450.4265339999999
 20
356.57562100000001
 30
0.0
 11
1450.4265339999999
 21
356.06013999999999
 31
0.0
  0
LINE
  5
7F4
  8
LAYER01
  6
CONTINUOUS
 62
     7
 10
1448.4265339999999
 20
356.57562100000001
 30
0.0
 11
1448.4265339999999
 21
356.06013999999999
 31
0.0
  0
LINE
  5
7F5
  8
LAYER01
  6
CONTINUOUS
 62
     7
 10
1450.4265339999999
 20
356.57562100000001
 30
0.0
 11
1448.4265339999999
 21
356.57562100000001
 31
0.0
  0
LINE
  5
7F6
  8
LAYER01
  6
CONTINUOUS
 62
     7
 10
1450.4265339999999
 20
356.06013999999999
 30
0.0
 11
1448.4265339999999
 21
356.06013999999999
 31
0.0
  0
SOLID
  5
7F7
  8
LAYER01
  6
CONTINUOUS
 62
     7
 10
1450.4265339999999
 20
356.57562100000001
 30
0.0
 11
1450.4265339999999
 21
356.06013999999999
 31
0.0
 12
1448.4265339999999
 22
356.57562100000001
 32
0.0
 13
1448.4265339999999
 23
356.06013999999999
 33
0.0
  0
LINE
  5
7F8
  8
LAYER01
  6
CONTINUOUS
 62
     7
 10
1336.28925
 20
355.38098300000001
 30
0.0
 11
1335.7626330000001
 21
354.811846
 31
0.0
  0
LINE
  5
7F9
  8
LAYER01
  6
CONTINUOUS
 62
     7
 10
1334.821263
 20
356.73929700000002
 30
0.0
 11
1334.2946460000001
 21
356.17016000000001
 31
0.0
  0
LINE
  5
7FA
  8
LAYER01
  6
CONTINUOUS
 62
     7
 10
1336.28925
 20
355.38098300000001
 30
0.0
 11
1334.821263
 21
356.73929700000002
 31
0.0
  0
LINE
  5
7FB
  8
LAYER01
  6
CONTINUOUS
 62
     7
 10
1335.7626330000001
 20
354.811846
 30
0.0
 11
1334.2946460000001
 21
356.17016000000001
 31
0.0
  0
SOLID
  5
7FC
  8
LAYER01
  6
CONTINUOUS
 62
     7
 10
1336.28925
 20
355.38098300000001
 30
0.0
 11
1335.7626330000001
 21
354.811846
 31
0.0
 12
1334.821263
 22
356.73929700000002
 32
0.0
 13
1334.2946460000001
 23
356.17016000000001
 33
0.0
  0
LINE
  5
7FD
  8
LAYER01
  6
CONTINUOUS
 62
     7
 10
1450.4265339999999
 20
356.06013999999999
 30
0.0
 11
1450.4265339999999
 21
355.49100299999998
 31
0.0
  0
LINE
  5
7FE
  8
LAYER01
  6
CONTINUOUS
 62
     7
 10
1448.4265339999999
 20
356.06013999999999
 30
0.0
 11
1448.4265339999999
 21
355.49100299999998
 31
0.0
  0
LINE
  5
7FF
  8
LAYER01
  6
CONTINUOUS
 62
     7
 10
1450.4265339999999
 20
356.06013999999999
 30
0.0
 11
1448.4265339999999
 21
356.06013999999999
 31
0.0
  0
LINE
  5
800
  8
LAYER01
  6
CONTINUOUS
 62
     7
 10
1450.4265339999999
 20
355.49100299999998
 30
0.0
 11
1448.4265339999999
 21
355.49100299999998
 31
0.0
  0
SOLID
  5
801
  8
LAYER01
  6
CONTINUOUS
 62
     7
 10
1450.4265339999999
 20
356.06013999999999
 30
0.0
 11
1450.4265339999999
 21
355.49100299999998
 31
0.0
 12
1448.4265339999999
 22
356.06013999999999
 32
0.0
 13
1448.4265339999999
 23
355.49100299999998
 33
0.0
  0
LINE
  5
802
  8
LAYER01
  6
CONTINUOUS
 62
     7
 10
1335.794684
 20
354.84821499999998
 30
0.0
 11
1328.1233830000001
 21
345.70591400000001
 31
0.0
  0
LINE
  5
803
  8
LAYER01
  6
CONTINUOUS
 62
     7
 10
1334.2625949999999
 20
356.13379099999997
 30
0.0
 11
1326.5912940000001
 21
346.99149
 31
0.0
  0
LINE
  5
804
  8
LAYER01
  6
CONTINUOUS
 62
     7
 10
1335.794684
 20
354.84821499999998
 30
0.0
 11
1334.2625949999999
 21
356.13379099999997
 31
0.0
  0
LINE
  5
805
  8
LAYER01
  6
CONTINUOUS
 62
     7
 10
1328.1233830000001
 20
345.70591400000001
 30
0.0
 11
1326.5912940000001
 21
346.99149
 31
0.0
  0
SOLID
  5
806
  8
LAYER01
  6
CONTINUOUS
 62
     7
 10
1335.794684
 20
354.84821499999998
 30
0.0
 11
1328.1233830000001
 21
345.70591400000001
 31
0.0
 12
1334.2625949999999
 22
356.13379099999997
 32
0.0
 13
1326.5912940000001
 23
346.99149
 33
0.0
  0
LINE
  5
807
  8
LAYER01
  6
CONTINUOUS
 62
     7
 10
1450.4265339999999
 20
355.49100299999998
 30
0.0
 11
1450.4265339999999
 21
346.348702
 31
0.0
  0
LINE
  5
808
  8
LAYER01
  6
CONTINUOUS
 62
     7
 10
1448.4265339999999
 20
355.49100299999998
 30
0.0
 11
1448.4265339999999
 21
346.348702
 31
0.0
  0
LINE
  5
809
  8
LAYER01
  6
CONTINUOUS
 62
     7
 10
1450.4265339999999
 20
355.49100299999998
 30
0.0
 11
1448.4265339999999
 21
355.49100299999998
 31
0.0
  0
LINE
  5
80A
  8
LAYER01
  6
CONTINUOUS
 62
     7
 10
1450.4265339999999
 20
346.348702
 30
0.0
 11
1448.4265339999999
 21
346.348702
 31
0.0
  0
SOLID
  5
80B
  8
LAYER01
  6
CONTINUOUS
 62
     7
 10
1450.4265339999999
 20
355.49100299999998
 30
0.0
 11
1450.4265339999999
 21
346.348702
 31
0.0
 12
1448.4265339999999
 22
355.49100299999998
 32
0.0
 13
1448.4265339999999
 23
346.348702
 33
0.0
  0
LINE
  5
80C
  8
LAYER01
  6
CONTINUOUS
 62
     7
 10
1328.1233830000001
 20
345.70591400000001
 30
0.0
 11
1328.103676
 21
345.68242800000002
 31
0.0
  0
LINE
  5
80D
  8
LAYER01
  6
CONTINUOUS
 62
     7
 10
1326.5912940000001
 20
346.99149
 30
0.0
 11
1326.5715869999999
 21
346.96800400000001
 31
0.0
  0
LINE
  5
80E
  8
LAYER01
  6
CONTINUOUS
 62
     7
 10
1328.1233830000001
 20
345.70591400000001
 30
0.0
 11
1326.5912940000001
 21
346.99149
 31
0.0
  0
LINE
  5
80F
  8
LAYER01
  6
CONTINUOUS
 62
     7
 10
1328.103676
 20
345.68242800000002
 30
0.0
 11
1326.5715869999999
 21
346.96800400000001
 31
0.0
  0
SOLID
  5
810
  8
LAYER01
  6
CONTINUOUS
 62
     7
 10
1328.1233830000001
 20
345.70591400000001
 30
0.0
 11
1328.103676
 21
345.68242800000002
 31
0.0
 12
1326.5912940000001
 22
346.99149
 32
0.0
 13
1326.5715869999999
 23
346.96800400000001
 33
0.0
  0
LINE
  5
811
  8
LAYER01
  6
CONTINUOUS
 62
     7
 10
1351.8065349999999
 20
345.34987699999999
 30
0.0
 11
1351.32248
 21
345.326391
 31
0.0
  0
LINE
  5
812
  8
LAYER01
  6
CONTINUOUS
 62
     7
 10
1351.7096100000001
 20
347.34752700000001
 30
0.0
 11
1351.225555
 21
347.32404100000002
 31
0.0
  0
LINE
  5
813
  8
LAYER01
  6
CONTINUOUS
 62
     7
 10
1351.8065349999999
 20
345.34987699999999
 30
0.0
 11
1351.7096100000001
 21
347.34752700000001
 31
0.0
  0
LINE
  5
814
  8
LAYER01
  6
CONTINUOUS
 62
     7
 10
1351.32248
 20
345.326391
 30
0.0
 11
1351.225555
 21
347.32404100000002
 31
0.0
  0
SOLID
  5
815
  8
LAYER01
  6
CONTINUOUS
 62
     7
 10
1351.8065349999999
 20
345.34987699999999
 30
0.0
 11
1351.32248
 21
345.326391
 31
0.0
 12
1351.7096100000001
 22
347.34752700000001
 32
0.0
 13
1351.225555
 23
347.32404100000002
 33
0.0
  0
LINE
  5
816
  8
LAYER01
  6
CONTINUOUS
 62
     7
 10
1429.4765829999999
 20
347.34736900000001
 30
0.0
 11
1429.992019
 21
347.32073100000002
 31
0.0
  0
LINE
  5
817
  8
LAYER01
  6
CONTINUOUS
 62
     7
 10
1429.3733589999999
 20
345.35003499999999
 30
0.0
 11
1429.888794
 21
345.323397
 31
0.0
  0
LINE
  5
818
  8
LAYER01
  6
CONTINUOUS
 62
     7
 10
1429.4765829999999
 20
347.34736900000001
 30
0.0
 11
1429.3733589999999
 21
345.35003499999999
 31
0.0
  0
LINE
  5
819
  8
LAYER01
  6
CONTINUOUS
 62
     7
 10
1429.992019
 20
347.32073100000002
 30
0.0
 11
1429.888794
 21
345.323397
 31
0.0
  0
SOLID
  5
81A
  8
LAYER01
  6
CONTINUOUS
 62
     7
 10
1429.4765829999999
 20
347.34736900000001
 30
0.0
 11
1429.992019
 21
347.32073100000002
 31
0.0
 12
1429.3733589999999
 22
345.35003499999999
 32
0.0
 13
1429.888794
 23
345.323397
 33
0.0
  0
LINE
  5
81B
  8
LAYER01
  6
CONTINUOUS
 62
     7
 10
1450.4265339999999
 20
346.348702
 30
0.0
 11
1450.4265339999999
 21
346.32206400000001
 31
0.0
  0
LINE
  5
81C
  8
LAYER01
  6
CONTINUOUS
 62
     7
 10
1448.4265339999999
 20
346.348702
 30
0.0
 11
1448.4265339999999
 21
346.32206400000001
 31
0.0
  0
LINE
  5
81D
  8
LAYER01
  6
CONTINUOUS
 62
     7
 10
1450.4265339999999
 20
346.348702
 30
0.0
 11
1448.4265339999999
 21
346.348702
 31
0.0
  0
LINE
  5
81E
  8
LAYER01
  6
CONTINUOUS
 62
     7
 10
1450.4265339999999
 20
346.32206400000001
 30
0.0
 11
1448.4265339999999
 21
346.32206400000001
 31
0.0
  0
SOLID
  5
81F
  8
LAYER01
  6
CONTINUOUS
 62
     7
 10
1450.4265339999999
 20
346.348702
 30
0.0
 11
1450.4265339999999
 21
346.32206400000001
 31
0.0
 12
1448.4265339999999
 22
346.348702
 32
0.0
 13
1448.4265339999999
 23
346.32206400000001
 33
0.0
  0
LINE
  5
820
  8
LAYER01
  6
CONTINUOUS
 62
     7
 10
1328.103676
 20
345.68242800000002
 30
0.0
 11
1328.0447389999999
 21
345.612191
 31
0.0
  0
LINE
  5
821
  8
LAYER01
  6
CONTINUOUS
 62
     7
 10
1326.5715869999999
 20
346.96800400000001
 30
0.0
 11
1326.512651
 21
346.89776599999999
 31
0.0
  0
LINE
  5
822
  8
LAYER01
  6
CONTINUOUS
 62
     7
 10
1328.103676
 20
345.68242800000002
 30
0.0
 11
1326.5715869999999
 21
346.96800400000001
 31
0.0
  0
LINE
  5
823
  8
LAYER01
  6
CONTINUOUS
 62
     7
 10
1328.0447389999999
 20
345.612191
 30
0.0
 11
1326.512651
 21
346.89776599999999
 31
0.0
  0
SOLID
  5
824
  8
LAYER01
  6
CONTINUOUS
 62
     7
 10
1328.103676
 20
345.68242800000002
 30
0.0
 11
1328.0447389999999
 21
345.612191
 31
0.0
 12
1326.5715869999999
 22
346.96800400000001
 32
0.0
 13
1326.512651
 23
346.89776599999999
 33
0.0
  0
LINE
  5
825
  8
LAYER01
  6
CONTINUOUS
 62
     7
 10
1351.41895
 20
345.33577400000001
 30
0.0
 11
1350.939443
 21
345.26553699999999
 31
0.0
  0
LINE
  5
826
  8
LAYER01
  6
CONTINUOUS
 62
     7
 10
1351.1290859999999
 20
347.31465800000001
 30
0.0
 11
1350.6495789999999
 21
347.24441999999999
 31
0.0
  0
LINE
  5
827
  8
LAYER01
  6
CONTINUOUS
 62
     7
 10
1351.41895
 20
345.33577400000001
 30
0.0
 11
1351.1290859999999
 21
347.31465800000001
 31
0.0
  0
LINE
  5
828
  8
LAYER01
  6
CONTINUOUS
 62
     7
 10
1350.939443
 20
345.26553699999999
 30
0.0
 11
1350.6495789999999
 21
347.24441999999999
 31
0.0
  0
SOLID
  5
829
  8
LAYER01
  6
CONTINUOUS
 62
     7
 10
1351.41895
 20
345.33577400000001
 30
0.0
 11
1350.939443
 21
345.26553699999999
 31
0.0
 12
1351.1290859999999
 22
347.31465800000001
 32
0.0
 13
1350.6495789999999
 23
347.24441999999999
 33
0.0
  0
LINE
  5
82A
  8
LAYER01
  6
CONTINUOUS
 62
     7
 10
1430.094693
 20
347.31009
 30
0.0
 11
1430.604636
 21
347.230459
 31
0.0
  0
LINE
  5
82B
  8
LAYER01
  6
CONTINUOUS
 62
     7
 10
1429.7861190000001
 20
345.33403800000002
 30
0.0
 11
1430.2960619999999
 21
345.25440700000001
 31
0.0
  0
LINE
  5
82C
  8
LAYER01
  6
CONTINUOUS
 62
     7
 10
1430.094693
 20
347.31009
 30
0.0
 11
1429.7861190000001
 21
345.33403800000002
 31
0.0
  0
LINE
  5
82D
  8
LAYER01
  6
CONTINUOUS
 62
     7
 10
1430.604636
 20
347.230459
 30
0.0
 11
1430.2960619999999
 21
345.25440700000001
 31
0.0
  0
SOLID
  5
82E
  8
LAYER01
  6
CONTINUOUS
 62
     7
 10
1430.094693
 20
347.31009
 30
0.0
 11
1430.604636
 21
347.230459
 31
0.0
 12
1429.7861190000001
 22
345.33403800000002
 32
0.0
 13
1430.2960619999999
 23
345.25440700000001
 33
0.0
  0
LINE
  5
82F
  8
LAYER01
  6
CONTINUOUS
 62
     7
 10
1450.4265339999999
 20
346.32206400000001
 30
0.0
 11
1450.4265339999999
 21
346.24243300000001
 31
0.0
  0
LINE
  5
830
  8
LAYER01
  6
CONTINUOUS
 62
     7
 10
1448.4265339999999
 20
346.32206400000001
 30
0.0
 11
1448.4265339999999
 21
346.24243300000001
 31
0.0
  0
LINE
  5
831
  8
LAYER01
  6
CONTINUOUS
 62
     7
 10
1450.4265339999999
 20
346.32206400000001
 30
0.0
 11
1448.4265339999999
 21
346.32206400000001
 31
0.0
  0
LINE
  5
832
  8
LAYER01
  6
CONTINUOUS
 62
     7
 10
1450.4265339999999
 20
346.24243300000001
 30
0.0
 11
1448.4265339999999
 21
346.24243300000001
 31
0.0
  0
SOLID
  5
833
  8
LAYER01
  6
CONTINUOUS
 62
     7
 10
1450.4265339999999
 20
346.32206400000001
 30
0.0
 11
1450.4265339999999
 21
346.24243300000001
 31
0.0
 12
1448.4265339999999
 22
346.32206400000001
 32
0.0
 13
1448.4265339999999
 23
346.24243300000001
 33
0.0
  0
LINE
  5
834
  8
LAYER01
  6
CONTINUOUS
 62
     7
 10
1328.0447389999999
 20
345.612191
 30
0.0
 11
1327.947128
 21
345.49586199999999
 31
0.0
  0
LINE
  5
835
  8
LAYER01
  6
CONTINUOUS
 62
     7
 10
1326.512651
 20
346.89776599999999
 30
0.0
 11
1326.415039
 21
346.7814370000001
 31
0.0
  0
LINE
  5
836
  8
LAYER01
  6
CONTINUOUS
 62
     7
 10
1328.0447389999999
 20
345.612191
 30
0.0
 11
1326.512651
 21
346.89776599999999
 31
0.0
  0
LINE
  5
837
  8
LAYER01
  6
CONTINUOUS
 62
     7
 10
1327.947128
 20
345.49586199999999
 30
0.0
 11
1326.415039
 21
346.7814370000001
 31
0.0
  0
SOLID
  5
838
  8
LAYER01
  6
CONTINUOUS
 62
     7
 10
1328.0447389999999
 20
345.612191
 30
0.0
 11
1327.947128
 21
345.49586199999999
 31
0.0
 12
1326.512651
 22
346.89776599999999
 32
0.0
 13
1326.415039
 23
346.7814370000001
 33
0.0
  0
LINE
  5
839
  8
LAYER01
  6
CONTINUOUS
 62
     7
 10
1351.034551
 20
345.28421600000001
 30
0.0
 11
1350.5640960000001
 21
345.16788700000001
 31
0.0
  0
LINE
  5
83A
  8
LAYER01
  6
CONTINUOUS
 62
     7
 10
1350.5544709999999
 20
347.22574200000003
 30
0.0
 11
1350.084016
 21
347.1094129999999
 31
0.0
  0
LINE
  5
83B
  8
LAYER01
  6
CONTINUOUS
 62
     7
 10
1351.034551
 20
345.28421600000001
 30
0.0
 11
1350.5544709999999
 21
347.22574200000003
 31
0.0
  0
LINE
  5
83C
  8
LAYER01
  6
CONTINUOUS
 62
     7
 10
1350.5640960000001
 20
345.16788700000001
 30
0.0
 11
1350.084016
 21
347.1094129999999
 31
0.0
  0
SOLID
  5
83D
  8
LAYER01
  6
CONTINUOUS
 62
     7
 10
1351.034551
 20
345.28421600000001
 30
0.0
 11
1350.5640960000001
 21
345.16788700000001
 31
0.0
 12
1350.5544709999999
 22
347.22574200000003
 32
0.0
 13
1350.084016
 23
347.1094129999999
 33
0.0
  0
LINE
  5
83E
  8
LAYER01
  6
CONTINUOUS
 62
     7
 10
1430.7056669999999
 20
347.20929000000001
 30
0.0
 11
1431.2046849999999
 21
347.07751400000001
 31
0.0
  0
LINE
  5
83F
  8
LAYER01
  6
CONTINUOUS
 62
     7
 10
1430.1950320000001
 20
345.275575
 30
0.0
 11
1430.6940489999999
 21
345.1438
 31
0.0
  0
LINE
  5
840
  8
LAYER01
  6
CONTINUOUS
 62
     7
 10
1430.7056669999999
 20
347.20929000000001
 30
0.0
 11
1430.1950320000001
 21
345.275575
 31
0.0
  0
LINE
  5
841
  8
LAYER01
  6
CONTINUOUS
 62
     7
 10
1431.2046849999999
 20
347.07751400000001
 30
0.0
 11
1430.6940489999999
 21
345.1438
 31
0.0
  0
SOLID
  5
842
  8
LAYER01
  6
CONTINUOUS
 62
     7
 10
1430.7056669999999
 20
347.20929000000001
 30
0.0
 11
1431.2046849999999
 21
347.07751400000001
 31
0.0
 12
1430.1950320000001
 22
345.275575
 32
0.0
 13
1430.6940489999999
 23
345.1438
 33
0.0
  0
LINE
  5
843
  8
LAYER01
  6
CONTINUOUS
 62
     7
 10
1450.4265339999999
 20
346.24243300000001
 30
0.0
 11
1450.4265339999999
 21
346.110657
 31
0.0
  0
LINE
  5
844
  8
LAYER01
  6
CONTINUOUS
 62
     7
 10
1448.4265339999999
 20
346.24243300000001
 30
0.0
 11
1448.4265339999999
 21
346.110657
 31
0.0
  0
LINE
  5
845
  8
LAYER01
  6
CONTINUOUS
 62
     7
 10
1450.4265339999999
 20
346.24243300000001
 30
0.0
 11
1448.4265339999999
 21
346.24243300000001
 31
0.0
  0
LINE
  5
846
  8
LAYER01
  6
CONTINUOUS
 62
     7
 10
1450.4265339999999
 20
346.110657
 30
0.0
 11
1448.4265339999999
 21
346.110657
 31
0.0
  0
SOLID
  5
847
  8
LAYER01
  6
CONTINUOUS
 62
     7
 10
1450.4265339999999
 20
346.24243300000001
 30
0.0
 11
1450.4265339999999
 21
346.110657
 31
0.0
 12
1448.4265339999999
 22
346.24243300000001
 32
0.0
 13
1448.4265339999999
 23
346.110657
 33
0.0
  0
LINE
  5
848
  8
LAYER01
  6
CONTINUOUS
 62
     7
 10
1327.947128
 20
345.49586199999999
 30
0.0
 11
1327.8117580000001
 21
345.33453400000002
 31
0.0
  0
LINE
  5
849
  8
LAYER01
  6
CONTINUOUS
 62
     7
 10
1326.415039
 20
346.7814370000001
 30
0.0
 11
1326.279669
 21
346.62010900000001
 31
0.0
  0
LINE
  5
84A
  8
LAYER01
  6
CONTINUOUS
 62
     7
 10
1327.947128
 20
345.49586199999999
 30
0.0
 11
1326.415039
 21
346.7814370000001
 31
0.0
  0
LINE
  5
84B
  8
LAYER01
  6
CONTINUOUS
 62
     7
 10
1327.8117580000001
 20
345.33453400000002
 30
0.0
 11
1326.279669
 21
346.62010900000001
 31
0.0
  0
SOLID
  5
84C
  8
LAYER01
  6
CONTINUOUS
 62
     7
 10
1327.947128
 20
345.49586199999999
 30
0.0
 11
1327.8117580000001
 21
345.33453400000002
 31
0.0
 12
1326.415039
 22
346.7814370000001
 32
0.0
 13
1326.279669
 23
346.62010900000001
 33
0.0
  0
LINE
  5
84D
  8
LAYER01
  6
CONTINUOUS
 62
     7
 10
1350.6569489999999
 20
345.19568500000003
 30
0.0
 11
1350.1999659999999
 21
345.034357
 31
0.0
  0
LINE
  5
84E
  8
LAYER01
  6
CONTINUOUS
 62
     7
 10
1349.9911629999999
 20
347.081614
 30
0.0
 11
1349.5341800000001
 21
346.92028699999997
 31
0.0
  0
LINE
  5
84F
  8
LAYER01
  6
CONTINUOUS
 62
     7
 10
1350.6569489999999
 20
345.19568500000003
 30
0.0
 11
1349.9911629999999
 21
347.081614
 31
0.0
  0
LINE
  5
850
  8
LAYER01
  6
CONTINUOUS
 62
     7
 10
1350.1999659999999
 20
345.034357
 30
0.0
 11
1349.5341800000001
 21
346.92028699999997
 31
0.0
  0
SOLID
  5
851
  8
LAYER01
  6
CONTINUOUS
 62
     7
 10
1350.6569489999999
 20
345.19568500000003
 30
0.0
 11
1350.1999659999999
 21
345.034357
 31
0.0
 12
1349.9911629999999
 22
347.081614
 32
0.0
 13
1349.5341800000001
 23
346.92028699999997
 33
0.0
  0
LINE
  5
852
  8
LAYER01
  6
CONTINUOUS
 62
     7
 10
1431.302995
 20
347.046043
 30
0.0
 11
1431.7857690000001
 21
346.86352799999997
 31
0.0
  0
LINE
  5
853
  8
LAYER01
  6
CONTINUOUS
 62
     7
 10
1430.5957390000001
 20
345.17527100000001
 30
0.0
 11
1431.0785129999999
 21
344.99275499999999
 31
0.0
  0
LINE
  5
854
  8
LAYER01
  6
CONTINUOUS
 62
     7
 10
1431.302995
 20
347.046043
 30
0.0
 11
1430.5957390000001
 21
345.17527100000001
 31
0.0
  0
LINE
  5
855
  8
LAYER01
  6
CONTINUOUS
 62
     7
 10
1431.7857690000001
 20
346.86352799999997
 30
0.0
 11
1431.0785129999999
 21
344.99275499999999
 31
0.0
  0
SOLID
  5
856
  8
LAYER01
  6
CONTINUOUS
 62
     7
 10
1431.302995
 20
347.046043
 30
0.0
 11
1431.7857690000001
 21
346.86352799999997
 31
0.0
 12
1430.5957390000001
 22
345.17527100000001
 32
0.0
 13
1431.0785129999999
 23
344.99275499999999
 33
0.0
  0
LINE
  5
857
  8
LAYER01
  6
CONTINUOUS
 62
     7
 10
1450.4265339999999
 20
346.110657
 30
0.0
 11
1450.4265339999999
 21
345.92814199999998
 31
0.0
  0
LINE
  5
858
  8
LAYER01
  6
CONTINUOUS
 62
     7
 10
1448.4265339999999
 20
346.110657
 30
0.0
 11
1448.4265339999999
 21
345.92814199999998
 31
0.0
  0
LINE
  5
859
  8
LAYER01
  6
CONTINUOUS
 62
     7
 10
1450.4265339999999
 20
346.110657
 30
0.0
 11
1448.4265339999999
 21
346.110657
 31
0.0
  0
LINE
  5
85A
  8
LAYER01
  6
CONTINUOUS
 62
     7
 10
1450.4265339999999
 20
345.92814199999998
 30
0.0
 11
1448.4265339999999
 21
345.92814199999998
 31
0.0
  0
SOLID
  5
85B
  8
LAYER01
  6
CONTINUOUS
 62
     7
 10
1450.4265339999999
 20
346.110657
 30
0.0
 11
1450.4265339999999
 21
345.92814199999998
 31
0.0
 12
1448.4265339999999
 22
346.110657
 32
0.0
 13
1448.4265339999999
 23
345.92814199999998
 33
0.0
  0
LINE
  5
85C
  8
LAYER01
  6
CONTINUOUS
 62
     7
 10
1327.8117580000001
 20
345.33453400000002
 30
0.0
 11
1327.639901
 21
345.12972300000001
 31
0.0
  0
LINE
  5
85D
  8
LAYER01
  6
CONTINUOUS
 62
     7
 10
1326.279669
 20
346.62010900000001
 30
0.0
 11
1326.107812
 21
346.415299
 31
0.0
  0
LINE
  5
85E
  8
LAYER01
  6
CONTINUOUS
 62
     7
 10
1327.8117580000001
 20
345.33453400000002
 30
0.0
 11
1326.279669
 21
346.62010900000001
 31
0.0
  0
LINE
  5
85F
  8
LAYER01
  6
CONTINUOUS
 62
     7
 10
1327.639901
 20
345.12972300000001
 30
0.0
 11
1326.107812
 21
346.415299
 31
0.0
  0
SOLID
  5
860
  8
LAYER01
  6
CONTINUOUS
 62
     7
 10
1327.8117580000001
 20
345.33453400000002
 30
0.0
 11
1327.639901
 21
345.12972300000001
 31
0.0
 12
1326.279669
 22
346.62010900000001
 32
0.0
 13
1326.107812
 23
346.415299
 33
0.0
  0
LINE
  5
861
  8
LAYER01
  6
CONTINUOUS
 62
     7
 10
1350.2896909999999
 20
345.07101399999999
 30
0.0
 11
1349.850473
 21
344.86620299999998
 31
0.0
  0
LINE
  5
862
  8
LAYER01
  6
CONTINUOUS
 62
     7
 10
1349.4444550000001
 20
346.88362999999998
 30
0.0
 11
1349.005236
 21
346.67881899999998
 31
0.0
  0
LINE
  5
863
  8
LAYER01
  6
CONTINUOUS
 62
     7
 10
1350.2896909999999
 20
345.07101399999999
 30
0.0
 11
1349.4444550000001
 21
346.88362999999998
 31
0.0
  0
LINE
  5
864
  8
LAYER01
  6
CONTINUOUS
 62
     7
 10
1349.850473
 20
344.86620299999998
 30
0.0
 11
1349.005236
 21
346.67881899999998
 31
0.0
  0
SOLID
  5
865
  8
LAYER01
  6
CONTINUOUS
 62
     7
 10
1350.2896909999999
 20
345.07101399999999
 30
0.0
 11
1349.850473
 21
344.86620299999998
 31
0.0
 12
1349.4444550000001
 22
346.88362999999998
 32
0.0
 13
1349.005236
 23
346.67881899999998
 33
0.0
  0
LINE
  5
866
  8
LAYER01
  6
CONTINUOUS
 62
     7
 10
1431.880312
 20
346.82209
 30
0.0
 11
1432.3416990000001
 21
346.590779
 31
0.0
  0
LINE
  5
867
  8
LAYER01
  6
CONTINUOUS
 62
     7
 10
1430.9839710000001
 20
345.03419300000002
 30
0.0
 11
1431.4453590000001
 21
344.80288200000001
 31
0.0
  0
LINE
  5
868
  8
LAYER01
  6
CONTINUOUS
 62
     7
 10
1431.880312
 20
346.82209
 30
0.0
 11
1430.9839710000001
 21
345.03419300000002
 31
0.0
  0
LINE
  5
869
  8
LAYER01
  6
CONTINUOUS
 62
     7
 10
1432.3416990000001
 20
346.590779
 30
0.0
 11
1431.4453590000001
 21
344.80288200000001
 31
0.0
  0
SOLID
  5
86A
  8
LAYER01
  6
CONTINUOUS
 62
     7
 10
1431.880312
 20
346.82209
 30
0.0
 11
1432.3416990000001
 21
346.590779
 31
0.0
 12
1430.9839710000001
 22
345.03419300000002
 32
0.0
 13
1431.4453590000001
 23
344.80288200000001
 33
0.0
  0
LINE
  5
86B
  8
LAYER01
  6
CONTINUOUS
 62
     7
 10
1450.4265339999999
 20
345.92814199999998
 30
0.0
 11
1450.4265339999999
 21
345.69683100000009
 31
0.0
  0
LINE
  5
86C
  8
LAYER01
  6
CONTINUOUS
 62
     7
 10
1448.4265339999999
 20
345.92814199999998
 30
0.0
 11
1448.4265339999999
 21
345.69683100000009
 31
0.0
  0
LINE
  5
86D
  8
LAYER01
  6
CONTINUOUS
 62
     7
 10
1450.4265339999999
 20
345.92814199999998
 30
0.0
 11
1448.4265339999999
 21
345.92814199999998
 31
0.0
  0
LINE
  5
86E
  8
LAYER01
  6
CONTINUOUS
 62
     7
 10
1450.4265339999999
 20
345.69683100000009
 30
0.0
 11
1448.4265339999999
 21
345.69683100000009
 31
0.0
  0
SOLID
  5
86F
  8
LAYER01
  6
CONTINUOUS
 62
     7
 10
1450.4265339999999
 20
345.92814199999998
 30
0.0
 11
1450.4265339999999
 21
345.69683100000009
 31
0.0
 12
1448.4265339999999
 22
345.92814199999998
 32
0.0
 13
1448.4265339999999
 23
345.69683100000009
 33
0.0
  0
LINE
  5
870
  8
LAYER01
  6
CONTINUOUS
 62
     7
 10
1327.639901
 20
345.12972300000001
 30
0.0
 11
1327.433172
 21
344.883353
 31
0.0
  0
LINE
  5
871
  8
LAYER01
  6
CONTINUOUS
 62
     7
 10
1326.107812
 20
346.415299
 30
0.0
 11
1325.901083
 21
346.16892899999999
 31
0.0
  0
LINE
  5
872
  8
LAYER01
  6
CONTINUOUS
 62
     7
 10
1327.639901
 20
345.12972300000001
 30
0.0
 11
1326.107812
 21
346.415299
 31
0.0
  0
LINE
  5
873
  8
LAYER01
  6
CONTINUOUS
 62
     7
 10
1327.433172
 20
344.883353
 30
0.0
 11
1325.901083
 21
346.16892899999999
 31
0.0
  0
SOLID
  5
874
  8
LAYER01
  6
CONTINUOUS
 62
     7
 10
1327.639901
 20
345.12972300000001
 30
0.0
 11
1327.433172
 21
344.883353
 31
0.0
 12
1326.107812
 22
346.415299
 32
0.0
 13
1325.901083
 23
346.16892899999999
 33
0.0
  0
LINE
  5
875
  8
LAYER01
  6
CONTINUOUS
 62
     7
 10
1349.936228
 20
344.91137400000002
 30
0.0
 11
1349.5189009999999
 21
344.66500400000001
 31
0.0
  0
LINE
  5
876
  8
LAYER01
  6
CONTINUOUS
 62
     7
 10
1348.9194809999999
 20
346.63364799999999
 30
0.0
 11
1348.502154
 21
346.38727799999998
 31
0.0
  0
LINE
  5
877
  8
LAYER01
  6
CONTINUOUS
 62
     7
 10
1349.936228
 20
344.91137400000002
 30
0.0
 11
1348.9194809999999
 21
346.63364799999999
 31
0.0
  0
LINE
  5
878
  8
LAYER01
  6
CONTINUOUS
 62
     7
 10
1349.5189009999999
 20
344.66500400000001
 30
0.0
 11
1348.502154
 21
346.38727799999998
 31
0.0
  0
SOLID
  5
879
  8
LAYER01
  6
CONTINUOUS
 62
     7
 10
1349.936228
 20
344.91137400000002
 30
0.0
 11
1349.5189009999999
 21
344.66500400000001
 31
0.0
 12
1348.9194809999999
 22
346.63364799999999
 32
0.0
 13
1348.502154
 23
346.38727799999998
 33
0.0
  0
LINE
  5
87A
  8
LAYER01
  6
CONTINUOUS
 62
     7
 10
1432.431466
 20
346.53981599999997
 30
0.0
 11
1432.86655
 21
346.26217400000002
 31
0.0
  0
LINE
  5
87B
  8
LAYER01
  6
CONTINUOUS
 62
     7
 10
1431.3555919999999
 20
344.85384599999998
 30
0.0
 11
1431.7906760000001
 21
344.57620400000002
 31
0.0
  0
LINE
  5
87C
  8
LAYER01
  6
CONTINUOUS
 62
     7
 10
1432.431466
 20
346.53981599999997
 30
0.0
 11
1431.3555919999999
 21
344.85384599999998
 31
0.0
  0
LINE
  5
87D
  8
LAYER01
  6
CONTINUOUS
 62
     7
 10
1432.86655
 20
346.26217400000002
 30
0.0
 11
1431.7906760000001
 21
344.57620400000002
 31
0.0
  0
SOLID
  5
87E
  8
LAYER01
  6
CONTINUOUS
 62
     7
 10
1432.431466
 20
346.53981599999997
 30
0.0
 11
1432.86655
 21
346.26217400000002
 31
0.0
 12
1431.3555919999999
 22
344.85384599999998
 32
0.0
 13
1431.7906760000001
 23
344.57620400000002
 33
0.0
  0
LINE
  5
87F
  8
LAYER01
  6
CONTINUOUS
 62
     7
 10
1450.4265339999999
 20
345.69683100000009
 30
0.0
 11
1450.4265339999999
 21
345.41918900000002
 31
0.0
  0
LINE
  5
880
  8
LAYER01
  6
CONTINUOUS
 62
     7
 10
1448.4265339999999
 20
345.69683100000009
 30
0.0
 11
1448.4265339999999
 21
345.41918900000002
 31
0.0
  0
LINE
  5
881
  8
LAYER01
  6
CONTINUOUS
 62
     7
 10
1450.4265339999999
 20
345.69683100000009
 30
0.0
 11
1448.4265339999999
 21
345.69683100000009
 31
0.0
  0
LINE
  5
882
  8
LAYER01
  6
CONTINUOUS
 62
     7
 10
1450.4265339999999
 20
345.41918900000002
 30
0.0
 11
1448.4265339999999
 21
345.41918900000002
 31
0.0
  0
SOLID
  5
883
  8
LAYER01
  6
CONTINUOUS
 62
     7
 10
1450.4265339999999
 20
345.69683100000009
 30
0.0
 11
1450.4265339999999
 21
345.41918900000002
 31
0.0
 12
1448.4265339999999
 22
345.69683100000009
 32
0.0
 13
1448.4265339999999
 23
345.41918900000002
 33
0.0
  0
LINE
  5
884
  8
LAYER01
  6
CONTINUOUS
 62
     7
 10
1327.433172
 20
344.883353
 30
0.0
 11
1327.1935129999999
 21
344.59773899999999
 31
0.0
  0
LINE
  5
885
  8
LAYER01
  6
CONTINUOUS
 62
     7
 10
1325.901083
 20
346.16892899999999
 30
0.0
 11
1325.6614239999999
 21
345.88331399999998
 31
0.0
  0
LINE
  5
886
  8
LAYER01
  6
CONTINUOUS
 62
     7
 10
1327.433172
 20
344.883353
 30
0.0
 11
1325.901083
 21
346.16892899999999
 31
0.0
  0
LINE
  5
887
  8
LAYER01
  6
CONTINUOUS
 62
     7
 10
1327.1935129999999
 20
344.59773899999999
 30
0.0
 11
1325.6614239999999
 21
345.88331399999998
 31
0.0
  0
SOLID
  5
888
  8
LAYER01
  6
CONTINUOUS
 62
     7
 10
1327.433172
 20
344.883353
 30
0.0
 11
1327.1935129999999
 21
344.59773899999999
 31
0.0
 12
1325.901083
 22
346.16892899999999
 32
0.0
 13
1325.6614239999999
 23
345.88331399999998
 33
0.0
  0
LINE
  5
889
  8
LAYER01
  6
CONTINUOUS
 62
     7
 10
1349.59988
 20
344.71826499999997
 30
0.0
 11
1349.208365
 21
344.43265100000002
 31
0.0
  0
LINE
  5
88A
  8
LAYER01
  6
CONTINUOUS
 62
     7
 10
1348.4211740000001
 20
346.33401700000002
 30
0.0
 11
1348.029659
 21
346.04840200000001
 31
0.0
  0
LINE
  5
88B
  8
LAYER01
  6
CONTINUOUS
 62
     7
 10
1349.59988
 20
344.71826499999997
 30
0.0
 11
1348.4211740000001
 21
346.33401700000002
 31
0.0
  0
LINE
  5
88C
  8
LAYER01
  6
CONTINUOUS
 62
     7
 10
1349.208365
 20
344.43265100000002
 30
0.0
 11
1348.029659
 21
346.04840200000001
 31
0.0
  0
SOLID
  5
88D
  8
LAYER01
  6
CONTINUOUS
 62
     7
 10
1349.59988
 20
344.71826499999997
 30
0.0
 11
1349.208365
 21
344.43265100000002
 31
0.0
 12
1348.4211740000001
 22
346.33401700000002
 32
0.0
 13
1348.029659
 23
346.04840200000001
 33
0.0
  0
LINE
  5
88E
  8
LAYER01
  6
CONTINUOUS
 62
     7
 10
1432.950585
 20
346.20222799999999
 30
0.0
 11
1433.35473
 21
345.881214
 31
0.0
  0
LINE
  5
88F
  8
LAYER01
  6
CONTINUOUS
 62
     7
 10
1431.706641
 20
344.6361490000001
 30
0.0
 11
1432.110786
 21
344.315135
 31
0.0
  0
LINE
  5
890
  8
LAYER01
  6
CONTINUOUS
 62
     7
 10
1432.950585
 20
346.20222799999999
 30
0.0
 11
1431.706641
 21
344.6361490000001
 31
0.0
  0
LINE
  5
891
  8
LAYER01
  6
CONTINUOUS
 62
     7
 10
1433.35473
 20
345.881214
 30
0.0
 11
1432.110786
 21
344.315135
 31
0.0
  0
SOLID
  5
892
  8
LAYER01
  6
CONTINUOUS
 62
     7
 10
1432.950585
 20
346.20222799999999
 30
0.0
 11
1433.35473
 21
345.881214
 31
0.0
 12
1431.706641
 22
344.6361490000001
 32
0.0
 13
1432.110786
 23
344.315135
 33
0.0
  0
LINE
  5
893
  8
LAYER01
  6
CONTINUOUS
 62
     7
 10
1450.4265339999999
 20
345.41918900000002
 30
0.0
 11
1450.4265339999999
 21
345.09817500000003
 31
0.0
  0
LINE
  5
894
  8
LAYER01
  6
CONTINUOUS
 62
     7
 10
1448.4265339999999
 20
345.41918900000002
 30
0.0
 11
1448.4265339999999
 21
345.09817500000003
 31
0.0
  0
LINE
  5
895
  8
LAYER01
  6
CONTINUOUS
 62
     7
 10
1450.4265339999999
 20
345.41918900000002
 30
0.0
 11
1448.4265339999999
 21
345.41918900000002
 31
0.0
  0
LINE
  5
896
  8
LAYER01
  6
CONTINUOUS
 62
     7
 10
1450.4265339999999
 20
345.09817500000003
 30
0.0
 11
1448.4265339999999
 21
345.09817500000003
 31
0.0
  0
SOLID
  5
897
  8
LAYER01
  6
CONTINUOUS
 62
     7
 10
1450.4265339999999
 20
345.41918900000002
 30
0.0
 11
1450.4265339999999
 21
345.09817500000003
 31
0.0
 12
1448.4265339999999
 22
345.41918900000002
 32
0.0
 13
1448.4265339999999
 23
345.09817500000003
 33
0.0
  0
LINE
  5
898
  8
LAYER01
  6
CONTINUOUS
 62
     7
 10
1327.1935129999999
 20
344.59773899999999
 30
0.0
 11
1326.9231749999999
 21
344.27556299999998
 31
0.0
  0
LINE
  5
899
  8
LAYER01
  6
CONTINUOUS
 62
     7
 10
1325.6614239999999
 20
345.88331399999998
 30
0.0
 11
1325.391087
 21
345.56113800000003
 31
0.0
  0
LINE
  5
89A
  8
LAYER01
  6
CONTINUOUS
 62
     7
 10
1327.1935129999999
 20
344.59773899999999
 30
0.0
 11
1325.6614239999999
 21
345.88331399999998
 31
0.0
  0
LINE
  5
89B
  8
LAYER01
  6
CONTINUOUS
 62
     7
 10
1326.9231749999999
 20
344.27556299999998
 30
0.0
 11
1325.391087
 21
345.56113800000003
 31
0.0
  0
SOLID
  5
89C
  8
LAYER01
  6
CONTINUOUS
 62
     7
 10
1327.1935129999999
 20
344.59773899999999
 30
0.0
 11
1326.9231749999999
 21
344.27556299999998
 31
0.0
 12
1325.6614239999999
 22
345.88331399999998
 32
0.0
 13
1325.391087
 23
345.56113800000003
 33
0.0
  0
LINE
  5
89D
  8
LAYER01
  6
CONTINUOUS
 62
     7
 10
1349.283807
 20
344.49350199999998
 30
0.0
 11
1348.921781
 21
344.17132600000002
 31
0.0
  0
LINE
  5
89E
  8
LAYER01
  6
CONTINUOUS
 62
     7
 10
1347.9542160000001
 20
345.98755199999999
 30
0.0
 11
1347.5921900000001
 21
345.66537599999998
 31
0.0
  0
LINE
  5
89F
  8
LAYER01
  6
CONTINUOUS
 62
     7
 10
1349.283807
 20
344.49350199999998
 30
0.0
 11
1347.9542160000001
 21
345.98755199999999
 31
0.0
  0
LINE
  5
8A0
  8
LAYER01
  6
CONTINUOUS
 62
     7
 10
1348.921781
 20
344.17132600000002
 30
0.0
 11
1347.5921900000001
 21
345.66537599999998
 31
0.0
  0
SOLID
  5
8A1
  8
LAYER01
  6
CONTINUOUS
 62
     7
 10
1349.283807
 20
344.49350199999998
 30
0.0
 11
1348.921781
 21
344.17132600000002
 31
0.0
 12
1347.9542160000001
 22
345.98755199999999
 32
0.0
 13
1347.5921900000001
 23
345.66537599999998
 33
0.0
  0
LINE
  5
8A2
  8
LAYER01
  6
CONTINUOUS
 62
     7
 10
1433.432137
 20
345.81292500000001
 30
0.0
 11
1433.801037
 21
345.45195899999999
 31
0.0
  0
LINE
  5
8A3
  8
LAYER01
  6
CONTINUOUS
 62
     7
 10
1432.0333780000001
 20
344.3834240000001
 30
0.0
 11
1432.402278
 21
344.02245799999997
 31
0.0
  0
LINE
  5
8A4
  8
LAYER01
  6
CONTINUOUS
 62
     7
 10
1433.432137
 20
345.81292500000001
 30
0.0
 11
1432.0333780000001
 21
344.3834240000001
 31
0.0
  0
LINE
  5
8A5
  8
LAYER01
  6
CONTINUOUS
 62
     7
 10
1433.801037
 20
345.45195899999999
 30
0.0
 11
1432.402278
 21
344.02245799999997
 31
0.0
  0
SOLID
  5
8A6
  8
LAYER01
  6
CONTINUOUS
 62
     7
 10
1433.432137
 20
345.81292500000001
 30
0.0
 11
1433.801037
 21
345.45195899999999
 31
0.0
 12
1432.0333780000001
 22
344.3834240000001
 32
0.0
 13
1432.402278
 23
344.02245799999997
 33
0.0
  0
LINE
  5
8A7
  8
LAYER01
  6
CONTINUOUS
 62
     7
 10
1450.4265339999999
 20
345.09817500000003
 30
0.0
 11
1450.4265339999999
 21
344.73720900000001
 31
0.0
  0
LINE
  5
8A8
  8
LAYER01
  6
CONTINUOUS
 62
     7
 10
1448.4265339999999
 20
345.09817500000003
 30
0.0
 11
1448.4265339999999
 21
344.73720900000001
 31
0.0
  0
LINE
  5
8A9
  8
LAYER01
  6
CONTINUOUS
 62
     7
 10
1450.4265339999999
 20
345.09817500000003
 30
0.0
 11
1448.4265339999999
 21
345.09817500000003
 31
0.0
  0
LINE
  5
8AA
  8
LAYER01
  6
CONTINUOUS
 62
     7
 10
1450.4265339999999
 20
344.73720900000001
 30
0.0
 11
1448.4265339999999
 21
344.73720900000001
 31
0.0
  0
SOLID
  5
8AB
  8
LAYER01
  6
CONTINUOUS
 62
     7
 10
1450.4265339999999
 20
345.09817500000003
 30
0.0
 11
1450.4265339999999
 21
344.73720900000001
 31
0.0
 12
1448.4265339999999
 22
345.09817500000003
 32
0.0
 13
1448.4265339999999
 23
344.73720900000001
 33
0.0
  0
LINE
  5
8AC
  8
LAYER01
  6
CONTINUOUS
 62
     7
 10
1326.9231749999999
 20
344.27556299999998
 30
0.0
 11
1326.624699
 21
343.91985199999999
 31
0.0
  0
LINE
  5
8AD
  8
LAYER01
  6
CONTINUOUS
 62
     7
 10
1325.391087
 20
345.56113800000003
 30
0.0
 11
1325.0926099999999
 21
345.20542799999998
 31
0.0
  0
LINE
  5
8AE
  8
LAYER01
  6
CONTINUOUS
 62
     7
 10
1326.9231749999999
 20
344.27556299999998
 30
0.0
 11
1325.391087
 21
345.56113800000003
 31
0.0
  0
LINE
  5
8AF
  8
LAYER01
  6
CONTINUOUS
 62
     7
 10
1326.624699
 20
343.91985199999999
 30
0.0
 11
1325.0926099999999
 21
345.20542799999998
 31
0.0
  0
SOLID
  5
8B0
  8
LAYER01
  6
CONTINUOUS
 62
     7
 10
1326.9231749999999
 20
344.27556299999998
 30
0.0
 11
1326.624699
 21
343.91985199999999
 31
0.0
 12
1325.391087
 22
345.56113800000003
 32
0.0
 13
1325.0926099999999
 23
345.20542799999998
 33
0.0
  0
LINE
  5
8B1
  8
LAYER01
  6
CONTINUOUS
 62
     7
 10
1348.9909789999999
 20
344.239194
 30
0.0
 11
1348.6618430000001
 21
343.88348300000001
 31
0.0
  0
LINE
  5
8B2
  8
LAYER01
  6
CONTINUOUS
 62
     7
 10
1347.5229919999999
 20
345.59750700000001
 30
0.0
 11
1347.193857
 21
345.24179700000002
 31
0.0
  0
LINE
  5
8B3
  8
LAYER01
  6
CONTINUOUS
 62
     7
 10
1348.9909789999999
 20
344.239194
 30
0.0
 11
1347.5229919999999
 21
345.59750700000001
 31
0.0
  0
LINE
  5
8B4
  8
LAYER01
  6
CONTINUOUS
 62
     7
 10
1348.6618430000001
 20
343.88348300000001
 30
0.0
 11
1347.193857
 21
345.24179700000002
 31
0.0
  0
SOLID
  5
8B5
  8
LAYER01
  6
CONTINUOUS
 62
     7
 10
1348.9909789999999
 20
344.239194
 30
0.0
 11
1348.6618430000001
 21
343.88348300000001
 31
0.0
 12
1347.5229919999999
 22
345.59750700000001
 32
0.0
 13
1347.193857
 23
345.24179700000002
 33
0.0
  0
LINE
  5
8B6
  8
LAYER01
  6
CONTINUOUS
 62
     7
 10
1433.8709919999999
 20
345.37605400000001
 30
0.0
 11
1434.2007149999999
 21
344.97898300000003
 31
0.0
  0
LINE
  5
8B7
  8
LAYER01
  6
CONTINUOUS
 62
     7
 10
1432.332322
 20
344.09836300000001
 30
0.0
 11
1432.662045
 21
343.70129200000002
 31
0.0
  0
LINE
  5
8B8
  8
LAYER01
  6
CONTINUOUS
 62
     7
 10
1433.8709919999999
 20
345.37605400000001
 30
0.0
 11
1432.332322
 21
344.09836300000001
 31
0.0
  0
LINE
  5
8B9
  8
LAYER01
  6
CONTINUOUS
 62
     7
 10
1434.2007149999999
 20
344.97898300000003
 30
0.0
 11
1432.662045
 21
343.70129200000002
 31
0.0
  0
SOLID
  5
8BA
  8
LAYER01
  6
CONTINUOUS
 62
     7
 10
1433.8709919999999
 20
345.37605400000001
 30
0.0
 11
1434.2007149999999
 21
344.97898300000003
 31
0.0
 12
1432.332322
 22
344.09836300000001
 32
0.0
 13
1432.662045
 23
343.70129200000002
 33
0.0
  0
LINE
  5
8BB
  8
LAYER01
  6
CONTINUOUS
 62
     7
 10
1450.4265339999999
 20
344.73720900000001
 30
0.0
 11
1450.4265339999999
 21
344.34013700000003
 31
0.0
  0
LINE
  5
8BC
  8
LAYER01
  6
CONTINUOUS
 62
     7
 10
1448.4265339999999
 20
344.73720900000001
 30
0.0
 11
1448.4265339999999
 21
344.34013700000003
 31
0.0
  0
LINE
  5
8BD
  8
LAYER01
  6
CONTINUOUS
 62
     7
 10
1450.4265339999999
 20
344.73720900000001
 30
0.0
 11
1448.4265339999999
 21
344.73720900000001
 31
0.0
  0
LINE
  5
8BE
  8
LAYER01
  6
CONTINUOUS
 62
     7
 10
1450.4265339999999
 20
344.34013700000003
 30
0.0
 11
1448.4265339999999
 21
344.34013700000003
 31
0.0
  0
SOLID
  5
8BF
  8
LAYER01
  6
CONTINUOUS
 62
     7
 10
1450.4265339999999
 20
344.73720900000001
 30
0.0
 11
1450.4265339999999
 21
344.34013700000003
 31
0.0
 12
1448.4265339999999
 22
344.73720900000001
 32
0.0
 13
1448.4265339999999
 23
344.34013700000003
 33
0.0
  0
LINE
  5
8C0
  8
LAYER01
  6
CONTINUOUS
 62
     7
 10
1434.262473
 20
344.89627100000001
 30
0.0
 11
1434.5495069999999
 21
344.46732400000002
 31
0.0
  0
LINE
  5
8C1
  8
LAYER01
  6
CONTINUOUS
 62
     7
 10
1432.600287
 20
343.78400399999998
 30
0.0
 11
1432.8873209999999
 21
343.35505699999999
 31
0.0
  0
LINE
  5
8C2
  8
LAYER01
  6
CONTINUOUS
 62
     7
 10
1434.262473
 20
344.89627100000001
 30
0.0
 11
1432.600287
 21
343.78400399999998
 31
0.0
  0
LINE
  5
8C3
  8
LAYER01
  6
CONTINUOUS
 62
     7
 10
1434.5495069999999
 20
344.46732400000002
 30
0.0
 11
1432.8873209999999
 21
343.35505699999999
 31
0.0
  0
SOLID
  5
8C4
  8
LAYER01
  6
CONTINUOUS
 62
     7
 10
1434.262473
 20
344.89627100000001
 30
0.0
 11
1434.5495069999999
 21
344.46732400000002
 31
0.0
 12
1432.600287
 22
343.78400399999998
 32
0.0
 13
1432.8873209999999
 23
343.35505699999999
 33
0.0
  0
LINE
  5
8C5
  8
LAYER01
  6
CONTINUOUS
 62
     7
 10
1450.4265339999999
 20
344.34013700000003
 30
0.0
 11
1450.4265339999999
 21
343.91119099999997
 31
0.0
  0
LINE
  5
8C6
  8
LAYER01
  6
CONTINUOUS
 62
     7
 10
1448.4265339999999
 20
344.34013700000003
 30
0.0
 11
1448.4265339999999
 21
343.91119099999997
 31
0.0
  0
LINE
  5
8C7
  8
LAYER01
  6
CONTINUOUS
 62
     7
 10
1450.4265339999999
 20
344.34013700000003
 30
0.0
 11
1448.4265339999999
 21
344.34013700000003
 31
0.0
  0
LINE
  5
8C8
  8
LAYER01
  6
CONTINUOUS
 62
     7
 10
1450.4265339999999
 20
343.91119099999997
 30
0.0
 11
1448.4265339999999
 21
343.91119099999997
 31
0.0
  0
SOLID
  5
8C9
  8
LAYER01
  6
CONTINUOUS
 62
     7
 10
1450.4265339999999
 20
344.34013700000003
 30
0.0
 11
1450.4265339999999
 21
343.91119099999997
 31
0.0
 12
1448.4265339999999
 22
344.34013700000003
 32
0.0
 13
1448.4265339999999
 23
343.91119099999997
 33
0.0
  0
LINE
  5
8CA
  8
LAYER01
  6
CONTINUOUS
 62
     7
 10
1434.6024090000001
 20
344.37868700000001
 30
0.0
 11
1434.8436939999999
 21
343.922436
 31
0.0
  0
LINE
  5
8CB
  8
LAYER01
  6
CONTINUOUS
 62
     7
 10
1432.8344179999999
 20
343.44369499999999
 30
0.0
 11
1433.0757040000001
 21
342.98744499999998
 31
0.0
  0
LINE
  5
8CC
  8
LAYER01
  6
CONTINUOUS
 62
     7
 10
1434.6024090000001
 20
344.37868700000001
 30
0.0
 11
1432.8344179999999
 21
343.44369499999999
 31
0.0
  0
LINE
  5
8CD
  8
LAYER01
  6
CONTINUOUS
 62
     7
 10
1434.8436939999999
 20
343.922436
 30
0.0
 11
1433.0757040000001
 21
342.98744499999998
 31
0.0
  0
SOLID
  5
8CE
  8
LAYER01
  6
CONTINUOUS
 62
     7
 10
1434.6024090000001
 20
344.37868700000001
 30
0.0
 11
1434.8436939999999
 21
343.922436
 31
0.0
 12
1432.8344179999999
 22
343.44369499999999
 32
0.0
 13
1433.0757040000001
 23
342.98744499999998
 33
0.0
  0
LINE
  5
8CF
  8
LAYER01
  6
CONTINUOUS
 62
     7
 10
1450.4265339999999
 20
343.91119099999997
 30
0.0
 11
1450.4265339999999
 21
343.45494000000002
 31
0.0
  0
LINE
  5
8D0
  8
LAYER01
  6
CONTINUOUS
 62
     7
 10
1448.4265339999999
 20
343.91119099999997
 30
0.0
 11
1448.4265339999999
 21
343.45494000000002
 31
0.0
  0
LINE
  5
8D1
  8
LAYER01
  6
CONTINUOUS
 62
     7
 10
1450.4265339999999
 20
343.91119099999997
 30
0.0
 11
1448.4265339999999
 21
343.91119099999997
 31
0.0
  0
LINE
  5
8D2
  8
LAYER01
  6
CONTINUOUS
 62
     7
 10
1450.4265339999999
 20
343.45494000000002
 30
0.0
 11
1448.4265339999999
 21
343.45494000000002
 31
0.0
  0
SOLID
  5
8D3
  8
LAYER01
  6
CONTINUOUS
 62
     7
 10
1450.4265339999999
 20
343.91119099999997
 30
0.0
 11
1450.4265339999999
 21
343.45494000000002
 31
0.0
 12
1448.4265339999999
 22
343.91119099999997
 32
0.0
 13
1448.4265339999999
 23
343.45494000000002
 33
0.0
  0
LINE
  5
8D4
  8
LAYER01
  6
CONTINUOUS
 62
     7
 10
1434.8871779999999
 20
343.82881700000002
 30
0.0
 11
1435.080144
 21
343.35012399999999
 31
0.0
  0
LINE
  5
8D5
  8
LAYER01
  6
CONTINUOUS
 62
     7
 10
1433.0322209999999
 20
343.08106400000003
 30
0.0
 11
1433.225187
 21
342.60237100000001
 31
0.0
  0
LINE
  5
8D6
  8
LAYER01
  6
CONTINUOUS
 62
     7
 10
1434.8871779999999
 20
343.82881700000002
 30
0.0
 11
1433.0322209999999
 21
343.08106400000003
 31
0.0
  0
LINE
  5
8D7
  8
LAYER01
  6
CONTINUOUS
 62
     7
 10
1435.080144
 20
343.35012399999999
 30
0.0
 11
1433.225187
 21
342.60237100000001
 31
0.0
  0
SOLID
  5
8D8
  8
LAYER01
  6
CONTINUOUS
 62
     7
 10
1434.8871779999999
 20
343.82881700000002
 30
0.0
 11
1435.080144
 21
343.35012399999999
 31
0.0
 12
1433.0322209999999
 22
343.08106400000003
 32
0.0
 13
1433.225187
 23
342.60237100000001
 33
0.0
  0
LINE
  5
8D9
  8
LAYER01
  6
CONTINUOUS
 62
     7
 10
1450.4265339999999
 20
343.45494000000002
 30
0.0
 11
1450.4265339999999
 21
342.976247
 31
0.0
  0
LINE
  5
8DA
  8
LAYER01
  6
CONTINUOUS
 62
     7
 10
1448.4265339999999
 20
343.45494000000002
 30
0.0
 11
1448.4265339999999
 21
342.976247
 31
0.0
  0
LINE
  5
8DB
  8
LAYER01
  6
CONTINUOUS
 62
     7
 10
1450.4265339999999
 20
343.45494000000002
 30
0.0
 11
1448.4265339999999
 21
343.45494000000002
 31
0.0
  0
LINE
  5
8DC
  8
LAYER01
  6
CONTINUOUS
 62
     7
 10
1450.4265339999999
 20
342.976247
 30
0.0
 11
1448.4265339999999
 21
342.976247
 31
0.0
  0
SOLID
  5
8DD
  8
LAYER01
  6
CONTINUOUS
 62
     7
 10
1450.4265339999999
 20
343.45494000000002
 30
0.0
 11
1450.4265339999999
 21
342.976247
 31
0.0
 12
1448.4265339999999
 22
343.45494000000002
 32
0.0
 13
1448.4265339999999
 23
342.976247
 33
0.0
  0
LINE
  5
8DE
  8
LAYER01
  6
CONTINUOUS
 62
     7
 10
1435.1137450000001
 20
343.252521
 30
0.0
 11
1435.2563359999999
 21
342.756486
 31
0.0
  0
LINE
  5
8DF
  8
LAYER01
  6
CONTINUOUS
 62
     7
 10
1433.191587
 20
342.699973
 30
0.0
 11
1433.3341780000001
 21
342.20393799999999
 31
0.0
  0
LINE
  5
8E0
  8
LAYER01
  6
CONTINUOUS
 62
     7
 10
1435.1137450000001
 20
343.252521
 30
0.0
 11
1433.191587
 21
342.699973
 31
0.0
  0
LINE
  5
8E1
  8
LAYER01
  6
CONTINUOUS
 62
     7
 10
1435.2563359999999
 20
342.756486
 30
0.0
 11
1433.3341780000001
 21
342.20393799999999
 31
0.0
  0
SOLID
  5
8E2
  8
LAYER01
  6
CONTINUOUS
 62
     7
 10
1435.1137450000001
 20
343.252521
 30
0.0
 11
1435.2563359999999
 21
342.756486
 31
0.0
 12
1433.191587
 22
342.699973
 32
0.0
 13
1433.3341780000001
 23
342.20393799999999
 33
0.0
  0
LINE
  5
8E3
  8
LAYER01
  6
CONTINUOUS
 62
     7
 10
1450.4265339999999
 20
342.976247
 30
0.0
 11
1450.4265339999999
 21
342.48021199999999
 31
0.0
  0
LINE
  5
8E4
  8
LAYER01
  6
CONTINUOUS
 62
     7
 10
1448.4265339999999
 20
342.976247
 30
0.0
 11
1448.4265339999999
 21
342.48021199999999
 31
0.0
  0
LINE
  5
8E5
  8
LAYER01
  6
CONTINUOUS
 62
     7
 10
1450.4265339999999
 20
342.976247
 30
0.0
 11
1448.4265339999999
 21
342.976247
 31
0.0
  0
LINE
  5
8E6
  8
LAYER01
  6
CONTINUOUS
 62
     7
 10
1450.4265339999999
 20
342.48021199999999
 30
0.0
 11
1448.4265339999999
 21
342.48021199999999
 31
0.0
  0
SOLID
  5
8E7
  8
LAYER01
  6
CONTINUOUS
 62
     7
 10
1450.4265339999999
 20
342.976247
 30
0.0
 11
1450.4265339999999
 21
342.48021199999999
 31
0.0
 12
1448.4265339999999
 22
342.976247
 32
0.0
 13
1448.4265339999999
 23
342.48021199999999
 33
0.0
  0
LINE
  5
8E8
  8
LAYER01
  6
CONTINUOUS
 62
     7
 10
1435.2796960000001
 20
342.65593899999999
 30
0.0
 11
1435.3703929999999
 21
342.14784700000001
 31
0.0
  0
LINE
  5
8E9
  8
LAYER01
  6
CONTINUOUS
 62
     7
 10
1433.3108179999999
 20
342.304485
 30
0.0
 11
1433.401515
 21
341.79639300000002
 31
0.0
  0
LINE
  5
8EA
  8
LAYER01
  6
CONTINUOUS
 62
     7
 10
1435.2796960000001
 20
342.65593899999999
 30
0.0
 11
1433.3108179999999
 21
342.304485
 31
0.0
  0
LINE
  5
8EB
  8
LAYER01
  6
CONTINUOUS
 62
     7
 10
1435.3703929999999
 20
342.14784700000001
 30
0.0
 11
1433.401515
 21
341.79639300000002
 31
0.0
  0
SOLID
  5
8EC
  8
LAYER01
  6
CONTINUOUS
 62
     7
 10
1435.2796960000001
 20
342.65593899999999
 30
0.0
 11
1435.3703929999999
 21
342.14784700000001
 31
0.0
 12
1433.3108179999999
 22
342.304485
 32
0.0
 13
1433.401515
 23
341.79639300000002
 33
0.0
  0
LINE
  5
8ED
  8
LAYER01
  6
CONTINUOUS
 62
     7
 10
1450.4265339999999
 20
342.48021199999999
 30
0.0
 11
1450.4265339999999
 21
341.97212000000002
 31
0.0
  0
LINE
  5
8EE
  8
LAYER01
  6
CONTINUOUS
 62
     7
 10
1448.4265339999999
 20
342.48021199999999
 30
0.0
 11
1448.4265339999999
 21
341.97212000000002
 31
0.0
  0
LINE
  5
8EF
  8
LAYER01
  6
CONTINUOUS
 62
     7
 10
1450.4265339999999
 20
342.48021199999999
 30
0.0
 11
1448.4265339999999
 21
342.48021199999999
 31
0.0
  0
LINE
  5
8F0
  8
LAYER01
  6
CONTINUOUS
 62
     7
 10
1450.4265339999999
 20
341.97212000000002
 30
0.0
 11
1448.4265339999999
 21
341.97212000000002
 31
0.0
  0
SOLID
  5
8F1
  8
LAYER01
  6
CONTINUOUS
 62
     7
 10
1450.4265339999999
 20
342.48021199999999
 30
0.0
 11
1450.4265339999999
 21
341.97212000000002
 31
0.0
 12
1448.4265339999999
 22
342.48021199999999
 32
0.0
 13
1448.4265339999999
 23
341.97212000000002
 33
0.0
  0
LINE
  5
8F2
  8
LAYER01
  6
CONTINUOUS
 62
     7
 10
1435.3832629999999
 20
342.0454279999999
 30
0.0
 11
1435.4210989999999
 21
341.53069399999998
 31
0.0
  0
LINE
  5
8F3
  8
LAYER01
  6
CONTINUOUS
 62
     7
 10
1433.3886440000001
 20
341.89881200000002
 30
0.0
 11
1433.4264800000001
 21
341.38407799999999
 31
0.0
  0
LINE
  5
8F4
  8
LAYER01
  6
CONTINUOUS
 62
     7
 10
1435.3832629999999
 20
342.0454279999999
 30
0.0
 11
1433.3886440000001
 21
341.89881200000002
 31
0.0
  0
LINE
  5
8F5
  8
LAYER01
  6
CONTINUOUS
 62
     7
 10
1435.4210989999999
 20
341.53069399999998
 30
0.0
 11
1433.4264800000001
 21
341.38407799999999
 31
0.0
  0
SOLID
  5
8F6
  8
LAYER01
  6
CONTINUOUS
 62
     7
 10
1435.3832629999999
 20
342.0454279999999
 30
0.0
 11
1435.4210989999999
 21
341.53069399999998
 31
0.0
 12
1433.3886440000001
 22
341.89881200000002
 32
0.0
 13
1433.4264800000001
 23
341.38407799999999
 33
0.0
  0
LINE
  5
8F7
  8
LAYER01
  6
CONTINUOUS
 62
     7
 10
1450.4265339999999
 20
341.97212000000002
 30
0.0
 11
1450.4265339999999
 21
341.45738599999999
 31
0.0
  0
LINE
  5
8F8
  8
LAYER01
  6
CONTINUOUS
 62
     7
 10
1448.4265339999999
 20
341.97212000000002
 30
0.0
 11
1448.4265339999999
 21
341.45738599999999
 31
0.0
  0
LINE
  5
8F9
  8
LAYER01
  6
CONTINUOUS
 62
     7
 10
1450.4265339999999
 20
341.97212000000002
 30
0.0
 11
1448.4265339999999
 21
341.97212000000002
 31
0.0
  0
LINE
  5
8FA
  8
LAYER01
  6
CONTINUOUS
 62
     7
 10
1450.4265339999999
 20
341.45738599999999
 30
0.0
 11
1448.4265339999999
 21
341.45738599999999
 31
0.0
  0
SOLID
  5
8FB
  8
LAYER01
  6
CONTINUOUS
 62
     7
 10
1450.4265339999999
 20
341.97212000000002
 30
0.0
 11
1450.4265339999999
 21
341.45738599999999
 31
0.0
 12
1448.4265339999999
 22
341.97212000000002
 32
0.0
 13
1448.4265339999999
 23
341.45738599999999
 33
0.0
  0
POLYLINE
  5
8FC
  8
LAYER01
  6
CONTINUOUS
 62
     7
 66
     1
 10
0.0
 20
0.0
 30
0.0
 40
2.0
 41
2.0
  0
VERTEX
  5
D26
  8
LAYER01
  6
CONTINUOUS
 62
     7
 10
1222.639764
 20
228.82396
 30
0.0
  0
VERTEX
  5
D27
  8
LAYER01
  6
CONTINUOUS
 62
     7
 10
1250.8115660000001
 20
228.82396
 30
0.0
  0
VERTEX
  5
D28
  8
LAYER01
  6
CONTINUOUS
 62
     7
 10
1347.92785
 20
344.56263999999999
 30
0.0
 42
-0.221695
  0
VERTEX
  5
D29
  8
LAYER01
  6
CONTINUOUS
 62
     7
 10
1351.7580720000001
 20
346.348702
 30
0.0
  0
VERTEX
  5
D2A
  8
LAYER01
  6
CONTINUOUS
 62
     7
 10
1429.4249709999999
 20
346.348702
 30
0.0
 42
-0.4078610000000001
  0
VERTEX
  5
D2B
  8
LAYER01
  6
CONTINUOUS
 62
     7
 10
1434.4237900000001
 20
341.45738599999999
 30
0.0
  0
VERTEX
  5
D2C
  8
LAYER01
  6
CONTINUOUS
 62
     7
 10
1437.4265339999999
 20
203.348702
 30
0.0
  0
VERTEX
  5
D2D
  8
LAYER01
  6
CONTINUOUS
 62
     7
 10
1449.4265339999999
 20
203.348702
 30
0.0
  0
VERTEX
  5
D2E
  8
LAYER01
  6
CONTINUOUS
 62
     7
 10
1449.4265339999999
 20
408.34870199999989
 30
0.0
  0
VERTEX
  5
D2F
  8
LAYER01
  6
CONTINUOUS
 62
     7
 10
1442.4265339999999
 20
408.34870199999989
 30
0.0
 42
0.4142140000000001
  0
VERTEX
  5
D30
  8
LAYER01
  6
CONTINUOUS
 62
     7
 10
1437.4265339999999
 20
403.34870199999989
 30
0.0
  0
VERTEX
  5
D31
  8
LAYER01
  6
CONTINUOUS
 62
     7
 10
1437.4265339999999
 20
368.348702
 30
0.0
 42
-0.4142140000000001
  0
VERTEX
  5
D32
  8
LAYER01
  6
CONTINUOUS
 62
     7
 10
1427.4265339999999
 20
358.348702
 30
0.0
  0
VERTEX
  5
D33
  8
LAYER01
  6
CONTINUOUS
 62
     7
 10
1341.1569950000001
 20
358.348702
 30
0.0
 42
0.221695
  0
VERTEX
  5
D34
  8
LAYER01
  6
CONTINUOUS
 62
     7
 10
1335.02864
 20
355.49100299999998
 30
0.0
  0
VERTEX
  5
D35
  8
LAYER01
  6
CONTINUOUS
 62
     7
 10
1250.433636
 20
254.67460399999999
 30
0.0
 42
-0.221695
  0
VERTEX
  5
D36
  8
LAYER01
  6
CONTINUOUS
 62
     7
 10
1242.7731920000001
 20
251.10248000000001
 30
0.0
  0
VERTEX
  5
D37
  8
LAYER01
  6
CONTINUOUS
 62
     7
 10
1232.436269
 20
251.10248000000001
 30
0.0
  0
VERTEX
  5
D38
  8
LAYER01
  6
CONTINUOUS
 62
     7
 10
1222.803887
 20
243.01995199999999
 30
0.0
  0
VERTEX
  5
D39
  8
LAYER01
  6
CONTINUOUS
 62
     7
 10
1222.7237689999999
 20
228.82396
 30
0.0
  0
SEQEND
  5
D3A
  8
LAYER01
  6
CONTINUOUS
 62
     7
  0
TEXT
  5
912
  8
LAYER01
  6
CONTINUOUS
 62
     7
 10
992.57705600000008
 20
726.42241899999999
 30
0.0
 40
15.68
  1
--------------------------------------
  7
SIMPLEX
  0
TEXT
  5
913
  8
LAYER01
  6
CONTINUOUS
 62
     7
 10
992.57705600000008
 20
699.542419
 30
0.0
 40
15.68
  1
Ausführung geprüft und freigegeben (Datum u. Unterschrift)
  7
SIMPLEX
  0
LINE
  5
914
  8
LAYER01
  6
VERDECKT
 62
     7
 10
179.77933899999999
 20
822.86397599999998
 30
0.0
 11
179.77933899999999
 21
1210.8639760000001
 31
0.0
  0
LINE
  5
915
  8
LAYER01
  6
CONTINUOUS
 62
     7
 10
190.77933899999999
 20
810.86397599999987
 30
0.0
 11
190.77933899999999
 21
1210.8639760000001
 31
0.0
  0
LINE
  5
916
  8
LAYER01
  6
CONTINUOUS
 62
     7
 10
192.77933899999999
 20
810.86397599999987
 30
0.0
 11
192.77933899999999
 21
1210.8639760000001
 31
0.0
  0
LINE
  5
917
  8
LAYER01
  6
CONTINUOUS
 62
     7
 10
190.77933899999999
 20
810.86397599999987
 30
0.0
 11
192.77933899999999
 21
810.86397599999987
 31
0.0
  0
LINE
  5
918
  8
LAYER01
  6
CONTINUOUS
 62
     7
 10
190.77933899999999
 20
1210.8639760000001
 30
0.0
 11
192.77933899999999
 21
1210.8639760000001
 31
0.0
  0
SOLID
  5
919
  8
LAYER01
  6
CONTINUOUS
 62
     7
 10
190.77933899999999
 20
810.86397599999987
 30
0.0
 11
190.77933899999999
 21
1210.8639760000001
 31
0.0
 12
192.77933899999999
 22
810.86397599999987
 32
0.0
 13
192.77933899999999
 23
1210.8639760000001
 33
0.0
  0
ENDSEC
  0
EOF
