  0
SECTION
  2
HEADER
  9
$ACADVER
  1
AC1009
  9
$INSBASE
 10
0.0
 20
0.0
 30
0.0
  9
$EXTMIN
 10
2307.9436719999999
 20
-2071.2672109999999
 30
-0.00000001
  9
$EXTMAX
 10
9542.7601129999985
 20
801.4700069999999
 30
0.00000001
  9
$LIMMIN
 10
2245.8644650000001
 20
-2107.3447930000002
  9
$LIMMAX
 10
6445.8644649999987
 20
862.65520700000002
  9
$ORTHOMODE
 70
     1
  9
$REGENMODE
 70
     1
  9
$FILLMODE
 70
     1
  9
$QTEXTMODE
 70
     0
  9
$MIRRTEXT
 70
     0
  9
$DRAGMODE
 70
     2
  9
$LTSCALE
 40
5.0
  9
$OSMODE
 70
    37
  9
$ATTMODE
 70
     1
  9
$TEXTSIZE
 40
0.0
  9
$TRACEWID
 40
0.05
  9
$TEXTSTYLE
  7
STANDARD
  9
$CLAYER
  8
LAYER01
  9
$CELTYPE
  6
VERDECKT
  9
$CECOLOR
 62
     7
  9
$DIMSCALE
 40
1.0
  9
$DIMASZ
 40
0.18
  9
$DIMEXO
 40
0.0625
  9
$DIMDLI
 40
0.38
  9
$DIMRND
 40
0.0
  9
$DIMDLE
 40
0.0
  9
$DIMEXE
 40
0.18
  9
$DIMTP
 40
0.0
  9
$DIMTM
 40
0.0
  9
$DIMTXT
 40
0.18
  9
$DIMCEN
 40
0.09
  9
$DIMTSZ
 40
0.0
  9
$DIMTOL
 70
     0
  9
$DIMLIM
 70
     0
  9
$DIMTIH
 70
     1
  9
$DIMTOH
 70
     1
  9
$DIMSE1
 70
     0
  9
$DIMSE2
 70
     0
  9
$DIMTAD
 70
     0
  9
$DIMZIN
 70
     0
  9
$DIMBLK
  1

  9
$DIMASO
 70
     1
  9
$DIMSHO
 70
     1
  9
$DIMPOST
  1

  9
$DIMAPOST
  1

  9
$DIMALT
 70
     0
  9
$DIMALTD
 70
     2
  9
$DIMALTF
 40
25.399999999999999
  9
$DIMLFAC
 40
1.0
  9
$DIMTOFL
 70
     0
  9
$DIMTVP
 40
0.0
  9
$DIMTIX
 70
     0
  9
$DIMSOXD
 70
     0
  9
$DIMSAH
 70
     0
  9
$DIMBLK1
  1

  9
$DIMBLK2
  1

  9
$DIMSTYLE
  2
STANDARD
  9
$DIMCLRD
 70
     0
  9
$DIMCLRE
 70
     0
  9
$DIMCLRT
 70
     0
  9
$DIMTFAC
 40
1.0
  9
$DIMGAP
 40
0.09
  9
$LUNITS
 70
     2
  9
$LUPREC
 70
     4
  9
$SKETCHINC
 40
0.1
  9
$FILLETRAD
 40
11.0
  9
$AUNITS
 70
     0
  9
$AUPREC
 70
     0
  9
$MENU
  1
acad
  9
$ELEVATION
 40
0.0
  9
$PELEVATION
 40
0.0
  9
$THICKNESS
 40
0.0
  9
$LIMCHECK
 70
     0
  9
$BLIPMODE
 70
     0
  9
$CHAMFERA
 40
0.0
  9
$CHAMFERB
 40
0.0
  9
$SKPOLY
 70
     0
  9
$TDCREATE
 40
2305814.0419185418
  9
$TDUPDATE
 40
2458423.640428484
  9
$TDINDWG
 40
0.003816956
  9
$TDUSRTIMER
 40
0.0038168634
  9
$USRTIMER
 70
     1
  9
$ANGBASE
 50
0.0
  9
$ANGDIR
 70
     0
  9
$PDMODE
 70
     0
  9
$PDSIZE
 40
0.0
  9
$PLINEWID
 40
0.0
  9
$COORDS
 70
     1
  9
$SPLFRAME
 70
     0
  9
$SPLINETYPE
 70
     6
  9
$SPLINESEGS
 70
    10
  9
$ATTDIA
 70
     0
  9
$ATTREQ
 70
     1
  9
$HANDLING
 70
     1
  9
$HANDSEED
  5
BDD
  9
$SURFTAB1
 70
     6
  9
$SURFTAB2
 70
     6
  9
$SURFTYPE
 70
     6
  9
$SURFU
 70
     6
  9
$SURFV
 70
     6
  9
$UCSNAME
  2

  9
$UCSORG
 10
0.0
 20
0.0
 30
0.0
  9
$UCSXDIR
 10
1.0
 20
0.0
 30
0.0
  9
$UCSYDIR
 10
0.0
 20
1.0
 30
0.0
  9
$PUCSNAME
  2

  9
$PUCSORG
 10
0.0
 20
0.0
 30
0.0
  9
$PUCSXDIR
 10
1.0
 20
0.0
 30
0.0
  9
$PUCSYDIR
 10
0.0
 20
1.0
 30
0.0
  9
$USERI1
 70
     0
  9
$USERI2
 70
     0
  9
$USERI3
 70
     0
  9
$USERI4
 70
     0
  9
$USERI5
 70
     0
  9
$USERR1
 40
0.0
  9
$USERR2
 40
0.0
  9
$USERR3
 40
0.0
  9
$USERR4
 40
0.0
  9
$USERR5
 40
0.0
  9
$WORLDVIEW
 70
     1
  9
$SHADEDGE
 70
     3
  9
$SHADEDIF
 70
    70
  9
$TILEMODE
 70
     1
  9
$MAXACTVP
 70
    64
  9
$PLIMCHECK
 70
     0
  9
$PEXTMIN
 10
1.0000000000000000E+020
 20
1.0000000000000000E+020
 30
1.0000000000000000E+020
  9
$PEXTMAX
 10
-1.0000000000000000E+020
 20
-1.0000000000000000E+020
 30
-1.0000000000000000E+020
  9
$PLIMMIN
 10
0.0
 20
0.0
  9
$PLIMMAX
 10
12.0
 20
9.0
  9
$UNITMODE
 70
     0
  9
$VISRETAIN
 70
     1
  9
$PLINEGEN
 70
     0
  9
$PSLTSCALE
 70
     1
  0
ENDSEC
  0
SECTION
  2
TABLES
  0
TABLE
  2
VPORT
 70
     1
  0
VPORT
  2
*ACTIVE
 70
     0
 10
0.0
 20
0.0
 11
1.0
 21
1.0
 12
0.0
 22
0.0
 13
0.0
 23
0.0
 14
1.0
 24
1.0
 15
0.0
 25
0.0
 16
0.0
 26
0.0
 36
8621.6665600448359
 17
4053.4563898128581
 27
-738.76043659588254
 37
0.0
 40
3516.2664863734599
 41
1.8005738880918221
 42
50.0
 43
0.0
 44
0.0
 50
0.0
 51
0.0
 71
     0
 72
   100
 73
     1
 74
     1
 75
     0
 76
     0
 77
     0
 78
     0
  0
ENDTAB
  0
TABLE
  2
LTYPE
 70
    12
  0
LTYPE
  2
CONTINUOUS
 70
     0
  3
Solid line
 72
    65
 73
     0
 40
0.0
  0
LTYPE
  2
VERDECKT
 70
     0
  3
_ _ _ _ _ _ _ _ _ _ _ _ _ _ _ _ _ _ _ _ _ _ 
 72
    65
 73
     2
 40
0.25
 49
0.125
 49
-0.125
  0
LTYPE
  2
GESTRICHELT
 70
     0
  3
__ __ __ __ __ __ __ __ __ __ __ __ __ __ __
 72
    65
 73
     2
 40
0.75
 49
0.5
 49
-0.25
  0
LTYPE
  2
MITTELLINIE
 70
     0
  3
____ _ ____ _ ____ _ ____ _ ____ _ ____ _ __
 72
    65
 73
     4
 40
2.0
 49
1.25
 49
-0.25
 49
0.25
 49
-0.25
  0
LTYPE
  2
PHANTOM
 70
     0
  3
_____ _ _ _____ _ _ _____ _ _ _____ _ _ ____
 72
    65
 73
     6
 40
2.5
 49
1.25
 49
-0.25
 49
0.25
 49
-0.25
 49
0.25
 49
-0.25
  0
LTYPE
  2
PUNKTIERT
 70
     0
  3
............................................
 72
    65
 73
     2
 40
0.25
 49
0.0
 49
-0.25
  0
LTYPE
  2
STRICHPUNKTIERT
 70
     0
  3
__ . __ . __ . __ . __ . __ . __ . __ . __ .
 72
    65
 73
     4
 40
1.0
 49
0.5
 49
-0.25
 49
0.0
 49
-0.25
  0
LTYPE
  2
RAND
 70
     0
  3
__ __ . __ __ . __ __ . __ __ . __ __ . __ _
 72
    65
 73
     6
 40
1.75
 49
0.5
 49
-0.25
 49
0.5
 49
-0.25
 49
0.0
 49
-0.25
  0
LTYPE
  2
TRENNLINIE
 70
     0
  3
__ . . __ . . __ . . __ . . __ . . __ . . __
 72
    65
 73
     6
 40
1.25
 49
0.5
 49
-0.25
 49
0.0
 49
-0.25
 49
0.0
 49
-0.25
  0
LTYPE
  2
ENG_PUNKTIERT
 70
     0
  3
Schließen                                   
 72
    65
 73
     2
 40
0.1
 49
0.05
 49
-0.05
  0
LTYPE
  2
CLOSE
 70
     0
  3
                                            
 72
    65
 73
     0
 40
0.0
  0
ENDTAB
  0
TABLE
  2
LAYER
 70
   255
  0
LAYER
  2
0
 70
     0
 62
     7
  6
CONTINUOUS
  0
LAYER
  2
LAYER01
 70
     0
 62
     7
  6
CONTINUOUS
  0
LAYER
  2
LAYER02
 70
     0
 62
     7
  6
CONTINUOUS
  0
LAYER
  2
LAYER03
 70
     0
 62
     7
  6
CONTINUOUS
  0
LAYER
  2
LAYER04
 70
     0
 62
     7
  6
CONTINUOUS
  0
LAYER
  2
LAYER05
 70
     0
 62
     7
  6
CONTINUOUS
  0
LAYER
  2
LAYER06
 70
     0
 62
     7
  6
CONTINUOUS
  0
LAYER
  2
LAYER07
 70
     0
 62
     7
  6
CONTINUOUS
  0
LAYER
  2
LAYER08
 70
     0
 62
     7
  6
CONTINUOUS
  0
LAYER
  2
LAYER09
 70
     0
 62
     7
  6
CONTINUOUS
  0
LAYER
  2
LAYER10
 70
     0
 62
     7
  6
CONTINUOUS
  0
LAYER
  2
2
 70
     0
 62
     7
  6
CONTINUOUS
  0
LAYER
  2
5
 70
     0
 62
     7
  6
CONTINUOUS
  0
LAYER
  2
RAUMAUFM
 70
     0
 62
     7
  6
CONTINUOUS
  0
LAYER
  2
EINRICHT
 70
     0
 62
     7
  6
CONTINUOUS
  0
LAYER
  2
HILFE
 70
     0
 62
     7
  6
CONTINUOUS
  0
LAYER
  2
SCHNITTE
 70
     0
 62
     7
  6
CONTINUOUS
  0
LAYER
  2
SCHRAFF1
 70
     0
 62
     7
  6
CONTINUOUS
  0
LAYER
  2
SCHRAFF2
 70
     0
 62
     7
  6
CONTINUOUS
  0
LAYER
  2
BEMASS-1
 70
     0
 62
     7
  6
CONTINUOUS
  0
LAYER
  2
BEMASS-2
 70
     0
 62
     7
  6
CONTINUOUS
  0
LAYER
  2
TEXT
 70
     0
 62
     7
  6
CONTINUOUS
  0
LAYER
  2
SYMBOLE
 70
     0
 62
     7
  6
CONTINUOUS
  0
LAYER
  2
RAHMEN
 70
     0
 62
     7
  6
CONTINUOUS
  0
LAYER
  2
SCHRIFTF
 70
     0
 62
     7
  6
CONTINUOUS
  0
LAYER
  2
ACHSEN
 70
     0
 62
     7
  6
CONTINUOUS
  0
LAYER
  2
ZEICHN
 70
     0
 62
     7
  6
CONTINUOUS
  0
LAYER
  2
7
 70
     0
 62
     7
  6
CONTINUOUS
  0
LAYER
  2
1
 70
     0
 62
     7
  6
CONTINUOUS
  0
LAYER
  2
6
 70
     0
 62
     7
  6
CONTINUOUS
  0
LAYER
  2
4
 70
     0
 62
     7
  6
CONTINUOUS
  0
LAYER
  2
GRUNDEBENE
 70
     0
 62
     7
  6
CONTINUOUS
  0
LAYER
  2
GRUNDRISS
 70
     0
 62
     7
  6
CONTINUOUS
  0
LAYER
  2
BEMASSUNGGRUNDRISS
 70
     0
 62
     7
  6
CONTINUOUS
  0
LAYER
  2
WANDELEMENTE
 70
     0
 62
     7
  6
CONTINUOUS
  0
LAYER
  2
KUECHE
 70
     0
 62
     7
  6
CONTINUOUS
  0
LAYER
  2
THEKEBROETCHEN
 70
     0
 62
     7
  6
CONTINUOUS
  0
LAYER
  2
CENTERLINIE
 70
     0
 62
     7
  6
CONTINUOUS
  0
LAYER
  2
UMRISSE
 70
     0
 62
     7
  6
CONTINUOUS
  0
LAYER
  2
MAUER
 70
     0
 62
     7
  6
CONTINUOUS
  0
LAYER
  2
SCHRAFFUR
 70
     0
 62
     7
  6
CONTINUOUS
  0
LAYER
  2
MASSLINIE
 70
     0
 62
     7
  6
CONTINUOUS
  0
LAYER
  2
PV
 70
     0
 62
     7
  6
CONTINUOUS
  0
LAYER
  2
BESCHRIFTUNG
 70
     0
 62
     7
  6
CONTINUOUS
  0
LAYER
  2
AS
 70
     0
 62
     7
  6
CONTINUOUS
  0
LAYER
  2
PL
 70
     0
 62
     7
  6
CONTINUOUS
  0
LAYER
  2
UK
 70
     0
 62
     7
  6
CONTINUOUS
  0
LAYER
  2
TEXT3
 70
     0
 62
     7
  6
CONTINUOUS
  0
LAYER
  2
TEXT7
 70
     0
 62
     7
  6
CONTINUOUS
  0
LAYER
  2
BEPL1
 70
     0
 62
     7
  6
CONTINUOUS
  0
LAYER
  2
BEPL2
 70
     0
 62
     7
  6
CONTINUOUS
  0
LAYER
  2
BEPL2V
 70
     0
 62
     7
  6
CONTINUOUS
  0
LAYER
  2
BEPL4
 70
     0
 62
     7
  6
CONTINUOUS
  0
LAYER
  2
BEPL
 70
     0
 62
     7
  6
CONTINUOUS
  0
LAYER
  2
UK1
 70
     0
 62
     7
  6
CONTINUOUS
  0
LAYER
  2
UK2
 70
     0
 62
     7
  6
CONTINUOUS
  0
LAYER
  2
UK2V
 70
     0
 62
     7
  6
CONTINUOUS
  0
LAYER
  2
UK3
 70
     0
 62
     7
  6
CONTINUOUS
  0
LAYER
  2
TEXT2
 70
     0
 62
     7
  6
CONTINUOUS
  0
LAYER
  2
HILF2S
 70
     0
 62
     7
  6
CONTINUOUS
  0
LAYER
  2
UK1V
 70
     0
 62
     7
  6
CONTINUOUS
  0
LAYER
  2
GAIN_ZRA
 70
     0
 62
     7
  6
CONTINUOUS
  0
LAYER
  2
GAIN_ZSF
 70
     0
 62
     7
  6
CONTINUOUS
  0
LAYER
  2
RAHM4
 70
     0
 62
     7
  6
CONTINUOUS
  0
LAYER
  2
KORPUSBAND
 70
     0
 62
     7
  6
CONTINUOUS
  0
LAYER
  2
E---LGPL--------
 70
     0
 62
     7
  6
CONTINUOUS
  0
LAYER
  2
E---NPFL--------
 70
     0
 62
     7
  6
CONTINUOUS
  0
LAYER
  2
E---PLNKTXT-----
 70
     0
 62
     7
  6
CONTINUOUS
  0
LAYER
  2
E---PLNK--------
 70
     0
 62
     7
  6
CONTINUOUS
  0
LAYER
  2
E---PLNR--------
 70
     0
 62
     7
  6
CONTINUOUS
  0
LAYER
  2
D547_ARCHICAD
 70
     0
 62
     7
  6
CONTINUOUS
  0
LAYER
  2
D547_E---TEXT--------
 70
     0
 62
     7
  6
CONTINUOUS
  0
LAYER
  2
E---LEGD--------
 70
     0
 62
     7
  6
CONTINUOUS
  0
LAYER
  2
D43_ARCHICAD
 70
     0
 62
     7
  6
CONTINUOUS
  0
LAYER
  2
D43_FENSTER_VON_B---FASS--
 70
     0
 62
     7
  6
CONTINUOUS
  0
LAYER
  2
D43_E---SCHN--------
 70
     0
 62
     7
  6
CONTINUOUS
  0
LAYER
  2
D43_B---MW-N--------
 70
     0
 62
     7
  6
CONTINUOUS
  0
LAYER
  2
D43_B---DECK--------
 70
     0
 62
     7
  6
CONTINUOUS
  0
LAYER
  2
D43_B---MW-S--------
 70
     0
 62
     7
  6
CONTINUOUS
  0
LAYER
  2
D43_B---MW----------
 70
     0
 62
     7
  6
CONTINUOUS
  0
LAYER
  2
D43_B---FASS--------
 70
     0
 62
     7
  6
CONTINUOUS
  0
LAYER
  2
D43_E---RASG--------
 70
     0
 62
     7
  6
CONTINUOUS
  0
LAYER
  2
D40_ARCHICAD
 70
     0
 62
     7
  6
CONTINUOUS
  0
LAYER
  2
D40_E---MW--------
 70
     0
 62
     7
  6
CONTINUOUS
  0
LAYER
  2
D40_E---FASSKON-----
 70
     0
 62
     7
  6
CONTINUOUS
  0
LAYER
  2
D40_TÜREN_VON_B---MW-N----
 70
     0
 62
     7
  6
CONTINUOUS
  0
LAYER
  2
D40_E---MW-L------
 70
     0
 62
     7
  6
CONTINUOUS
  0
LAYER
  2
D40_TÜREN_VON_B---MW------
 70
     0
 62
     7
  6
CONTINUOUS
  0
LAYER
  2
D40_E---VERM--------
 70
     0
 62
     7
  6
CONTINUOUS
  0
LAYER
  2
D40_FENSTER_VON_E---MW-L--
 70
     0
 62
     7
  6
CONTINUOUS
  0
LAYER
  2
D40_FENSTER_VON_B---MW-N--
 70
     0
 62
     7
  6
CONTINUOUS
  0
LAYER
  2
D40_E---SCHN--------
 70
     0
 62
     7
  6
CONTINUOUS
  0
LAYER
  2
D40_E---AUFZ--------
 70
     0
 62
     7
  6
CONTINUOUS
  0
LAYER
  2
D40_E---DECK--------
 70
     0
 62
     7
  6
CONTINUOUS
  0
LAYER
  2
D40_E---RAUMINF-----
 70
     0
 62
     7
  6
CONTINUOUS
  0
LAYER
  2
D40_E---TEXT--------
 70
     0
 62
     7
  6
CONTINUOUS
  0
LAYER
  2
D40_B---TEXT--------
 70
     0
 62
     7
  6
CONTINUOUS
  0
LAYER
  2
D40_B---MW-N--------
 70
     0
 62
     7
  6
CONTINUOUS
  0
LAYER
  2
D40_B---DECK--------
 70
     0
 62
     7
  6
CONTINUOUS
  0
LAYER
  2
D40_B---AUFZ--------
 70
     0
 62
     7
  6
CONTINUOUS
  0
LAYER
  2
D40_B---MW-S--------
 70
     0
 62
     7
  6
CONTINUOUS
  0
LAYER
  2
D40_B---MW----------
 70
     0
 62
     7
  6
CONTINUOUS
  0
LAYER
  2
D40_E---MOEB--------
 70
     0
 62
     7
  6
CONTINUOUS
  0
LAYER
  2
D40_B---UMGB--------
 70
     0
 62
     7
  6
CONTINUOUS
  0
LAYER
  2
D40_B---FASS--------
 70
     0
 62
     7
  6
CONTINUOUS
  0
LAYER
  2
D40_E---DACH--------
 70
     0
 62
     7
  6
CONTINUOUS
  0
LAYER
  2
D40_E---BODE--------
 70
     0
 62
     7
  6
CONTINUOUS
  0
LAYER
  2
D40_E---TREP--------
 70
     0
 62
     7
  6
CONTINUOUS
  0
LAYER
  2
D40_E---RASG--------
 70
     0
 62
     7
  6
CONTINUOUS
  0
LAYER
  2
D40_B---MW-K--------
 70
     0
 62
     7
  6
CONTINUOUS
  0
LAYER
  2
D40_E---FASSGLA-----
 70
     0
 62
     7
  6
CONTINUOUS
  0
LAYER
  2
D40_B---VERM--------
 70
     0
 62
     7
  6
CONTINUOUS
  0
LAYER
  2
D40_E---UMGBGSG-----
 70
     0
 62
     7
  6
CONTINUOUS
  0
LAYER
  2
D40_E---RASF--------
 70
     0
 62
     7
  6
CONTINUOUS
  0
LAYER
  2
D40_E---PFLA--------
 70
     0
 62
     7
  6
CONTINUOUS
  0
LAYER
  2
D40_E---KONS-ST-----
 70
     0
 62
     7
  6
CONTINUOUS
  0
LAYER
  2
D40_E---WERB--------
 70
     0
 62
     7
  6
CONTINUOUS
  0
LAYER
  2
D40_E---TUERINF-----
 70
     0
 62
     7
  6
CONTINUOUS
  0
LAYER
  2
D40_E---WOLK--------
 70
     0
 62
     7
  6
CONTINUOUS
  0
LAYER
  2
D40_B---MW-L--------
 70
     0
 62
     7
  6
CONTINUOUS
  0
LAYER
  2
D40_B---SANI--------
 70
     0
 62
     7
  6
CONTINUOUS
  0
LAYER
  2
D40_E---SANI--------
 70
     0
 62
     7
  6
CONTINUOUS
  0
LAYER
  2
D40_E---MW-K------
 70
     0
 62
     7
  6
CONTINUOUS
  0
LAYER
  2
D40_E---OBJE--------
 70
     0
 62
     7
  6
CONTINUOUS
  0
LAYER
  2
D40_E---ASPR--------
 70
     0
 62
     7
  6
CONTINUOUS
  0
LAYER
  2
D40_E---VERMTGA-----
 70
     0
 62
     7
  6
CONTINUOUS
  0
LAYER
  2
D40_E---PARK--------
 70
     0
 62
     7
  6
CONTINUOUS
  0
LAYER
  2
D40_E---ISOL--------
 70
     0
 62
     7
  6
CONTINUOUS
  0
LAYER
  2
D40_E---TUER--------
 70
     0
 62
     7
  6
CONTINUOUS
  0
LAYER
  2
D40_E---MW--BRA---
 70
     0
 62
     7
  6
CONTINUOUS
  0
LAYER
  2
D41_ARCHICAD
 70
     0
 62
     7
  6
CONTINUOUS
  0
LAYER
  2
D41_E---MW--------
 70
     0
 62
     7
  6
CONTINUOUS
  0
LAYER
  2
D41_E---FASSKON-----
 70
     0
 62
     7
  6
CONTINUOUS
  0
LAYER
  2
D41_TÜREN_VON_B---MW-N----
 70
     0
 62
     7
  6
CONTINUOUS
  0
LAYER
  2
D41_E---MW-L------
 70
     0
 62
     7
  6
CONTINUOUS
  0
LAYER
  2
D41_TÜREN_VON_B---MW------
 70
     0
 62
     7
  6
CONTINUOUS
  0
LAYER
  2
D41_E---VERM--------
 70
     0
 62
     7
  6
CONTINUOUS
  0
LAYER
  2
D41_FENSTER_VON_E---MW-L--
 70
     0
 62
     7
  6
CONTINUOUS
  0
LAYER
  2
D41_FENSTER_VON_B---MW-N--
 70
     0
 62
     7
  6
CONTINUOUS
  0
LAYER
  2
D41_E---SCHN--------
 70
     0
 62
     7
  6
CONTINUOUS
  0
LAYER
  2
D41_E---AUFZ--------
 70
     0
 62
     7
  6
CONTINUOUS
  0
LAYER
  2
D41_E---DECK--------
 70
     0
 62
     7
  6
CONTINUOUS
  0
LAYER
  2
D41_E---RAUMINF-----
 70
     0
 62
     7
  6
CONTINUOUS
  0
LAYER
  2
D41_E---TEXT--------
 70
     0
 62
     7
  6
CONTINUOUS
  0
LAYER
  2
D41_B---TEXT--------
 70
     0
 62
     7
  6
CONTINUOUS
  0
LAYER
  2
D41_B---MW-N--------
 70
     0
 62
     7
  6
CONTINUOUS
  0
LAYER
  2
D41_B---DECK--------
 70
     0
 62
     7
  6
CONTINUOUS
  0
LAYER
  2
D41_B---AUFZ--------
 70
     0
 62
     7
  6
CONTINUOUS
  0
LAYER
  2
D41_B---MW-S--------
 70
     0
 62
     7
  6
CONTINUOUS
  0
LAYER
  2
D41_B---MW----------
 70
     0
 62
     7
  6
CONTINUOUS
  0
LAYER
  2
D41_E---MOEB--------
 70
     0
 62
     7
  6
CONTINUOUS
  0
LAYER
  2
D41_B---UMGB--------
 70
     0
 62
     7
  6
CONTINUOUS
  0
LAYER
  2
D41_B---FASS--------
 70
     0
 62
     7
  6
CONTINUOUS
  0
LAYER
  2
D41_E---DACH--------
 70
     0
 62
     7
  6
CONTINUOUS
  0
LAYER
  2
D41_E---BODE--------
 70
     0
 62
     7
  6
CONTINUOUS
  0
LAYER
  2
D41_E---TREP--------
 70
     0
 62
     7
  6
CONTINUOUS
  0
LAYER
  2
D41_E---RASG--------
 70
     0
 62
     7
  6
CONTINUOUS
  0
LAYER
  2
D41_B---MW-K--------
 70
     0
 62
     7
  6
CONTINUOUS
  0
LAYER
  2
D41_E---FASSGLA-----
 70
     0
 62
     7
  6
CONTINUOUS
  0
LAYER
  2
D41_B---VERM--------
 70
     0
 62
     7
  6
CONTINUOUS
  0
LAYER
  2
D41_E---UMGBGSG-----
 70
     0
 62
     7
  6
CONTINUOUS
  0
LAYER
  2
D41_E---RASF--------
 70
     0
 62
     7
  6
CONTINUOUS
  0
LAYER
  2
D41_E---PFLA--------
 70
     0
 62
     7
  6
CONTINUOUS
  0
LAYER
  2
D41_E---KONS-ST-----
 70
     0
 62
     7
  6
CONTINUOUS
  0
LAYER
  2
D41_E---WERB--------
 70
     0
 62
     7
  6
CONTINUOUS
  0
LAYER
  2
D41_E---TUERINF-----
 70
     0
 62
     7
  6
CONTINUOUS
  0
LAYER
  2
D41_E---WOLK--------
 70
     0
 62
     7
  6
CONTINUOUS
  0
LAYER
  2
D41_B---MW-L--------
 70
     0
 62
     7
  6
CONTINUOUS
  0
LAYER
  2
D41_B---SANI--------
 70
     0
 62
     7
  6
CONTINUOUS
  0
LAYER
  2
D41_E---SANI--------
 70
     0
 62
     7
  6
CONTINUOUS
  0
LAYER
  2
D41_E---MW-K------
 70
     0
 62
     7
  6
CONTINUOUS
  0
LAYER
  2
D41_E---OBJE--------
 70
     0
 62
     7
  6
CONTINUOUS
  0
LAYER
  2
D41_E---ASPR--------
 70
     0
 62
     7
  6
CONTINUOUS
  0
LAYER
  2
D41_E---VERMTGA-----
 70
     0
 62
     7
  6
CONTINUOUS
  0
LAYER
  2
D41_E---PARK--------
 70
     0
 62
     7
  6
CONTINUOUS
  0
LAYER
  2
D41_E---ISOL--------
 70
     0
 62
     7
  6
CONTINUOUS
  0
LAYER
  2
D41_E---TUER--------
 70
     0
 62
     7
  6
CONTINUOUS
  0
LAYER
  2
D41_E---MW--BRA---
 70
     0
 62
     7
  6
CONTINUOUS
  0
LAYER
  2
D42_ARCHICAD
 70
     0
 62
     7
  6
CONTINUOUS
  0
LAYER
  2
D42_FENSTER_VON_B---FASS--
 70
     0
 62
     7
  6
CONTINUOUS
  0
LAYER
  2
D42_E---SCHN--------
 70
     0
 62
     7
  6
CONTINUOUS
  0
LAYER
  2
D42_B---MW-N--------
 70
     0
 62
     7
  6
CONTINUOUS
  0
LAYER
  2
D42_B---DECK--------
 70
     0
 62
     7
  6
CONTINUOUS
  0
LAYER
  2
D42_B---MW-S--------
 70
     0
 62
     7
  6
CONTINUOUS
  0
LAYER
  2
D42_B---MW----------
 70
     0
 62
     7
  6
CONTINUOUS
  0
LAYER
  2
D42_B---FASS--------
 70
     0
 62
     7
  6
CONTINUOUS
  0
LAYER
  2
D42_E---RASG--------
 70
     0
 62
     7
  6
CONTINUOUS
  0
LAYER
  2
CONSTRUCTION_CLASS
 70
     0
 62
     7
  6
CONTINUOUS
  0
LAYER
  2
PATTERN_CLASS
 70
     0
 62
     7
  6
CONTINUOUS
  0
LAYER
  2
KONSTRUKTION
 70
     0
 62
     7
  6
CONTINUOUS
  0
LAYER
  2
BEMAßUNG
 70
     0
 62
     7
  6
CONTINUOUS
  0
LAYER
  2
HILFSGEOMETRIE
 70
     0
 62
     7
  6
CONTINUOUS
  0
LAYER
  2
UNSICHTBAR
 70
     0
 62
     7
  6
CONTINUOUS
  0
LAYER
  2
LOGO
 70
     0
 62
     7
  6
CONTINUOUS
  0
LAYER
  2
VERWALTUNG
 70
     0
 62
     7
  6
CONTINUOUS
  0
LAYER
  2
UNSICHTBARE_GEWINDE
 70
     0
 62
     7
  6
CONTINUOUS
  0
LAYER
  2
SICHTBARE_GEWINDE
 70
     0
 62
     7
  6
CONTINUOUS
  0
LAYER
  2
DEFPOINTS
 70
     0
 62
     7
  6
CONTINUOUS
  0
LAYER
  2
THICK
 70
     0
 62
     7
  6
CONTINUOUS
  0
LAYER
  2
HIDDEN
 70
     0
 62
     7
  6
CONTINUOUS
  0
LAYER
  2
SCHRAFFURGRUNDRISS
 70
     0
 62
     7
  6
CONTINUOUS
  0
LAYER
  2
BEMASSUNG_GRUNDRISS
 70
     0
 62
     7
  6
CONTINUOUS
  0
LAYER
  2
STATIK
 70
     0
 62
     7
  6
CONTINUOUS
  0
LAYER
  2
TÜREN
 70
     0
 62
     7
  6
CONTINUOUS
  0
LAYER
  2
SANITÄR
 70
     0
 62
     7
  6
CONTINUOUS
  0
LAYER
  2
BEMASSUNG_GIPSKARTON
 70
     0
 62
     7
  6
CONTINUOUS
  0
LAYER
  2
EINRICHTUNGEN
 70
     0
 62
     7
  6
CONTINUOUS
  0
LAYER
  2
BECKEN
 70
     0
 62
     7
  6
CONTINUOUS
  0
LAYER
  2
BELEUCHTUNG
 70
     0
 62
     7
  6
CONTINUOUS
  0
LAYER
  2
BESCHRIFTUNGEN
 70
     0
 62
     7
  6
CONTINUOUS
  0
LAYER
  2
ELEKTRO_1__DOSEN_SCHALTER
 70
     0
 62
     7
  6
CONTINUOUS
  0
LAYER
  2
DEFAULT_1
 70
     0
 62
     7
  6
CONTINUOUS
  0
LAYER
  2
AM_0
 70
     0
 62
     7
  6
CONTINUOUS
  0
LAYER
  2
FRAME0_7
 70
     0
 62
     7
  6
CONTINUOUS
  0
LAYER
  2
AM_BOR
 70
     0
 62
     7
  6
CONTINUOUS
  0
LAYER
  2
RAHM2
 70
     0
 62
     7
  6
CONTINUOUS
  0
LAYER
  2
RAHM3
 70
     0
 62
     7
  6
CONTINUOUS
  0
LAYER
  2
FRAME0_5
 70
     0
 62
     7
  6
CONTINUOUS
  0
LAYER
  2
8
 70
     0
 62
     7
  6
CONTINUOUS
  0
LAYER
  2
AM_5
 70
     0
 62
     7
  6
CONTINUOUS
  0
LAYER
  2
AM_7
 70
     0
 62
     7
  6
CONTINUOUS
  0
LAYER
  2
HILFSLINIEN
 70
     0
 62
     7
  6
CONTINUOUS
  0
LAYER
  2
DRAWING_TEMPLATE
 70
     0
 62
     7
  6
CONTINUOUS
  0
LAYER
  2
TECHNOBOX_EXTERNALREFSYMBO
 70
     0
 62
     7
  6
CONTINUOUS
  0
LAYER
  2
TECHNOBOX_POLYCLIPSYMBOL_L
 70
     0
 62
     7
  6
CONTINUOUS
  0
LAYER
  2
100
 70
     0
 62
     7
  6
CONTINUOUS
  0
LAYER
  2
101
 70
     0
 62
     7
  6
CONTINUOUS
  0
LAYER
  2
KONTUR
 70
     0
 62
     7
  6
CONTINUOUS
  0
LAYER
  2
MITTELLINIE
 70
     0
 62
     7
  6
CONTINUOUS
  0
LAYER
  2
GESTRICHELT
 70
     0
 62
     7
  6
CONTINUOUS
  0
LAYER
  2
HILFSLINIE
 70
     0
 62
     7
  6
CONTINUOUS
  0
LAYER
  2
TEXT-25
 70
     0
 62
     7
  6
CONTINUOUS
  0
LAYER
  2
TEXT35
 70
     0
 62
     7
  6
CONTINUOUS
  0
LAYER
  2
TEXT-50
 70
     0
 62
     7
  6
CONTINUOUS
  0
LAYER
  2
TEXT-70
 70
     0
 62
     7
  6
CONTINUOUS
  0
LAYER
  2
ANSICHTSFENSTER
 70
     0
 62
     7
  6
CONTINUOUS
  0
LAYER
  2
KERA0
 70
     0
 62
     7
  6
CONTINUOUS
  0
LAYER
  2
KERA1
 70
     0
 62
     7
  6
CONTINUOUS
  0
LAYER
  2
KERA2
 70
     0
 62
     7
  6
CONTINUOUS
  0
LAYER
  2
KERA3
 70
     0
 62
     7
  6
CONTINUOUS
  0
LAYER
  2
KERA4
 70
     0
 62
     7
  6
CONTINUOUS
  0
LAYER
  2
KERA5
 70
     0
 62
     7
  6
CONTINUOUS
  0
LAYER
  2
KERA6
 70
     0
 62
     7
  6
CONTINUOUS
  0
LAYER
  2
KERA7
 70
     0
 62
     7
  6
CONTINUOUS
  0
LAYER
  2
20
 70
     0
 62
     7
  6
CONTINUOUS
  0
LAYER
  2
50
 70
     0
 62
     7
  6
CONTINUOUS
  0
LAYER
  2
BECKEN_FUTURA_EBENE_1
 70
     0
 62
     7
  6
CONTINUOUS
  0
LAYER
  2
EBENE_1
 70
     0
 62
     7
  6
CONTINUOUS
  0
LAYER
  2
EBENE_2
 70
     0
 62
     7
  6
CONTINUOUS
  0
LAYER
  2
EBENE_5
 70
     0
 62
     7
  6
CONTINUOUS
  0
LAYER
  2
3
 70
     0
 62
     7
  6
CONTINUOUS
  0
LAYER
  2
GEB-KONTUR-A
 70
     0
 62
     7
  6
CONTINUOUS
  0
LAYER
  2
GEB-SYMETRIE
 70
     0
 62
     7
  6
CONTINUOUS
  0
LAYER
  2
GEB-ART-NR
 70
     0
 62
     7
  6
CONTINUOUS
  0
LAYER
  2
PROJECTION
 70
     0
 62
     7
  6
CONTINUOUS
  0
ENDTAB
  0
TABLE
  2
STYLE
 70
     3
  0
STYLE
  2
STANDARD
 70
     0
 40
0.0
 41
1.0
 50
0.0
 71
     0
 42
0.0
  3
txt
  4

  0
STYLE
  2
ANNOTATIVE
 70
     0
 40
0.0
 41
1.0
 50
0.0
 71
     0
 42
0.2
  3
txt
  4

  0
STYLE
  2
SIMPLEX
 70
     0
 40
0.0
 41
1.0
 50
0.0
 71
     0
 42
0.0
  3
simplex
  4

  0
ENDTAB
  0
TABLE
  2
VIEW
 70
     0
  0
ENDTAB
  0
TABLE
  2
UCS
 70
     0
  0
ENDTAB
  0
TABLE
  2
APPID
 70
     4
  0
APPID
  2
ACAD
 70
     0
  0
APPID
  2
ACADANNOTATIVE
 70
     0
  0
APPID
  2
ACAD_MLEADERVER
 70
     0
  0
APPID
  2
ACAD_EXEMPT_FROM_CAD_STANDARDS
 70
     0
  0
ENDTAB
  0
TABLE
  2
DIMSTYLE
 70
     2
  0
DIMSTYLE
  2
STANDARD
 70
     0
  3

  4

  5

  6

  7

 40
1.0
 41
0.18
 42
0.0625
 43
0.38
 44
0.18
 45
0.0
 46
0.0
 47
0.0
 48
0.0
140
0.18
141
0.09
142
0.0
143
25.399999999999999
144
1.0
145
0.0
146
1.0
147
0.09
 71
     0
 72
     0
 73
     1
 74
     1
 75
     0
 76
     0
 77
     0
 78
     0
170
     0
171
     2
172
     0
173
     0
174
     0
175
     0
176
     0
177
     0
178
     0
  0
DIMSTYLE
  2
ANNOTATIVE
 70
     0
  3

  4

  5

  6

  7

 40
1.0
 41
0.18
 42
0.0625
 43
0.38
 44
0.18
 45
0.0
 46
0.0
 47
0.0
 48
0.0
140
0.18
141
0.09
142
0.0
143
25.399999999999999
144
1.0
145
0.0
146
1.0
147
0.09
 71
     0
 72
     0
 73
     1
 74
     1
 75
     0
 76
     0
 77
     0
 78
     0
170
     0
171
     2
172
     0
173
     0
174
     0
175
     0
176
     0
177
     0
178
     0
  0
ENDTAB
  0
ENDSEC
  0
SECTION
  2
BLOCKS
  0
BLOCK
  8
0
  2
$MODEL_SPACE
 70
     0
 10
0.0
 20
0.0
 30
0.0
  3
$MODEL_SPACE
  1

  0
ENDBLK
  5
76
  8
0
  0
BLOCK
 67
     1
  8
0
  2
$PAPER_SPACE
 70
     0
 10
0.0
 20
0.0
 30
0.0
  3
$PAPER_SPACE
  1

  0
ENDBLK
  5
72
 67
     1
  8
0
  0
BLOCK
  8
0
  2
HORIZON-G1
 70
     0
 10
0.0
 20
0.0
 30
0.0
  3
HORIZON-G1
  1

  0
ENDBLK
  5
186
  8
0
  0
BLOCK
  8
0
  2
*D1
 70
     1
 10
0.0
 20
0.0
 30
0.0
  3
*D1
  1

  0
LINE
  5
189
  8
LAYER01
 62
     7
 10
2785.948985
 20
-718.41988400000002
 30
0.0
 11
2785.948985
 21
-618.41988400000002
 31
0.0
  0
LINE
  5
18A
  8
LAYER01
 62
     7
 10
2857.6505299999999
 20
-718.41988400000002
 30
0.0
 11
2770.948985
 21
-718.41988400000002
 31
0.0
  0
LINE
  5
18B
  8
LAYER01
 62
     7
 10
2857.6505299999999
 20
-618.41988400000002
 30
0.0
 11
2770.948985
 21
-618.41988400000002
 31
0.0
  0
SOLID
  5
18C
  8
LAYER01
 62
     7
 10
2789.9488249999999
 20
-694.41988400000002
 30
0.0
 11
2785.948985
 21
-718.41988400000002
 31
0.0
 12
2781.949145
 22
-694.41988400000002
 32
0.0
 13
2781.949145
 23
-694.41988400000002
 33
0.0
  0
SOLID
  5
18D
  8
LAYER01
 62
     7
 10
2789.9488249999999
 20
-642.41988400000002
 30
0.0
 11
2785.948985
 21
-618.41988400000002
 31
0.0
 12
2781.949145
 22
-642.41988400000002
 32
0.0
 13
2781.949145
 23
-642.41988400000002
 33
0.0
  0
TEXT
  5
18E
  8
LAYER01
  6
CONTINUOUS
 62
     7
 10
2770.948985
 20
-704.13417000000004
 30
0.0
 40
30.0
  1
100
 50
90.0
  7
SIMPLEX
  0
POINT
  5
18F
  8
LAYER01
 62
     7
 10
2869.6505299999999
 20
-718.41988400000002
 30
0.0
  0
POINT
  5
190
  8
LAYER01
 62
     7
 10
2869.6505299999999
 20
-618.41988400000002
 30
0.0
  0
POINT
  5
191
  8
LAYER01
 62
     7
 10
2785.948985
 20
-618.41988400000002
 30
0.0
  0
ENDBLK
  5
192
  8
0
  0
BLOCK
  8
0
  2
*D2
 70
     1
 10
0.0
 20
0.0
 30
0.0
  3
*D2
  1

  0
LINE
  5
195
  8
LAYER01
 62
     7
 10
2788.4058369999998
 20
-718.41988400000002
 30
0.0
 11
2788.4058369999998
 21
-818.41988400000002
 31
0.0
  0
LINE
  5
196
  8
LAYER01
 62
     7
 10
2857.6505299999999
 20
-718.41988400000002
 30
0.0
 11
2773.4058369999998
 21
-718.41988400000002
 31
0.0
  0
LINE
  5
197
  8
LAYER01
 62
     7
 10
2857.6505299999999
 20
-818.41988400000002
 30
0.0
 11
2773.4058369999998
 21
-818.41988400000002
 31
0.0
  0
SOLID
  5
198
  8
LAYER01
 62
     7
 10
2784.4059969999998
 20
-742.41988400000002
 30
0.0
 11
2788.4058369999998
 21
-718.41988400000002
 31
0.0
 12
2792.4056770000002
 22
-742.41988400000002
 32
0.0
 13
2792.4056770000002
 23
-742.41988400000002
 33
0.0
  0
SOLID
  5
199
  8
LAYER01
 62
     7
 10
2784.4059969999998
 20
-794.41988400000002
 30
0.0
 11
2788.4058369999998
 21
-818.41988400000002
 31
0.0
 12
2792.4056770000002
 22
-794.41988400000002
 32
0.0
 13
2792.4056770000002
 23
-794.41988400000002
 33
0.0
  0
TEXT
  5
19A
  8
LAYER01
  6
CONTINUOUS
 62
     7
 10
2773.4058369999998
 20
-804.13417000000004
 30
0.0
 40
30.0
  1
100
 50
90.0
  7
SIMPLEX
  0
POINT
  5
19B
  8
LAYER01
 62
     7
 10
2869.6505299999999
 20
-718.41988400000002
 30
0.0
  0
POINT
  5
19C
  8
LAYER01
 62
     7
 10
2869.6505299999999
 20
-818.41988400000002
 30
0.0
  0
POINT
  5
19D
  8
LAYER01
 62
     7
 10
2788.4058369999998
 20
-818.41988400000002
 30
0.0
  0
ENDBLK
  5
19E
  8
0
  0
BLOCK
  8
0
  2
*D3
 70
     1
 10
0.0
 20
0.0
 30
0.0
  3
*D3
  1

  0
LINE
  5
1A1
  8
LAYER01
 62
     7
 10
2970.0760559999999
 20
225.01853299999999
 30
0.0
 11
4870.0760559999999
 21
225.01853299999999
 31
0.0
  0
LINE
  5
1A2
  8
LAYER01
 62
     7
 10
2970.0760559999999
 20
129.11921100000001
 30
0.0
 11
2970.0760559999999
 21
240.01853299999999
 31
0.0
  0
LINE
  5
1A3
  8
LAYER01
 62
     7
 10
4870.0760559999999
 20
129.11921100000001
 30
0.0
 11
4870.0760559999999
 21
240.01853299999999
 31
0.0
  0
SOLID
  5
1A4
  8
LAYER01
 62
     7
 10
2994.0760559999999
 20
221.01869300000001
 30
0.0
 11
2970.0760559999999
 21
225.01853299999999
 31
0.0
 12
2994.0760559999999
 22
229.018373
 32
0.0
 13
2994.0760559999999
 23
229.018373
 33
0.0
  0
SOLID
  5
1A5
  8
LAYER01
 62
     7
 10
4846.0760559999999
 20
221.01869300000001
 30
0.0
 11
4870.0760559999999
 21
225.01853299999999
 31
0.0
 12
4846.0760559999999
 22
229.018373
 32
0.0
 13
4846.0760559999999
 23
229.018373
 33
0.0
  0
TEXT
  5
1A6
  8
LAYER01
  6
CONTINUOUS
 62
     7
 10
3870.0760560000008
 20
240.01853299999999
 30
0.0
 40
30.0
  1
1900
  7
SIMPLEX
  0
POINT
  5
1A7
  8
LAYER01
 62
     7
 10
2970.0760559999999
 20
117.11921100000001
 30
0.0
  0
POINT
  5
1A8
  8
LAYER01
 62
     7
 10
4870.0760559999999
 20
117.11921100000001
 30
0.0
  0
POINT
  5
1A9
  8
LAYER01
 62
     7
 10
4870.0760559999999
 20
225.01853299999999
 30
0.0
  0
ENDBLK
  5
1AA
  8
0
  0
BLOCK
  8
0
  2
*D4
 70
     1
 10
0.0
 20
0.0
 30
0.0
  3
*D4
  1

  0
LINE
  5
1AD
  8
LAYER01
 62
     7
 10
4969.6505299999999
 20
349.746353
 30
0.0
 11
2869.6505299999999
 21
349.746353
 31
0.0
  0
LINE
  5
1AE
  8
LAYER01
 62
     7
 10
4969.6505299999999
 20
129.11921100000001
 30
0.0
 11
4969.6505299999999
 21
364.746353
 31
0.0
  0
LINE
  5
1AF
  8
LAYER01
 62
     7
 10
2869.6505299999999
 20
129.11921100000001
 30
0.0
 11
2869.6505299999999
 21
364.746353
 31
0.0
  0
SOLID
  5
1B0
  8
LAYER01
 62
     7
 10
4945.6505299999999
 20
353.74619300000001
 30
0.0
 11
4969.6505299999999
 21
349.746353
 31
0.0
 12
4945.6505299999999
 22
345.74651299999999
 32
0.0
 13
4945.6505299999999
 23
345.74651299999999
 33
0.0
  0
SOLID
  5
1B1
  8
LAYER01
 62
     7
 10
2893.6505299999999
 20
353.74619300000001
 30
0.0
 11
2869.6505299999999
 21
349.746353
 31
0.0
 12
2893.6505299999999
 22
345.74651299999999
 32
0.0
 13
2893.6505299999999
 23
345.74651299999999
 33
0.0
  0
TEXT
  5
1B2
  8
LAYER01
  6
CONTINUOUS
 62
     7
 10
3869.6505299999999
 20
364.746353
 30
0.0
 40
30.0
  1
2100
  7
SIMPLEX
  0
POINT
  5
1B3
  8
LAYER01
 62
     7
 10
4969.6505299999999
 20
117.11921100000001
 30
0.0
  0
POINT
  5
1B4
  8
LAYER01
 62
     7
 10
2869.6505299999999
 20
117.11921100000001
 30
0.0
  0
POINT
  5
1B5
  8
LAYER01
 62
     7
 10
2869.6505299999999
 20
349.746353
 30
0.0
  0
ENDBLK
  5
1B6
  8
0
  0
BLOCK
  8
0
  2
*D5
 70
     1
 10
0.0
 20
0.0
 30
0.0
  3
*D5
  1

  0
LINE
  5
1B9
  8
LAYER01
 62
     7
 10
2654.0478400000002
 20
117.11921100000001
 30
0.0
 11
2654.0478400000002
 21
-452.88078899999999
 31
0.0
  0
LINE
  5
1BA
  8
LAYER01
 62
     7
 10
2857.6505299999999
 20
117.11921100000001
 30
0.0
 11
2639.0478400000002
 21
117.11921100000001
 31
0.0
  0
LINE
  5
1BB
  8
LAYER01
 62
     7
 10
2857.6505299999999
 20
-452.88078899999999
 30
0.0
 11
2639.0478400000002
 21
-452.88078899999999
 31
0.0
  0
SOLID
  5
1BC
  8
LAYER01
 62
     7
 10
2650.0479999999998
 20
93.119210999999993
 30
0.0
 11
2654.0478400000002
 21
117.11921100000001
 31
0.0
 12
2658.047680000001
 22
93.119210999999993
 32
0.0
 13
2658.047680000001
 23
93.119210999999993
 33
0.0
  0
SOLID
  5
1BD
  8
LAYER01
 62
     7
 10
2650.0479999999998
 20
-428.88078899999999
 30
0.0
 11
2654.0478400000002
 21
-452.88078899999999
 31
0.0
 12
2658.047680000001
 22
-428.88078899999999
 32
0.0
 13
2658.047680000001
 23
-428.88078899999999
 33
0.0
  0
TEXT
  5
1BE
  8
LAYER01
  6
CONTINUOUS
 62
     7
 10
2639.0478400000002
 20
-206.45221799999999
 30
0.0
 40
30.0
  1
570
 50
90.0
  7
SIMPLEX
  0
POINT
  5
1BF
  8
LAYER01
 62
     7
 10
2869.6505299999999
 20
117.11921100000001
 30
0.0
  0
POINT
  5
1C0
  8
LAYER01
 62
     7
 10
2869.6505299999999
 20
-452.88078899999999
 30
0.0
  0
POINT
  5
1C1
  8
LAYER01
 62
     7
 10
2654.0478400000002
 20
-452.88078899999999
 30
0.0
  0
ENDBLK
  5
1C2
  8
0
  0
BLOCK
  8
0
  2
*D6
 70
     1
 10
0.0
 20
0.0
 30
0.0
  3
*D6
  1

  0
LINE
  5
1C5
  8
LAYER01
 62
     7
 10
2784.003772
 20
117.11921100000001
 30
0.0
 11
2784.003772
 21
-4.0534210000000002
 31
0.0
  0
LINE
  5
1C6
  8
LAYER01
 62
     7
 10
2857.6505299999999
 20
117.11921100000001
 30
0.0
 11
2769.003772
 21
117.11921100000001
 31
0.0
  0
LINE
  5
1C7
  8
LAYER01
 62
     7
 10
2857.6505299999999
 20
-4.0534210000000002
 30
0.0
 11
2769.003772
 21
-4.0534210000000002
 31
0.0
  0
SOLID
  5
1C8
  8
LAYER01
 62
     7
 10
2780.0039320000001
 20
93.119210999999993
 30
0.0
 11
2784.003772
 21
117.11921100000001
 31
0.0
 12
2788.003612
 22
93.119210999999993
 32
0.0
 13
2788.003612
 23
93.119210999999993
 33
0.0
  0
SOLID
  5
1C9
  8
LAYER01
 62
     7
 10
2780.0039320000001
 20
19.946579
 30
0.0
 11
2784.003772
 21
-4.0534210000000002
 31
0.0
 12
2788.003612
 22
19.946579
 32
0.0
 13
2788.003612
 23
19.946579
 33
0.0
  0
TEXT
  5
1CA
  8
LAYER01
  6
CONTINUOUS
 62
     7
 10
2769.003772
 20
27.24718
 30
0.0
 40
30.0
  1
122
 50
90.0
  7
SIMPLEX
  0
POINT
  5
1CB
  8
LAYER01
 62
     7
 10
2869.6505299999999
 20
117.11921100000001
 30
0.0
  0
POINT
  5
1CC
  8
LAYER01
 62
     7
 10
2869.6505299999999
 20
-4.0534210000000002
 30
0.0
  0
POINT
  5
1CD
  8
LAYER01
 62
     7
 10
2784.003772
 20
-4.0534210000000002
 30
0.0
  0
ENDBLK
  5
1CE
  8
0
  0
BLOCK
  8
0
  2
*D7
 70
     1
 10
0.0
 20
0.0
 30
0.0
  3
*D7
  1

  0
LINE
  5
1D1
  8
LAYER01
 62
     7
 10
2784.003772
 20
-4.0534210000000002
 30
0.0
 11
2784.003772
 21
-402.05342100000001
 31
0.0
  0
LINE
  5
1D2
  8
LAYER01
 62
     7
 10
2857.6505299999999
 20
-4.0534210000000002
 30
0.0
 11
2769.003772
 21
-4.0534210000000002
 31
0.0
  0
LINE
  5
1D3
  8
LAYER01
 62
     7
 10
2857.6505299999999
 20
-402.05342100000001
 30
0.0
 11
2769.003772
 21
-402.05342100000001
 31
0.0
  0
SOLID
  5
1D4
  8
LAYER01
 62
     7
 10
2780.0039320000001
 20
-28.053421000000011
 30
0.0
 11
2784.003772
 21
-4.0534210000000002
 31
0.0
 12
2788.003612
 22
-28.053421000000011
 32
0.0
 13
2788.003612
 23
-28.053421000000011
 33
0.0
  0
SOLID
  5
1D5
  8
LAYER01
 62
     7
 10
2780.0039320000001
 20
-378.05342100000001
 30
0.0
 11
2784.003772
 21
-402.05342100000001
 31
0.0
 12
2788.003612
 22
-378.05342100000001
 32
0.0
 13
2788.003612
 23
-378.05342100000001
 33
0.0
  0
TEXT
  5
1D6
  8
LAYER01
  6
CONTINUOUS
 62
     7
 10
2769.003772
 20
-241.62485000000001
 30
0.0
 40
30.0
  1
398
 50
90.0
  7
SIMPLEX
  0
POINT
  5
1D7
  8
LAYER01
 62
     7
 10
2869.6505299999999
 20
-4.0534210000000002
 30
0.0
  0
POINT
  5
1D8
  8
LAYER01
 62
     7
 10
2869.6505299999999
 20
-402.05342100000001
 30
0.0
  0
POINT
  5
1D9
  8
LAYER01
 62
     7
 10
2784.003772
 20
-402.05342100000001
 30
0.0
  0
ENDBLK
  5
1DA
  8
0
  0
BLOCK
  8
0
  2
*D8
 70
     1
 10
0.0
 20
0.0
 30
0.0
  3
*D8
  1

  0
LINE
  5
1DD
  8
LAYER01
 62
     7
 10
2784.003772
 20
-402.05342100000001
 30
0.0
 11
2784.003772
 21
-452.88078899999999
 31
0.0
  0
LINE
  5
1DE
  8
LAYER01
 62
     7
 10
2857.6505299999999
 20
-402.05342100000001
 30
0.0
 11
2769.003772
 21
-402.05342100000001
 31
0.0
  0
LINE
  5
1DF
  8
LAYER01
 62
     7
 10
2857.6505299999999
 20
-452.88078899999999
 30
0.0
 11
2769.003772
 21
-452.88078899999999
 31
0.0
  0
SOLID
  5
1E0
  8
LAYER01
 62
     7
 10
2780.0039320000001
 20
-426.05342100000001
 30
0.0
 11
2784.003772
 21
-402.05342100000001
 31
0.0
 12
2788.003612
 22
-426.05342100000001
 32
0.0
 13
2788.003612
 23
-426.05342100000001
 33
0.0
  0
SOLID
  5
1E1
  8
LAYER01
 62
     7
 10
2780.0039320000001
 20
-428.88078899999999
 30
0.0
 11
2784.003772
 21
-452.88078899999999
 31
0.0
 12
2788.003612
 22
-428.88078899999999
 32
0.0
 13
2788.003612
 23
-428.88078899999999
 33
0.0
  0
TEXT
  5
1E2
  8
LAYER01
  6
CONTINUOUS
 62
     7
 10
2769.003772
 20
-445.32424800000013
 30
0.0
 40
30.0
  1
50
 50
90.0
  7
SIMPLEX
  0
POINT
  5
1E3
  8
LAYER01
 62
     7
 10
2869.6505299999999
 20
-402.05342100000001
 30
0.0
  0
POINT
  5
1E4
  8
LAYER01
 62
     7
 10
2869.6505299999999
 20
-452.88078899999999
 30
0.0
  0
POINT
  5
1E5
  8
LAYER01
 62
     7
 10
2784.003772
 20
-452.88078899999999
 30
0.0
  0
ENDBLK
  5
1E6
  8
0
  0
BLOCK
  8
0
  2
*D9
 70
     1
 10
0.0
 20
0.0
 30
0.0
  3
*D9
  1

  0
LINE
  5
1E9
  8
LAYER01
 62
     7
 10
5245.7788419999997
 20
-718.41988400000002
 30
0.0
 11
5245.7788419999997
 21
-618.41988400000002
 31
0.0
  0
LINE
  5
1EA
  8
LAYER01
 62
     7
 10
5306.9637130000001
 20
-718.41988400000002
 30
0.0
 11
5230.7788420000006
 21
-718.41988400000002
 31
0.0
  0
LINE
  5
1EB
  8
LAYER01
 62
     7
 10
5306.9637130000001
 20
-618.41988400000002
 30
0.0
 11
5230.7788420000006
 21
-618.41988400000002
 31
0.0
  0
SOLID
  5
1EC
  8
LAYER01
 62
     7
 10
5249.7786820000001
 20
-694.41988400000002
 30
0.0
 11
5245.7788419999997
 21
-718.41988400000002
 31
0.0
 12
5241.7790020000011
 22
-694.41988400000002
 32
0.0
 13
5241.7790020000011
 23
-694.41988400000002
 33
0.0
  0
SOLID
  5
1ED
  8
LAYER01
 62
     7
 10
5249.7786820000001
 20
-642.41988400000002
 30
0.0
 11
5245.7788419999997
 21
-618.41988400000002
 31
0.0
 12
5241.7790020000011
 22
-642.41988400000002
 32
0.0
 13
5241.7790020000011
 23
-642.41988400000002
 33
0.0
  0
TEXT
  5
1EE
  8
LAYER01
  6
VERDECKT
 62
     7
 10
5230.7788420000006
 20
-704.13417000000004
 30
0.0
 40
30.0
  1
100
 50
90.0
  7
SIMPLEX
  0
POINT
  5
1EF
  8
LAYER01
 62
     7
 10
5318.9637130000001
 20
-718.41988400000002
 30
0.0
  0
POINT
  5
1F0
  8
LAYER01
 62
     7
 10
5318.9637130000001
 20
-618.41988400000002
 30
0.0
  0
POINT
  5
1F1
  8
LAYER01
 62
     7
 10
5245.7788419999997
 20
-618.41988400000002
 30
0.0
  0
ENDBLK
  5
1F2
  8
0
  0
BLOCK
  8
0
  2
HORIZON-G11
 70
     0
 10
0.0
 20
0.0
 30
0.0
  3
HORIZON-G11
  1

  0
POLYLINE
  5
1F5
  8
LAYER01
  6
CONTINUOUS
 62
     7
 66
     1
 10
0.0
 20
0.0
 30
0.0
 70
     1
  0
VERTEX
  5
8DD
  8
LAYER01
  6
CONTINUOUS
 62
     7
 10
5217.7496709999996
 20
-1244.987672
 30
0.0
  0
VERTEX
  5
8DE
  8
LAYER01
  6
CONTINUOUS
 62
     7
 10
5259.1793579999994
 20
-1244.987672
 30
0.0
  0
VERTEX
  5
8DF
  8
LAYER01
  6
CONTINUOUS
 62
     7
 10
5311.2073369999989
 20
-1363.495846
 30
0.0
  0
VERTEX
  5
8E0
  8
LAYER01
  6
CONTINUOUS
 62
     7
 10
5363.2353159999993
 20
-1244.987672
 30
0.0
  0
VERTEX
  5
8E1
  8
LAYER01
  6
CONTINUOUS
 62
     7
 10
5406.5919649999996
 20
-1244.987672
 30
0.0
  0
VERTEX
  5
8E2
  8
LAYER01
  6
CONTINUOUS
 62
     7
 10
5311.2073369999989
 20
-1456.953512
 30
0.0
  0
VERTEX
  5
8E3
  8
LAYER01
  6
CONTINUOUS
 62
     7
 10
5217.7496709999996
 20
-1244.987672
 30
0.0
  0
VERTEX
  5
8E4
  8
LAYER01
  6
CONTINUOUS
 62
     7
 10
5217.7496709999996
 20
-1244.987672
 30
0.0
  0
SEQEND
  5
8E5
  8
LAYER01
  6
CONTINUOUS
 62
     7
  0
POLYLINE
  5
1FF
  8
LAYER01
  6
CONTINUOUS
 62
     7
 66
     1
 10
0.0
 20
0.0
 30
0.0
 70
     1
  0
VERTEX
  5
8E6
  8
LAYER01
  6
CONTINUOUS
 62
     7
 10
5359.3813909999999
 20
-1389.509836
 30
0.0
  0
VERTEX
  5
8E7
  8
LAYER01
  6
CONTINUOUS
 62
     7
 10
5373.8336079999999
 20
-1355.7879969999999
 30
0.0
  0
VERTEX
  5
8E8
  8
LAYER01
  6
CONTINUOUS
 62
     7
 10
5436.4598779999997
 20
-1355.7879969999999
 30
0.0
  0
VERTEX
  5
8E9
  8
LAYER01
  6
CONTINUOUS
 62
     7
 10
5404.6650020000006
 20
-1286.417359
 30
0.0
  0
VERTEX
  5
8EA
  8
LAYER01
  6
CONTINUOUS
 62
     7
 10
5422.9711429999998
 20
-1242.097229
 30
0.0
  0
VERTEX
  5
8EB
  8
LAYER01
  6
CONTINUOUS
 62
     7
 10
5508.7209600000006
 20
-1423.2316740000001
 30
0.0
  0
VERTEX
  5
8EC
  8
LAYER01
  6
CONTINUOUS
 62
     7
 10
5508.7209600000006
 20
-1244.987672
 30
0.0
  0
VERTEX
  5
8ED
  8
LAYER01
  6
CONTINUOUS
 62
     7
 10
5623.3752090000007
 20
-1244.987672
 30
0.0
  0
VERTEX
  5
8EE
  8
LAYER01
  6
CONTINUOUS
 62
     7
 10
5623.3752090000007
 20
-1244.987672
 30
0.0
  0
VERTEX
  5
8EF
  8
LAYER01
  6
CONTINUOUS
 62
     7
 10
5633.9735009999986
 20
-1246.9146350000001
 30
0.0
  0
VERTEX
  5
8F0
  8
LAYER01
  6
CONTINUOUS
 62
     7
 10
5643.6083119999994
 20
-1250.7685590000001
 30
0.0
  0
VERTEX
  5
8F1
  8
LAYER01
  6
CONTINUOUS
 62
     7
 10
5652.2796420000004
 20
-1257.5129260000001
 30
0.0
  0
VERTEX
  5
8F2
  8
LAYER01
  6
CONTINUOUS
 62
     7
 10
5659.987490999999
 20
-1264.257294
 30
0.0
  0
VERTEX
  5
8F3
  8
LAYER01
  6
CONTINUOUS
 62
     7
 10
5666.7318580000001
 20
-1272.9286239999999
 30
0.0
  0
VERTEX
  5
8F4
  8
LAYER01
  6
CONTINUOUS
 62
     7
 10
5671.5492640000002
 20
-1282.563435
 30
0.0
  0
VERTEX
  5
8F5
  8
LAYER01
  6
CONTINUOUS
 62
     7
 10
5675.4031880000002
 20
-1294.1252079999999
 30
0.0
  0
VERTEX
  5
8F6
  8
LAYER01
  6
CONTINUOUS
 62
     7
 10
5676.366669
 20
-1304.7235000000001
 30
0.0
  0
VERTEX
  5
8F7
  8
LAYER01
  6
CONTINUOUS
 62
     7
 10
5676.366669
 20
-1304.7235000000001
 30
0.0
  0
VERTEX
  5
8F8
  8
LAYER01
  6
CONTINUOUS
 62
     7
 10
5676.366669
 20
-1316.285273
 30
0.0
  0
VERTEX
  5
8F9
  8
LAYER01
  6
CONTINUOUS
 62
     7
 10
5674.4397070000014
 20
-1325.9200840000001
 30
0.0
  0
VERTEX
  5
8FA
  8
LAYER01
  6
CONTINUOUS
 62
     7
 10
5670.5857829999986
 20
-1335.554895
 30
0.0
  0
VERTEX
  5
8FB
  8
LAYER01
  6
CONTINUOUS
 62
     7
 10
5665.7683770000003
 20
-1344.226224
 30
0.0
  0
VERTEX
  5
8FC
  8
LAYER01
  6
CONTINUOUS
 62
     7
 10
5659.0240100000001
 20
-1351.9340729999999
 30
0.0
  0
VERTEX
  5
8FD
  8
LAYER01
  6
CONTINUOUS
 62
     7
 10
5651.3161609999997
 20
-1358.678441
 30
0.0
  0
VERTEX
  5
8FE
  8
LAYER01
  6
CONTINUOUS
 62
     7
 10
5642.6448310000014
 20
-1363.495846
 30
0.0
  0
VERTEX
  5
8FF
  8
LAYER01
  6
CONTINUOUS
 62
     7
 10
5632.0465389999999
 20
-1367.3497709999999
 30
0.0
  0
VERTEX
  5
900
  8
LAYER01
  6
CONTINUOUS
 62
     7
 10
5693.7093290000003
 20
-1449.2456629999999
 30
0.0
  0
VERTEX
  5
901
  8
LAYER01
  6
CONTINUOUS
 62
     7
 10
5693.7093290000003
 20
-1244.987672
 30
0.0
  0
VERTEX
  5
902
  8
LAYER01
  6
CONTINUOUS
 62
     7
 10
5734.1755350000012
 20
-1244.987672
 30
0.0
  0
VERTEX
  5
903
  8
LAYER01
  6
CONTINUOUS
 62
     7
 10
5734.1755350000012
 20
-1451.1726249999999
 30
0.0
  0
VERTEX
  5
904
  8
LAYER01
  6
CONTINUOUS
 62
     7
 10
5647.4622369999997
 20
-1451.1726249999999
 30
0.0
  0
VERTEX
  5
905
  8
LAYER01
  6
CONTINUOUS
 62
     7
 10
5563.6393820000003
 20
-1344.226224
 30
0.0
  0
VERTEX
  5
906
  8
LAYER01
  6
CONTINUOUS
 62
     7
 10
5606.0325499999999
 20
-1344.226224
 30
0.0
  0
VERTEX
  5
907
  8
LAYER01
  6
CONTINUOUS
 62
     7
 10
5606.0325499999999
 20
-1344.226224
 30
0.0
  0
VERTEX
  5
908
  8
LAYER01
  6
CONTINUOUS
 62
     7
 10
5611.8134360000013
 20
-1343.262743
 30
0.0
  0
VERTEX
  5
909
  8
LAYER01
  6
CONTINUOUS
 62
     7
 10
5617.5943229999993
 20
-1341.335781
 30
0.0
  0
VERTEX
  5
90A
  8
LAYER01
  6
CONTINUOUS
 62
     7
 10
5622.411728
 20
-1338.445338
 30
0.0
  0
VERTEX
  5
90B
  8
LAYER01
  6
CONTINUOUS
 62
     7
 10
5627.2291340000002
 20
-1334.591414
 30
0.0
  0
VERTEX
  5
90C
  8
LAYER01
  6
CONTINUOUS
 62
     7
 10
5630.1195770000013
 20
-1329.7740080000001
 30
0.0
  0
VERTEX
  5
90D
  8
LAYER01
  6
CONTINUOUS
 62
     7
 10
5633.0100199999997
 20
-1323.9931220000001
 30
0.0
  0
VERTEX
  5
90E
  8
LAYER01
  6
CONTINUOUS
 62
     7
 10
5634.9369820000002
 20
-1318.212235
 30
0.0
  0
VERTEX
  5
90F
  8
LAYER01
  6
CONTINUOUS
 62
     7
 10
5634.9369820000002
 20
-1311.4678670000001
 30
0.0
  0
VERTEX
  5
910
  8
LAYER01
  6
CONTINUOUS
 62
     7
 10
5634.9369820000002
 20
-1311.4678670000001
 30
0.0
  0
VERTEX
  5
911
  8
LAYER01
  6
CONTINUOUS
 62
     7
 10
5634.9369820000002
 20
-1305.6869810000001
 30
0.0
  0
VERTEX
  5
912
  8
LAYER01
  6
CONTINUOUS
 62
     7
 10
5633.0100199999997
 20
-1299.9060939999999
 30
0.0
  0
VERTEX
  5
913
  8
LAYER01
  6
CONTINUOUS
 62
     7
 10
5631.0830580000002
 20
-1294.1252079999999
 30
0.0
  0
VERTEX
  5
914
  8
LAYER01
  6
CONTINUOUS
 62
     7
 10
5627.2291340000002
 20
-1289.307802
 30
0.0
  0
VERTEX
  5
915
  8
LAYER01
  6
CONTINUOUS
 62
     7
 10
5623.3752090000007
 20
-1285.453878
 30
0.0
  0
VERTEX
  5
916
  8
LAYER01
  6
CONTINUOUS
 62
     7
 10
5617.5943229999993
 20
-1282.563435
 30
0.0
  0
VERTEX
  5
917
  8
LAYER01
  6
CONTINUOUS
 62
     7
 10
5611.8134360000013
 20
-1280.636473
 30
0.0
  0
VERTEX
  5
918
  8
LAYER01
  6
CONTINUOUS
 62
     7
 10
5606.0325499999999
 20
-1279.672992
 30
0.0
  0
VERTEX
  5
919
  8
LAYER01
  6
CONTINUOUS
 62
     7
 10
5552.0776089999999
 20
-1279.672992
 30
0.0
  0
VERTEX
  5
91A
  8
LAYER01
  6
CONTINUOUS
 62
     7
 10
5552.0776089999999
 20
-1451.1726249999999
 30
0.0
  0
VERTEX
  5
91B
  8
LAYER01
  6
CONTINUOUS
 62
     7
 10
5482.7069709999996
 20
-1451.1726249999999
 30
0.0
  0
VERTEX
  5
91C
  8
LAYER01
  6
CONTINUOUS
 62
     7
 10
5453.8025379999999
 20
-1389.509836
 30
0.0
  0
VERTEX
  5
91D
  8
LAYER01
  6
CONTINUOUS
 62
     7
 10
5359.3813909999999
 20
-1389.509836
 30
0.0
  0
VERTEX
  5
91E
  8
LAYER01
  6
CONTINUOUS
 62
     7
 10
5359.3813909999999
 20
-1389.509836
 30
0.0
  0
SEQEND
  5
91F
  8
LAYER01
  6
CONTINUOUS
 62
     7
  0
POLYLINE
  5
23A
  8
LAYER01
  6
CONTINUOUS
 62
     7
 66
     1
 10
0.0
 20
0.0
 30
0.0
 70
     1
  0
VERTEX
  5
920
  8
LAYER01
  6
CONTINUOUS
 62
     7
 10
5921.0908659999996
 20
-1258.476408
 30
0.0
  0
VERTEX
  5
921
  8
LAYER01
  6
CONTINUOUS
 62
     7
 10
5895.0768760000001
 20
-1291.2347649999999
 30
0.0
  0
VERTEX
  5
922
  8
LAYER01
  6
CONTINUOUS
 62
     7
 10
5895.0768760000001
 20
-1291.2347649999999
 30
0.0
  0
VERTEX
  5
923
  8
LAYER01
  6
CONTINUOUS
 62
     7
 10
5886.405546
 20
-1285.453878
 30
0.0
  0
VERTEX
  5
924
  8
LAYER01
  6
CONTINUOUS
 62
     7
 10
5877.7342170000002
 20
-1280.636473
 30
0.0
  0
VERTEX
  5
925
  8
LAYER01
  6
CONTINUOUS
 62
     7
 10
5868.0994060000003
 20
-1277.7460289999999
 30
0.0
  0
VERTEX
  5
926
  8
LAYER01
  6
CONTINUOUS
 62
     7
 10
5857.5011139999997
 20
-1277.7460289999999
 30
0.0
  0
VERTEX
  5
927
  8
LAYER01
  6
CONTINUOUS
 62
     7
 10
5857.5011139999997
 20
-1277.7460289999999
 30
0.0
  0
VERTEX
  5
928
  8
LAYER01
  6
CONTINUOUS
 62
     7
 10
5850.756746
 20
-1277.7460289999999
 30
0.0
  0
VERTEX
  5
929
  8
LAYER01
  6
CONTINUOUS
 62
     7
 10
5844.0123789999998
 20
-1278.7095099999999
 30
0.0
  0
VERTEX
  5
92A
  8
LAYER01
  6
CONTINUOUS
 62
     7
 10
5837.2680110000001
 20
-1280.636473
 30
0.0
  0
VERTEX
  5
92B
  8
LAYER01
  6
CONTINUOUS
 62
     7
 10
5830.5236429999986
 20
-1283.526916
 30
0.0
  0
VERTEX
  5
92C
  8
LAYER01
  6
CONTINUOUS
 62
     7
 10
5824.742757
 20
-1286.417359
 30
0.0
  0
VERTEX
  5
92D
  8
LAYER01
  6
CONTINUOUS
 62
     7
 10
5819.9253509999999
 20
-1290.271283
 30
0.0
  0
VERTEX
  5
92E
  8
LAYER01
  6
CONTINUOUS
 62
     7
 10
5814.1444650000003
 20
-1294.1252079999999
 30
0.0
  0
VERTEX
  5
92F
  8
LAYER01
  6
CONTINUOUS
 62
     7
 10
5810.29054
 20
-1298.9426129999999
 30
0.0
  0
VERTEX
  5
930
  8
LAYER01
  6
CONTINUOUS
 62
     7
 10
5805.4731350000002
 20
-1304.7235000000001
 30
0.0
  0
VERTEX
  5
931
  8
LAYER01
  6
CONTINUOUS
 62
     7
 10
5802.582692
 20
-1310.5043860000001
 30
0.0
  0
VERTEX
  5
932
  8
LAYER01
  6
CONTINUOUS
 62
     7
 10
5798.7287669999996
 20
-1316.285273
 30
0.0
  0
VERTEX
  5
933
  8
LAYER01
  6
CONTINUOUS
 62
     7
 10
5795.8383240000003
 20
-1322.066159
 30
0.0
  0
VERTEX
  5
934
  8
LAYER01
  6
CONTINUOUS
 62
     7
 10
5793.9113619999998
 20
-1328.8105270000001
 30
0.0
  0
VERTEX
  5
935
  8
LAYER01
  6
CONTINUOUS
 62
     7
 10
5792.9478809999991
 20
-1335.554895
 30
0.0
  0
VERTEX
  5
936
  8
LAYER01
  6
CONTINUOUS
 62
     7
 10
5791.9844000000003
 20
-1342.299262
 30
0.0
  0
VERTEX
  5
937
  8
LAYER01
  6
CONTINUOUS
 62
     7
 10
5791.0209189999996
 20
-1350.0071109999999
 30
0.0
  0
VERTEX
  5
938
  8
LAYER01
  6
CONTINUOUS
 62
     7
 10
5791.0209189999996
 20
-1350.0071109999999
 30
0.0
  0
VERTEX
  5
939
  8
LAYER01
  6
CONTINUOUS
 62
     7
 10
5791.9844000000003
 20
-1356.751479
 30
0.0
  0
VERTEX
  5
93A
  8
LAYER01
  6
CONTINUOUS
 62
     7
 10
5792.9478809999991
 20
-1363.495846
 30
0.0
  0
VERTEX
  5
93B
  8
LAYER01
  6
CONTINUOUS
 62
     7
 10
5793.9113619999998
 20
-1370.2402139999999
 30
0.0
  0
VERTEX
  5
93C
  8
LAYER01
  6
CONTINUOUS
 62
     7
 10
5796.801805000001
 20
-1376.0210999999999
 30
0.0
  0
VERTEX
  5
93D
  8
LAYER01
  6
CONTINUOUS
 62
     7
 10
5798.7287669999996
 20
-1381.8019870000001
 30
0.0
  0
VERTEX
  5
93E
  8
LAYER01
  6
CONTINUOUS
 62
     7
 10
5802.582692
 20
-1387.5828730000001
 30
0.0
  0
VERTEX
  5
93F
  8
LAYER01
  6
CONTINUOUS
 62
     7
 10
5806.436616
 20
-1393.36376
 30
0.0
  0
VERTEX
  5
940
  8
LAYER01
  6
CONTINUOUS
 62
     7
 10
5810.29054
 20
-1398.181165
 30
0.0
  0
VERTEX
  5
941
  8
LAYER01
  6
CONTINUOUS
 62
     7
 10
5815.107946000001
 20
-1402.9985710000001
 30
0.0
  0
VERTEX
  5
942
  8
LAYER01
  6
CONTINUOUS
 62
     7
 10
5819.9253509999999
 20
-1406.8524950000001
 30
0.0
  0
VERTEX
  5
943
  8
LAYER01
  6
CONTINUOUS
 62
     7
 10
5825.7062380000007
 20
-1409.7429380000001
 30
0.0
  0
VERTEX
  5
944
  8
LAYER01
  6
CONTINUOUS
 62
     7
 10
5831.4871240000002
 20
-1412.633382
 30
0.0
  0
VERTEX
  5
945
  8
LAYER01
  6
CONTINUOUS
 62
     7
 10
5838.2314919999999
 20
-1415.523825
 30
0.0
  0
VERTEX
  5
946
  8
LAYER01
  6
CONTINUOUS
 62
     7
 10
5844.0123789999998
 20
-1417.450787
 30
0.0
  0
VERTEX
  5
947
  8
LAYER01
  6
CONTINUOUS
 62
     7
 10
5850.756746
 20
-1418.414268
 30
0.0
  0
VERTEX
  5
948
  8
LAYER01
  6
CONTINUOUS
 62
     7
 10
5858.4645950000004
 20
-1418.414268
 30
0.0
  0
VERTEX
  5
949
  8
LAYER01
  6
CONTINUOUS
 62
     7
 10
5858.4645950000004
 20
-1418.414268
 30
0.0
  0
VERTEX
  5
94A
  8
LAYER01
  6
CONTINUOUS
 62
     7
 10
5869.062887000001
 20
-1417.450787
 30
0.0
  0
VERTEX
  5
94B
  8
LAYER01
  6
CONTINUOUS
 62
     7
 10
5877.7342170000002
 20
-1415.523825
 30
0.0
  0
VERTEX
  5
94C
  8
LAYER01
  6
CONTINUOUS
 62
     7
 10
5886.405546
 20
-1410.7064190000001
 30
0.0
  0
VERTEX
  5
94D
  8
LAYER01
  6
CONTINUOUS
 62
     7
 10
5895.0768760000001
 20
-1404.9255330000001
 30
0.0
  0
VERTEX
  5
94E
  8
LAYER01
  6
CONTINUOUS
 62
     7
 10
5920.1273849999998
 20
-1438.647371
 30
0.0
  0
VERTEX
  5
94F
  8
LAYER01
  6
CONTINUOUS
 62
     7
 10
5920.1273849999998
 20
-1438.647371
 30
0.0
  0
VERTEX
  5
950
  8
LAYER01
  6
CONTINUOUS
 62
     7
 10
5905.6751679999998
 20
-1447.3187009999999
 30
0.0
  0
VERTEX
  5
951
  8
LAYER01
  6
CONTINUOUS
 62
     7
 10
5897.9673189999994
 20
-1450.2091439999999
 30
0.0
  0
VERTEX
  5
952
  8
LAYER01
  6
CONTINUOUS
 62
     7
 10
5891.2229520000001
 20
-1453.0995869999999
 30
0.0
  0
VERTEX
  5
953
  8
LAYER01
  6
CONTINUOUS
 62
     7
 10
5883.5151029999997
 20
-1455.02655
 30
0.0
  0
VERTEX
  5
954
  8
LAYER01
  6
CONTINUOUS
 62
     7
 10
5875.8072540000003
 20
-1455.990031
 30
0.0
  0
VERTEX
  5
955
  8
LAYER01
  6
CONTINUOUS
 62
     7
 10
5858.4645950000004
 20
-1456.953512
 30
0.0
  0
VERTEX
  5
956
  8
LAYER01
  6
CONTINUOUS
 62
     7
 10
5858.4645950000004
 20
-1456.953512
 30
0.0
  0
VERTEX
  5
957
  8
LAYER01
  6
CONTINUOUS
 62
     7
 10
5846.902822
 20
-1455.990031
 30
0.0
  0
VERTEX
  5
958
  8
LAYER01
  6
CONTINUOUS
 62
     7
 10
5836.3045299999994
 20
-1454.0630679999999
 30
0.0
  0
VERTEX
  5
959
  8
LAYER01
  6
CONTINUOUS
 62
     7
 10
5825.7062380000007
 20
-1452.1361059999999
 30
0.0
  0
VERTEX
  5
95A
  8
LAYER01
  6
CONTINUOUS
 62
     7
 10
5816.0714269999999
 20
-1448.2821819999999
 30
0.0
  0
VERTEX
  5
95B
  8
LAYER01
  6
CONTINUOUS
 62
     7
 10
5806.436616
 20
-1443.464776
 30
0.0
  0
VERTEX
  5
95C
  8
LAYER01
  6
CONTINUOUS
 62
     7
 10
5797.7652859999998
 20
-1438.647371
 30
0.0
  0
VERTEX
  5
95D
  8
LAYER01
  6
CONTINUOUS
 62
     7
 10
5789.093957
 20
-1431.9030029999999
 30
0.0
  0
VERTEX
  5
95E
  8
LAYER01
  6
CONTINUOUS
 62
     7
 10
5781.3861079999988
 20
-1425.1586359999999
 30
0.0
  0
VERTEX
  5
95F
  8
LAYER01
  6
CONTINUOUS
 62
     7
 10
5773.6782590000003
 20
-1417.450787
 30
0.0
  0
VERTEX
  5
960
  8
LAYER01
  6
CONTINUOUS
 62
     7
 10
5767.8973729999998
 20
-1408.7794570000001
 30
0.0
  0
VERTEX
  5
961
  8
LAYER01
  6
CONTINUOUS
 62
     7
 10
5762.1164859999999
 20
-1400.1081280000001
 30
0.0
  0
VERTEX
  5
962
  8
LAYER01
  6
CONTINUOUS
 62
     7
 10
5757.2990810000001
 20
-1390.473317
 30
0.0
  0
VERTEX
  5
963
  8
LAYER01
  6
CONTINUOUS
 62
     7
 10
5754.4086370000005
 20
-1380.8385060000001
 30
0.0
  0
VERTEX
  5
964
  8
LAYER01
  6
CONTINUOUS
 62
     7
 10
5751.5181939999993
 20
-1370.2402139999999
 30
0.0
  0
VERTEX
  5
965
  8
LAYER01
  6
CONTINUOUS
 62
     7
 10
5749.5912319999998
 20
-1359.641922
 30
0.0
  0
VERTEX
  5
966
  8
LAYER01
  6
CONTINUOUS
 62
     7
 10
5748.627751
 20
-1348.0801489999999
 30
0.0
  0
VERTEX
  5
967
  8
LAYER01
  6
CONTINUOUS
 62
     7
 10
5748.627751
 20
-1348.0801489999999
 30
0.0
  0
VERTEX
  5
968
  8
LAYER01
  6
CONTINUOUS
 62
     7
 10
5749.5912319999998
 20
-1337.481857
 30
0.0
  0
VERTEX
  5
969
  8
LAYER01
  6
CONTINUOUS
 62
     7
 10
5751.5181939999993
 20
-1325.9200840000001
 30
0.0
  0
VERTEX
  5
96A
  8
LAYER01
  6
CONTINUOUS
 62
     7
 10
5753.4451560000007
 20
-1316.285273
 30
0.0
  0
VERTEX
  5
96B
  8
LAYER01
  6
CONTINUOUS
 62
     7
 10
5757.2990810000001
 20
-1305.6869810000001
 30
0.0
  0
VERTEX
  5
96C
  8
LAYER01
  6
CONTINUOUS
 62
     7
 10
5762.1164859999999
 20
-1296.0521699999999
 30
0.0
  0
VERTEX
  5
96D
  8
LAYER01
  6
CONTINUOUS
 62
     7
 10
5766.9338909999997
 20
-1287.38084
 30
0.0
  0
VERTEX
  5
96E
  8
LAYER01
  6
CONTINUOUS
 62
     7
 10
5773.6782590000003
 20
-1278.7095099999999
 30
0.0
  0
VERTEX
  5
96F
  8
LAYER01
  6
CONTINUOUS
 62
     7
 10
5780.4226269999999
 20
-1271.0016619999999
 30
0.0
  0
VERTEX
  5
970
  8
LAYER01
  6
CONTINUOUS
 62
     7
 10
5788.130474999999
 20
-1264.257294
 30
0.0
  0
VERTEX
  5
971
  8
LAYER01
  6
CONTINUOUS
 62
     7
 10
5796.801805000001
 20
-1257.5129260000001
 30
0.0
  0
VERTEX
  5
972
  8
LAYER01
  6
CONTINUOUS
 62
     7
 10
5805.4731350000002
 20
-1252.6955210000001
 30
0.0
  0
VERTEX
  5
973
  8
LAYER01
  6
CONTINUOUS
 62
     7
 10
5815.107946000001
 20
-1247.8781160000001
 30
0.0
  0
VERTEX
  5
974
  8
LAYER01
  6
CONTINUOUS
 62
     7
 10
5824.742757
 20
-1244.024191
 30
0.0
  0
VERTEX
  5
975
  8
LAYER01
  6
CONTINUOUS
 62
     7
 10
5835.3410490000006
 20
-1241.133748
 30
0.0
  0
VERTEX
  5
976
  8
LAYER01
  6
CONTINUOUS
 62
     7
 10
5846.902822
 20
-1240.170267
 30
0.0
  0
VERTEX
  5
977
  8
LAYER01
  6
CONTINUOUS
 62
     7
 10
5857.5011139999997
 20
-1239.206786
 30
0.0
  0
VERTEX
  5
978
  8
LAYER01
  6
CONTINUOUS
 62
     7
 10
5857.5011139999997
 20
-1239.206786
 30
0.0
  0
VERTEX
  5
979
  8
LAYER01
  6
CONTINUOUS
 62
     7
 10
5874.8437729999996
 20
-1240.170267
 30
0.0
  0
VERTEX
  5
97A
  8
LAYER01
  6
CONTINUOUS
 62
     7
 10
5883.5151029999997
 20
-1241.133748
 30
0.0
  0
VERTEX
  5
97B
  8
LAYER01
  6
CONTINUOUS
 62
     7
 10
5891.2229520000001
 20
-1243.06071
 30
0.0
  0
VERTEX
  5
97C
  8
LAYER01
  6
CONTINUOUS
 62
     7
 10
5897.9673189999994
 20
-1245.951153
 30
0.0
  0
VERTEX
  5
97D
  8
LAYER01
  6
CONTINUOUS
 62
     7
 10
5905.6751679999998
 20
-1248.8415970000001
 30
0.0
  0
VERTEX
  5
97E
  8
LAYER01
  6
CONTINUOUS
 62
     7
 10
5913.383017000001
 20
-1253.6590020000001
 30
0.0
  0
VERTEX
  5
97F
  8
LAYER01
  6
CONTINUOUS
 62
     7
 10
5921.0908659999996
 20
-1258.476408
 30
0.0
  0
VERTEX
  5
980
  8
LAYER01
  6
CONTINUOUS
 62
     7
 10
5921.0908659999996
 20
-1258.476408
 30
0.0
  0
SEQEND
  5
981
  8
LAYER01
  6
CONTINUOUS
 62
     7
  0
POLYLINE
  5
29D
  8
LAYER01
  6
CONTINUOUS
 62
     7
 66
     1
 10
0.0
 20
0.0
 30
0.0
 70
     1
  0
VERTEX
  5
982
  8
LAYER01
  6
CONTINUOUS
 62
     7
 10
6014.5485310000004
 20
-1240.170267
 30
0.0
  0
VERTEX
  5
983
  8
LAYER01
  6
CONTINUOUS
 62
     7
 10
6014.5485310000004
 20
-1240.170267
 30
0.0
  0
VERTEX
  5
984
  8
LAYER01
  6
CONTINUOUS
 62
     7
 10
6003.9502389999989
 20
-1241.133748
 30
0.0
  0
VERTEX
  5
985
  8
LAYER01
  6
CONTINUOUS
 62
     7
 10
5992.3884660000003
 20
-1242.097229
 30
0.0
  0
VERTEX
  5
986
  8
LAYER01
  6
CONTINUOUS
 62
     7
 10
5982.7536549999986
 20
-1244.987672
 30
0.0
  0
VERTEX
  5
987
  8
LAYER01
  6
CONTINUOUS
 62
     7
 10
5972.1553629999999
 20
-1248.8415970000001
 30
0.0
  0
VERTEX
  5
988
  8
LAYER01
  6
CONTINUOUS
 62
     7
 10
5962.520552
 20
-1252.6955210000001
 30
0.0
  0
VERTEX
  5
989
  8
LAYER01
  6
CONTINUOUS
 62
     7
 10
5953.8492229999993
 20
-1258.476408
 30
0.0
  0
VERTEX
  5
98A
  8
LAYER01
  6
CONTINUOUS
 62
     7
 10
5945.177893
 20
-1264.257294
 30
0.0
  0
VERTEX
  5
98B
  8
LAYER01
  6
CONTINUOUS
 62
     7
 10
5937.4700439999997
 20
-1271.9651429999999
 30
0.0
  0
VERTEX
  5
98C
  8
LAYER01
  6
CONTINUOUS
 62
     7
 10
5930.725676
 20
-1279.672992
 30
0.0
  0
VERTEX
  5
98D
  8
LAYER01
  6
CONTINUOUS
 62
     7
 10
5923.9813090000007
 20
-1287.38084
 30
0.0
  0
VERTEX
  5
98E
  8
LAYER01
  6
CONTINUOUS
 62
     7
 10
5918.2004219999999
 20
-1296.0521699999999
 30
0.0
  0
VERTEX
  5
98F
  8
LAYER01
  6
CONTINUOUS
 62
     7
 10
5913.383017000001
 20
-1305.6869810000001
 30
0.0
  0
VERTEX
  5
990
  8
LAYER01
  6
CONTINUOUS
 62
     7
 10
5910.4925739999999
 20
-1316.285273
 30
0.0
  0
VERTEX
  5
991
  8
LAYER01
  6
CONTINUOUS
 62
     7
 10
5907.6021299999993
 20
-1325.9200840000001
 30
0.0
  0
VERTEX
  5
992
  8
LAYER01
  6
CONTINUOUS
 62
     7
 10
5905.6751679999998
 20
-1337.481857
 30
0.0
  0
VERTEX
  5
993
  8
LAYER01
  6
CONTINUOUS
 62
     7
 10
5904.711687
 20
-1348.0801489999999
 30
0.0
  0
VERTEX
  5
994
  8
LAYER01
  6
CONTINUOUS
 62
     7
 10
5904.711687
 20
-1348.0801489999999
 30
0.0
  0
VERTEX
  5
995
  8
LAYER01
  6
CONTINUOUS
 62
     7
 10
5905.6751679999998
 20
-1359.641922
 30
0.0
  0
VERTEX
  5
996
  8
LAYER01
  6
CONTINUOUS
 62
     7
 10
5906.6386490000014
 20
-1370.2402139999999
 30
0.0
  0
VERTEX
  5
997
  8
LAYER01
  6
CONTINUOUS
 62
     7
 10
5909.5290930000001
 20
-1380.8385060000001
 30
0.0
  0
VERTEX
  5
998
  8
LAYER01
  6
CONTINUOUS
 62
     7
 10
5913.383017000001
 20
-1390.473317
 30
0.0
  0
VERTEX
  5
999
  8
LAYER01
  6
CONTINUOUS
 62
     7
 10
5917.2369409999992
 20
-1400.1081280000001
 30
0.0
  0
VERTEX
  5
99A
  8
LAYER01
  6
CONTINUOUS
 62
     7
 10
5923.017828
 20
-1408.7794570000001
 30
0.0
  0
VERTEX
  5
99B
  8
LAYER01
  6
CONTINUOUS
 62
     7
 10
5928.7987139999996
 20
-1417.450787
 30
0.0
  0
VERTEX
  5
99C
  8
LAYER01
  6
CONTINUOUS
 62
     7
 10
5935.5430820000001
 20
-1425.1586359999999
 30
0.0
  0
VERTEX
  5
99D
  8
LAYER01
  6
CONTINUOUS
 62
     7
 10
5943.2509310000014
 20
-1432.866485
 30
0.0
  0
VERTEX
  5
99E
  8
LAYER01
  6
CONTINUOUS
 62
     7
 10
5951.9222600000003
 20
-1438.647371
 30
0.0
  0
VERTEX
  5
99F
  8
LAYER01
  6
CONTINUOUS
 62
     7
 10
5960.5935900000004
 20
-1444.4282579999999
 30
0.0
  0
VERTEX
  5
9A0
  8
LAYER01
  6
CONTINUOUS
 62
     7
 10
5970.2284009999994
 20
-1449.2456629999999
 30
0.0
  0
VERTEX
  5
9A1
  8
LAYER01
  6
CONTINUOUS
 62
     7
 10
5979.8632119999993
 20
-1453.0995869999999
 30
0.0
  0
VERTEX
  5
9A2
  8
LAYER01
  6
CONTINUOUS
 62
     7
 10
5990.4615039999999
 20
-1455.02655
 30
0.0
  0
VERTEX
  5
9A3
  8
LAYER01
  6
CONTINUOUS
 62
     7
 10
6001.0597959999996
 20
-1456.953512
 30
0.0
  0
VERTEX
  5
9A4
  8
LAYER01
  6
CONTINUOUS
 62
     7
 10
6011.6580880000001
 20
-1457.916993
 30
0.0
  0
VERTEX
  5
9A5
  8
LAYER01
  6
CONTINUOUS
 62
     7
 10
6011.6580880000001
 20
-1457.916993
 30
0.0
  0
VERTEX
  5
9A6
  8
LAYER01
  6
CONTINUOUS
 62
     7
 10
6023.2198609999996
 20
-1456.953512
 30
0.0
  0
VERTEX
  5
9A7
  8
LAYER01
  6
CONTINUOUS
 62
     7
 10
6033.8181530000002
 20
-1455.02655
 30
0.0
  0
VERTEX
  5
9A8
  8
LAYER01
  6
CONTINUOUS
 62
     7
 10
6044.4164450000007
 20
-1452.1361059999999
 30
0.0
  0
VERTEX
  5
9A9
  8
LAYER01
  6
CONTINUOUS
 62
     7
 10
6054.0512560000006
 20
-1448.2821819999999
 30
0.0
  0
VERTEX
  5
9AA
  8
LAYER01
  6
CONTINUOUS
 62
     7
 10
6063.6860669999996
 20
-1443.464776
 30
0.0
  0
VERTEX
  5
9AB
  8
LAYER01
  6
CONTINUOUS
 62
     7
 10
6072.3573960000012
 20
-1437.68389
 30
0.0
  0
VERTEX
  5
9AC
  8
LAYER01
  6
CONTINUOUS
 62
     7
 10
6081.0287259999986
 20
-1431.9030029999999
 30
0.0
  0
VERTEX
  5
9AD
  8
LAYER01
  6
CONTINUOUS
 62
     7
 10
6088.7365749999999
 20
-1424.1951550000001
 30
0.0
  0
VERTEX
  5
9AE
  8
LAYER01
  6
CONTINUOUS
 62
     7
 10
6095.4809429999996
 20
-1416.487306
 30
0.0
  0
VERTEX
  5
9AF
  8
LAYER01
  6
CONTINUOUS
 62
     7
 10
6101.261829
 20
-1407.8159760000001
 30
0.0
  0
VERTEX
  5
9B0
  8
LAYER01
  6
CONTINUOUS
 62
     7
 10
6106.0792350000002
 20
-1399.144646
 30
0.0
  0
VERTEX
  5
9B1
  8
LAYER01
  6
CONTINUOUS
 62
     7
 10
6110.896639999999
 20
-1389.509836
 30
0.0
  0
VERTEX
  5
9B2
  8
LAYER01
  6
CONTINUOUS
 62
     7
 10
6114.7505639999999
 20
-1378.911544
 30
0.0
  0
VERTEX
  5
9B3
  8
LAYER01
  6
CONTINUOUS
 62
     7
 10
6116.6775260000004
 20
-1368.3132519999999
 30
0.0
  0
VERTEX
  5
9B4
  8
LAYER01
  6
CONTINUOUS
 62
     7
 10
6117.6410079999987
 20
-1357.71496
 30
0.0
  0
VERTEX
  5
9B5
  8
LAYER01
  6
CONTINUOUS
 62
     7
 10
6118.6044890000003
 20
-1346.1531869999999
 30
0.0
  0
VERTEX
  5
9B6
  8
LAYER01
  6
CONTINUOUS
 62
     7
 10
6118.6044890000003
 20
-1346.1531869999999
 30
0.0
  0
VERTEX
  5
9B7
  8
LAYER01
  6
CONTINUOUS
 62
     7
 10
6117.6410079999987
 20
-1335.554895
 30
0.0
  0
VERTEX
  5
9B8
  8
LAYER01
  6
CONTINUOUS
 62
     7
 10
6115.7140449999997
 20
-1324.9566030000001
 30
0.0
  0
VERTEX
  5
9B9
  8
LAYER01
  6
CONTINUOUS
 62
     7
 10
6112.8236020000004
 20
-1315.321792
 30
0.0
  0
VERTEX
  5
9BA
  8
LAYER01
  6
CONTINUOUS
 62
     7
 10
6109.9331590000002
 20
-1305.6869810000001
 30
0.0
  0
VERTEX
  5
9BB
  8
LAYER01
  6
CONTINUOUS
 62
     7
 10
6105.115753
 20
-1297.0156509999999
 30
0.0
  0
VERTEX
  5
9BC
  8
LAYER01
  6
CONTINUOUS
 62
     7
 10
6100.2983479999994
 20
-1288.344321
 30
0.0
  0
VERTEX
  5
9BD
  8
LAYER01
  6
CONTINUOUS
 62
     7
 10
6094.5174610000004
 20
-1279.672992
 30
0.0
  0
VERTEX
  5
9BE
  8
LAYER01
  6
CONTINUOUS
 62
     7
 10
6087.7730940000001
 20
-1272.9286239999999
 30
0.0
  0
VERTEX
  5
9BF
  8
LAYER01
  6
CONTINUOUS
 62
     7
 10
6080.0652450000007
 20
-1266.184256
 30
0.0
  0
VERTEX
  5
9C0
  8
LAYER01
  6
CONTINUOUS
 62
     7
 10
6072.3573960000012
 20
-1259.439889
 30
0.0
  0
VERTEX
  5
9C1
  8
LAYER01
  6
CONTINUOUS
 62
     7
 10
6063.6860669999996
 20
-1254.6224830000001
 30
0.0
  0
VERTEX
  5
9C2
  8
LAYER01
  6
CONTINUOUS
 62
     7
 10
6055.0147370000004
 20
-1249.8050780000001
 30
0.0
  0
VERTEX
  5
9C3
  8
LAYER01
  6
CONTINUOUS
 62
     7
 10
6045.3799259999987
 20
-1245.951153
 30
0.0
  0
VERTEX
  5
9C4
  8
LAYER01
  6
CONTINUOUS
 62
     7
 10
6035.7451149999997
 20
-1243.06071
 30
0.0
  0
VERTEX
  5
9C5
  8
LAYER01
  6
CONTINUOUS
 62
     7
 10
6025.146823
 20
-1241.133748
 30
0.0
  0
VERTEX
  5
9C6
  8
LAYER01
  6
CONTINUOUS
 62
     7
 10
6014.5485310000004
 20
-1240.170267
 30
0.0
  0
VERTEX
  5
9C7
  8
LAYER01
  6
CONTINUOUS
 62
     7
 10
6014.5485310000004
 20
-1240.170267
 30
0.0
  0
SEQEND
  5
9C8
  8
LAYER01
  6
CONTINUOUS
 62
     7
  0
POLYLINE
  5
2E5
  8
LAYER01
  6
CONTINUOUS
 62
     7
 66
     1
 10
0.0
 20
0.0
 30
0.0
 70
     1
  0
VERTEX
  5
9C9
  8
LAYER01
  6
CONTINUOUS
 62
     7
 10
6011.6580880000001
 20
-1418.414268
 30
0.0
  0
VERTEX
  5
9CA
  8
LAYER01
  6
CONTINUOUS
 62
     7
 10
6011.6580880000001
 20
-1418.414268
 30
0.0
  0
VERTEX
  5
9CB
  8
LAYER01
  6
CONTINUOUS
 62
     7
 10
6004.9137200000014
 20
-1417.450787
 30
0.0
  0
VERTEX
  5
9CC
  8
LAYER01
  6
CONTINUOUS
 62
     7
 10
5998.1693530000002
 20
-1416.487306
 30
0.0
  0
VERTEX
  5
9CD
  8
LAYER01
  6
CONTINUOUS
 62
     7
 10
5991.4249849999997
 20
-1415.523825
 30
0.0
  0
VERTEX
  5
9CE
  8
LAYER01
  6
CONTINUOUS
 62
     7
 10
5984.680617
 20
-1412.633382
 30
0.0
  0
VERTEX
  5
9CF
  8
LAYER01
  6
CONTINUOUS
 62
     7
 10
5978.8997310000013
 20
-1409.7429380000001
 30
0.0
  0
VERTEX
  5
9D0
  8
LAYER01
  6
CONTINUOUS
 62
     7
 10
5973.1188439999996
 20
-1405.8890140000001
 30
0.0
  0
VERTEX
  5
9D1
  8
LAYER01
  6
CONTINUOUS
 62
     7
 10
5968.3014389999998
 20
-1402.0350900000001
 30
0.0
  0
VERTEX
  5
9D2
  8
LAYER01
  6
CONTINUOUS
 62
     7
 10
5963.4840329999997
 20
-1397.217684
 30
0.0
  0
VERTEX
  5
9D3
  8
LAYER01
  6
CONTINUOUS
 62
     7
 10
5958.6666279999999
 20
-1392.400279
 30
0.0
  0
VERTEX
  5
9D4
  8
LAYER01
  6
CONTINUOUS
 62
     7
 10
5954.8127039999999
 20
-1387.5828730000001
 30
0.0
  0
VERTEX
  5
9D5
  8
LAYER01
  6
CONTINUOUS
 62
     7
 10
5951.9222600000003
 20
-1381.8019870000001
 30
0.0
  0
VERTEX
  5
9D6
  8
LAYER01
  6
CONTINUOUS
 62
     7
 10
5949.031817
 20
-1375.0576189999999
 30
0.0
  0
VERTEX
  5
9D7
  8
LAYER01
  6
CONTINUOUS
 62
     7
 10
5946.1413739999989
 20
-1369.2767329999999
 30
0.0
  0
VERTEX
  5
9D8
  8
LAYER01
  6
CONTINUOUS
 62
     7
 10
5945.177893
 20
-1362.532365
 30
0.0
  0
VERTEX
  5
9D9
  8
LAYER01
  6
CONTINUOUS
 62
     7
 10
5943.2509310000014
 20
-1355.7879969999999
 30
0.0
  0
VERTEX
  5
9DA
  8
LAYER01
  6
CONTINUOUS
 62
     7
 10
5943.2509310000014
 20
-1348.0801489999999
 30
0.0
  0
VERTEX
  5
9DB
  8
LAYER01
  6
CONTINUOUS
 62
     7
 10
5943.2509310000014
 20
-1348.0801489999999
 30
0.0
  0
VERTEX
  5
9DC
  8
LAYER01
  6
CONTINUOUS
 62
     7
 10
5944.2144120000003
 20
-1341.335781
 30
0.0
  0
VERTEX
  5
9DD
  8
LAYER01
  6
CONTINUOUS
 62
     7
 10
5945.177893
 20
-1334.591414
 30
0.0
  0
VERTEX
  5
9DE
  8
LAYER01
  6
CONTINUOUS
 62
     7
 10
5947.1048549999996
 20
-1327.8470460000001
 30
0.0
  0
VERTEX
  5
9DF
  8
LAYER01
  6
CONTINUOUS
 62
     7
 10
5949.031817
 20
-1321.102678
 30
0.0
  0
VERTEX
  5
9E0
  8
LAYER01
  6
CONTINUOUS
 62
     7
 10
5951.9222600000003
 20
-1315.321792
 30
0.0
  0
VERTEX
  5
9E1
  8
LAYER01
  6
CONTINUOUS
 62
     7
 10
5955.7761849999997
 20
-1309.5409050000001
 30
0.0
  0
VERTEX
  5
9E2
  8
LAYER01
  6
CONTINUOUS
 62
     7
 10
5959.6301089999997
 20
-1304.7235000000001
 30
0.0
  0
VERTEX
  5
9E3
  8
LAYER01
  6
CONTINUOUS
 62
     7
 10
5964.4475149999989
 20
-1299.9060939999999
 30
0.0
  0
VERTEX
  5
9E4
  8
LAYER01
  6
CONTINUOUS
 62
     7
 10
5969.2649199999996
 20
-1295.0886889999999
 30
0.0
  0
VERTEX
  5
9E5
  8
LAYER01
  6
CONTINUOUS
 62
     7
 10
5974.0823250000012
 20
-1291.2347649999999
 30
0.0
  0
VERTEX
  5
9E6
  8
LAYER01
  6
CONTINUOUS
 62
     7
 10
5979.8632119999993
 20
-1287.38084
 30
0.0
  0
VERTEX
  5
9E7
  8
LAYER01
  6
CONTINUOUS
 62
     7
 10
5986.6075799999999
 20
-1284.490397
 30
0.0
  0
VERTEX
  5
9E8
  8
LAYER01
  6
CONTINUOUS
 62
     7
 10
5992.3884660000003
 20
-1282.563435
 30
0.0
  0
VERTEX
  5
9E9
  8
LAYER01
  6
CONTINUOUS
 62
     7
 10
5999.132834
 20
-1280.636473
 30
0.0
  0
VERTEX
  5
9EA
  8
LAYER01
  6
CONTINUOUS
 62
     7
 10
6005.8772010000002
 20
-1279.672992
 30
0.0
  0
VERTEX
  5
9EB
  8
LAYER01
  6
CONTINUOUS
 62
     7
 10
6013.5850499999988
 20
-1279.672992
 30
0.0
  0
VERTEX
  5
9EC
  8
LAYER01
  6
CONTINUOUS
 62
     7
 10
6013.5850499999988
 20
-1279.672992
 30
0.0
  0
VERTEX
  5
9ED
  8
LAYER01
  6
CONTINUOUS
 62
     7
 10
6020.3294180000003
 20
-1280.636473
 30
0.0
  0
VERTEX
  5
9EE
  8
LAYER01
  6
CONTINUOUS
 62
     7
 10
6027.0737849999996
 20
-1281.599954
 30
0.0
  0
VERTEX
  5
9EF
  8
LAYER01
  6
CONTINUOUS
 62
     7
 10
6032.8546720000004
 20
-1283.526916
 30
0.0
  0
VERTEX
  5
9F0
  8
LAYER01
  6
CONTINUOUS
 62
     7
 10
6039.5990389999997
 20
-1285.453878
 30
0.0
  0
VERTEX
  5
9F1
  8
LAYER01
  6
CONTINUOUS
 62
     7
 10
6044.4164450000007
 20
-1288.344321
 30
0.0
  0
VERTEX
  5
9F2
  8
LAYER01
  6
CONTINUOUS
 62
     7
 10
6050.1973310000003
 20
-1292.1982459999999
 30
0.0
  0
VERTEX
  5
9F3
  8
LAYER01
  6
CONTINUOUS
 62
     7
 10
6055.0147370000004
 20
-1296.0521699999999
 30
0.0
  0
VERTEX
  5
9F4
  8
LAYER01
  6
CONTINUOUS
 62
     7
 10
6059.8321420000011
 20
-1299.9060939999999
 30
0.0
  0
VERTEX
  5
9F5
  8
LAYER01
  6
CONTINUOUS
 62
     7
 10
6063.6860669999996
 20
-1304.7235000000001
 30
0.0
  0
VERTEX
  5
9F6
  8
LAYER01
  6
CONTINUOUS
 62
     7
 10
6067.5399909999996
 20
-1310.5043860000001
 30
0.0
  0
VERTEX
  5
9F7
  8
LAYER01
  6
CONTINUOUS
 62
     7
 10
6071.3939149999987
 20
-1315.321792
 30
0.0
  0
VERTEX
  5
9F8
  8
LAYER01
  6
CONTINUOUS
 62
     7
 10
6074.2843590000002
 20
-1321.102678
 30
0.0
  0
VERTEX
  5
9F9
  8
LAYER01
  6
CONTINUOUS
 62
     7
 10
6076.2113209999989
 20
-1327.8470460000001
 30
0.0
  0
VERTEX
  5
9FA
  8
LAYER01
  6
CONTINUOUS
 62
     7
 10
6078.1382830000011
 20
-1333.6279320000001
 30
0.0
  0
VERTEX
  5
9FB
  8
LAYER01
  6
CONTINUOUS
 62
     7
 10
6079.101764
 20
-1340.3723
 30
0.0
  0
VERTEX
  5
9FC
  8
LAYER01
  6
CONTINUOUS
 62
     7
 10
6079.101764
 20
-1347.1166679999999
 30
0.0
  0
VERTEX
  5
9FD
  8
LAYER01
  6
CONTINUOUS
 62
     7
 10
6079.101764
 20
-1347.1166679999999
 30
0.0
  0
VERTEX
  5
9FE
  8
LAYER01
  6
CONTINUOUS
 62
     7
 10
6079.101764
 20
-1354.8245159999999
 30
0.0
  0
VERTEX
  5
9FF
  8
LAYER01
  6
CONTINUOUS
 62
     7
 10
6078.1382830000011
 20
-1361.568884
 30
0.0
  0
VERTEX
  5
A00
  8
LAYER01
  6
CONTINUOUS
 62
     7
 10
6077.1748020000005
 20
-1368.3132519999999
 30
0.0
  0
VERTEX
  5
A01
  8
LAYER01
  6
CONTINUOUS
 62
     7
 10
6074.2843590000002
 20
-1374.0941379999999
 30
0.0
  0
VERTEX
  5
A02
  8
LAYER01
  6
CONTINUOUS
 62
     7
 10
6072.3573960000012
 20
-1380.8385060000001
 30
0.0
  0
VERTEX
  5
A03
  8
LAYER01
  6
CONTINUOUS
 62
     7
 10
6068.5034720000003
 20
-1386.6193920000001
 30
0.0
  0
VERTEX
  5
A04
  8
LAYER01
  6
CONTINUOUS
 62
     7
 10
6064.6495480000003
 20
-1392.400279
 30
0.0
  0
VERTEX
  5
A05
  8
LAYER01
  6
CONTINUOUS
 62
     7
 10
6059.8321420000011
 20
-1397.217684
 30
0.0
  0
VERTEX
  5
A06
  8
LAYER01
  6
CONTINUOUS
 62
     7
 10
6055.0147370000004
 20
-1402.0350900000001
 30
0.0
  0
VERTEX
  5
A07
  8
LAYER01
  6
CONTINUOUS
 62
     7
 10
6050.1973310000003
 20
-1405.8890140000001
 30
0.0
  0
VERTEX
  5
A08
  8
LAYER01
  6
CONTINUOUS
 62
     7
 10
6044.4164450000007
 20
-1409.7429380000001
 30
0.0
  0
VERTEX
  5
A09
  8
LAYER01
  6
CONTINUOUS
 62
     7
 10
6038.6355579999999
 20
-1412.633382
 30
0.0
  0
VERTEX
  5
A0A
  8
LAYER01
  6
CONTINUOUS
 62
     7
 10
6031.8911909999988
 20
-1414.560344
 30
0.0
  0
VERTEX
  5
A0B
  8
LAYER01
  6
CONTINUOUS
 62
     7
 10
6025.146823
 20
-1416.487306
 30
0.0
  0
VERTEX
  5
A0C
  8
LAYER01
  6
CONTINUOUS
 62
     7
 10
6018.4024550000004
 20
-1417.450787
 30
0.0
  0
VERTEX
  5
A0D
  8
LAYER01
  6
CONTINUOUS
 62
     7
 10
6011.6580880000001
 20
-1418.414268
 30
0.0
  0
VERTEX
  5
A0E
  8
LAYER01
  6
CONTINUOUS
 62
     7
 10
6011.6580880000001
 20
-1418.414268
 30
0.0
  0
SEQEND
  5
A0F
  8
LAYER01
  6
CONTINUOUS
 62
     7
  0
POLYLINE
  5
32D
  8
LAYER01
  6
CONTINUOUS
 62
     7
 66
     1
 10
0.0
 20
0.0
 30
0.0
 70
     1
  0
VERTEX
  5
A10
  8
LAYER01
  6
CONTINUOUS
 62
     7
 10
6088.7365749999999
 20
-1244.987672
 30
0.0
  0
VERTEX
  5
A11
  8
LAYER01
  6
CONTINUOUS
 62
     7
 10
6190.8655699999999
 20
-1244.987672
 30
0.0
  0
VERTEX
  5
A12
  8
LAYER01
  6
CONTINUOUS
 62
     7
 10
6190.8655699999999
 20
-1244.987672
 30
0.0
  0
VERTEX
  5
A13
  8
LAYER01
  6
CONTINUOUS
 62
     7
 10
6202.4273430000003
 20
-1246.9146350000001
 30
0.0
  0
VERTEX
  5
A14
  8
LAYER01
  6
CONTINUOUS
 62
     7
 10
6213.0256350000009
 20
-1251.7320400000001
 30
0.0
  0
VERTEX
  5
A15
  8
LAYER01
  6
CONTINUOUS
 62
     7
 10
6221.6969650000001
 20
-1257.5129260000001
 30
0.0
  0
VERTEX
  5
A16
  8
LAYER01
  6
CONTINUOUS
 62
     7
 10
6229.4048140000014
 20
-1265.220775
 30
0.0
  0
VERTEX
  5
A17
  8
LAYER01
  6
CONTINUOUS
 62
     7
 10
6236.1491810000007
 20
-1272.9286239999999
 30
0.0
  0
VERTEX
  5
A18
  8
LAYER01
  6
CONTINUOUS
 62
     7
 10
6240.966586999999
 20
-1282.563435
 30
0.0
  0
VERTEX
  5
A19
  8
LAYER01
  6
CONTINUOUS
 62
     7
 10
6243.8570300000001
 20
-1294.1252079999999
 30
0.0
  0
VERTEX
  5
A1A
  8
LAYER01
  6
CONTINUOUS
 62
     7
 10
6244.8205109999999
 20
-1304.7235000000001
 30
0.0
  0
VERTEX
  5
A1B
  8
LAYER01
  6
CONTINUOUS
 62
     7
 10
6244.8205109999999
 20
-1304.7235000000001
 30
0.0
  0
VERTEX
  5
A1C
  8
LAYER01
  6
CONTINUOUS
 62
     7
 10
6243.8570300000001
 20
-1316.285273
 30
0.0
  0
VERTEX
  5
A1D
  8
LAYER01
  6
CONTINUOUS
 62
     7
 10
6241.9300679999997
 20
-1325.9200840000001
 30
0.0
  0
VERTEX
  5
A1E
  8
LAYER01
  6
CONTINUOUS
 62
     7
 10
6238.0761439999997
 20
-1335.554895
 30
0.0
  0
VERTEX
  5
A1F
  8
LAYER01
  6
CONTINUOUS
 62
     7
 10
6233.2587380000004
 20
-1344.226224
 30
0.0
  0
VERTEX
  5
A20
  8
LAYER01
  6
CONTINUOUS
 62
     7
 10
6226.5143710000002
 20
-1351.9340729999999
 30
0.0
  0
VERTEX
  5
A21
  8
LAYER01
  6
CONTINUOUS
 62
     7
 10
6219.7700029999996
 20
-1357.71496
 30
0.0
  0
VERTEX
  5
A22
  8
LAYER01
  6
CONTINUOUS
 62
     7
 10
6210.1351919999997
 20
-1363.495846
 30
0.0
  0
VERTEX
  5
A23
  8
LAYER01
  6
CONTINUOUS
 62
     7
 10
6200.5003809999998
 20
-1367.3497709999999
 30
0.0
  0
VERTEX
  5
A24
  8
LAYER01
  6
CONTINUOUS
 62
     7
 10
6263.1266519999999
 20
-1451.1726249999999
 30
0.0
  0
VERTEX
  5
A25
  8
LAYER01
  6
CONTINUOUS
 62
     7
 10
6214.9525969999986
 20
-1451.1726249999999
 30
0.0
  0
VERTEX
  5
A26
  8
LAYER01
  6
CONTINUOUS
 62
     7
 10
6131.1297430000004
 20
-1344.226224
 30
0.0
  0
VERTEX
  5
A27
  8
LAYER01
  6
CONTINUOUS
 62
     7
 10
6178.3403159999989
 20
-1344.226224
 30
0.0
  0
VERTEX
  5
A28
  8
LAYER01
  6
CONTINUOUS
 62
     7
 10
6178.3403159999989
 20
-1344.226224
 30
0.0
  0
VERTEX
  5
A29
  8
LAYER01
  6
CONTINUOUS
 62
     7
 10
6184.1212029999997
 20
-1342.299262
 30
0.0
  0
VERTEX
  5
A2A
  8
LAYER01
  6
CONTINUOUS
 62
     7
 10
6188.9386079999986
 20
-1340.3723
 30
0.0
  0
VERTEX
  5
A2B
  8
LAYER01
  6
CONTINUOUS
 62
     7
 10
6192.7925320000013
 20
-1336.518376
 30
0.0
  0
VERTEX
  5
A2C
  8
LAYER01
  6
CONTINUOUS
 62
     7
 10
6196.6464569999989
 20
-1332.6644510000001
 30
0.0
  0
VERTEX
  5
A2D
  8
LAYER01
  6
CONTINUOUS
 62
     7
 10
6199.5369000000001
 20
-1327.8470460000001
 30
0.0
  0
VERTEX
  5
A2E
  8
LAYER01
  6
CONTINUOUS
 62
     7
 10
6202.4273430000003
 20
-1323.02964
 30
0.0
  0
VERTEX
  5
A2F
  8
LAYER01
  6
CONTINUOUS
 62
     7
 10
6203.3908240000001
 20
-1317.248754
 30
0.0
  0
VERTEX
  5
A30
  8
LAYER01
  6
CONTINUOUS
 62
     7
 10
6203.3908240000001
 20
-1311.4678670000001
 30
0.0
  0
VERTEX
  5
A31
  8
LAYER01
  6
CONTINUOUS
 62
     7
 10
6203.3908240000001
 20
-1311.4678670000001
 30
0.0
  0
VERTEX
  5
A32
  8
LAYER01
  6
CONTINUOUS
 62
     7
 10
6203.3908240000001
 20
-1305.6869810000001
 30
0.0
  0
VERTEX
  5
A33
  8
LAYER01
  6
CONTINUOUS
 62
     7
 10
6201.4638619999996
 20
-1300.8695749999999
 30
0.0
  0
VERTEX
  5
A34
  8
LAYER01
  6
CONTINUOUS
 62
     7
 10
6199.5369000000001
 20
-1296.0521699999999
 30
0.0
  0
VERTEX
  5
A35
  8
LAYER01
  6
CONTINUOUS
 62
     7
 10
6196.6464569999989
 20
-1291.2347649999999
 30
0.0
  0
VERTEX
  5
A36
  8
LAYER01
  6
CONTINUOUS
 62
     7
 10
6192.7925320000013
 20
-1287.38084
 30
0.0
  0
VERTEX
  5
A37
  8
LAYER01
  6
CONTINUOUS
 62
     7
 10
6188.9386079999986
 20
-1284.490397
 30
0.0
  0
VERTEX
  5
A38
  8
LAYER01
  6
CONTINUOUS
 62
     7
 10
6183.1577219999999
 20
-1281.599954
 30
0.0
  0
VERTEX
  5
A39
  8
LAYER01
  6
CONTINUOUS
 62
     7
 10
6178.3403159999989
 20
-1279.672992
 30
0.0
  0
VERTEX
  5
A3A
  8
LAYER01
  6
CONTINUOUS
 62
     7
 10
6123.4218940000001
 20
-1279.672992
 30
0.0
  0
VERTEX
  5
A3B
  8
LAYER01
  6
CONTINUOUS
 62
     7
 10
6088.7365749999999
 20
-1244.987672
 30
0.0
  0
VERTEX
  5
A3C
  8
LAYER01
  6
CONTINUOUS
 62
     7
 10
6088.7365749999999
 20
-1244.987672
 30
0.0
  0
SEQEND
  5
A3D
  8
LAYER01
  6
CONTINUOUS
 62
     7
  0
POLYLINE
  5
35C
  8
LAYER01
  6
CONTINUOUS
 62
     7
 66
     1
 10
0.0
 20
0.0
 30
0.0
 70
     1
  0
VERTEX
  5
A3E
  8
LAYER01
  6
CONTINUOUS
 62
     7
 10
6289.140641
 20
-1296.0521699999999
 30
0.0
  0
VERTEX
  5
A3F
  8
LAYER01
  6
CONTINUOUS
 62
     7
 10
6289.140641
 20
-1296.0521699999999
 30
0.0
  0
VERTEX
  5
A40
  8
LAYER01
  6
CONTINUOUS
 62
     7
 10
6293.9580470000001
 20
-1295.0886889999999
 30
0.0
  0
VERTEX
  5
A41
  8
LAYER01
  6
CONTINUOUS
 62
     7
 10
6298.7754519999999
 20
-1294.1252079999999
 30
0.0
  0
VERTEX
  5
A42
  8
LAYER01
  6
CONTINUOUS
 62
     7
 10
6303.592858
 20
-1291.2347649999999
 30
0.0
  0
VERTEX
  5
A43
  8
LAYER01
  6
CONTINUOUS
 62
     7
 10
6307.446782
 20
-1288.344321
 30
0.0
  0
VERTEX
  5
A44
  8
LAYER01
  6
CONTINUOUS
 62
     7
 10
6310.3372250000011
 20
-1284.490397
 30
0.0
  0
VERTEX
  5
A45
  8
LAYER01
  6
CONTINUOUS
 62
     7
 10
6312.2641869999998
 20
-1280.636473
 30
0.0
  0
VERTEX
  5
A46
  8
LAYER01
  6
CONTINUOUS
 62
     7
 10
6314.1911499999997
 20
-1275.8190669999999
 30
0.0
  0
VERTEX
  5
A47
  8
LAYER01
  6
CONTINUOUS
 62
     7
 10
6314.1911499999997
 20
-1270.0381809999999
 30
0.0
  0
VERTEX
  5
A48
  8
LAYER01
  6
CONTINUOUS
 62
     7
 10
6314.1911499999997
 20
-1270.0381809999999
 30
0.0
  0
VERTEX
  5
A49
  8
LAYER01
  6
CONTINUOUS
 62
     7
 10
6314.1911499999997
 20
-1265.220775
 30
0.0
  0
VERTEX
  5
A4A
  8
LAYER01
  6
CONTINUOUS
 62
     7
 10
6312.2641869999998
 20
-1260.40337
 30
0.0
  0
VERTEX
  5
A4B
  8
LAYER01
  6
CONTINUOUS
 62
     7
 10
6310.3372250000011
 20
-1256.5494450000001
 30
0.0
  0
VERTEX
  5
A4C
  8
LAYER01
  6
CONTINUOUS
 62
     7
 10
6307.446782
 20
-1252.6955210000001
 30
0.0
  0
VERTEX
  5
A4D
  8
LAYER01
  6
CONTINUOUS
 62
     7
 10
6303.592858
 20
-1249.8050780000001
 30
0.0
  0
VERTEX
  5
A4E
  8
LAYER01
  6
CONTINUOUS
 62
     7
 10
6298.7754519999999
 20
-1246.9146350000001
 30
0.0
  0
VERTEX
  5
A4F
  8
LAYER01
  6
CONTINUOUS
 62
     7
 10
6293.9580470000001
 20
-1245.951153
 30
0.0
  0
VERTEX
  5
A50
  8
LAYER01
  6
CONTINUOUS
 62
     7
 10
6289.140641
 20
-1244.987672
 30
0.0
  0
VERTEX
  5
A51
  8
LAYER01
  6
CONTINUOUS
 62
     7
 10
6289.140641
 20
-1244.987672
 30
0.0
  0
VERTEX
  5
A52
  8
LAYER01
  6
CONTINUOUS
 62
     7
 10
6284.3232360000002
 20
-1245.951153
 30
0.0
  0
VERTEX
  5
A53
  8
LAYER01
  6
CONTINUOUS
 62
     7
 10
6279.5058300000001
 20
-1246.9146350000001
 30
0.0
  0
VERTEX
  5
A54
  8
LAYER01
  6
CONTINUOUS
 62
     7
 10
6274.6884250000003
 20
-1249.8050780000001
 30
0.0
  0
VERTEX
  5
A55
  8
LAYER01
  6
CONTINUOUS
 62
     7
 10
6270.8345009999994
 20
-1252.6955210000001
 30
0.0
  0
VERTEX
  5
A56
  8
LAYER01
  6
CONTINUOUS
 62
     7
 10
6267.9440569999997
 20
-1256.5494450000001
 30
0.0
  0
VERTEX
  5
A57
  8
LAYER01
  6
CONTINUOUS
 62
     7
 10
6266.0170950000002
 20
-1260.40337
 30
0.0
  0
VERTEX
  5
A58
  8
LAYER01
  6
CONTINUOUS
 62
     7
 10
6264.0901329999988
 20
-1265.220775
 30
0.0
  0
VERTEX
  5
A59
  8
LAYER01
  6
CONTINUOUS
 62
     7
 10
6264.0901329999988
 20
-1270.0381809999999
 30
0.0
  0
VERTEX
  5
A5A
  8
LAYER01
  6
CONTINUOUS
 62
     7
 10
6264.0901329999988
 20
-1270.0381809999999
 30
0.0
  0
VERTEX
  5
A5B
  8
LAYER01
  6
CONTINUOUS
 62
     7
 10
6264.0901329999988
 20
-1275.8190669999999
 30
0.0
  0
VERTEX
  5
A5C
  8
LAYER01
  6
CONTINUOUS
 62
     7
 10
6266.0170950000002
 20
-1280.636473
 30
0.0
  0
VERTEX
  5
A5D
  8
LAYER01
  6
CONTINUOUS
 62
     7
 10
6267.9440569999997
 20
-1284.490397
 30
0.0
  0
VERTEX
  5
A5E
  8
LAYER01
  6
CONTINUOUS
 62
     7
 10
6270.8345009999994
 20
-1288.344321
 30
0.0
  0
VERTEX
  5
A5F
  8
LAYER01
  6
CONTINUOUS
 62
     7
 10
6274.6884250000003
 20
-1291.2347649999999
 30
0.0
  0
VERTEX
  5
A60
  8
LAYER01
  6
CONTINUOUS
 62
     7
 10
6279.5058300000001
 20
-1294.1252079999999
 30
0.0
  0
VERTEX
  5
A61
  8
LAYER01
  6
CONTINUOUS
 62
     7
 10
6284.3232360000002
 20
-1295.0886889999999
 30
0.0
  0
VERTEX
  5
A62
  8
LAYER01
  6
CONTINUOUS
 62
     7
 10
6289.140641
 20
-1296.0521699999999
 30
0.0
  0
VERTEX
  5
A63
  8
LAYER01
  6
CONTINUOUS
 62
     7
 10
6289.140641
 20
-1296.0521699999999
 30
0.0
  0
SEQEND
  5
A64
  8
LAYER01
  6
CONTINUOUS
 62
     7
  0
POLYLINE
  5
384
  8
LAYER01
  6
CONTINUOUS
 62
     7
 66
     1
 10
0.0
 20
0.0
 30
0.0
 70
     1
  0
VERTEX
  5
A65
  8
LAYER01
  6
CONTINUOUS
 62
     7
 10
6289.140641
 20
-1248.8415970000001
 30
0.0
  0
VERTEX
  5
A66
  8
LAYER01
  6
CONTINUOUS
 62
     7
 10
6289.140641
 20
-1248.8415970000001
 30
0.0
  0
VERTEX
  5
A67
  8
LAYER01
  6
CONTINUOUS
 62
     7
 10
6292.9945659999994
 20
-1249.8050780000001
 30
0.0
  0
VERTEX
  5
A68
  8
LAYER01
  6
CONTINUOUS
 62
     7
 10
6296.8484899999994
 20
-1250.7685590000001
 30
0.0
  0
VERTEX
  5
A69
  8
LAYER01
  6
CONTINUOUS
 62
     7
 10
6300.7024140000003
 20
-1252.6955210000001
 30
0.0
  0
VERTEX
  5
A6A
  8
LAYER01
  6
CONTINUOUS
 62
     7
 10
6303.592858
 20
-1255.5859640000001
 30
0.0
  0
VERTEX
  5
A6B
  8
LAYER01
  6
CONTINUOUS
 62
     7
 10
6306.4833010000002
 20
-1258.476408
 30
0.0
  0
VERTEX
  5
A6C
  8
LAYER01
  6
CONTINUOUS
 62
     7
 10
6308.4102630000007
 20
-1262.330332
 30
0.0
  0
VERTEX
  5
A6D
  8
LAYER01
  6
CONTINUOUS
 62
     7
 10
6310.3372250000011
 20
-1266.184256
 30
0.0
  0
VERTEX
  5
A6E
  8
LAYER01
  6
CONTINUOUS
 62
     7
 10
6310.3372250000011
 20
-1270.0381809999999
 30
0.0
  0
VERTEX
  5
A6F
  8
LAYER01
  6
CONTINUOUS
 62
     7
 10
6310.3372250000011
 20
-1270.0381809999999
 30
0.0
  0
VERTEX
  5
A70
  8
LAYER01
  6
CONTINUOUS
 62
     7
 10
6310.3372250000011
 20
-1274.8555859999999
 30
0.0
  0
VERTEX
  5
A71
  8
LAYER01
  6
CONTINUOUS
 62
     7
 10
6308.4102630000007
 20
-1278.7095099999999
 30
0.0
  0
VERTEX
  5
A72
  8
LAYER01
  6
CONTINUOUS
 62
     7
 10
6306.4833010000002
 20
-1282.563435
 30
0.0
  0
VERTEX
  5
A73
  8
LAYER01
  6
CONTINUOUS
 62
     7
 10
6303.592858
 20
-1285.453878
 30
0.0
  0
VERTEX
  5
A74
  8
LAYER01
  6
CONTINUOUS
 62
     7
 10
6300.7024140000003
 20
-1288.344321
 30
0.0
  0
VERTEX
  5
A75
  8
LAYER01
  6
CONTINUOUS
 62
     7
 10
6296.8484899999994
 20
-1290.271283
 30
0.0
  0
VERTEX
  5
A76
  8
LAYER01
  6
CONTINUOUS
 62
     7
 10
6292.9945659999994
 20
-1291.2347649999999
 30
0.0
  0
VERTEX
  5
A77
  8
LAYER01
  6
CONTINUOUS
 62
     7
 10
6289.140641
 20
-1291.2347649999999
 30
0.0
  0
VERTEX
  5
A78
  8
LAYER01
  6
CONTINUOUS
 62
     7
 10
6289.140641
 20
-1291.2347649999999
 30
0.0
  0
VERTEX
  5
A79
  8
LAYER01
  6
CONTINUOUS
 62
     7
 10
6285.286717
 20
-1291.2347649999999
 30
0.0
  0
VERTEX
  5
A7A
  8
LAYER01
  6
CONTINUOUS
 62
     7
 10
6280.4693109999998
 20
-1290.271283
 30
0.0
  0
VERTEX
  5
A7B
  8
LAYER01
  6
CONTINUOUS
 62
     7
 10
6277.5788679999987
 20
-1288.344321
 30
0.0
  0
VERTEX
  5
A7C
  8
LAYER01
  6
CONTINUOUS
 62
     7
 10
6273.7249439999996
 20
-1285.453878
 30
0.0
  0
VERTEX
  5
A7D
  8
LAYER01
  6
CONTINUOUS
 62
     7
 10
6271.797982
 20
-1282.563435
 30
0.0
  0
VERTEX
  5
A7E
  8
LAYER01
  6
CONTINUOUS
 62
     7
 10
6269.8710189999993
 20
-1278.7095099999999
 30
0.0
  0
VERTEX
  5
A7F
  8
LAYER01
  6
CONTINUOUS
 62
     7
 10
6267.9440569999997
 20
-1274.8555859999999
 30
0.0
  0
VERTEX
  5
A80
  8
LAYER01
  6
CONTINUOUS
 62
     7
 10
6267.9440569999997
 20
-1270.0381809999999
 30
0.0
  0
VERTEX
  5
A81
  8
LAYER01
  6
CONTINUOUS
 62
     7
 10
6267.9440569999997
 20
-1270.0381809999999
 30
0.0
  0
VERTEX
  5
A82
  8
LAYER01
  6
CONTINUOUS
 62
     7
 10
6267.9440569999997
 20
-1266.184256
 30
0.0
  0
VERTEX
  5
A83
  8
LAYER01
  6
CONTINUOUS
 62
     7
 10
6269.8710189999993
 20
-1262.330332
 30
0.0
  0
VERTEX
  5
A84
  8
LAYER01
  6
CONTINUOUS
 62
     7
 10
6271.797982
 20
-1258.476408
 30
0.0
  0
VERTEX
  5
A85
  8
LAYER01
  6
CONTINUOUS
 62
     7
 10
6273.7249439999996
 20
-1255.5859640000001
 30
0.0
  0
VERTEX
  5
A86
  8
LAYER01
  6
CONTINUOUS
 62
     7
 10
6277.5788679999987
 20
-1252.6955210000001
 30
0.0
  0
VERTEX
  5
A87
  8
LAYER01
  6
CONTINUOUS
 62
     7
 10
6280.4693109999998
 20
-1250.7685590000001
 30
0.0
  0
VERTEX
  5
A88
  8
LAYER01
  6
CONTINUOUS
 62
     7
 10
6285.286717
 20
-1249.8050780000001
 30
0.0
  0
VERTEX
  5
A89
  8
LAYER01
  6
CONTINUOUS
 62
     7
 10
6289.140641
 20
-1248.8415970000001
 30
0.0
  0
VERTEX
  5
A8A
  8
LAYER01
  6
CONTINUOUS
 62
     7
 10
6289.140641
 20
-1248.8415970000001
 30
0.0
  0
SEQEND
  5
A8B
  8
LAYER01
  6
CONTINUOUS
 62
     7
  0
POLYLINE
  5
3AC
  8
LAYER01
  6
CONTINUOUS
 62
     7
 66
     1
 10
0.0
 20
0.0
 30
0.0
 70
     1
  0
VERTEX
  5
A8C
  8
LAYER01
  6
CONTINUOUS
 62
     7
 10
6292.9945659999994
 20
-1271.9651429999999
 30
0.0
  0
VERTEX
  5
A8D
  8
LAYER01
  6
CONTINUOUS
 62
     7
 10
6292.9945659999994
 20
-1271.9651429999999
 30
0.0
  0
VERTEX
  5
A8E
  8
LAYER01
  6
CONTINUOUS
 62
     7
 10
6295.8850089999996
 20
-1271.0016619999999
 30
0.0
  0
VERTEX
  5
A8F
  8
LAYER01
  6
CONTINUOUS
 62
     7
 10
6298.7754519999999
 20
-1270.0381809999999
 30
0.0
  0
VERTEX
  5
A90
  8
LAYER01
  6
CONTINUOUS
 62
     7
 10
6300.7024140000003
 20
-1267.147737
 30
0.0
  0
VERTEX
  5
A91
  8
LAYER01
  6
CONTINUOUS
 62
     7
 10
6300.7024140000003
 20
-1264.257294
 30
0.0
  0
VERTEX
  5
A92
  8
LAYER01
  6
CONTINUOUS
 62
     7
 10
6300.7024140000003
 20
-1264.257294
 30
0.0
  0
VERTEX
  5
A93
  8
LAYER01
  6
CONTINUOUS
 62
     7
 10
6300.7024140000003
 20
-1260.40337
 30
0.0
  0
VERTEX
  5
A94
  8
LAYER01
  6
CONTINUOUS
 62
     7
 10
6297.8119710000001
 20
-1257.5129260000001
 30
0.0
  0
VERTEX
  5
A95
  8
LAYER01
  6
CONTINUOUS
 62
     7
 10
6294.9215279999989
 20
-1256.5494450000001
 30
0.0
  0
VERTEX
  5
A96
  8
LAYER01
  6
CONTINUOUS
 62
     7
 10
6291.0676030000013
 20
-1256.5494450000001
 30
0.0
  0
VERTEX
  5
A97
  8
LAYER01
  6
CONTINUOUS
 62
     7
 10
6279.5058300000001
 20
-1256.5494450000001
 30
0.0
  0
VERTEX
  5
A98
  8
LAYER01
  6
CONTINUOUS
 62
     7
 10
6279.5058300000001
 20
-1284.490397
 30
0.0
  0
VERTEX
  5
A99
  8
LAYER01
  6
CONTINUOUS
 62
     7
 10
6283.3597549999986
 20
-1284.490397
 30
0.0
  0
VERTEX
  5
A9A
  8
LAYER01
  6
CONTINUOUS
 62
     7
 10
6283.3597549999986
 20
-1271.9651429999999
 30
0.0
  0
VERTEX
  5
A9B
  8
LAYER01
  6
CONTINUOUS
 62
     7
 10
6289.140641
 20
-1271.9651429999999
 30
0.0
  0
VERTEX
  5
A9C
  8
LAYER01
  6
CONTINUOUS
 62
     7
 10
6295.8850089999996
 20
-1284.490397
 30
0.0
  0
VERTEX
  5
A9D
  8
LAYER01
  6
CONTINUOUS
 62
     7
 10
6300.7024140000003
 20
-1284.490397
 30
0.0
  0
VERTEX
  5
A9E
  8
LAYER01
  6
CONTINUOUS
 62
     7
 10
6292.9945659999994
 20
-1271.9651429999999
 30
0.0
  0
VERTEX
  5
A9F
  8
LAYER01
  6
CONTINUOUS
 62
     7
 10
6292.9945659999994
 20
-1271.9651429999999
 30
0.0
  0
SEQEND
  5
AA0
  8
LAYER01
  6
CONTINUOUS
 62
     7
  0
POLYLINE
  5
3C2
  8
LAYER01
  6
CONTINUOUS
 62
     7
 66
     1
 10
0.0
 20
0.0
 30
0.0
 70
     1
  0
VERTEX
  5
AA1
  8
LAYER01
  6
CONTINUOUS
 62
     7
 10
6290.1041219999988
 20
-1260.40337
 30
0.0
  0
VERTEX
  5
AA2
  8
LAYER01
  6
CONTINUOUS
 62
     7
 10
6290.1041219999988
 20
-1260.40337
 30
0.0
  0
VERTEX
  5
AA3
  8
LAYER01
  6
CONTINUOUS
 62
     7
 10
6294.9215279999989
 20
-1261.366851
 30
0.0
  0
VERTEX
  5
AA4
  8
LAYER01
  6
CONTINUOUS
 62
     7
 10
6296.8484899999994
 20
-1262.330332
 30
0.0
  0
VERTEX
  5
AA5
  8
LAYER01
  6
CONTINUOUS
 62
     7
 10
6296.8484899999994
 20
-1264.257294
 30
0.0
  0
VERTEX
  5
AA6
  8
LAYER01
  6
CONTINUOUS
 62
     7
 10
6296.8484899999994
 20
-1264.257294
 30
0.0
  0
VERTEX
  5
AA7
  8
LAYER01
  6
CONTINUOUS
 62
     7
 10
6295.8850089999996
 20
-1266.184256
 30
0.0
  0
VERTEX
  5
AA8
  8
LAYER01
  6
CONTINUOUS
 62
     7
 10
6293.9580470000001
 20
-1267.147737
 30
0.0
  0
VERTEX
  5
AA9
  8
LAYER01
  6
CONTINUOUS
 62
     7
 10
6288.1771600000002
 20
-1268.111218
 30
0.0
  0
VERTEX
  5
AAA
  8
LAYER01
  6
CONTINUOUS
 62
     7
 10
6283.3597549999986
 20
-1268.111218
 30
0.0
  0
VERTEX
  5
AAB
  8
LAYER01
  6
CONTINUOUS
 62
     7
 10
6283.3597549999986
 20
-1260.40337
 30
0.0
  0
VERTEX
  5
AAC
  8
LAYER01
  6
CONTINUOUS
 62
     7
 10
6290.1041219999988
 20
-1260.40337
 30
0.0
  0
VERTEX
  5
AAD
  8
LAYER01
  6
CONTINUOUS
 62
     7
 10
6290.1041219999988
 20
-1260.40337
 30
0.0
  0
SEQEND
  5
AAE
  8
LAYER01
  6
CONTINUOUS
 62
     7
  0
ENDBLK
  5
3D1
  8
0
  0
BLOCK
  8
0
  2
HORIZON-G13
 70
     0
 10
0.0
 20
0.0
 30
0.0
  3
HORIZON-G13
  1

  0
TEXT
  5
3D4
  8
LAYER01
  6
VERDECKT
 62
     1
 10
5298.7367780000013
 20
-1751.1870240000001
 30
0.0
 40
10.0
  1
A. Sprenger GmbH
  7
SIMPLEX
  0
TEXT
  5
3D5
  8
LAYER01
  6
VERDECKT
 62
     1
 10
5298.7367780000013
 20
-1768.3298809999999
 30
0.0
 40
10.0
  1
Berner Str. 10
  7
SIMPLEX
  0
TEXT
  5
3D6
  8
LAYER01
  6
VERDECKT
 62
     1
 10
5298.7367780000013
 20
-1785.4727379999999
 30
0.0
 40
10.0
  1
60437 Frankfurt
  7
SIMPLEX
  0
TEXT
  5
3D7
  8
LAYER01
  6
VERDECKT
 62
     1
 10
5298.7367780000013
 20
-1802.6155960000001
 30
0.0
 40
10.0
  1
Tel.: 069 - 507 27 41
  7
SIMPLEX
  0
TEXT
  5
3D8
  8
LAYER01
  6
VERDECKT
 62
     1
 10
5298.7367780000013
 20
-1819.7584529999999
 30
0.0
 40
10.0
  1
Fax: 069 - 507 72 91
  7
SIMPLEX
  0
TEXT
  5
3D9
  8
LAYER01
  6
VERDECKT
 62
     1
 10
5298.7367780000013
 20
-1836.90131
 30
0.0
 40
10.0
  1
info@varicor.org
  7
SIMPLEX
  0
ENDBLK
  5
3DA
  8
0
  0
BLOCK
  8
0
  2
HORIZON-G12
 70
     0
 10
0.0
 20
0.0
 30
0.0
  3
HORIZON-G12
  1

  0
TEXT
  5
3DD
  8
LAYER01
  6
CONTINUOUS
 62
     1
 10
6349.555233
 20
-1986.2672110000001
 30
0.0
 40
10.0
  1
Blatt
  7
SIMPLEX
  0
LINE
  5
3DE
  8
LAYER01
  6
CONTINUOUS
 62
     1
 10
5284.555233
 20
-1916.2672110000001
 30
0.0
 11
5884.555233
 21
-1916.2672110000001
 31
0.0
  0
LINE
  5
3DF
  8
LAYER01
  6
CONTINUOUS
 62
     1
 10
5284.555233
 20
-1941.2672110000001
 30
0.0
 11
5884.555233
 21
-1941.2672110000001
 31
0.0
  0
LINE
  5
3E0
  8
LAYER01
  6
CONTINUOUS
 62
     1
 10
5284.555233
 20
-1966.2672110000001
 30
0.0
 11
6414.555233
 21
-1966.2672110000001
 31
0.0
  0
LINE
  5
3E1
  8
LAYER01
  6
CONTINUOUS
 62
     1
 10
5284.555233
 20
-2041.2672110000001
 30
0.0
 11
6414.555233
 21
-2041.2672110000001
 31
0.0
  0
LINE
  5
3E2
  8
LAYER01
  6
CONTINUOUS
 62
     1
 10
5284.555233
 20
-1841.2672110000001
 30
0.0
 11
6414.555233
 21
-1841.2672110000001
 31
0.0
  0
POLYLINE
  5
3E3
  8
LAYER01
  6
CONTINUOUS
 62
     1
 66
     1
 10
0.0
 20
0.0
 30
0.0
 70
     1
  0
VERTEX
  5
AAF
  8
LAYER01
  6
CONTINUOUS
 62
     1
 10
5284.555233
 20
-2071.2672109999999
 30
0.0
  0
VERTEX
  5
AB0
  8
LAYER01
  6
CONTINUOUS
 62
     1
 10
5284.555233
 20
-1736.2672110000001
 30
0.0
  0
VERTEX
  5
AB1
  8
LAYER01
  6
CONTINUOUS
 62
     1
 10
6414.555233
 20
-1736.2672110000001
 30
0.0
  0
VERTEX
  5
AB2
  8
LAYER01
  6
CONTINUOUS
 62
     1
 10
6414.555233
 20
-2071.2672109999999
 30
0.0
  0
SEQEND
  5
AB3
  8
LAYER01
  6
CONTINUOUS
 62
     1
  0
LINE
  5
3E9
  8
LAYER01
  6
CONTINUOUS
 62
     1
 10
5284.555233
 20
-1866.2672110000001
 30
0.0
 11
5884.555233
 21
-1866.2672110000001
 31
0.0
  0
LINE
  5
3EA
  8
LAYER01
  6
CONTINUOUS
 62
     1
 10
5284.555233
 20
-1891.2672110000001
 30
0.0
 11
5884.555233
 21
-1891.2672110000001
 31
0.0
  0
LINE
  5
3EB
  8
LAYER01
  6
CONTINUOUS
 62
     1
 10
5609.555233
 20
-1736.2672110000001
 30
0.0
 11
5609.555233
 21
-2071.2672109999999
 31
0.0
  0
INSERT
  5
3EC
  8
LAYER01
  2
HORIZON-G13
 10
0.0
 20
0.0
 30
0.0
  0
LINE
  5
3ED
  8
LAYER01
  6
CONTINUOUS
 62
     1
 10
5284.555233
 20
-2016.2672110000001
 30
0.0
 11
5609.555233
 21
-2016.2672110000001
 31
0.0
  0
LINE
  5
3EE
  8
LAYER01
  6
CONTINUOUS
 62
     1
 10
5284.555233
 20
-1991.2672110000001
 30
0.0
 11
5609.555233
 21
-1991.2672110000001
 31
0.0
  0
LINE
  5
3EF
  8
LAYER01
  6
CONTINUOUS
 62
     1
 10
5329.555233
 20
-1841.2672110000001
 30
0.0
 11
5329.555233
 21
-2071.2672109999999
 31
0.0
  0
TEXT
  5
3F0
  8
LAYER01
  6
CONTINUOUS
 62
     1
 10
5292.9544980000001
 20
-2061.2672109999999
 30
0.0
 40
9.5
  1
Zust
  7
SIMPLEX
  0
LINE
  5
3F1
  8
LAYER01
  6
CONTINUOUS
 62
     1
 10
5487.3398479999996
 20
-2071.2672109999999
 30
0.0
 11
5487.3398479999996
 21
-1841.2672110000001
 31
0.0
  0
LINE
  5
3F2
  8
LAYER01
  6
CONTINUOUS
 62
     1
 10
5564.555233
 20
-1841.2672110000001
 30
0.0
 11
5564.555233
 21
-2071.2672109999999
 31
0.0
  0
TEXT
  5
3F3
  8
LAYER01
  6
CONTINUOUS
 62
     1
 10
5373.6837750000004
 20
-2061.2672109999999
 30
0.0
 40
9.5
  1
Änderung
  7
SIMPLEX
  0
TEXT
  5
3F4
  8
LAYER01
  6
CONTINUOUS
 62
     1
 10
5501.4093780000003
 20
-2061.2672109999999
 30
0.0
 40
9.5
  1
Datum
  7
SIMPLEX
  0
TEXT
  5
3F5
  8
LAYER01
  6
CONTINUOUS
 62
     1
 10
5568.3191369999986
 20
-2061.2672109999999
 30
0.0
 40
9.5
  1
Name
  7
SIMPLEX
  0
LINE
  5
3F6
  8
LAYER01
  6
CONTINUOUS
 62
     1
 10
6414.555233
 20
-1776.2672110000001
 30
0.0
 11
5884.555233
 21
-1776.2672110000001
 31
0.0
  0
LINE
  5
3F7
  8
LAYER01
  6
CONTINUOUS
 62
     1
 10
5674.555233
 20
-1941.2672110000001
 30
0.0
 11
5674.555233
 21
-1841.2672110000001
 31
0.0
  0
TEXT
  5
3F8
  8
LAYER01
  6
CONTINUOUS
 62
     1
 10
5619.5552329999991
 20
-1886.2672110000001
 30
0.0
 40
10.0
  1
Bearb.
  7
SIMPLEX
  0
TEXT
  5
3F9
  8
LAYER01
  6
CONTINUOUS
 62
     1
 10
5619.5552329999991
 20
-1936.2672110000001
 30
0.0
 40
10.0
  1
Norm
  7
SIMPLEX
  0
TEXT
  5
3FA
  8
LAYER01
  6
CONTINUOUS
 62
     1
 10
5619.5552329999991
 20
-1911.2672110000001
 30
0.0
 40
10.0
  1
Gepr.
  7
SIMPLEX
  0
TEXT
  5
3FB
  8
LAYER01
  6
CONTINUOUS
 62
     1
 10
5699.555233
 20
-1861.2672110000001
 30
0.0
 40
10.0
  1
Datum
  7
SIMPLEX
  0
TEXT
  5
3FC
  8
LAYER01
  6
CONTINUOUS
 62
     1
 10
5799.555233
 20
-1861.2672110000001
 30
0.0
 40
10.0
  1
Name
  7
SIMPLEX
  0
TEXT
  5
3FD
  8
LAYER01
  6
CONTINUOUS
 62
     1
 10
6389.555233
 20
-2036.2672110000001
 30
0.0
 40
10.0
  1
Bl.
  7
SIMPLEX
  0
LINE
  5
3FE
  8
LAYER01
  6
CONTINUOUS
 62
     1
 10
5884.555233
 20
-2071.2672109999999
 30
0.0
 11
5884.555233
 21
-1736.2672110000001
 31
0.0
  0
LINE
  5
3FF
  8
LAYER01
  6
CONTINUOUS
 62
     1
 10
5769.555233
 20
-1966.2672110000001
 30
0.0
 11
5769.555233
 21
-1736.2672110000001
 31
0.0
  0
LINE
  5
400
  8
LAYER01
  6
CONTINUOUS
 62
     1
 10
6199.555233
 20
-1736.2672110000001
 30
0.0
 11
6199.555233
 21
-1776.2672110000001
 31
0.0
  0
TEXT
  5
401
  8
LAYER01
  6
CONTINUOUS
 62
     1
 10
5895.4492329999994
 20
-1761.7972139999999
 30
0.0
 40
10.0
  1
Maßstab
  7
SIMPLEX
  0
LINE
  5
402
  8
LAYER01
  6
CONTINUOUS
 62
     1
 10
6339.555233
 20
-1966.2672110000001
 30
0.0
 11
6339.555233
 21
-2041.2672110000001
 31
0.0
  0
LINE
  5
403
  8
LAYER01
  6
CONTINUOUS
 62
     1
 10
6339.555233
 20
-2016.2672110000001
 30
0.0
 11
6414.555233
 21
-2016.2672110000001
 31
0.0
  0
ENDBLK
  5
404
  8
0
  0
BLOCK
  8
0
  2
*D13
 70
     1
 10
0.0
 20
0.0
 30
0.0
  3
*D13
  1

  0
LINE
  5
407
  8
LAYER01
 62
     7
 10
6123.9972900000012
 20
-718.41988400000002
 30
0.0
 11
6123.9972900000012
 21
-968.16634799999997
 31
0.0
  0
LINE
  5
408
  8
LAYER01
 62
     7
 10
5924.6197579999998
 20
-718.41988400000002
 30
0.0
 11
6138.9972900000002
 21
-718.41988400000002
 31
0.0
  0
LINE
  5
409
  8
LAYER01
 62
     7
 10
5924.6197579999998
 20
-968.16634799999997
 30
0.0
 11
6138.9972900000002
 21
-968.16634799999997
 31
0.0
  0
SOLID
  5
40A
  8
LAYER01
 62
     7
 10
6119.9974499999989
 20
-742.41988400000002
 30
0.0
 11
6123.9972900000012
 21
-718.41988400000002
 31
0.0
 12
6127.9971299999997
 22
-742.41988400000002
 32
0.0
 13
6127.9971299999997
 23
-742.41988400000002
 33
0.0
  0
SOLID
  5
40B
  8
LAYER01
 62
     7
 10
6119.9974499999989
 20
-944.16634799999997
 30
0.0
 11
6123.9972900000012
 21
-968.16634799999997
 31
0.0
 12
6127.9971299999997
 22
-944.16634799999997
 32
0.0
 13
6127.9971299999997
 23
-944.16634799999997
 33
0.0
  0
TEXT
  5
40C
  8
LAYER01
  6
VERDECKT
 62
     7
 10
6108.9972900000012
 20
-881.86454499999991
 30
0.0
 40
30.0
  1
250
 50
90.0
  7
SIMPLEX
  0
POINT
  5
40D
  8
LAYER01
 62
     7
 10
5912.6197579999989
 20
-718.41988400000002
 30
0.0
  0
POINT
  5
40E
  8
LAYER01
 62
     7
 10
5912.6197579999989
 20
-968.16634799999997
 30
0.0
  0
POINT
  5
40F
  8
LAYER01
 62
     7
 10
6123.9972900000012
 20
-968.16634799999997
 30
0.0
  0
ENDBLK
  5
410
  8
0
  0
BLOCK
  8
0
  2
*D14
 70
     1
 10
0.0
 20
0.0
 30
0.0
  3
*D14
  1

  0
LINE
  5
413
  8
LAYER01
 62
     7
 10
6020.9660750000003
 20
-718.41988400000002
 30
0.0
 11
6020.9660750000003
 21
-881.91849999999999
 31
0.0
  0
LINE
  5
414
  8
LAYER01
 62
     7
 10
5924.6197579999998
 20
-718.41988400000002
 30
0.0
 11
6035.9660750000012
 21
-718.41988400000002
 31
0.0
  0
LINE
  5
415
  8
LAYER01
 62
     7
 10
5924.6197579999998
 20
-881.91849999999999
 30
0.0
 11
6035.9660750000012
 21
-881.91849999999999
 31
0.0
  0
SOLID
  5
416
  8
LAYER01
 62
     7
 10
6016.9662349999999
 20
-742.41988400000002
 30
0.0
 11
6020.9660750000003
 21
-718.41988400000002
 31
0.0
 12
6024.9659149999998
 22
-742.41988400000002
 32
0.0
 13
6024.9659149999998
 23
-742.41988400000002
 33
0.0
  0
SOLID
  5
417
  8
LAYER01
 62
     7
 10
6016.9662349999999
 20
-857.91849999999999
 30
0.0
 11
6020.9660750000003
 21
-881.91849999999999
 31
0.0
 12
6024.9659149999998
 22
-857.91849999999999
 32
0.0
 13
6024.9659149999998
 23
-857.91849999999999
 33
0.0
  0
TEXT
  5
418
  8
LAYER01
  6
VERDECKT
 62
     7
 10
6005.9660750000003
 20
-835.88347799999997
 30
0.0
 40
30.0
  1
165
 50
90.0
  7
SIMPLEX
  0
POINT
  5
419
  8
LAYER01
 62
     7
 10
5912.6197579999989
 20
-718.41988400000002
 30
0.0
  0
POINT
  5
41A
  8
LAYER01
 62
     7
 10
5912.6197579999989
 20
-881.91849999999999
 30
0.0
  0
POINT
  5
41B
  8
LAYER01
 62
     7
 10
6020.9660750000003
 20
-881.91849999999999
 30
0.0
  0
ENDBLK
  5
41C
  8
0
  0
BLOCK
  8
0
  2
*D15
 70
     1
 10
0.0
 20
0.0
 30
0.0
  3
*D15
  1

  0
LINE
  5
41F
  8
LAYER01
 62
     7
 10
5245.7788419999997
 20
-818.41988400000002
 30
0.0
 11
5245.7788419999997
 21
-718.41988400000002
 31
0.0
  0
LINE
  5
420
  8
LAYER01
 62
     7
 10
5306.9637130000001
 20
-818.41988400000002
 30
0.0
 11
5230.7788420000006
 21
-818.41988400000002
 31
0.0
  0
LINE
  5
421
  8
LAYER01
 62
     7
 10
5306.9637130000001
 20
-718.41988400000002
 30
0.0
 11
5230.7788420000006
 21
-718.41988400000002
 31
0.0
  0
SOLID
  5
422
  8
LAYER01
 62
     7
 10
5249.7786820000001
 20
-794.41988400000002
 30
0.0
 11
5245.7788419999997
 21
-818.41988400000002
 31
0.0
 12
5241.7790020000011
 22
-794.41988400000002
 32
0.0
 13
5241.7790020000011
 23
-794.41988400000002
 33
0.0
  0
SOLID
  5
423
  8
LAYER01
 62
     7
 10
5249.7786820000001
 20
-742.41988400000002
 30
0.0
 11
5245.7788419999997
 21
-718.41988400000002
 31
0.0
 12
5241.7790020000011
 22
-742.41988400000002
 32
0.0
 13
5241.7790020000011
 23
-742.41988400000002
 33
0.0
  0
TEXT
  5
424
  8
LAYER01
  6
VERDECKT
 62
     7
 10
5230.7788420000006
 20
-804.13417000000004
 30
0.0
 40
30.0
  1
100
 50
90.0
  7
SIMPLEX
  0
POINT
  5
425
  8
LAYER01
 62
     7
 10
5318.9637130000001
 20
-818.41988400000002
 30
0.0
  0
POINT
  5
426
  8
LAYER01
 62
     7
 10
5318.9637130000001
 20
-718.41988400000002
 30
0.0
  0
POINT
  5
427
  8
LAYER01
 62
     7
 10
5245.7788419999997
 20
-718.41988400000002
 30
0.0
  0
ENDBLK
  5
428
  8
0
  0
BLOCK
  8
0
  2
*D16
 70
     1
 10
0.0
 20
0.0
 30
0.0
  3
*D16
  1

  0
LINE
  5
42B
  8
LAYER01
 62
     7
 10
5386.0641029999988
 20
-577.93553899999995
 30
0.0
 11
5784.9627719999999
 21
-577.93553899999995
 31
0.0
  0
LINE
  5
42C
  8
LAYER01
 62
     7
 10
5386.0641029999988
 20
-606.41988400000002
 30
0.0
 11
5386.0641029999988
 21
-562.93553899999995
 31
0.0
  0
LINE
  5
42D
  8
LAYER01
 62
     7
 10
5784.9627719999999
 20
-606.41988400000002
 30
0.0
 11
5784.9627719999999
 21
-562.93553899999995
 31
0.0
  0
SOLID
  5
42E
  8
LAYER01
 62
     7
 10
5410.0641029999988
 20
-581.93537900000001
 30
0.0
 11
5386.0641029999988
 21
-577.93553899999995
 31
0.0
 12
5410.0641029999988
 22
-573.935699
 32
0.0
 13
5410.0641029999988
 23
-573.935699
 33
0.0
  0
SOLID
  5
42F
  8
LAYER01
 62
     7
 10
5760.9627719999999
 20
-581.93537900000001
 30
0.0
 11
5784.9627719999999
 21
-577.93553899999995
 31
0.0
 12
5760.9627719999999
 22
-573.935699
 32
0.0
 13
5760.9627719999999
 23
-573.935699
 33
0.0
  0
TEXT
  5
430
  8
LAYER01
  6
VERDECKT
 62
     7
 10
5547.6562950000007
 20
-562.93553899999995
 30
0.0
 40
30.0
  1
398
  7
SIMPLEX
  0
POINT
  5
431
  8
LAYER01
 62
     7
 10
5386.0641029999988
 20
-618.41988400000002
 30
0.0
  0
POINT
  5
432
  8
LAYER01
 62
     7
 10
5784.9627719999999
 20
-618.41988400000002
 30
0.0
  0
POINT
  5
433
  8
LAYER01
 62
     7
 10
5784.9627719999999
 20
-577.93553899999995
 30
0.0
  0
ENDBLK
  5
434
  8
0
  0
BLOCK
  8
0
  2
*D17
 70
     1
 10
0.0
 20
0.0
 30
0.0
  3
*D17
  1

  0
LINE
  5
437
  8
LAYER01
 62
     7
 10
5386.0641029999988
 20
-577.93553899999995
 30
0.0
 11
5336.0641029999997
 21
-577.93553899999995
 31
0.0
  0
LINE
  5
438
  8
LAYER01
 62
     7
 10
5386.0641029999988
 20
-606.41988400000002
 30
0.0
 11
5386.0641029999988
 21
-562.93553899999995
 31
0.0
  0
LINE
  5
439
  8
LAYER01
 62
     7
 10
5336.0641029999997
 20
-606.41988400000002
 30
0.0
 11
5336.0641029999997
 21
-562.93553899999995
 31
0.0
  0
SOLID
  5
43A
  8
LAYER01
 62
     7
 10
5362.0641029999997
 20
-573.935699
 30
0.0
 11
5386.0641029999988
 21
-577.93553899999995
 31
0.0
 12
5362.0641029999997
 22
-581.93537900000001
 32
0.0
 13
5362.0641029999997
 23
-581.93537900000001
 33
0.0
  0
SOLID
  5
43B
  8
LAYER01
 62
     7
 10
5360.0641029999997
 20
-573.935699
 30
0.0
 11
5336.0641029999997
 21
-577.93553899999995
 31
0.0
 12
5360.0641029999997
 22
-581.93537900000001
 32
0.0
 13
5360.0641029999997
 23
-581.93537900000001
 33
0.0
  0
TEXT
  5
43C
  8
LAYER01
  6
VERDECKT
 62
     7
 10
5336.7783890000001
 20
-562.93553899999995
 30
0.0
 40
30.0
  1
50
  7
SIMPLEX
  0
POINT
  5
43D
  8
LAYER01
 62
     7
 10
5386.0641029999988
 20
-618.41988400000002
 30
0.0
  0
POINT
  5
43E
  8
LAYER01
 62
     7
 10
5336.0641029999997
 20
-618.41988400000002
 30
0.0
  0
POINT
  5
43F
  8
LAYER01
 62
     7
 10
5336.0641029999997
 20
-577.93553899999995
 30
0.0
  0
ENDBLK
  5
440
  8
0
  0
ENDSEC
  0
SECTION
  2
ENTITIES
  0
INSERT
  5
441
  8
LAYER01
  2
HORIZON-G1
 10
0.0
 20
0.0
 30
0.0
  0
POLYLINE
  5
442
  8
LAYER01
  6
CONTINUOUS
 62
     7
 66
     1
 10
0.0
 20
0.0
 30
0.0
 70
     1
  0
VERTEX
  5
AB4
  8
LAYER01
  6
CONTINUOUS
 62
     7
 10
2307.9436719999999
 20
-2071.2672109999999
 30
0.0
  0
VERTEX
  5
AB5
  8
LAYER01
  6
CONTINUOUS
 62
     7
 10
2307.9436719999999
 20
801.4700069999999
 30
0.0
  0
VERTEX
  5
AB6
  8
LAYER01
  6
CONTINUOUS
 62
     7
 10
6414.555233
 20
801.4700069999999
 30
0.0
  0
VERTEX
  5
AB7
  8
LAYER01
  6
CONTINUOUS
 62
     7
 10
6414.555233
 20
-2071.2672109999999
 30
0.0
  0
SEQEND
  5
AB8
  8
LAYER01
  6
CONTINUOUS
 62
     7
  0
LINE
  5
448
  8
LAYER01
  6
CONTINUOUS
 62
     7
 10
2869.6505299999999
 20
-618.41988400000002
 30
0.0
 11
2869.6505299999999
 21
-818.41988400000002
 31
0.0
  0
DIMENSION
  5
449
  8
LAYER01
 62
     7
  2
*D1
 10
2785.948985
 20
-618.41988400000002
 30
0.0
 11
2755.948985
 21
-668.41988400000002
 31
0.0
 53
90.0
 13
2869.6505299999999
 23
-718.41988400000002
 33
0.0
 14
2869.6505299999999
 24
-618.41988400000002
 34
0.0
 50
90.0
  0
LINE
  5
44A
  8
LAYER01
  6
CONTINUOUS
 62
     7
 10
4969.6505299999999
 20
-618.41988400000002
 30
0.0
 11
4969.6505299999999
 21
-818.41988400000002
 31
0.0
  0
LINE
  5
44B
  8
LAYER01
  6
CONTINUOUS
 62
     7
 10
2869.6505299999999
 20
-818.41988400000002
 30
0.0
 11
4969.6505299999999
 21
-818.41988400000002
 31
0.0
  0
LINE
  5
44C
  8
LAYER01
  6
CONTINUOUS
 62
     7
 10
2869.6505299999999
 20
-718.41988400000002
 30
0.0
 11
4969.6505299999999
 21
-718.41988400000002
 31
0.0
  0
TEXT
  5
44D
  8
LAYER01
  6
CONTINUOUS
 62
     7
 10
2759.8044770000001
 20
-1461.06287
 30
0.0
 40
70.0
  1
Waschrinne Modell HORIZON
  7
SIMPLEX
  0
DIMENSION
  5
450
  8
LAYER01
 62
     7
  2
*D2
 10
2788.4058369999998
 20
-818.41988400000002
 30
0.0
 11
2758.4058370000012
 21
-768.41988400000002
 31
0.0
 53
90.0
 13
2869.6505299999999
 23
-718.41988400000002
 33
0.0
 14
2869.6505299999999
 24
-818.41988400000002
 34
0.0
 50
90.0
  0
TEXT
  5
451
  8
LAYER01
  6
CONTINUOUS
 62
     7
 10
4233.3352889999996
 20
-1239.7733350000001
 30
0.0
 40
11.199999999999999
  1
--------------------------------------
  7
SIMPLEX
  0
TEXT
  5
452
  8
LAYER01
  6
CONTINUOUS
 62
     7
 10
4233.3352889999996
 20
-1258.9733349999999
 30
0.0
 40
11.199999999999999
  1
Ausführung geprüft und freigegeben (Datum u. Unterschrift)
  7
SIMPLEX
  0
LINE
  5
453
  8
0
  6
CONTINUOUS
 62
     7
 10
2869.6505299999999
 20
117.11921100000001
 30
0.0
 11
4969.6505299999999
 21
117.11921100000001
 31
0.0
  0
LINE
  5
454
  8
0
  6
CONTINUOUS
 62
     7
 10
2869.6505299999999
 20
-452.88078899999999
 30
0.0
 11
4969.6505299999999
 21
-452.88078899999999
 31
0.0
  0
POLYLINE
  5
455
  8
0
  6
CONTINUOUS
 62
     7
 66
     1
 10
0.0
 20
0.0
 30
0.0
 70
     1
  0
VERTEX
  5
AB9
  8
0
  6
CONTINUOUS
 62
     7
 10
2970.0760559999999
 20
-4.0534210000000002
 30
0.0
  0
VERTEX
  5
ABA
  8
0
  6
CONTINUOUS
 62
     7
 10
4870.0760559999999
 20
-4.0534210000000002
 30
0.0
  0
VERTEX
  5
ABB
  8
0
  6
CONTINUOUS
 62
     7
 10
4870.0760559999999
 20
-402.05342100000001
 30
0.0
  0
VERTEX
  5
ABC
  8
0
  6
CONTINUOUS
 62
     7
 10
2970.0760559999999
 20
-402.05342100000001
 30
0.0
  0
SEQEND
  5
ABD
  8
0
  6
CONTINUOUS
 62
     7
  0
LINE
  5
45B
  8
0
  6
CONTINUOUS
 62
     7
 10
2869.6505299999999
 20
105.11921100000001
 30
0.0
 11
4969.6505299999999
 21
105.11921100000001
 31
0.0
  0
LINE
  5
45C
  8
0
  6
CONTINUOUS
 62
     7
 10
2970.0760559999999
 20
-42.053421
 30
0.0
 11
4870.0760559999999
 21
-42.053421
 31
0.0
  0
DIMENSION
  5
45D
  8
LAYER01
 62
     7
  2
*D3
 10
4870.0760559999999
 20
225.01853299999999
 30
0.0
 11
3920.0760560000008
 21
255.01853299999999
 31
0.0
 13
2970.0760559999999
 23
117.11921100000001
 33
0.0
 14
4870.0760559999999
 24
117.11921100000001
 34
0.0
  0
DIMENSION
  5
45E
  8
LAYER01
 62
     7
  2
*D4
 10
2869.6505299999999
 20
349.746353
 30
0.0
 11
3919.6505299999999
 21
379.746353
 31
0.0
 13
4969.6505299999999
 23
117.11921100000001
 33
0.0
 14
2869.6505299999999
 24
117.11921100000001
 34
0.0
  0
LINE
  5
45F
  8
LAYER01
  6
CONTINUOUS
 62
     7
 10
2869.6505299999999
 20
-618.41988400000002
 30
0.0
 11
4969.6505299999999
 21
-618.41988400000002
 31
0.0
  0
LINE
  5
460
  8
LAYER01
  6
VERDECKT
 62
     7
 10
2881.6505299999999
 20
-440.88078899999999
 30
0.0
 11
4957.6505299999999
 21
-440.88078899999999
 31
0.0
  0
LINE
  5
461
  8
0
  6
CONTINUOUS
 62
     7
 10
2869.6505299999999
 20
117.11921100000001
 30
0.0
 11
2869.6505299999999
 21
-452.88078899999999
 31
0.0
  0
DIMENSION
  5
462
  8
LAYER01
 62
     7
  2
*D5
 10
2654.0478400000002
 20
-452.88078899999999
 30
0.0
 11
2624.0478400000002
 21
-167.88078899999999
 31
0.0
 53
90.0
 13
2869.6505299999999
 23
117.11921100000001
 33
0.0
 14
2869.6505299999999
 24
-452.88078899999999
 34
0.0
 50
90.0
  0
LINE
  5
463
  8
LAYER01
  6
VERDECKT
 62
     7
 10
2881.6505299999999
 20
117.11921100000001
 30
0.0
 11
2881.6505299999999
 21
-440.88078899999999
 31
0.0
  0
DIMENSION
  5
464
  8
LAYER01
 62
     7
  2
*D6
 10
2784.003772
 20
-4.0534210000000002
 30
0.0
 11
2754.003772
 21
62.961466000000001
 31
0.0
 53
90.0
 13
2869.6505299999999
 23
117.11921100000001
 33
0.0
 14
2869.6505299999999
 24
-4.0534210000000002
 34
0.0
 50
90.0
  0
DIMENSION
  5
465
  8
LAYER01
 62
     7
  2
*D7
 10
2784.003772
 20
-402.05342100000001
 30
0.0
 11
2754.003772
 21
-203.05342099999999
 31
0.0
 53
90.0
 13
2869.6505299999999
 23
-4.0534210000000002
 33
0.0
 14
2869.6505299999999
 24
-402.05342100000001
 34
0.0
 50
90.0
  0
DIMENSION
  5
466
  8
LAYER01
 62
     7
  2
*D8
 10
2784.003772
 20
-452.88078899999999
 30
0.0
 11
2754.003772
 21
-421.03853400000003
 31
0.0
 53
90.0
 13
2869.6505299999999
 23
-402.05342100000001
 33
0.0
 14
2869.6505299999999
 24
-452.88078899999999
 34
0.0
 50
90.0
  0
LINE
  5
468
  8
0
  6
CONTINUOUS
 62
     7
 10
4969.6505299999999
 20
117.11921100000001
 30
0.0
 11
4969.6505299999999
 21
-452.88078899999999
 31
0.0
  0
LINE
  5
469
  8
LAYER01
  6
VERDECKT
 62
     7
 10
4957.6505299999999
 20
117.11921100000001
 30
0.0
 11
4957.6505299999999
 21
-440.88078899999999
 31
0.0
  0
POLYLINE
  5
46A
  8
0
  6
CONTINUOUS
 62
     7
 66
     1
 10
0.0
 20
0.0
 30
0.0
 70
     1
  0
VERTEX
  5
ABE
  8
0
  6
CONTINUOUS
 62
     7
 10
3846.4223179999999
 20
-13.674474
 30
0.0
  0
VERTEX
  5
ABF
  8
0
  6
CONTINUOUS
 62
     7
 10
3994.4223179999999
 20
-13.674474
 30
0.0
  0
VERTEX
  5
AC0
  8
0
  6
CONTINUOUS
 62
     7
 10
3994.4223179999999
 20
-31.674474
 30
0.0
  0
VERTEX
  5
AC1
  8
0
  6
CONTINUOUS
 62
     7
 10
3846.4223179999999
 20
-31.674474
 30
0.0
  0
SEQEND
  5
AC2
  8
0
  6
CONTINUOUS
 62
     7
  0
POLYLINE
  5
470
  8
0
  6
CONTINUOUS
 62
     7
 66
     1
 10
0.0
 20
0.0
 30
0.0
 70
     1
  0
VERTEX
  5
AC3
  8
0
  6
CONTINUOUS
 62
     7
 10
5774.630275999999
 20
-898.42802800000004
 30
0.0
  0
VERTEX
  5
AC4
  8
0
  6
CONTINUOUS
 62
     7
 10
5784.9627719999999
 20
-723.12568999999996
 30
0.0
  0
VERTEX
  5
AC5
  8
0
  6
CONTINUOUS
 62
     7
 10
5784.9992460000003
 20
-722.74956299999985
 30
0.0
  0
VERTEX
  5
AC6
  8
0
  6
CONTINUOUS
 62
     7
 10
5785.0640229999999
 20
-722.37726599999985
 30
0.0
  0
VERTEX
  5
AC7
  8
0
  6
CONTINUOUS
 62
     7
 10
5785.1567320000004
 20
-722.01092300000005
 30
0.0
  0
VERTEX
  5
AC8
  8
0
  6
CONTINUOUS
 62
     7
 10
5785.276844
 20
-721.65262900000005
 30
0.0
  0
VERTEX
  5
AC9
  8
0
  6
CONTINUOUS
 62
     7
 10
5785.4236730000002
 20
-721.30442999999991
 30
0.0
  0
VERTEX
  5
ACA
  8
0
  6
CONTINUOUS
 62
     7
 10
5785.59638
 20
-720.96831399999996
 30
0.0
  0
VERTEX
  5
ACB
  8
0
  6
CONTINUOUS
 62
     7
 10
5785.7939779999997
 20
-720.6462019999999
 30
0.0
  0
VERTEX
  5
ACC
  8
0
  6
CONTINUOUS
 62
     7
 10
5786.0153399999999
 20
-720.33993299999986
 30
0.0
  0
VERTEX
  5
ACD
  8
0
  6
CONTINUOUS
 62
     7
 10
5786.2592000000004
 20
-720.05125699999996
 30
0.0
  0
VERTEX
  5
ACE
  8
0
  6
CONTINUOUS
 62
     7
 10
5786.5241659999992
 20
-719.78182300000003
 30
0.0
  0
VERTEX
  5
ACF
  8
0
  6
CONTINUOUS
 62
     7
 10
5786.8087230000001
 20
-719.53317000000004
 30
0.0
  0
VERTEX
  5
AD0
  8
0
  6
CONTINUOUS
 62
     7
 10
5787.1112469999998
 20
-719.30671799999993
 30
0.0
  0
VERTEX
  5
AD1
  8
0
  6
CONTINUOUS
 62
     7
 10
5787.43001
 20
-719.10375999999985
 30
0.0
  0
VERTEX
  5
AD2
  8
0
  6
CONTINUOUS
 62
     7
 10
5787.7631909999991
 20
-718.92545700000005
 30
0.0
  0
VERTEX
  5
AD3
  8
0
  6
CONTINUOUS
 62
     7
 10
5788.1088859999991
 20
-718.77282600000001
 30
0.0
  0
VERTEX
  5
AD4
  8
0
  6
CONTINUOUS
 62
     7
 10
5788.4651219999987
 20
-718.6467389999998
 30
0.0
  0
VERTEX
  5
AD5
  8
0
  6
CONTINUOUS
 62
     7
 10
5788.8298619999996
 20
-718.54791599999987
 30
0.0
  0
VERTEX
  5
AD6
  8
0
  6
CONTINUOUS
 62
     7
 10
5789.201024
 20
-718.47692300000006
 30
0.0
  0
VERTEX
  5
AD7
  8
0
  6
CONTINUOUS
 62
     7
 10
5789.5764880000006
 20
-718.43416400000001
 30
0.0
  0
VERTEX
  5
AD8
  8
0
  6
CONTINUOUS
 62
     7
 10
5789.9541090000002
 20
-718.41988400000002
 30
0.0
  0
VERTEX
  5
AD9
  8
0
  6
CONTINUOUS
 62
     7
 10
5890.2401369999998
 20
-718.41988400000002
 30
0.0
  0
VERTEX
  5
ADA
  8
0
  6
CONTINUOUS
 62
     7
 10
5890.6324320000003
 20
-718.40447099999994
 30
0.0
  0
VERTEX
  5
ADB
  8
0
  6
CONTINUOUS
 62
     7
 10
5891.022309
 20
-718.35832600000003
 30
0.0
  0
VERTEX
  5
ADC
  8
0
  6
CONTINUOUS
 62
     7
 10
5891.4073639999988
 20
-718.28173400000003
 30
0.0
  0
VERTEX
  5
ADD
  8
0
  6
CONTINUOUS
 62
     7
 10
5891.7852219999986
 20
-718.17516699999987
 30
0.0
  0
VERTEX
  5
ADE
  8
0
  6
CONTINUOUS
 62
     7
 10
5892.1535540000004
 20
-718.03928199999996
 30
0.0
  0
VERTEX
  5
ADF
  8
0
  6
CONTINUOUS
 62
     7
 10
5892.5100890000003
 20
-717.87491699999987
 30
0.0
  0
VERTEX
  5
AE0
  8
0
  6
CONTINUOUS
 62
     7
 10
5892.8526300000003
 20
-717.68308499999989
 30
0.0
  0
VERTEX
  5
AE1
  8
0
  6
CONTINUOUS
 62
     7
 10
5893.1790630000014
 20
-717.46496899999988
 30
0.0
  0
VERTEX
  5
AE2
  8
0
  6
CONTINUOUS
 62
     7
 10
5893.4873770000004
 20
-717.22191399999997
 30
0.0
  0
VERTEX
  5
AE3
  8
0
  6
CONTINUOUS
 62
     7
 10
5893.7756710000003
 20
-716.95541800000001
 30
0.0
  0
VERTEX
  5
AE4
  8
0
  6
CONTINUOUS
 62
     7
 10
5894.0421670000014
 20
-716.66712399999994
 30
0.0
  0
VERTEX
  5
AE5
  8
0
  6
CONTINUOUS
 62
     7
 10
5894.2852220000004
 20
-716.35880999999995
 30
0.0
  0
VERTEX
  5
AE6
  8
0
  6
CONTINUOUS
 62
     7
 10
5894.5033380000004
 20
-716.03237699999988
 30
0.0
  0
VERTEX
  5
AE7
  8
0
  6
CONTINUOUS
 62
     7
 10
5894.6951689999996
 20
-715.68983700000001
 30
0.0
  0
VERTEX
  5
AE8
  8
0
  6
CONTINUOUS
 62
     7
 10
5894.8595340000002
 20
-715.33330099999989
 30
0.0
  0
VERTEX
  5
AE9
  8
0
  6
CONTINUOUS
 62
     7
 10
5894.9954189999999
 20
-714.964969
 30
0.0
  0
VERTEX
  5
AEA
  8
0
  6
CONTINUOUS
 62
     7
 10
5895.1019859999997
 20
-714.58711100000005
 30
0.0
  0
VERTEX
  5
AEB
  8
0
  6
CONTINUOUS
 62
     7
 10
5895.178578
 20
-714.20205599999986
 30
0.0
  0
VERTEX
  5
AEC
  8
0
  6
CONTINUOUS
 62
     7
 10
5895.2247230000003
 20
-713.81218000000001
 30
0.0
  0
VERTEX
  5
AED
  8
0
  6
CONTINUOUS
 62
     7
 10
5895.2401369999998
 20
-713.41988400000002
 30
0.0
  0
VERTEX
  5
AEE
  8
0
  6
CONTINUOUS
 62
     7
 10
5895.2401369999998
 20
-623.41988400000002
 30
0.0
  0
VERTEX
  5
AEF
  8
0
  6
CONTINUOUS
 62
     7
 10
5895.2555499999999
 20
-623.02758899999992
 30
0.0
  0
VERTEX
  5
AF0
  8
0
  6
CONTINUOUS
 62
     7
 10
5895.3016950000001
 20
-622.63771199999985
 30
0.0
  0
VERTEX
  5
AF1
  8
0
  6
CONTINUOUS
 62
     7
 10
5895.3782869999986
 20
-622.252657
 30
0.0
  0
VERTEX
  5
AF2
  8
0
  6
CONTINUOUS
 62
     7
 10
5895.4848540000003
 20
-621.87479900000005
 30
0.0
  0
VERTEX
  5
AF3
  8
0
  6
CONTINUOUS
 62
     7
 10
5895.620739
 20
-621.50646700000004
 30
0.0
  0
VERTEX
  5
AF4
  8
0
  6
CONTINUOUS
 62
     7
 10
5895.7851039999987
 20
-621.14993200000004
 30
0.0
  0
VERTEX
  5
AF5
  8
0
  6
CONTINUOUS
 62
     7
 10
5895.976936
 20
-620.80739100000005
 30
0.0
  0
VERTEX
  5
AF6
  8
0
  6
CONTINUOUS
 62
     7
 10
5896.195052
 20
-620.48095799999999
 30
0.0
  0
VERTEX
  5
AF7
  8
0
  6
CONTINUOUS
 62
     7
 10
5896.4381069999999
 20
-620.17264399999988
 30
0.0
  0
VERTEX
  5
AF8
  8
0
  6
CONTINUOUS
 62
     7
 10
5896.7046030000001
 20
-619.88435000000004
 30
0.0
  0
VERTEX
  5
AF9
  8
0
  6
CONTINUOUS
 62
     7
 10
5896.9928970000001
 20
-619.61785399999997
 30
0.0
  0
VERTEX
  5
AFA
  8
0
  6
CONTINUOUS
 62
     7
 10
5897.301211
 20
-619.37479900000005
 30
0.0
  0
VERTEX
  5
AFB
  8
0
  6
CONTINUOUS
 62
     7
 10
5897.6276439999992
 20
-619.15668300000004
 30
0.0
  0
VERTEX
  5
AFC
  8
0
  6
CONTINUOUS
 62
     7
 10
5897.9701840000007
 20
-618.96485099999995
 30
0.0
  0
VERTEX
  5
AFD
  8
0
  6
CONTINUOUS
 62
     7
 10
5898.32672
 20
-618.80048599999986
 30
0.0
  0
VERTEX
  5
AFE
  8
0
  6
CONTINUOUS
 62
     7
 10
5898.695052
 20
-618.66460099999995
 30
0.0
  0
VERTEX
  5
AFF
  8
0
  6
CONTINUOUS
 62
     7
 10
5899.0729100000008
 20
-618.55803400000002
 30
0.0
  0
VERTEX
  5
B00
  8
0
  6
CONTINUOUS
 62
     7
 10
5899.4579640000002
 20
-618.48144200000002
 30
0.0
  0
VERTEX
  5
B01
  8
0
  6
CONTINUOUS
 62
     7
 10
5899.8478409999989
 20
-618.43529699999988
 30
0.0
  0
VERTEX
  5
B02
  8
0
  6
CONTINUOUS
 62
     7
 10
5900.2401369999998
 20
-618.41988400000002
 30
0.0
  0
VERTEX
  5
B03
  8
0
  6
CONTINUOUS
 62
     7
 10
5906.0641029999997
 20
-618.41988400000002
 30
0.0
  0
VERTEX
  5
B04
  8
0
  6
CONTINUOUS
 62
     7
 10
5906.0641029999997
 20
-722.41988400000002
 30
0.0
  0
VERTEX
  5
B05
  8
0
  6
CONTINUOUS
 62
     7
 10
5906.0394420000002
 20
-723.04755699999998
 30
0.0
  0
VERTEX
  5
B06
  8
0
  6
CONTINUOUS
 62
     7
 10
5905.9656100000002
 20
-723.67135999999994
 30
0.0
  0
VERTEX
  5
B07
  8
0
  6
CONTINUOUS
 62
     7
 10
5905.8430630000003
 20
-724.28744699999993
 30
0.0
  0
VERTEX
  5
B08
  8
0
  6
CONTINUOUS
 62
     7
 10
5905.6725550000001
 20
-724.89202
 30
0.0
  0
VERTEX
  5
B09
  8
0
  6
CONTINUOUS
 62
     7
 10
5905.4551389999997
 20
-725.4813519999999
 30
0.0
  0
VERTEX
  5
B0A
  8
0
  6
CONTINUOUS
 62
     7
 10
5905.1921549999988
 20
-726.05180800000005
 30
0.0
  0
VERTEX
  5
B0B
  8
0
  6
CONTINUOUS
 62
     7
 10
5904.8852250000009
 20
-726.59987299999989
 30
0.0
  0
VERTEX
  5
B0C
  8
0
  6
CONTINUOUS
 62
     7
 10
5904.536239
 20
-727.12216599999999
 30
0.0
  0
VERTEX
  5
B0D
  8
0
  6
CONTINUOUS
 62
     7
 10
5904.1473509999987
 20
-727.61546799999985
 30
0.0
  0
VERTEX
  5
B0E
  8
0
  6
CONTINUOUS
 62
     7
 10
5903.7209570000005
 20
-728.07673799999998
 30
0.0
  0
VERTEX
  5
B0F
  8
0
  6
CONTINUOUS
 62
     7
 10
5903.2596880000001
 20
-728.50313200000005
 30
0.0
  0
VERTEX
  5
B10
  8
0
  6
CONTINUOUS
 62
     7
 10
5902.7663849999999
 20
-728.89201999999989
 30
0.0
  0
VERTEX
  5
B11
  8
0
  6
CONTINUOUS
 62
     7
 10
5902.2440919999999
 20
-729.24100499999986
 30
0.0
  0
VERTEX
  5
B12
  8
0
  6
CONTINUOUS
 62
     7
 10
5901.696026999999
 20
-729.54793600000005
 30
0.0
  0
VERTEX
  5
B13
  8
0
  6
CONTINUOUS
 62
     7
 10
5901.1255710000014
 20
-729.8109199999999
 30
0.0
  0
VERTEX
  5
B14
  8
0
  6
CONTINUOUS
 62
     7
 10
5900.536239
 20
-730.02833599999997
 30
0.0
  0
VERTEX
  5
B15
  8
0
  6
CONTINUOUS
 62
     7
 10
5899.9316660000004
 20
-730.19884300000001
 30
0.0
  0
VERTEX
  5
B16
  8
0
  6
CONTINUOUS
 62
     7
 10
5899.3155790000001
 20
-730.32139100000006
 30
0.0
  0
VERTEX
  5
B17
  8
0
  6
CONTINUOUS
 62
     7
 10
5898.6917759999988
 20
-730.3952230000001
 30
0.0
  0
VERTEX
  5
B18
  8
0
  6
CONTINUOUS
 62
     7
 10
5898.0641029999997
 20
-730.41988400000002
 30
0.0
  0
VERTEX
  5
B19
  8
0
  6
CONTINUOUS
 62
     7
 10
5803.8080840000002
 20
-730.41988400000002
 30
0.0
  0
VERTEX
  5
B1A
  8
0
  6
CONTINUOUS
 62
     7
 10
5803.1933799999988
 20
-730.443535
 30
0.0
  0
VERTEX
  5
B1B
  8
0
  6
CONTINUOUS
 62
     7
 10
5802.5823110000001
 20
-730.51434900000004
 30
0.0
  0
VERTEX
  5
B1C
  8
0
  6
CONTINUOUS
 62
     7
 10
5801.9784890000001
 20
-730.63190699999996
 30
0.0
  0
VERTEX
  5
B1D
  8
0
  6
CONTINUOUS
 62
     7
 10
5801.3854849999998
 20
-730.7955139999998
 30
0.0
  0
VERTEX
  5
B1E
  8
0
  6
CONTINUOUS
 62
     7
 10
5800.8068059999996
 20
-731.00420299999996
 30
0.0
  0
VERTEX
  5
B1F
  8
0
  6
CONTINUOUS
 62
     7
 10
5800.2458729999998
 20
-731.25673899999992
 30
0.0
  0
VERTEX
  5
B20
  8
0
  6
CONTINUOUS
 62
     7
 10
5799.7060019999999
 20
-731.55162900000005
 30
0.0
  0
VERTEX
  5
B21
  8
0
  6
CONTINUOUS
 62
     7
 10
5799.1903869999987
 20
-731.88712999999996
 30
0.0
  0
VERTEX
  5
B22
  8
0
  6
CONTINUOUS
 62
     7
 10
5798.7020750000001
 20
-732.261258
 30
0.0
  0
VERTEX
  5
B23
  8
0
  6
CONTINUOUS
 62
     7
 10
5798.2439539999996
 20
-732.67180099999985
 30
0.0
  0
VERTEX
  5
B24
  8
0
  6
CONTINUOUS
 62
     7
 10
5797.8187319999988
 20
-733.11633200000006
 30
0.0
  0
VERTEX
  5
B25
  8
0
  6
CONTINUOUS
 62
     7
 10
5797.4289250000011
 20
-733.59222099999988
 30
0.0
  0
VERTEX
  5
B26
  8
0
  6
CONTINUOUS
 62
     7
 10
5797.0768360000002
 20
-734.09665599999994
 30
0.0
  0
VERTEX
  5
B27
  8
0
  6
CONTINUOUS
 62
     7
 10
5796.7645480000001
 20
-734.62665199999992
 30
0.0
  0
VERTEX
  5
B28
  8
0
  6
CONTINUOUS
 62
     7
 10
5796.4939079999986
 20
-735.17907799999989
 30
0.0
  0
VERTEX
  5
B29
  8
0
  6
CONTINUOUS
 62
     7
 10
5796.2665139999999
 20
-735.75066600000002
 30
0.0
  0
VERTEX
  5
B2A
  8
0
  6
CONTINUOUS
 62
     7
 10
5796.083713
 20
-736.33803599999987
 30
0.0
  0
VERTEX
  5
B2B
  8
0
  6
CONTINUOUS
 62
     7
 10
5795.9465840000012
 20
-736.93771699999991
 30
0.0
  0
VERTEX
  5
B2C
  8
0
  6
CONTINUOUS
 62
     7
 10
5795.855939
 20
-737.54615999999999
 30
0.0
  0
VERTEX
  5
B2D
  8
0
  6
CONTINUOUS
 62
     7
 10
5795.8123139999989
 20
-738.15976999999998
 30
0.0
  0
VERTEX
  5
B2E
  8
0
  6
CONTINUOUS
 62
     7
 10
5790.4444189999986
 20
-903.16634799999997
 30
0.0
  0
VERTEX
  5
B2F
  8
0
  6
CONTINUOUS
 62
     7
 10
5790.4444189999986
 20
-968.16634799999997
 30
0.0
  0
VERTEX
  5
B30
  8
0
  6
CONTINUOUS
 62
     7
 10
5778.7231259999999
 20
-968.16634799999997
 30
0.0
  0
VERTEX
  5
B31
  8
0
  6
CONTINUOUS
 62
     7
 10
5778.7231259999999
 20
-957.46809700000006
 30
0.0
  0
VERTEX
  5
B32
  8
0
  6
CONTINUOUS
 62
     7
 10
5761.723125999999
 20
-957.46809700000006
 30
0.0
  0
VERTEX
  5
B33
  8
0
  6
CONTINUOUS
 62
     7
 10
5761.723125999999
 20
-951.46809699999994
 30
0.0
  0
VERTEX
  5
B34
  8
0
  6
CONTINUOUS
 62
     7
 10
5761.723125999999
 20
-947.43837899999994
 30
0.0
  0
VERTEX
  5
B35
  8
0
  6
CONTINUOUS
 62
     7
 10
5764.723125999999
 20
-947.43837899999994
 30
0.0
  0
VERTEX
  5
B36
  8
0
  6
CONTINUOUS
 62
     7
 10
5764.723125999999
 20
-945.46809699999994
 30
0.0
  0
VERTEX
  5
B37
  8
0
  6
CONTINUOUS
 62
     7
 10
5768.001921
 20
-945.46809699999994
 30
0.0
  0
VERTEX
  5
B38
  8
0
  6
CONTINUOUS
 62
     7
 10
5768.3835150000004
 20
-945.45351400000004
 30
0.0
  0
VERTEX
  5
B39
  8
0
  6
CONTINUOUS
 62
     7
 10
5768.7628829999994
 20
-945.40985099999989
 30
0.0
  0
VERTEX
  5
B3A
  8
0
  6
CONTINUOUS
 62
     7
 10
5769.1378119999999
 20
-945.3373630000001
 30
0.0
  0
VERTEX
  5
B3B
  8
0
  6
CONTINUOUS
 62
     7
 10
5769.5061150000001
 20
-945.23647200000005
 30
0.0
  0
VERTEX
  5
B3C
  8
0
  6
CONTINUOUS
 62
     7
 10
5769.8656449999999
 20
-945.10776599999986
 30
0.0
  0
VERTEX
  5
B3D
  8
0
  6
CONTINUOUS
 62
     7
 10
5770.2143029999997
 20
-944.95199700000001
 30
0.0
  0
VERTEX
  5
B3E
  8
0
  6
CONTINUOUS
 62
     7
 10
5770.550056000001
 20
-944.77007400000002
 30
0.0
  0
VERTEX
  5
B3F
  8
0
  6
CONTINUOUS
 62
     7
 10
5770.870946
 20
-944.56305600000007
 30
0.0
  0
VERTEX
  5
B40
  8
0
  6
CONTINUOUS
 62
     7
 10
5771.1751009999998
 20
-944.33215299999995
 30
0.0
  0
VERTEX
  5
B41
  8
0
  6
CONTINUOUS
 62
     7
 10
5771.4607459999988
 20
-944.07870999999989
 30
0.0
  0
VERTEX
  5
B42
  8
0
  6
CONTINUOUS
 62
     7
 10
5771.7262160000009
 20
-943.80420699999991
 30
0.0
  0
VERTEX
  5
B43
  8
0
  6
CONTINUOUS
 62
     7
 10
5771.9699609999989
 20
-943.51024299999983
 30
0.0
  0
VERTEX
  5
B44
  8
0
  6
CONTINUOUS
 62
     7
 10
5772.1905610000013
 20
-943.19853499999988
 30
0.0
  0
VERTEX
  5
B45
  8
0
  6
CONTINUOUS
 62
     7
 10
5772.3867289999998
 20
-942.87089999999989
 30
0.0
  0
VERTEX
  5
B46
  8
0
  6
CONTINUOUS
 62
     7
 10
5772.5573189999996
 20
-942.52924900000005
 30
0.0
  0
VERTEX
  5
B47
  8
0
  6
CONTINUOUS
 62
     7
 10
5772.7013379999999
 20
-942.17557499999998
 30
0.0
  0
VERTEX
  5
B48
  8
0
  6
CONTINUOUS
 62
     7
 10
5772.8179439999994
 20
-941.81194100000005
 30
0.0
  0
VERTEX
  5
B49
  8
0
  6
CONTINUOUS
 62
     7
 10
5772.9064590000007
 20
-941.44046899999989
 30
0.0
  0
VERTEX
  5
B4A
  8
0
  6
CONTINUOUS
 62
     7
 10
5772.9663650000011
 20
-941.06332499999996
 30
0.0
  0
VERTEX
  5
B4B
  8
0
  6
CONTINUOUS
 62
     7
 10
5772.9973129999998
 20
-940.68270900000005
 30
0.0
  0
VERTEX
  5
B4C
  8
0
  6
CONTINUOUS
 62
     7
 10
5774.1435000000001
 20
-914.003648
 30
0.0
  0
VERTEX
  5
B4D
  8
0
  6
CONTINUOUS
 62
     7
 10
5774.169969999999
 20
-913.61952799999995
 30
0.0
  0
SEQEND
  5
B4E
  8
0
  6
CONTINUOUS
 62
     7
  0
DIMENSION
  5
4FD
  8
LAYER01
 62
     7
  2
*D9
 10
5245.7788419999997
 20
-618.41988400000002
 30
0.0
 11
5215.7788420000006
 21
-668.41988400000002
 31
0.0
 53
90.0
 13
5318.9637130000001
 23
-718.41988400000002
 33
0.0
 14
5318.9637130000001
 24
-618.41988400000002
 34
0.0
 50
90.0
  0
LINE
  5
4FE
  8
0
  6
CONTINUOUS
 62
     7
 10
5895.2401369999998
 20
-713.41988400000002
 30
0.0
 11
5895.2401369999998
 21
-623.41988400000002
 31
0.0
  0
LINE
  5
4FF
  8
0
  6
CONTINUOUS
 62
     7
 10
5906.0641029999997
 20
-618.41988400000002
 30
0.0
 11
5906.0641029999997
 21
-722.41988400000002
 31
0.0
  0
LINE
  5
500
  8
0
  6
CONTINUOUS
 62
     7
 10
5895.2401369999998
 20
-713.41988400000002
 30
0.0
 11
5895.2401369999998
 21
-623.41988400000002
 31
0.0
  0
LINE
  5
501
  8
0
  6
CONTINUOUS
 62
     7
 10
5906.0641029999997
 20
-618.41988400000002
 30
0.0
 11
5906.0641029999997
 21
-722.41988400000002
 31
0.0
  0
INSERT
  5
502
  8
LAYER01
  2
HORIZON-G11
 10
0.0
 20
0.0
 30
0.0
  0
INSERT
  5
503
  8
LAYER01
  2
HORIZON-G12
 10
0.0
 20
0.0
 30
0.0
  0
TEXT
  5
504
  8
LAYER01
  6
STRICHPUNKTIERT
 62
     7
 10
5277.9295780000011
 20
-1591.011675
 30
0.0
 40
45.0
  1
http://www.mineralwerkstoff.de
  7
SIMPLEX
1001
ACADANNOTATIVE
1000
AnnotativeData
1002
{
1070
     1
1070
     0
1002
}
  0
TEXT
  5
505
  8
LAYER01
  6
VERDECKT
 62
     1
 10
5915.0241659999992
 20
-1826.7478679999999
 30
0.0
 40
25.0
  1
A. Sprenger GmbH
  7
SIMPLEX
  0
TEXT
  5
506
  8
LAYER01
  6
CONTINUOUS
 62
     7
 10
5906.9140100000013
 20
-1671.926199
 30
0.0
 40
7.5
  1
Diese Zeichnung ist geistiges Eigentum der A. Sprenger GmbH
  7
SIMPLEX
  0
TEXT
  5
507
  8
LAYER01
  6
CONTINUOUS
 62
     7
 10
5906.9140100000013
 20
-1684.7833419999999
 30
0.0
 40
7.5
  1
und urheberrechtlich geschützt. Ohne unsere Zustimmung darf 
  7
SIMPLEX
  0
TEXT
  5
508
  8
LAYER01
  6
CONTINUOUS
 62
     7
 10
5906.9140100000013
 20
-1697.6404849999999
 30
0.0
 40
7.5
  1
sie in keiner Form verwendet oder Dritten zugänglich gemacht
  7
SIMPLEX
  0
TEXT
  5
509
  8
LAYER01
  6
CONTINUOUS
 62
     7
 10
5906.9140100000013
 20
-1710.4976280000001
 30
0.0
 40
7.5
  1
werden. (§106 Urheberrecht)
  7
SIMPLEX
  0
TEXT
  5
50A
  8
LAYER01
  6
VERDECKT
 62
     1
 10
5913.5587499999992
 20
-2024.579052
 30
0.0
 40
25.0
  1
May
  7
SIMPLEX
  0
TEXT
  5
50B
  8
LAYER01
  6
VERDECKT
 62
     1
 10
5915.0241659999992
 20
-1924.930752
 30
0.0
 40
35.0
  1
HORIZON
  7
SIMPLEX
  0
TEXT
  5
50C
  8
LAYER01
  6
CONTINUOUS
 62
     1
 10
5654.6193240000002
 20
-2027.576268
 30
0.0
 40
35.0
  1
61xxx
  7
SIMPLEX
  0
TEXT
  5
50D
  8
LAYER01
  6
VERDECKT
 62
     1
 10
5683.3581029999996
 20
-1884.632666
 30
0.0
 40
10.0
  1
31.10.2018
  7
SIMPLEX
  0
TEXT
  5
50E
  8
LAYER01
  6
VERDECKT
 62
     1
 10
5779.5152600000001
 20
-1884.6692029999999
 30
0.0
 40
10.0
  1
b.s.
  7
SIMPLEX
  0
TEXT
  5
50F
  8
LAYER01
  6
VERDECKT
 62
     1
 10
6238.6964880000014
 20
-1762.269556
 30
0.0
 40
10.0
  1
xxx.skd
  7
SIMPLEX
  0
TEXT
  5
510
  8
LAYER01
  6
VERDECKT
 62
     1
 10
5980.9678939999994
 20
-1762.269556
 30
0.0
 40
10.0
  1
1 : 10 (DIN A1)
  7
SIMPLEX
  0
DIMENSION
  5
511
  8
LAYER01
 62
     7
  2
*D13
 10
6123.9972900000012
 20
-968.16634799999997
 30
0.0
 11
6093.9972900000002
 21
-843.29311600000005
 31
0.0
 53
90.0
 13
5912.6197579999989
 23
-718.41988400000002
 33
0.0
 14
5912.6197579999989
 24
-968.16634799999997
 34
0.0
 50
90.0
  0
DIMENSION
  5
512
  8
LAYER01
 62
     7
  2
*D14
 10
6020.9660750000003
 20
-881.91849999999999
 30
0.0
 11
5990.9660750000003
 21
-800.16919199999984
 31
0.0
 53
90.0
 13
5912.6197579999989
 23
-718.41988400000002
 33
0.0
 14
5912.6197579999989
 24
-881.91849999999999
 34
0.0
 50
90.0
  0
LINE
  5
513
  8
0
  6
CONTINUOUS
 62
     7
 10
5732.7017439999991
 20
-881.91849999999999
 30
0.0
 11
5386.0641029999988
 21
-718.41988400000002
 31
0.0
  0
LINE
  5
514
  8
0
  6
CONTINUOUS
 62
     7
 10
5386.0641029999988
 20
-718.41988400000002
 30
0.0
 11
5732.7017439999991
 21
-881.91849999999999
 31
0.0
  0
POLYLINE
  5
515
  8
0
  6
CONTINUOUS
 62
     7
 66
     1
 10
0.0
 20
0.0
 30
0.0
 70
     1
  0
VERTEX
  5
B4F
  8
0
  6
CONTINUOUS
 62
     7
 10
5717.5872009999994
 20
-887.66832499999987
 30
0.0
  0
VERTEX
  5
B50
  8
0
  6
CONTINUOUS
 62
     7
 10
5386.0641029999988
 20
-730.41988400000002
 30
0.0
  0
VERTEX
  5
B51
  8
0
  6
CONTINUOUS
 62
     7
 10
5353.0641029999997
 20
-730.41988400000002
 30
0.0
  0
VERTEX
  5
B52
  8
0
  6
CONTINUOUS
 62
     7
 10
5352.6718080000001
 20
-730.43529699999999
 30
0.0
  0
VERTEX
  5
B53
  8
0
  6
CONTINUOUS
 62
     7
 10
5352.2819310000004
 20
-730.48144200000002
 30
0.0
  0
VERTEX
  5
B54
  8
0
  6
CONTINUOUS
 62
     7
 10
5351.8968759999998
 20
-730.55803400000002
 30
0.0
  0
VERTEX
  5
B55
  8
0
  6
CONTINUOUS
 62
     7
 10
5351.519018
 20
-730.66460099999995
 30
0.0
  0
VERTEX
  5
B56
  8
0
  6
CONTINUOUS
 62
     7
 10
5351.150686
 20
-730.80048599999986
 30
0.0
  0
VERTEX
  5
B57
  8
0
  6
CONTINUOUS
 62
     7
 10
5350.7941510000001
 20
-730.96485099999995
 30
0.0
  0
VERTEX
  5
B58
  8
0
  6
CONTINUOUS
 62
     7
 10
5350.4516100000001
 20
-731.15668300000004
 30
0.0
  0
VERTEX
  5
B59
  8
0
  6
CONTINUOUS
 62
     7
 10
5350.1251769999999
 20
-731.37479900000005
 30
0.0
  0
VERTEX
  5
B5A
  8
0
  6
CONTINUOUS
 62
     7
 10
5349.816863
 20
-731.61785399999997
 30
0.0
  0
VERTEX
  5
B5B
  8
0
  6
CONTINUOUS
 62
     7
 10
5349.5285690000001
 20
-731.88435000000004
 30
0.0
  0
VERTEX
  5
B5C
  8
0
  6
CONTINUOUS
 62
     7
 10
5349.2620729999999
 20
-732.17264399999988
 30
0.0
  0
VERTEX
  5
B5D
  8
0
  6
CONTINUOUS
 62
     7
 10
5349.0190179999991
 20
-732.48095799999999
 30
0.0
  0
VERTEX
  5
B5E
  8
0
  6
CONTINUOUS
 62
     7
 10
5348.800902
 20
-732.80739100000005
 30
0.0
  0
VERTEX
  5
B5F
  8
0
  6
CONTINUOUS
 62
     7
 10
5348.6090709999999
 20
-733.14993200000004
 30
0.0
  0
VERTEX
  5
B60
  8
0
  6
CONTINUOUS
 62
     7
 10
5348.4447060000002
 20
-733.50646700000004
 30
0.0
  0
VERTEX
  5
B61
  8
0
  6
CONTINUOUS
 62
     7
 10
5348.3088209999996
 20
-733.87479900000005
 30
0.0
  0
VERTEX
  5
B62
  8
0
  6
CONTINUOUS
 62
     7
 10
5348.2022539999998
 20
-734.252657
 30
0.0
  0
VERTEX
  5
B63
  8
0
  6
CONTINUOUS
 62
     7
 10
5348.1256620000004
 20
-734.63771199999985
 30
0.0
  0
VERTEX
  5
B64
  8
0
  6
CONTINUOUS
 62
     7
 10
5348.0795170000001
 20
-735.02758899999981
 30
0.0
  0
VERTEX
  5
B65
  8
0
  6
CONTINUOUS
 62
     7
 10
5348.0641029999997
 20
-735.41988400000002
 30
0.0
  0
VERTEX
  5
B66
  8
0
  6
CONTINUOUS
 62
     7
 10
5348.0641029999997
 20
-818.41988400000002
 30
0.0
  0
VERTEX
  5
B67
  8
0
  6
CONTINUOUS
 62
     7
 10
5341.0641029999997
 20
-818.41988400000002
 30
0.0
  0
VERTEX
  5
B68
  8
0
  6
CONTINUOUS
 62
     7
 10
5340.6718080000001
 20
-818.40447099999994
 30
0.0
  0
VERTEX
  5
B69
  8
0
  6
CONTINUOUS
 62
     7
 10
5340.2819310000004
 20
-818.35832600000003
 30
0.0
  0
VERTEX
  5
B6A
  8
0
  6
CONTINUOUS
 62
     7
 10
5339.8968759999998
 20
-818.28173399999991
 30
0.0
  0
VERTEX
  5
B6B
  8
0
  6
CONTINUOUS
 62
     7
 10
5339.519018
 20
-818.17516699999999
 30
0.0
  0
VERTEX
  5
B6C
  8
0
  6
CONTINUOUS
 62
     7
 10
5339.150685999999
 20
-818.03928200000007
 30
0.0
  0
VERTEX
  5
B6D
  8
0
  6
CONTINUOUS
 62
     7
 10
5338.7941510000001
 20
-817.87491699999987
 30
0.0
  0
VERTEX
  5
B6E
  8
0
  6
CONTINUOUS
 62
     7
 10
5338.4516099999992
 20
-817.68308499999989
 30
0.0
  0
VERTEX
  5
B6F
  8
0
  6
CONTINUOUS
 62
     7
 10
5338.1251769999999
 20
-817.464969
 30
0.0
  0
VERTEX
  5
B70
  8
0
  6
CONTINUOUS
 62
     7
 10
5337.816863
 20
-817.22191399999986
 30
0.0
  0
VERTEX
  5
B71
  8
0
  6
CONTINUOUS
 62
     7
 10
5337.5285689999992
 20
-816.95541800000001
 30
0.0
  0
VERTEX
  5
B72
  8
0
  6
CONTINUOUS
 62
     7
 10
5337.2620729999999
 20
-816.66712400000006
 30
0.0
  0
VERTEX
  5
B73
  8
0
  6
CONTINUOUS
 62
     7
 10
5337.019018
 20
-816.35880999999995
 30
0.0
  0
VERTEX
  5
B74
  8
0
  6
CONTINUOUS
 62
     7
 10
5336.800902
 20
-816.03237699999988
 30
0.0
  0
VERTEX
  5
B75
  8
0
  6
CONTINUOUS
 62
     7
 10
5336.6090709999999
 20
-815.68983700000001
 30
0.0
  0
VERTEX
  5
B76
  8
0
  6
CONTINUOUS
 62
     7
 10
5336.4447060000002
 20
-815.33330100000001
 30
0.0
  0
VERTEX
  5
B77
  8
0
  6
CONTINUOUS
 62
     7
 10
5336.3088210000014
 20
-814.964969
 30
0.0
  0
VERTEX
  5
B78
  8
0
  6
CONTINUOUS
 62
     7
 10
5336.2022539999989
 20
-814.58711099999994
 30
0.0
  0
VERTEX
  5
B79
  8
0
  6
CONTINUOUS
 62
     7
 10
5336.1256620000004
 20
-814.20205599999997
 30
0.0
  0
VERTEX
  5
B7A
  8
0
  6
CONTINUOUS
 62
     7
 10
5336.0795170000001
 20
-813.81218000000001
 30
0.0
  0
VERTEX
  5
B7B
  8
0
  6
CONTINUOUS
 62
     7
 10
5336.0641029999997
 20
-813.41988399999991
 30
0.0
  0
VERTEX
  5
B7C
  8
0
  6
CONTINUOUS
 62
     7
 10
5336.0641029999997
 20
-723.41988400000002
 30
0.0
  0
VERTEX
  5
B7D
  8
0
  6
CONTINUOUS
 62
     7
 10
5336.0795170000001
 20
-723.02758899999992
 30
0.0
  0
VERTEX
  5
B7E
  8
0
  6
CONTINUOUS
 62
     7
 10
5336.1256620000004
 20
-722.63771199999985
 30
0.0
  0
VERTEX
  5
B7F
  8
0
  6
CONTINUOUS
 62
     7
 10
5336.2022539999989
 20
-722.252657
 30
0.0
  0
VERTEX
  5
B80
  8
0
  6
CONTINUOUS
 62
     7
 10
5336.3088210000014
 20
-721.87479900000005
 30
0.0
  0
VERTEX
  5
B81
  8
0
  6
CONTINUOUS
 62
     7
 10
5336.4447060000002
 20
-721.50646700000004
 30
0.0
  0
VERTEX
  5
B82
  8
0
  6
CONTINUOUS
 62
     7
 10
5336.6090709999999
 20
-721.14993200000004
 30
0.0
  0
VERTEX
  5
B83
  8
0
  6
CONTINUOUS
 62
     7
 10
5336.800902
 20
-720.80739100000005
 30
0.0
  0
VERTEX
  5
B84
  8
0
  6
CONTINUOUS
 62
     7
 10
5337.019018
 20
-720.48095799999999
 30
0.0
  0
VERTEX
  5
B85
  8
0
  6
CONTINUOUS
 62
     7
 10
5337.2620729999999
 20
-720.17264399999988
 30
0.0
  0
VERTEX
  5
B86
  8
0
  6
CONTINUOUS
 62
     7
 10
5337.5285689999992
 20
-719.88435000000004
 30
0.0
  0
VERTEX
  5
B87
  8
0
  6
CONTINUOUS
 62
     7
 10
5337.816863
 20
-719.61785399999997
 30
0.0
  0
VERTEX
  5
B88
  8
0
  6
CONTINUOUS
 62
     7
 10
5338.1251769999999
 20
-719.37479900000005
 30
0.0
  0
VERTEX
  5
B89
  8
0
  6
CONTINUOUS
 62
     7
 10
5338.4516099999992
 20
-719.15668300000004
 30
0.0
  0
VERTEX
  5
B8A
  8
0
  6
CONTINUOUS
 62
     7
 10
5338.7941510000001
 20
-718.96485099999995
 30
0.0
  0
VERTEX
  5
B8B
  8
0
  6
CONTINUOUS
 62
     7
 10
5339.150685999999
 20
-718.80048599999986
 30
0.0
  0
VERTEX
  5
B8C
  8
0
  6
CONTINUOUS
 62
     7
 10
5339.519018
 20
-718.66460099999995
 30
0.0
  0
VERTEX
  5
B8D
  8
0
  6
CONTINUOUS
 62
     7
 10
5339.8968759999998
 20
-718.55803400000002
 30
0.0
  0
VERTEX
  5
B8E
  8
0
  6
CONTINUOUS
 62
     7
 10
5340.2819310000004
 20
-718.48144200000002
 30
0.0
  0
VERTEX
  5
B8F
  8
0
  6
CONTINUOUS
 62
     7
 10
5340.6718080000001
 20
-718.43529699999988
 30
0.0
  0
VERTEX
  5
B90
  8
0
  6
CONTINUOUS
 62
     7
 10
5341.0641029999997
 20
-718.41988400000002
 30
0.0
  0
VERTEX
  5
B91
  8
0
  6
CONTINUOUS
 62
     7
 10
5386.0641029999988
 20
-718.41988400000002
 30
0.0
  0
VERTEX
  5
B92
  8
0
  6
CONTINUOUS
 62
     7
 10
5732.7017439999991
 20
-881.91849999999999
 30
0.0
  0
VERTEX
  5
B93
  8
0
  6
CONTINUOUS
 62
     7
 10
5732.9422109999996
 20
-882.03994499999976
 30
0.0
  0
VERTEX
  5
B94
  8
0
  6
CONTINUOUS
 62
     7
 10
5733.1757879999996
 20
-882.1741649999999
 30
0.0
  0
VERTEX
  5
B95
  8
0
  6
CONTINUOUS
 62
     7
 10
5733.4017969999986
 20
-882.32077100000004
 30
0.0
  0
VERTEX
  5
B96
  8
0
  6
CONTINUOUS
 62
     7
 10
5733.6195820000003
 20
-882.47933699999976
 30
0.0
  0
VERTEX
  5
B97
  8
0
  6
CONTINUOUS
 62
     7
 10
5733.8285109999997
 20
-882.64940299999989
 30
0.0
  0
VERTEX
  5
B98
  8
0
  6
CONTINUOUS
 62
     7
 10
5734.0279760000003
 20
-882.83047399999998
 30
0.0
  0
VERTEX
  5
B99
  8
0
  6
CONTINUOUS
 62
     7
 10
5734.2174000000014
 20
-883.02202599999998
 30
0.0
  0
VERTEX
  5
B9A
  8
0
  6
CONTINUOUS
 62
     7
 10
5734.3962320000001
 20
-883.22350099999994
 30
0.0
  0
VERTEX
  5
B9B
  8
0
  6
CONTINUOUS
 62
     7
 10
5734.5639529999999
 20
-883.43431699999996
 30
0.0
  0
VERTEX
  5
B9C
  8
0
  6
CONTINUOUS
 62
     7
 10
5734.7200769999999
 20
-883.6538589999999
 30
0.0
  0
VERTEX
  5
B9D
  8
0
  6
CONTINUOUS
 62
     7
 10
5734.8641489999991
 20
-883.88149199999998
 30
0.0
  0
VERTEX
  5
B9E
  8
0
  6
CONTINUOUS
 62
     7
 10
5734.9957520000007
 20
-884.11655399999995
 30
0.0
  0
VERTEX
  5
B9F
  8
0
  6
CONTINUOUS
 62
     7
 10
5735.114504000001
 20
-884.35836200000006
 30
0.0
  0
VERTEX
  5
BA0
  8
0
  6
CONTINUOUS
 62
     7
 10
5735.2200590000002
 20
-884.60621600000002
 30
0.0
  0
VERTEX
  5
BA1
  8
0
  6
CONTINUOUS
 62
     7
 10
5735.312112999999
 20
-884.85939499999995
 30
0.0
  0
VERTEX
  5
BA2
  8
0
  6
CONTINUOUS
 62
     7
 10
5735.3903959999989
 20
-885.11716400000023
 30
0.0
  0
VERTEX
  5
BA3
  8
0
  6
CONTINUOUS
 62
     7
 10
5735.4546829999999
 20
-885.37877600000013
 30
0.0
  0
VERTEX
  5
BA4
  8
0
  6
CONTINUOUS
 62
     7
 10
5735.5047859999986
 20
-885.64346999999987
 30
0.0
  0
VERTEX
  5
BA5
  8
0
  6
CONTINUOUS
 62
     7
 10
5735.5405600000004
 20
-885.9104789999999
 30
0.0
  0
VERTEX
  5
BA6
  8
0
  6
CONTINUOUS
 62
     7
 10
5735.561901
 20
-886.17902699999979
 30
0.0
  0
VERTEX
  5
BA7
  8
0
  6
CONTINUOUS
 62
     7
 10
5736.2038439999997
 20
-898.42802800000004
 30
0.0
  0
VERTEX
  5
BA8
  8
0
  6
CONTINUOUS
 62
     7
 10
5736.2038439999997
 20
-913.46809700000006
 30
0.0
  0
VERTEX
  5
BA9
  8
0
  6
CONTINUOUS
 62
     7
 10
5736.2192580000001
 20
-913.86039200000005
 30
0.0
  0
VERTEX
  5
BAA
  8
0
  6
CONTINUOUS
 62
     7
 10
5736.6390119999996
 20
-940.54673300000002
 30
0.0
  0
VERTEX
  5
BAB
  8
0
  6
CONTINUOUS
 62
     7
 10
5736.6602249999996
 20
-940.93482300000005
 30
0.0
  0
VERTEX
  5
BAC
  8
0
  6
CONTINUOUS
 62
     7
 10
5736.7115179999992
 20
-941.32009200000005
 30
0.0
  0
VERTEX
  5
BAD
  8
0
  6
CONTINUOUS
 62
     7
 10
5736.792582
 20
-941.70021400000007
 30
0.0
  0
VERTEX
  5
BAE
  8
0
  6
CONTINUOUS
 62
     7
 10
5736.9029280000013
 20
-942.07289000000003
 30
0.0
  0
VERTEX
  5
BAF
  8
0
  6
CONTINUOUS
 62
     7
 10
5737.0418870000003
 20
-942.43586900000003
 30
0.0
  0
VERTEX
  5
BB0
  8
0
  6
CONTINUOUS
 62
     7
 10
5737.2086220000001
 20
-942.78695800000014
 30
0.0
  0
VERTEX
  5
BB1
  8
0
  6
CONTINUOUS
 62
     7
 10
5737.4021229999989
 20
-943.12403499999994
 30
0.0
  0
VERTEX
  5
BB2
  8
0
  6
CONTINUOUS
 62
     7
 10
5737.6212219999998
 20
-943.44506400000012
 30
0.0
  0
VERTEX
  5
BB3
  8
0
  6
CONTINUOUS
 62
     7
 10
5737.8645960000013
 20
-943.7481039999999
 30
0.0
  0
VERTEX
  5
BB4
  8
0
  6
CONTINUOUS
 62
     7
 10
5738.1307719999986
 20
-944.03132400000004
 30
0.0
  0
VERTEX
  5
BB5
  8
0
  6
CONTINUOUS
 62
     7
 10
5738.4181440000002
 20
-944.29301400000008
 30
0.0
  0
VERTEX
  5
BB6
  8
0
  6
CONTINUOUS
 62
     7
 10
5738.7249740000007
 20
-944.53159100000005
 30
0.0
  0
VERTEX
  5
BB7
  8
0
  6
CONTINUOUS
 62
     7
 10
5739.0494079999989
 20
-944.74561399999993
 30
0.0
  0
VERTEX
  5
BB8
  8
0
  6
CONTINUOUS
 62
     7
 10
5739.3894870000004
 20
-944.93379000000004
 30
0.0
  0
VERTEX
  5
BB9
  8
0
  6
CONTINUOUS
 62
     7
 10
5739.7431550000001
 20
-945.09498200000007
 30
0.0
  0
VERTEX
  5
BBA
  8
0
  6
CONTINUOUS
 62
     7
 10
5740.1082740000002
 20
-945.22821599999986
 30
0.0
  0
VERTEX
  5
BBB
  8
0
  6
CONTINUOUS
 62
     7
 10
5740.4826400000002
 20
-945.33268599999997
 30
0.0
  0
VERTEX
  5
BBC
  8
0
  6
CONTINUOUS
 62
     7
 10
5740.8639890000013
 20
-945.40776199999993
 30
0.0
  0
VERTEX
  5
BBD
  8
0
  6
CONTINUOUS
 62
     7
 10
5741.2500179999988
 20
-945.45299
 30
0.0
  0
VERTEX
  5
BBE
  8
0
  6
CONTINUOUS
 62
     7
 10
5741.6383939999987
 20
-945.46809699999994
 30
0.0
  0
VERTEX
  5
BBF
  8
0
  6
CONTINUOUS
 62
     7
 10
5746.7231259999999
 20
-945.46809699999994
 30
0.0
  0
VERTEX
  5
BC0
  8
0
  6
CONTINUOUS
 62
     7
 10
5746.7231259999999
 20
-947.43837899999994
 30
0.0
  0
VERTEX
  5
BC1
  8
0
  6
CONTINUOUS
 62
     7
 10
5749.7231259999999
 20
-947.43837899999994
 30
0.0
  0
VERTEX
  5
BC2
  8
0
  6
CONTINUOUS
 62
     7
 10
5749.7231259999999
 20
-951.46809699999994
 30
0.0
  0
VERTEX
  5
BC3
  8
0
  6
CONTINUOUS
 62
     7
 10
5749.7231259999999
 20
-957.46809700000006
 30
0.0
  0
VERTEX
  5
BC4
  8
0
  6
CONTINUOUS
 62
     7
 10
5732.4444190000004
 20
-957.46809700000006
 30
0.0
  0
VERTEX
  5
BC5
  8
0
  6
CONTINUOUS
 62
     7
 10
5732.4444190000004
 20
-968.16634799999997
 30
0.0
  0
VERTEX
  5
BC6
  8
0
  6
CONTINUOUS
 62
     7
 10
5720.4444189999986
 20
-968.16634799999997
 30
0.0
  0
VERTEX
  5
BC7
  8
0
  6
CONTINUOUS
 62
     7
 10
5720.4444189999986
 20
-903.16634799999997
 30
0.0
  0
VERTEX
  5
BC8
  8
0
  6
CONTINUOUS
 62
     7
 10
5720.4444189999986
 20
-892.18589999999995
 30
0.0
  0
VERTEX
  5
BC9
  8
0
  6
CONTINUOUS
 62
     7
 10
5720.4364699999996
 20
-891.90407399999992
 30
0.0
  0
VERTEX
  5
BCA
  8
0
  6
CONTINUOUS
 62
     7
 10
5720.4126489999999
 20
-891.6231439999998
 30
0.0
  0
VERTEX
  5
BCB
  8
0
  6
CONTINUOUS
 62
     7
 10
5720.3730299999997
 20
-891.34400300000004
 30
0.0
  0
VERTEX
  5
BCC
  8
0
  6
CONTINUOUS
 62
     7
 10
5720.3177409999998
 20
-891.0675389999999
 30
0.0
  0
VERTEX
  5
BCD
  8
0
  6
CONTINUOUS
 62
     7
 10
5720.2469570000003
 20
-890.79463199999998
 30
0.0
  0
VERTEX
  5
BCE
  8
0
  6
CONTINUOUS
 62
     7
 10
5720.160903
 20
-890.52614700000015
 30
0.0
  0
VERTEX
  5
BCF
  8
0
  6
CONTINUOUS
 62
     7
 10
5720.0598529999997
 20
-890.26293999999996
 30
0.0
  0
VERTEX
  5
BD0
  8
0
  6
CONTINUOUS
 62
     7
 10
5719.9441270000007
 20
-890.00584800000001
 30
0.0
  0
VERTEX
  5
BD1
  8
0
  6
CONTINUOUS
 62
     7
 10
5719.8140940000003
 20
-889.75568599999986
 30
0.0
  0
VERTEX
  5
BD2
  8
0
  6
CONTINUOUS
 62
     7
 10
5719.6701679999996
 20
-889.51325199999997
 30
0.0
  0
VERTEX
  5
BD3
  8
0
  6
CONTINUOUS
 62
     7
 10
5719.5128059999997
 20
-889.27931599999999
 30
0.0
  0
VERTEX
  5
BD4
  8
0
  6
CONTINUOUS
 62
     7
 10
5719.3425079999997
 20
-889.05462100000011
 30
0.0
  0
VERTEX
  5
BD5
  8
0
  6
CONTINUOUS
 62
     7
 10
5719.1598150000009
 20
-888.83988299999987
 30
0.0
  0
VERTEX
  5
BD6
  8
0
  6
CONTINUOUS
 62
     7
 10
5718.9653100000014
 20
-888.63578300000006
 30
0.0
  0
VERTEX
  5
BD7
  8
0
  6
CONTINUOUS
 62
     7
 10
5718.7596090000006
 20
-888.44297099999994
 30
0.0
  0
VERTEX
  5
BD8
  8
0
  6
CONTINUOUS
 62
     7
 10
5718.5433679999987
 20
-888.26206000000002
 30
0.0
  0
VERTEX
  5
BD9
  8
0
  6
CONTINUOUS
 62
     7
 10
5718.3172729999997
 20
-888.09362499999986
 30
0.0
  0
VERTEX
  5
BDA
  8
0
  6
CONTINUOUS
 62
     7
 10
5718.0820439999989
 20
-887.93820199999993
 30
0.0
  0
VERTEX
  5
BDB
  8
0
  6
CONTINUOUS
 62
     7
 10
5717.838428
 20
-887.79628500000013
 30
0.0
  0
SEQEND
  5
BDC
  8
0
  6
CONTINUOUS
 62
     7
  0
LINE
  5
5A4
  8
0
  6
CONTINUOUS
 62
     7
 10
5386.0641029999988
 20
-730.41988400000002
 30
0.0
 11
5717.5872009999994
 21
-887.66832499999987
 31
0.0
  0
LINE
  5
5A5
  8
0
  6
CONTINUOUS
 62
     7
 10
5717.5872009999994
 20
-887.66832499999987
 30
0.0
 11
5386.0641029999988
 21
-730.41988400000002
 31
0.0
  0
LINE
  5
5A6
  8
0
  6
CONTINUOUS
 62
     7
 10
5774.630275999999
 20
-898.42802800000004
 30
0.0
 11
5784.9627719999999
 21
-723.12568999999996
 31
0.0
  0
LINE
  5
5A7
  8
0
  6
CONTINUOUS
 62
     7
 10
5774.630275999999
 20
-898.42802800000004
 30
0.0
 11
5784.9627719999999
 21
-723.12568999999996
 31
0.0
  0
LINE
  5
5A8
  8
0
  6
CONTINUOUS
 62
     7
 10
5795.8123139999989
 20
-738.15976999999998
 30
0.0
 11
5790.4444189999986
 21
-903.16634799999997
 31
0.0
  0
LINE
  5
5A9
  8
0
  6
CONTINUOUS
 62
     7
 10
5795.8123139999989
 20
-738.15976999999998
 30
0.0
 11
5790.4444189999986
 21
-903.16634799999997
 31
0.0
  0
LINE
  5
5AA
  8
0
  6
CONTINUOUS
 62
     7
 10
5720.4444189999986
 20
-948.16634800000008
 30
0.0
 11
5720.4444189999986
 21
-903.16634799999997
 31
0.0
  0
LINE
  5
5AB
  8
0
  6
CONTINUOUS
 62
     7
 10
5736.2192580000001
 20
-913.86039200000005
 30
0.0
 11
5736.6390119999996
 21
-940.54673300000002
 31
0.0
  0
LINE
  5
5AC
  8
0
  6
CONTINUOUS
 62
     7
 10
5774.1435000000001
 20
-914.003648
 30
0.0
 11
5772.9973129999998
 21
-940.68270900000005
 31
0.0
  0
LINE
  5
5AD
  8
0
  6
CONTINUOUS
 62
     7
 10
5720.4444189999986
 20
-968.16634799999997
 30
0.0
 11
5720.4444189999986
 21
-903.16634799999997
 31
0.0
  0
LINE
  5
5AE
  8
0
  6
CONTINUOUS
 62
     7
 10
5790.4444189999986
 20
-968.16634799999997
 30
0.0
 11
5790.4444189999986
 21
-903.16634799999997
 31
0.0
  0
LINE
  5
5AF
  8
0
  6
CONTINUOUS
 62
     7
 10
5720.4444189999986
 20
-968.16634799999997
 30
0.0
 11
5732.4444190000004
 21
-968.16634799999997
 31
0.0
  0
LINE
  5
5B0
  8
0
  6
CONTINUOUS
 62
     7
 10
5778.4444189999986
 20
-968.16634799999997
 30
0.0
 11
5790.4444189999986
 21
-968.16634799999997
 31
0.0
  0
LINE
  5
5B1
  8
0
  6
CONTINUOUS
 62
     7
 10
5755.7231259999999
 20
-957.46809700000006
 30
0.0
 11
5778.7231259999999
 21
-957.46809700000006
 31
0.0
  0
LINE
  5
5B2
  8
0
  6
CONTINUOUS
 62
     7
 10
5761.723125999999
 20
-951.46809699999994
 30
0.0
 11
5761.723125999999
 21
-957.46809700000006
 31
0.0
  0
LINE
  5
5B3
  8
0
  6
CONTINUOUS
 62
     7
 10
5749.7231259999999
 20
-951.46809699999994
 30
0.0
 11
5749.7231259999999
 21
-957.46809700000006
 31
0.0
  0
LINE
  5
5B4
  8
0
  6
CONTINUOUS
 62
     7
 10
5732.4444190000004
 20
-968.16634799999997
 30
0.0
 11
5778.4444189999986
 21
-968.16634799999997
 31
0.0
  0
LINE
  5
5B5
  8
0
  6
CONTINUOUS
 62
     7
 10
5755.7921020000003
 20
-947.43837899999994
 30
0.0
 11
5749.7231259999999
 21
-947.43837899999994
 31
0.0
  0
LINE
  5
5B6
  8
0
  6
CONTINUOUS
 62
     7
 10
5755.7921020000003
 20
-947.43837899999994
 30
0.0
 11
5761.723125999999
 21
-947.43837899999994
 31
0.0
  0
LINE
  5
5B7
  8
0
  6
CONTINUOUS
 62
     7
 10
5749.7231259999999
 20
-947.43837899999994
 30
0.0
 11
5746.7231259999999
 21
-947.43837899999994
 31
0.0
  0
LINE
  5
5B8
  8
0
  6
CONTINUOUS
 62
     7
 10
5761.723125999999
 20
-947.43837899999994
 30
0.0
 11
5764.723125999999
 21
-947.43837899999994
 31
0.0
  0
LINE
  5
5B9
  8
0
  6
CONTINUOUS
 62
     7
 10
5746.7231259999999
 20
-947.43837899999994
 30
0.0
 11
5746.7231259999999
 21
-945.46809699999994
 31
0.0
  0
LINE
  5
5BA
  8
0
  6
CONTINUOUS
 62
     7
 10
5749.7231259999999
 20
-951.46809699999994
 30
0.0
 11
5749.7231259999999
 21
-947.43837899999994
 31
0.0
  0
LINE
  5
5BB
  8
0
  6
CONTINUOUS
 62
     7
 10
5761.723125999999
 20
-951.46809699999994
 30
0.0
 11
5761.723125999999
 21
-947.43837899999994
 31
0.0
  0
LINE
  5
5BC
  8
0
  6
CONTINUOUS
 62
     7
 10
5755.7231259999999
 20
-957.46809700000006
 30
0.0
 11
5732.4444190000004
 21
-957.46809700000006
 31
0.0
  0
LINE
  5
5BD
  8
0
  6
CONTINUOUS
 62
     7
 10
5764.723125999999
 20
-947.43837899999994
 30
0.0
 11
5764.723125999999
 21
-945.46809699999994
 31
0.0
  0
ARC
  5
5BE
  8
0
  6
CONTINUOUS
 62
     7
 10
5741.6383939999987
 20
-940.46809700000006
 30
0.0
 40
5.0
 50
180.90114199999999
 51
270.0
  0
ARC
  5
5BF
  8
0
  6
CONTINUOUS
 62
     7
 10
5768.001921
 20
-940.46809700000006
 30
0.0
 40
5.0
 50
270.0
 51
357.5399700000001
  0
LINE
  5
5C0
  8
0
  6
CONTINUOUS
 62
     7
 10
5741.6383939999987
 20
-945.46809699999994
 30
0.0
 11
5768.001921
 21
-945.46809699999994
 31
0.0
  0
LINE
  5
5C1
  8
0
  6
CONTINUOUS
 62
     7
 10
5732.4444190000004
 20
-957.46809700000006
 30
0.0
 11
5732.4444190000004
 21
-968.16634799999997
 31
0.0
  0
LINE
  5
5C2
  8
0
  6
CONTINUOUS
 62
     7
 10
5778.7231259999999
 20
-957.46809700000006
 30
0.0
 11
5778.7231259999999
 21
-968.16634799999997
 31
0.0
  0
ARC
  5
5C3
  8
0
  6
CONTINUOUS
 62
     7
 10
5730.5687539999999
 20
-886.44070699999997
 30
0.0
 40
5.0
 50
3.0
 51
64.748148999999998
  0
LINE
  5
5C4
  8
0
  6
CONTINUOUS
 62
     7
 10
5736.2038439999997
 20
-898.42802800000004
 30
0.0
 11
5735.561901
 21
-886.17902699999979
 31
0.0
  0
ARC
  5
5C5
  8
0
  6
CONTINUOUS
 62
     7
 10
5715.4444189999986
 20
-892.18589999999995
 30
0.0
 40
5.0
 50
0.0
 51
64.624021999999997
  0
LINE
  5
5C6
  8
0
  6
CONTINUOUS
 62
     7
 10
5720.4444189999986
 20
-903.16634799999997
 30
0.0
 11
5720.4444189999986
 21
-892.18589999999995
 31
0.0
  0
LINE
  5
5C7
  8
0
  6
CONTINUOUS
 62
     7
 10
5736.2038439999997
 20
-898.42802800000004
 30
0.0
 11
5736.2038439999997
 21
-913.46809700000006
 31
0.0
  0
LINE
  5
5C8
  8
0
  6
CONTINUOUS
 62
     7
 10
5774.630275999999
 20
-898.42802800000004
 30
0.0
 11
5774.169969999999
 21
-913.61952799999995
 31
0.0
  0
LINE
  5
5C9
  8
0
  6
CONTINUOUS
 62
     7
 10
5774.1435000000001
 20
-914.003648
 30
0.0
 11
5774.169969999999
 21
-913.61952799999995
 31
0.0
  0
LINE
  5
5CA
  8
0
  6
CONTINUOUS
 62
     7
 10
5774.169969999999
 20
-913.61952799999995
 30
0.0
 11
5774.630275999999
 21
-898.42802800000004
 31
0.0
  0
LINE
  5
5CB
  8
0
  6
CONTINUOUS
 62
     7
 10
5732.7017439999991
 20
-881.91849999999999
 30
0.0
 11
5732.9422109999996
 21
-882.03994499999976
 31
0.0
  0
LINE
  5
5CC
  8
0
  6
CONTINUOUS
 62
     7
 10
5732.9422109999996
 20
-882.03994499999976
 30
0.0
 11
5733.1757879999996
 21
-882.1741649999999
 31
0.0
  0
LINE
  5
5CD
  8
0
  6
CONTINUOUS
 62
     7
 10
5733.1757879999996
 20
-882.1741649999999
 30
0.0
 11
5733.4017969999986
 21
-882.32077100000004
 31
0.0
  0
LINE
  5
5CE
  8
0
  6
CONTINUOUS
 62
     7
 10
5733.4017969999986
 20
-882.32077100000004
 30
0.0
 11
5733.6195820000003
 21
-882.47933699999976
 31
0.0
  0
LINE
  5
5CF
  8
0
  6
CONTINUOUS
 62
     7
 10
5733.6195820000003
 20
-882.47933699999976
 30
0.0
 11
5733.8285109999997
 21
-882.64940299999989
 31
0.0
  0
LINE
  5
5D0
  8
0
  6
CONTINUOUS
 62
     7
 10
5733.8285109999997
 20
-882.64940299999989
 30
0.0
 11
5734.0279760000003
 21
-882.83047399999998
 31
0.0
  0
LINE
  5
5D1
  8
0
  6
CONTINUOUS
 62
     7
 10
5734.0279760000003
 20
-882.83047399999998
 30
0.0
 11
5734.2174000000014
 21
-883.02202599999998
 31
0.0
  0
LINE
  5
5D2
  8
0
  6
CONTINUOUS
 62
     7
 10
5734.2174000000014
 20
-883.02202599999998
 30
0.0
 11
5734.3962320000001
 21
-883.22350099999994
 31
0.0
  0
LINE
  5
5D3
  8
0
  6
CONTINUOUS
 62
     7
 10
5734.3962320000001
 20
-883.22350099999994
 30
0.0
 11
5734.5639529999999
 21
-883.43431699999996
 31
0.0
  0
LINE
  5
5D4
  8
0
  6
CONTINUOUS
 62
     7
 10
5734.5639529999999
 20
-883.43431699999996
 30
0.0
 11
5734.7200769999999
 21
-883.6538589999999
 31
0.0
  0
LINE
  5
5D5
  8
0
  6
CONTINUOUS
 62
     7
 10
5734.7200769999999
 20
-883.6538589999999
 30
0.0
 11
5734.8641489999991
 21
-883.88149199999998
 31
0.0
  0
LINE
  5
5D6
  8
0
  6
CONTINUOUS
 62
     7
 10
5734.8641489999991
 20
-883.88149199999998
 30
0.0
 11
5734.9957520000007
 21
-884.11655399999995
 31
0.0
  0
LINE
  5
5D7
  8
0
  6
CONTINUOUS
 62
     7
 10
5734.9957520000007
 20
-884.11655399999995
 30
0.0
 11
5735.114504000001
 21
-884.35836200000006
 31
0.0
  0
LINE
  5
5D8
  8
0
  6
CONTINUOUS
 62
     7
 10
5735.114504000001
 20
-884.35836200000006
 30
0.0
 11
5735.2200590000002
 21
-884.60621600000002
 31
0.0
  0
LINE
  5
5D9
  8
0
  6
CONTINUOUS
 62
     7
 10
5735.2200590000002
 20
-884.60621600000002
 30
0.0
 11
5735.312112999999
 21
-884.85939499999995
 31
0.0
  0
LINE
  5
5DA
  8
0
  6
CONTINUOUS
 62
     7
 10
5735.312112999999
 20
-884.85939499999995
 30
0.0
 11
5735.3903959999989
 21
-885.11716400000023
 31
0.0
  0
LINE
  5
5DB
  8
0
  6
CONTINUOUS
 62
     7
 10
5735.3903959999989
 20
-885.11716400000023
 30
0.0
 11
5735.4546829999999
 21
-885.37877600000013
 31
0.0
  0
LINE
  5
5DC
  8
0
  6
CONTINUOUS
 62
     7
 10
5735.4546829999999
 20
-885.37877600000013
 30
0.0
 11
5735.5047859999986
 21
-885.64346999999987
 31
0.0
  0
LINE
  5
5DD
  8
0
  6
CONTINUOUS
 62
     7
 10
5735.5047859999986
 20
-885.64346999999987
 30
0.0
 11
5735.5405600000004
 21
-885.9104789999999
 31
0.0
  0
LINE
  5
5DE
  8
0
  6
CONTINUOUS
 62
     7
 10
5735.5405600000004
 20
-885.9104789999999
 30
0.0
 11
5735.561901
 21
-886.17902699999979
 31
0.0
  0
LINE
  5
5DF
  8
0
  6
CONTINUOUS
 62
     7
 10
5735.561901
 20
-886.17902699999979
 30
0.0
 11
5736.2038439999997
 21
-898.42802800000004
 31
0.0
  0
LINE
  5
5E0
  8
0
  6
CONTINUOUS
 62
     7
 10
5736.2038439999997
 20
-898.42802800000004
 30
0.0
 11
5736.2038439999997
 21
-913.46809700000006
 31
0.0
  0
LINE
  5
5E1
  8
0
  6
CONTINUOUS
 62
     7
 10
5736.2038439999997
 20
-913.46809700000006
 30
0.0
 11
5736.2192580000001
 21
-913.86039200000005
 31
0.0
  0
LINE
  5
5E2
  8
0
  6
CONTINUOUS
 62
     7
 10
5720.4444189999986
 20
-903.16634799999997
 30
0.0
 11
5720.4444189999986
 21
-892.18589999999995
 31
0.0
  0
LINE
  5
5E3
  8
0
  6
CONTINUOUS
 62
     7
 10
5720.4444189999986
 20
-892.18589999999995
 30
0.0
 11
5720.4364699999996
 21
-891.90407399999992
 31
0.0
  0
LINE
  5
5E4
  8
0
  6
CONTINUOUS
 62
     7
 10
5720.4364699999996
 20
-891.90407399999992
 30
0.0
 11
5720.4126489999999
 21
-891.6231439999998
 31
0.0
  0
LINE
  5
5E5
  8
0
  6
CONTINUOUS
 62
     7
 10
5720.4126489999999
 20
-891.6231439999998
 30
0.0
 11
5720.3730299999997
 21
-891.34400300000004
 31
0.0
  0
LINE
  5
5E6
  8
0
  6
CONTINUOUS
 62
     7
 10
5720.3730299999997
 20
-891.34400300000004
 30
0.0
 11
5720.3177409999998
 21
-891.0675389999999
 31
0.0
  0
LINE
  5
5E7
  8
0
  6
CONTINUOUS
 62
     7
 10
5720.3177409999998
 20
-891.0675389999999
 30
0.0
 11
5720.2469570000003
 21
-890.79463199999998
 31
0.0
  0
LINE
  5
5E8
  8
0
  6
CONTINUOUS
 62
     7
 10
5720.2469570000003
 20
-890.79463199999998
 30
0.0
 11
5720.160903
 21
-890.52614700000015
 31
0.0
  0
LINE
  5
5E9
  8
0
  6
CONTINUOUS
 62
     7
 10
5720.160903
 20
-890.52614700000015
 30
0.0
 11
5720.0598529999997
 21
-890.26293999999996
 31
0.0
  0
LINE
  5
5EA
  8
0
  6
CONTINUOUS
 62
     7
 10
5720.0598529999997
 20
-890.26293999999996
 30
0.0
 11
5719.9441270000007
 21
-890.00584800000001
 31
0.0
  0
LINE
  5
5EB
  8
0
  6
CONTINUOUS
 62
     7
 10
5719.9441270000007
 20
-890.00584800000001
 30
0.0
 11
5719.8140940000003
 21
-889.75568599999986
 31
0.0
  0
LINE
  5
5EC
  8
0
  6
CONTINUOUS
 62
     7
 10
5719.8140940000003
 20
-889.75568599999986
 30
0.0
 11
5719.6701679999996
 21
-889.51325199999997
 31
0.0
  0
LINE
  5
5ED
  8
0
  6
CONTINUOUS
 62
     7
 10
5719.6701679999996
 20
-889.51325199999997
 30
0.0
 11
5719.5128059999997
 21
-889.27931599999999
 31
0.0
  0
LINE
  5
5EE
  8
0
  6
CONTINUOUS
 62
     7
 10
5719.5128059999997
 20
-889.27931599999999
 30
0.0
 11
5719.3425079999997
 21
-889.05462100000011
 31
0.0
  0
LINE
  5
5EF
  8
0
  6
CONTINUOUS
 62
     7
 10
5719.3425079999997
 20
-889.05462100000011
 30
0.0
 11
5719.1598150000009
 21
-888.83988299999987
 31
0.0
  0
LINE
  5
5F0
  8
0
  6
CONTINUOUS
 62
     7
 10
5719.1598150000009
 20
-888.83988299999987
 30
0.0
 11
5718.9653100000014
 21
-888.63578300000006
 31
0.0
  0
LINE
  5
5F1
  8
0
  6
CONTINUOUS
 62
     7
 10
5718.9653100000014
 20
-888.63578300000006
 30
0.0
 11
5718.7596090000006
 21
-888.44297099999994
 31
0.0
  0
LINE
  5
5F2
  8
0
  6
CONTINUOUS
 62
     7
 10
5718.7596090000006
 20
-888.44297099999994
 30
0.0
 11
5718.5433679999987
 21
-888.26206000000002
 31
0.0
  0
LINE
  5
5F3
  8
0
  6
CONTINUOUS
 62
     7
 10
5718.5433679999987
 20
-888.26206000000002
 30
0.0
 11
5718.3172729999997
 21
-888.09362499999986
 31
0.0
  0
LINE
  5
5F4
  8
0
  6
CONTINUOUS
 62
     7
 10
5718.3172729999997
 20
-888.09362499999986
 30
0.0
 11
5718.0820439999989
 21
-887.93820199999993
 31
0.0
  0
LINE
  5
5F5
  8
0
  6
CONTINUOUS
 62
     7
 10
5718.0820439999989
 20
-887.93820199999993
 30
0.0
 11
5717.838428
 21
-887.79628500000013
 31
0.0
  0
LINE
  5
5F6
  8
0
  6
CONTINUOUS
 62
     7
 10
5717.838428
 20
-887.79628500000013
 30
0.0
 11
5717.5872009999994
 21
-887.66832499999987
 31
0.0
  0
LINE
  5
5F7
  8
0
  6
CONTINUOUS
 62
     7
 10
5785.2401369999989
 20
-718.41988400000002
 30
0.0
 11
5386.0641029999988
 21
-718.41988400000002
 31
0.0
  0
LINE
  5
5F8
  8
0
  6
CONTINUOUS
 62
     7
 10
5336.0641029999997
 20
-723.41988400000002
 30
0.0
 11
5336.0641029999997
 21
-813.41988399999991
 31
0.0
  0
LINE
  5
5F9
  8
0
  6
CONTINUOUS
 62
     7
 10
5336.0641029999997
 20
-813.41988399999991
 30
0.0
 11
5336.0641029999997
 21
-723.41988400000002
 31
0.0
  0
LINE
  5
5FA
  8
0
  6
CONTINUOUS
 62
     7
 10
5348.0641029999997
 20
-818.41988400000002
 30
0.0
 11
5348.0641029999997
 21
-735.41988400000002
 31
0.0
  0
LINE
  5
5FB
  8
0
  6
CONTINUOUS
 62
     7
 10
5348.0641029999997
 20
-735.41988400000002
 30
0.0
 11
5348.0641029999997
 21
-818.41988400000002
 31
0.0
  0
ARC
  5
5FC
  8
0
  6
CONTINUOUS
 62
     7
 10
5341.0641029999997
 20
-813.41988399999991
 30
0.0
 40
5.0
 50
180.0
 51
270.0
  0
LINE
  5
5FD
  8
0
  6
CONTINUOUS
 62
     7
 10
5341.0641029999997
 20
-818.41988400000002
 30
0.0
 11
5348.0641029999997
 21
-818.41988400000002
 31
0.0
  0
LINE
  5
5FE
  8
0
  6
CONTINUOUS
 62
     7
 10
5348.0641029999997
 20
-818.41988400000002
 30
0.0
 11
5341.0641029999997
 21
-818.41988400000002
 31
0.0
  0
LINE
  5
5FF
  8
0
  6
CONTINUOUS
 62
     7
 10
5341.0641029999997
 20
-818.41988400000002
 30
0.0
 11
5340.6718080000001
 21
-818.40447099999994
 31
0.0
  0
LINE
  5
600
  8
0
  6
CONTINUOUS
 62
     7
 10
5340.6718080000001
 20
-818.40447099999994
 30
0.0
 11
5340.2819310000004
 21
-818.35832600000003
 31
0.0
  0
LINE
  5
601
  8
0
  6
CONTINUOUS
 62
     7
 10
5340.2819310000004
 20
-818.35832600000003
 30
0.0
 11
5339.8968759999998
 21
-818.28173399999991
 31
0.0
  0
LINE
  5
602
  8
0
  6
CONTINUOUS
 62
     7
 10
5339.8968759999998
 20
-818.28173399999991
 30
0.0
 11
5339.519018
 21
-818.17516699999999
 31
0.0
  0
LINE
  5
603
  8
0
  6
CONTINUOUS
 62
     7
 10
5339.519018
 20
-818.17516699999999
 30
0.0
 11
5339.150685999999
 21
-818.03928200000007
 31
0.0
  0
LINE
  5
604
  8
0
  6
CONTINUOUS
 62
     7
 10
5339.150685999999
 20
-818.03928200000007
 30
0.0
 11
5338.7941510000001
 21
-817.87491699999987
 31
0.0
  0
LINE
  5
605
  8
0
  6
CONTINUOUS
 62
     7
 10
5338.7941510000001
 20
-817.87491699999987
 30
0.0
 11
5338.4516099999992
 21
-817.68308499999989
 31
0.0
  0
LINE
  5
606
  8
0
  6
CONTINUOUS
 62
     7
 10
5338.4516099999992
 20
-817.68308499999989
 30
0.0
 11
5338.1251769999999
 21
-817.464969
 31
0.0
  0
LINE
  5
607
  8
0
  6
CONTINUOUS
 62
     7
 10
5338.1251769999999
 20
-817.464969
 30
0.0
 11
5337.816863
 21
-817.22191399999986
 31
0.0
  0
LINE
  5
608
  8
0
  6
CONTINUOUS
 62
     7
 10
5337.816863
 20
-817.22191399999986
 30
0.0
 11
5337.5285689999992
 21
-816.95541800000001
 31
0.0
  0
LINE
  5
609
  8
0
  6
CONTINUOUS
 62
     7
 10
5337.5285689999992
 20
-816.95541800000001
 30
0.0
 11
5337.2620729999999
 21
-816.66712400000006
 31
0.0
  0
LINE
  5
60A
  8
0
  6
CONTINUOUS
 62
     7
 10
5337.2620729999999
 20
-816.66712400000006
 30
0.0
 11
5337.019018
 21
-816.35880999999995
 31
0.0
  0
LINE
  5
60B
  8
0
  6
CONTINUOUS
 62
     7
 10
5337.019018
 20
-816.35880999999995
 30
0.0
 11
5336.800902
 21
-816.03237699999988
 31
0.0
  0
LINE
  5
60C
  8
0
  6
CONTINUOUS
 62
     7
 10
5336.800902
 20
-816.03237699999988
 30
0.0
 11
5336.6090709999999
 21
-815.68983700000001
 31
0.0
  0
LINE
  5
60D
  8
0
  6
CONTINUOUS
 62
     7
 10
5336.6090709999999
 20
-815.68983700000001
 30
0.0
 11
5336.4447060000002
 21
-815.33330100000001
 31
0.0
  0
LINE
  5
60E
  8
0
  6
CONTINUOUS
 62
     7
 10
5336.4447060000002
 20
-815.33330100000001
 30
0.0
 11
5336.3088210000014
 21
-814.964969
 31
0.0
  0
LINE
  5
60F
  8
0
  6
CONTINUOUS
 62
     7
 10
5336.3088210000014
 20
-814.964969
 30
0.0
 11
5336.2022539999989
 21
-814.58711099999994
 31
0.0
  0
LINE
  5
610
  8
0
  6
CONTINUOUS
 62
     7
 10
5336.2022539999989
 20
-814.58711099999994
 30
0.0
 11
5336.1256620000004
 21
-814.20205599999997
 31
0.0
  0
LINE
  5
611
  8
0
  6
CONTINUOUS
 62
     7
 10
5336.1256620000004
 20
-814.20205599999997
 30
0.0
 11
5336.0795170000001
 21
-813.81218000000001
 31
0.0
  0
LINE
  5
612
  8
0
  6
CONTINUOUS
 62
     7
 10
5336.0795170000001
 20
-813.81218000000001
 30
0.0
 11
5336.0641029999997
 21
-813.41988399999991
 31
0.0
  0
ARC
  5
613
  8
0
  6
CONTINUOUS
 62
     7
 10
5353.0641029999997
 20
-735.41988400000002
 30
0.0
 40
5.0
 50
90.0
 51
180.0
  0
LINE
  5
614
  8
0
  6
CONTINUOUS
 62
     7
 10
5353.0641029999997
 20
-730.41988400000002
 30
0.0
 11
5386.0641029999988
 21
-730.41988400000002
 31
0.0
  0
LINE
  5
615
  8
0
  6
CONTINUOUS
 62
     7
 10
5386.0641029999988
 20
-730.41988400000002
 30
0.0
 11
5353.0641029999997
 21
-730.41988400000002
 31
0.0
  0
LINE
  5
616
  8
0
  6
CONTINUOUS
 62
     7
 10
5353.0641029999997
 20
-730.41988400000002
 30
0.0
 11
5352.6718080000001
 21
-730.43529699999999
 31
0.0
  0
LINE
  5
617
  8
0
  6
CONTINUOUS
 62
     7
 10
5352.6718080000001
 20
-730.43529699999999
 30
0.0
 11
5352.2819310000004
 21
-730.48144200000002
 31
0.0
  0
LINE
  5
618
  8
0
  6
CONTINUOUS
 62
     7
 10
5352.2819310000004
 20
-730.48144200000002
 30
0.0
 11
5351.8968759999998
 21
-730.55803400000002
 31
0.0
  0
LINE
  5
619
  8
0
  6
CONTINUOUS
 62
     7
 10
5351.8968759999998
 20
-730.55803400000002
 30
0.0
 11
5351.519018
 21
-730.66460099999995
 31
0.0
  0
LINE
  5
61A
  8
0
  6
CONTINUOUS
 62
     7
 10
5351.519018
 20
-730.66460099999995
 30
0.0
 11
5351.150686
 21
-730.80048599999986
 31
0.0
  0
LINE
  5
61B
  8
0
  6
CONTINUOUS
 62
     7
 10
5351.150686
 20
-730.80048599999986
 30
0.0
 11
5350.7941510000001
 21
-730.96485099999995
 31
0.0
  0
LINE
  5
61C
  8
0
  6
CONTINUOUS
 62
     7
 10
5350.7941510000001
 20
-730.96485099999995
 30
0.0
 11
5350.4516100000001
 21
-731.15668300000004
 31
0.0
  0
LINE
  5
61D
  8
0
  6
CONTINUOUS
 62
     7
 10
5350.4516100000001
 20
-731.15668300000004
 30
0.0
 11
5350.1251769999999
 21
-731.37479900000005
 31
0.0
  0
LINE
  5
61E
  8
0
  6
CONTINUOUS
 62
     7
 10
5350.1251769999999
 20
-731.37479900000005
 30
0.0
 11
5349.816863
 21
-731.61785399999997
 31
0.0
  0
LINE
  5
61F
  8
0
  6
CONTINUOUS
 62
     7
 10
5349.816863
 20
-731.61785399999997
 30
0.0
 11
5349.5285690000001
 21
-731.88435000000004
 31
0.0
  0
LINE
  5
620
  8
0
  6
CONTINUOUS
 62
     7
 10
5349.5285690000001
 20
-731.88435000000004
 30
0.0
 11
5349.2620729999999
 21
-732.17264399999988
 31
0.0
  0
LINE
  5
621
  8
0
  6
CONTINUOUS
 62
     7
 10
5349.2620729999999
 20
-732.17264399999988
 30
0.0
 11
5349.0190179999991
 21
-732.48095799999999
 31
0.0
  0
LINE
  5
622
  8
0
  6
CONTINUOUS
 62
     7
 10
5349.0190179999991
 20
-732.48095799999999
 30
0.0
 11
5348.800902
 21
-732.80739100000005
 31
0.0
  0
LINE
  5
623
  8
0
  6
CONTINUOUS
 62
     7
 10
5348.800902
 20
-732.80739100000005
 30
0.0
 11
5348.6090709999999
 21
-733.14993200000004
 31
0.0
  0
LINE
  5
624
  8
0
  6
CONTINUOUS
 62
     7
 10
5348.6090709999999
 20
-733.14993200000004
 30
0.0
 11
5348.4447060000002
 21
-733.50646700000004
 31
0.0
  0
LINE
  5
625
  8
0
  6
CONTINUOUS
 62
     7
 10
5348.4447060000002
 20
-733.50646700000004
 30
0.0
 11
5348.3088209999996
 21
-733.87479900000005
 31
0.0
  0
LINE
  5
626
  8
0
  6
CONTINUOUS
 62
     7
 10
5348.3088209999996
 20
-733.87479900000005
 30
0.0
 11
5348.2022539999998
 21
-734.252657
 31
0.0
  0
LINE
  5
627
  8
0
  6
CONTINUOUS
 62
     7
 10
5348.2022539999998
 20
-734.252657
 30
0.0
 11
5348.1256620000004
 21
-734.63771199999985
 31
0.0
  0
LINE
  5
628
  8
0
  6
CONTINUOUS
 62
     7
 10
5348.1256620000004
 20
-734.63771199999985
 30
0.0
 11
5348.0795170000001
 21
-735.02758899999981
 31
0.0
  0
LINE
  5
629
  8
0
  6
CONTINUOUS
 62
     7
 10
5348.0795170000001
 20
-735.02758899999981
 30
0.0
 11
5348.0641029999997
 21
-735.41988400000002
 31
0.0
  0
LINE
  5
62A
  8
0
  6
CONTINUOUS
 62
     7
 10
5386.0641029999988
 20
-718.41988400000002
 30
0.0
 11
5341.0641029999997
 21
-718.41988400000002
 31
0.0
  0
ARC
  5
62B
  8
0
  6
CONTINUOUS
 62
     7
 10
5341.0641029999997
 20
-723.41988400000002
 30
0.0
 40
5.0
 50
90.0
 51
180.0
  0
LINE
  5
62C
  8
0
  6
CONTINUOUS
 62
     7
 10
5336.0641029999997
 20
-723.41988400000002
 30
0.0
 11
5336.0795170000001
 21
-723.02758899999992
 31
0.0
  0
LINE
  5
62D
  8
0
  6
CONTINUOUS
 62
     7
 10
5336.0795170000001
 20
-723.02758899999992
 30
0.0
 11
5336.1256620000004
 21
-722.63771199999985
 31
0.0
  0
LINE
  5
62E
  8
0
  6
CONTINUOUS
 62
     7
 10
5336.1256620000004
 20
-722.63771199999985
 30
0.0
 11
5336.2022539999989
 21
-722.252657
 31
0.0
  0
LINE
  5
62F
  8
0
  6
CONTINUOUS
 62
     7
 10
5336.2022539999989
 20
-722.252657
 30
0.0
 11
5336.3088210000014
 21
-721.87479900000005
 31
0.0
  0
LINE
  5
630
  8
0
  6
CONTINUOUS
 62
     7
 10
5336.3088210000014
 20
-721.87479900000005
 30
0.0
 11
5336.4447060000002
 21
-721.50646700000004
 31
0.0
  0
LINE
  5
631
  8
0
  6
CONTINUOUS
 62
     7
 10
5336.4447060000002
 20
-721.50646700000004
 30
0.0
 11
5336.6090709999999
 21
-721.14993200000004
 31
0.0
  0
LINE
  5
632
  8
0
  6
CONTINUOUS
 62
     7
 10
5336.6090709999999
 20
-721.14993200000004
 30
0.0
 11
5336.800902
 21
-720.80739100000005
 31
0.0
  0
LINE
  5
633
  8
0
  6
CONTINUOUS
 62
     7
 10
5336.800902
 20
-720.80739100000005
 30
0.0
 11
5337.019018
 21
-720.48095799999999
 31
0.0
  0
LINE
  5
634
  8
0
  6
CONTINUOUS
 62
     7
 10
5337.019018
 20
-720.48095799999999
 30
0.0
 11
5337.2620729999999
 21
-720.17264399999988
 31
0.0
  0
LINE
  5
635
  8
0
  6
CONTINUOUS
 62
     7
 10
5337.2620729999999
 20
-720.17264399999988
 30
0.0
 11
5337.5285689999992
 21
-719.88435000000004
 31
0.0
  0
LINE
  5
636
  8
0
  6
CONTINUOUS
 62
     7
 10
5337.5285689999992
 20
-719.88435000000004
 30
0.0
 11
5337.816863
 21
-719.61785399999997
 31
0.0
  0
LINE
  5
637
  8
0
  6
CONTINUOUS
 62
     7
 10
5337.816863
 20
-719.61785399999997
 30
0.0
 11
5338.1251769999999
 21
-719.37479900000005
 31
0.0
  0
LINE
  5
638
  8
0
  6
CONTINUOUS
 62
     7
 10
5338.1251769999999
 20
-719.37479900000005
 30
0.0
 11
5338.4516099999992
 21
-719.15668300000004
 31
0.0
  0
LINE
  5
639
  8
0
  6
CONTINUOUS
 62
     7
 10
5338.4516099999992
 20
-719.15668300000004
 30
0.0
 11
5338.7941510000001
 21
-718.96485099999995
 31
0.0
  0
LINE
  5
63A
  8
0
  6
CONTINUOUS
 62
     7
 10
5338.7941510000001
 20
-718.96485099999995
 30
0.0
 11
5339.150685999999
 21
-718.80048599999986
 31
0.0
  0
LINE
  5
63B
  8
0
  6
CONTINUOUS
 62
     7
 10
5339.150685999999
 20
-718.80048599999986
 30
0.0
 11
5339.519018
 21
-718.66460099999995
 31
0.0
  0
LINE
  5
63C
  8
0
  6
CONTINUOUS
 62
     7
 10
5339.519018
 20
-718.66460099999995
 30
0.0
 11
5339.8968759999998
 21
-718.55803400000002
 31
0.0
  0
LINE
  5
63D
  8
0
  6
CONTINUOUS
 62
     7
 10
5339.8968759999998
 20
-718.55803400000002
 30
0.0
 11
5340.2819310000004
 21
-718.48144200000002
 31
0.0
  0
LINE
  5
63E
  8
0
  6
CONTINUOUS
 62
     7
 10
5340.2819310000004
 20
-718.48144200000002
 30
0.0
 11
5340.6718080000001
 21
-718.43529699999988
 31
0.0
  0
LINE
  5
63F
  8
0
  6
CONTINUOUS
 62
     7
 10
5340.6718080000001
 20
-718.43529699999988
 30
0.0
 11
5341.0641029999997
 21
-718.41988400000002
 31
0.0
  0
LINE
  5
640
  8
0
  6
CONTINUOUS
 62
     7
 10
5341.0641029999997
 20
-718.41988400000002
 30
0.0
 11
5386.0641029999988
 21
-718.41988400000002
 31
0.0
  0
DIMENSION
  5
641
  8
LAYER01
 62
     7
  2
*D15
 10
5245.7788419999997
 20
-718.41988400000002
 30
0.0
 11
5215.7788420000006
 21
-768.41988400000002
 31
0.0
 53
90.0
 13
5318.9637130000001
 23
-818.41988400000002
 33
0.0
 14
5318.9637130000001
 24
-718.41988400000002
 34
0.0
 50
90.0
  0
LINE
  5
642
  8
0
  6
CONTINUOUS
 62
     7
 10
5898.0641029999997
 20
-730.41988400000002
 30
0.0
 11
5803.8080840000002
 21
-730.41988400000002
 31
0.0
  0
LINE
  5
643
  8
0
  6
CONTINUOUS
 62
     7
 10
5898.0641029999997
 20
-730.41988400000002
 30
0.0
 11
5803.8080840000002
 21
-730.41988400000002
 31
0.0
  0
LINE
  5
644
  8
0
  6
CONTINUOUS
 62
     7
 10
5789.9541090000002
 20
-718.41988400000002
 30
0.0
 11
5890.2401369999998
 21
-718.41988400000002
 31
0.0
  0
LINE
  5
645
  8
0
  6
CONTINUOUS
 62
     7
 10
5789.9541090000002
 20
-718.41988400000002
 30
0.0
 11
5890.2401369999998
 21
-718.41988400000002
 31
0.0
  0
ARC
  5
646
  8
0
  6
CONTINUOUS
 62
     7
 10
5803.8080840000002
 20
-738.41988400000002
 30
0.0
 40
8.0
 50
90.0
 51
178.13674499999999
  0
LINE
  5
647
  8
0
  6
CONTINUOUS
 62
     7
 10
5803.8080840000002
 20
-730.41988400000002
 30
0.0
 11
5803.1933799999988
 21
-730.443535
 31
0.0
  0
LINE
  5
648
  8
0
  6
CONTINUOUS
 62
     7
 10
5803.1933799999988
 20
-730.443535
 30
0.0
 11
5802.5823110000001
 21
-730.51434900000004
 31
0.0
  0
LINE
  5
649
  8
0
  6
CONTINUOUS
 62
     7
 10
5802.5823110000001
 20
-730.51434900000004
 30
0.0
 11
5801.9784890000001
 21
-730.63190699999996
 31
0.0
  0
LINE
  5
64A
  8
0
  6
CONTINUOUS
 62
     7
 10
5801.9784890000001
 20
-730.63190699999996
 30
0.0
 11
5801.3854849999998
 21
-730.7955139999998
 31
0.0
  0
LINE
  5
64B
  8
0
  6
CONTINUOUS
 62
     7
 10
5801.3854849999998
 20
-730.7955139999998
 30
0.0
 11
5800.8068059999996
 21
-731.00420299999996
 31
0.0
  0
LINE
  5
64C
  8
0
  6
CONTINUOUS
 62
     7
 10
5800.8068059999996
 20
-731.00420299999996
 30
0.0
 11
5800.2458729999998
 21
-731.25673899999992
 31
0.0
  0
LINE
  5
64D
  8
0
  6
CONTINUOUS
 62
     7
 10
5800.2458729999998
 20
-731.25673899999992
 30
0.0
 11
5799.7060019999999
 21
-731.55162900000005
 31
0.0
  0
LINE
  5
64E
  8
0
  6
CONTINUOUS
 62
     7
 10
5799.7060019999999
 20
-731.55162900000005
 30
0.0
 11
5799.1903869999987
 21
-731.88712999999996
 31
0.0
  0
LINE
  5
64F
  8
0
  6
CONTINUOUS
 62
     7
 10
5799.1903869999987
 20
-731.88712999999996
 30
0.0
 11
5798.7020750000001
 21
-732.261258
 31
0.0
  0
LINE
  5
650
  8
0
  6
CONTINUOUS
 62
     7
 10
5798.7020750000001
 20
-732.261258
 30
0.0
 11
5798.2439539999996
 21
-732.67180099999985
 31
0.0
  0
LINE
  5
651
  8
0
  6
CONTINUOUS
 62
     7
 10
5798.2439539999996
 20
-732.67180099999985
 30
0.0
 11
5797.8187319999988
 21
-733.11633200000006
 31
0.0
  0
LINE
  5
652
  8
0
  6
CONTINUOUS
 62
     7
 10
5797.8187319999988
 20
-733.11633200000006
 30
0.0
 11
5797.4289250000011
 21
-733.59222099999988
 31
0.0
  0
LINE
  5
653
  8
0
  6
CONTINUOUS
 62
     7
 10
5797.4289250000011
 20
-733.59222099999988
 30
0.0
 11
5797.0768360000002
 21
-734.09665599999994
 31
0.0
  0
LINE
  5
654
  8
0
  6
CONTINUOUS
 62
     7
 10
5797.0768360000002
 20
-734.09665599999994
 30
0.0
 11
5796.7645480000001
 21
-734.62665199999992
 31
0.0
  0
LINE
  5
655
  8
0
  6
CONTINUOUS
 62
     7
 10
5796.7645480000001
 20
-734.62665199999992
 30
0.0
 11
5796.4939079999986
 21
-735.17907799999989
 31
0.0
  0
LINE
  5
656
  8
0
  6
CONTINUOUS
 62
     7
 10
5796.4939079999986
 20
-735.17907799999989
 30
0.0
 11
5796.2665139999999
 21
-735.75066600000002
 31
0.0
  0
LINE
  5
657
  8
0
  6
CONTINUOUS
 62
     7
 10
5796.2665139999999
 20
-735.75066600000002
 30
0.0
 11
5796.083713
 21
-736.33803599999987
 31
0.0
  0
LINE
  5
658
  8
0
  6
CONTINUOUS
 62
     7
 10
5796.083713
 20
-736.33803599999987
 30
0.0
 11
5795.9465840000012
 21
-736.93771699999991
 31
0.0
  0
LINE
  5
659
  8
0
  6
CONTINUOUS
 62
     7
 10
5795.9465840000012
 20
-736.93771699999991
 30
0.0
 11
5795.855939
 21
-737.54615999999999
 31
0.0
  0
LINE
  5
65A
  8
0
  6
CONTINUOUS
 62
     7
 10
5795.855939
 20
-737.54615999999999
 30
0.0
 11
5795.8123139999989
 21
-738.15976999999998
 31
0.0
  0
ARC
  5
65B
  8
0
  6
CONTINUOUS
 62
     7
 10
5789.9541090000002
 20
-723.41988400000002
 30
0.0
 40
5.0
 50
90.0
 51
176.62683200000001
  0
LINE
  5
65C
  8
0
  6
CONTINUOUS
 62
     7
 10
5784.9627719999999
 20
-723.12568999999996
 30
0.0
 11
5784.9992460000003
 21
-722.74956299999985
 31
0.0
  0
LINE
  5
65D
  8
0
  6
CONTINUOUS
 62
     7
 10
5784.9992460000003
 20
-722.74956299999985
 30
0.0
 11
5785.0640229999999
 21
-722.37726599999985
 31
0.0
  0
LINE
  5
65E
  8
0
  6
CONTINUOUS
 62
     7
 10
5785.0640229999999
 20
-722.37726599999985
 30
0.0
 11
5785.1567320000004
 21
-722.01092300000005
 31
0.0
  0
LINE
  5
65F
  8
0
  6
CONTINUOUS
 62
     7
 10
5785.1567320000004
 20
-722.01092300000005
 30
0.0
 11
5785.276844
 21
-721.65262900000005
 31
0.0
  0
LINE
  5
660
  8
0
  6
CONTINUOUS
 62
     7
 10
5785.276844
 20
-721.65262900000005
 30
0.0
 11
5785.4236730000002
 21
-721.30442999999991
 31
0.0
  0
LINE
  5
661
  8
0
  6
CONTINUOUS
 62
     7
 10
5785.4236730000002
 20
-721.30442999999991
 30
0.0
 11
5785.59638
 21
-720.96831399999996
 31
0.0
  0
LINE
  5
662
  8
0
  6
CONTINUOUS
 62
     7
 10
5785.59638
 20
-720.96831399999996
 30
0.0
 11
5785.7939779999997
 21
-720.6462019999999
 31
0.0
  0
LINE
  5
663
  8
0
  6
CONTINUOUS
 62
     7
 10
5785.7939779999997
 20
-720.6462019999999
 30
0.0
 11
5786.0153399999999
 21
-720.33993299999986
 31
0.0
  0
LINE
  5
664
  8
0
  6
CONTINUOUS
 62
     7
 10
5786.0153399999999
 20
-720.33993299999986
 30
0.0
 11
5786.2592000000004
 21
-720.05125699999996
 31
0.0
  0
LINE
  5
665
  8
0
  6
CONTINUOUS
 62
     7
 10
5786.2592000000004
 20
-720.05125699999996
 30
0.0
 11
5786.5241659999992
 21
-719.78182300000003
 31
0.0
  0
LINE
  5
666
  8
0
  6
CONTINUOUS
 62
     7
 10
5786.5241659999992
 20
-719.78182300000003
 30
0.0
 11
5786.8087230000001
 21
-719.53317000000004
 31
0.0
  0
LINE
  5
667
  8
0
  6
CONTINUOUS
 62
     7
 10
5786.8087230000001
 20
-719.53317000000004
 30
0.0
 11
5787.1112469999998
 21
-719.30671799999993
 31
0.0
  0
LINE
  5
668
  8
0
  6
CONTINUOUS
 62
     7
 10
5787.1112469999998
 20
-719.30671799999993
 30
0.0
 11
5787.43001
 21
-719.10375999999985
 31
0.0
  0
LINE
  5
669
  8
0
  6
CONTINUOUS
 62
     7
 10
5787.43001
 20
-719.10375999999985
 30
0.0
 11
5787.7631909999991
 21
-718.92545700000005
 31
0.0
  0
LINE
  5
66A
  8
0
  6
CONTINUOUS
 62
     7
 10
5787.7631909999991
 20
-718.92545700000005
 30
0.0
 11
5788.1088859999991
 21
-718.77282600000001
 31
0.0
  0
LINE
  5
66B
  8
0
  6
CONTINUOUS
 62
     7
 10
5788.1088859999991
 20
-718.77282600000001
 30
0.0
 11
5788.4651219999987
 21
-718.6467389999998
 31
0.0
  0
LINE
  5
66C
  8
0
  6
CONTINUOUS
 62
     7
 10
5788.4651219999987
 20
-718.6467389999998
 30
0.0
 11
5788.8298619999996
 21
-718.54791599999987
 31
0.0
  0
LINE
  5
66D
  8
0
  6
CONTINUOUS
 62
     7
 10
5788.8298619999996
 20
-718.54791599999987
 30
0.0
 11
5789.201024
 21
-718.47692300000006
 31
0.0
  0
LINE
  5
66E
  8
0
  6
CONTINUOUS
 62
     7
 10
5789.201024
 20
-718.47692300000006
 30
0.0
 11
5789.5764880000006
 21
-718.43416400000001
 31
0.0
  0
LINE
  5
66F
  8
0
  6
CONTINUOUS
 62
     7
 10
5789.5764880000006
 20
-718.43416400000001
 30
0.0
 11
5789.9541090000002
 21
-718.41988400000002
 31
0.0
  0
ARC
  5
670
  8
0
  6
CONTINUOUS
 62
     7
 10
5898.0641029999997
 20
-722.41988400000002
 30
0.0
 40
8.0
 50
270.0
 51
0.0
  0
LINE
  5
671
  8
0
  6
CONTINUOUS
 62
     7
 10
5905.1921549999988
 20
-726.05180800000005
 30
0.0
 11
5904.8852250000009
 21
-726.59987299999989
 31
0.0
  0
LINE
  5
672
  8
0
  6
CONTINUOUS
 62
     7
 10
5904.8852250000009
 20
-726.59987299999989
 30
0.0
 11
5904.536239
 21
-727.12216599999999
 31
0.0
  0
LINE
  5
673
  8
0
  6
CONTINUOUS
 62
     7
 10
5904.536239
 20
-727.12216599999999
 30
0.0
 11
5904.1473509999987
 21
-727.61546799999985
 31
0.0
  0
LINE
  5
674
  8
0
  6
CONTINUOUS
 62
     7
 10
5904.1473509999987
 20
-727.61546799999985
 30
0.0
 11
5903.7209570000005
 21
-728.07673799999998
 31
0.0
  0
LINE
  5
675
  8
0
  6
CONTINUOUS
 62
     7
 10
5903.7209570000005
 20
-728.07673799999998
 30
0.0
 11
5903.2596880000001
 21
-728.50313200000005
 31
0.0
  0
LINE
  5
676
  8
0
  6
CONTINUOUS
 62
     7
 10
5903.2596880000001
 20
-728.50313200000005
 30
0.0
 11
5902.7663849999999
 21
-728.89201999999989
 31
0.0
  0
LINE
  5
677
  8
0
  6
CONTINUOUS
 62
     7
 10
5902.7663849999999
 20
-728.89201999999989
 30
0.0
 11
5902.2440919999999
 21
-729.24100499999986
 31
0.0
  0
LINE
  5
678
  8
0
  6
CONTINUOUS
 62
     7
 10
5902.2440919999999
 20
-729.24100499999986
 30
0.0
 11
5901.696026999999
 21
-729.54793600000005
 31
0.0
  0
LINE
  5
679
  8
0
  6
CONTINUOUS
 62
     7
 10
5901.696026999999
 20
-729.54793600000005
 30
0.0
 11
5901.1255710000014
 21
-729.8109199999999
 31
0.0
  0
LINE
  5
67A
  8
0
  6
CONTINUOUS
 62
     7
 10
5901.1255710000014
 20
-729.8109199999999
 30
0.0
 11
5900.536239
 21
-730.02833599999997
 31
0.0
  0
LINE
  5
67B
  8
0
  6
CONTINUOUS
 62
     7
 10
5900.536239
 20
-730.02833599999997
 30
0.0
 11
5899.9316660000004
 21
-730.19884300000001
 31
0.0
  0
LINE
  5
67C
  8
0
  6
CONTINUOUS
 62
     7
 10
5899.9316660000004
 20
-730.19884300000001
 30
0.0
 11
5899.3155790000001
 21
-730.32139100000006
 31
0.0
  0
LINE
  5
67D
  8
0
  6
CONTINUOUS
 62
     7
 10
5899.3155790000001
 20
-730.32139100000006
 30
0.0
 11
5898.6917759999988
 21
-730.3952230000001
 31
0.0
  0
LINE
  5
67E
  8
0
  6
CONTINUOUS
 62
     7
 10
5898.6917759999988
 20
-730.3952230000001
 30
0.0
 11
5898.0641029999997
 21
-730.41988400000002
 31
0.0
  0
ARC
  5
67F
  8
0
  6
CONTINUOUS
 62
     7
 10
5890.2401369999998
 20
-713.41988400000002
 30
0.0
 40
5.0
 50
270.0
 51
0.0
  0
LINE
  5
680
  8
0
  6
CONTINUOUS
 62
     7
 10
5890.2401369999998
 20
-718.41988400000002
 30
0.0
 11
5890.6324320000003
 21
-718.40447099999994
 31
0.0
  0
LINE
  5
681
  8
0
  6
CONTINUOUS
 62
     7
 10
5890.6324320000003
 20
-718.40447099999994
 30
0.0
 11
5891.022309
 21
-718.35832600000003
 31
0.0
  0
LINE
  5
682
  8
0
  6
CONTINUOUS
 62
     7
 10
5891.022309
 20
-718.35832600000003
 30
0.0
 11
5891.4073639999988
 21
-718.28173400000003
 31
0.0
  0
LINE
  5
683
  8
0
  6
CONTINUOUS
 62
     7
 10
5891.4073639999988
 20
-718.28173400000003
 30
0.0
 11
5891.7852219999986
 21
-718.17516699999987
 31
0.0
  0
LINE
  5
684
  8
0
  6
CONTINUOUS
 62
     7
 10
5891.7852219999986
 20
-718.17516699999987
 30
0.0
 11
5892.1535540000004
 21
-718.03928199999996
 31
0.0
  0
LINE
  5
685
  8
0
  6
CONTINUOUS
 62
     7
 10
5892.1535540000004
 20
-718.03928199999996
 30
0.0
 11
5892.5100890000003
 21
-717.87491699999987
 31
0.0
  0
LINE
  5
686
  8
0
  6
CONTINUOUS
 62
     7
 10
5892.5100890000003
 20
-717.87491699999987
 30
0.0
 11
5892.8526300000003
 21
-717.68308499999989
 31
0.0
  0
LINE
  5
687
  8
0
  6
CONTINUOUS
 62
     7
 10
5892.8526300000003
 20
-717.68308499999989
 30
0.0
 11
5893.1790630000014
 21
-717.46496899999988
 31
0.0
  0
LINE
  5
688
  8
0
  6
CONTINUOUS
 62
     7
 10
5893.1790630000014
 20
-717.46496899999988
 30
0.0
 11
5893.4873770000004
 21
-717.22191399999997
 31
0.0
  0
LINE
  5
689
  8
0
  6
CONTINUOUS
 62
     7
 10
5893.4873770000004
 20
-717.22191399999997
 30
0.0
 11
5893.7756710000003
 21
-716.95541800000001
 31
0.0
  0
LINE
  5
68A
  8
0
  6
CONTINUOUS
 62
     7
 10
5893.7756710000003
 20
-716.95541800000001
 30
0.0
 11
5894.0421670000014
 21
-716.66712399999994
 31
0.0
  0
LINE
  5
68B
  8
0
  6
CONTINUOUS
 62
     7
 10
5894.0421670000014
 20
-716.66712399999994
 30
0.0
 11
5894.2852220000004
 21
-716.35880999999995
 31
0.0
  0
LINE
  5
68C
  8
0
  6
CONTINUOUS
 62
     7
 10
5894.2852220000004
 20
-716.35880999999995
 30
0.0
 11
5894.5033380000004
 21
-716.03237699999988
 31
0.0
  0
LINE
  5
68D
  8
0
  6
CONTINUOUS
 62
     7
 10
5894.5033380000004
 20
-716.03237699999988
 30
0.0
 11
5894.6951689999996
 21
-715.68983700000001
 31
0.0
  0
LINE
  5
68E
  8
0
  6
CONTINUOUS
 62
     7
 10
5894.6951689999996
 20
-715.68983700000001
 30
0.0
 11
5894.8595340000002
 21
-715.33330099999989
 31
0.0
  0
LINE
  5
68F
  8
0
  6
CONTINUOUS
 62
     7
 10
5894.8595340000002
 20
-715.33330099999989
 30
0.0
 11
5894.9954189999999
 21
-714.964969
 31
0.0
  0
LINE
  5
690
  8
0
  6
CONTINUOUS
 62
     7
 10
5894.9954189999999
 20
-714.964969
 30
0.0
 11
5895.1019859999997
 21
-714.58711100000005
 31
0.0
  0
LINE
  5
691
  8
0
  6
CONTINUOUS
 62
     7
 10
5895.1019859999997
 20
-714.58711100000005
 30
0.0
 11
5895.178578
 21
-714.20205599999986
 31
0.0
  0
LINE
  5
692
  8
0
  6
CONTINUOUS
 62
     7
 10
5895.178578
 20
-714.20205599999986
 30
0.0
 11
5895.2247230000003
 21
-713.81218000000001
 31
0.0
  0
LINE
  5
693
  8
0
  6
CONTINUOUS
 62
     7
 10
5895.2247230000003
 20
-713.81218000000001
 30
0.0
 11
5895.2401369999998
 21
-713.41988400000002
 31
0.0
  0
LINE
  5
694
  8
0
  6
CONTINUOUS
 62
     7
 10
5906.0641029999997
 20
-722.41988400000002
 30
0.0
 11
5906.0394420000002
 21
-723.04755699999998
 31
0.0
  0
LINE
  5
695
  8
0
  6
CONTINUOUS
 62
     7
 10
5906.0394420000002
 20
-723.04755699999998
 30
0.0
 11
5905.9656100000002
 21
-723.67135999999994
 31
0.0
  0
LINE
  5
696
  8
0
  6
CONTINUOUS
 62
     7
 10
5905.9656100000002
 20
-723.67135999999994
 30
0.0
 11
5905.8430630000003
 21
-724.28744699999993
 31
0.0
  0
LINE
  5
697
  8
0
  6
CONTINUOUS
 62
     7
 10
5905.8430630000003
 20
-724.28744699999993
 30
0.0
 11
5905.6725550000001
 21
-724.89202
 31
0.0
  0
LINE
  5
698
  8
0
  6
CONTINUOUS
 62
     7
 10
5905.6725550000001
 20
-724.89202
 30
0.0
 11
5905.4551389999997
 21
-725.4813519999999
 31
0.0
  0
LINE
  5
699
  8
0
  6
CONTINUOUS
 62
     7
 10
5905.4551389999997
 20
-725.4813519999999
 30
0.0
 11
5905.1921549999988
 21
-726.05180800000005
 31
0.0
  0
DIMENSION
  5
69B
  8
LAYER01
 62
     7
  2
*D16
 10
5784.9627719999999
 20
-577.93553899999995
 30
0.0
 11
5586.227723
 21
-547.93553899999995
 31
0.0
 13
5386.0641029999988
 23
-618.41988400000002
 33
0.0
 14
5784.9627719999999
 24
-618.41988400000002
 34
0.0
  0
DIMENSION
  5
69C
  8
LAYER01
 62
     7
  2
*D17
 10
5336.0641029999997
 20
-577.93553899999995
 30
0.0
 11
5361.0641029999997
 21
-547.93553899999995
 31
0.0
 13
5386.0641029999988
 23
-618.41988400000002
 33
0.0
 14
5336.0641029999997
 24
-618.41988400000002
 34
0.0
  0
ARC
  5
69D
  8
0
  6
CONTINUOUS
 62
     7
 10
5900.2401369999998
 20
-623.41988400000002
 30
0.0
 40
5.0
 50
90.0
 51
180.0
  0
LINE
  5
69E
  8
0
  6
CONTINUOUS
 62
     7
 10
5900.2401369999998
 20
-618.41988400000002
 30
0.0
 11
5906.0641029999997
 21
-618.41988400000002
 31
0.0
  0
LINE
  5
69F
  8
0
  6
CONTINUOUS
 62
     7
 10
5895.2401369999998
 20
-623.41988400000002
 30
0.0
 11
5895.2555499999999
 21
-623.02758899999992
 31
0.0
  0
LINE
  5
6A0
  8
0
  6
CONTINUOUS
 62
     7
 10
5895.2555499999999
 20
-623.02758899999992
 30
0.0
 11
5895.3016950000001
 21
-622.63771199999985
 31
0.0
  0
LINE
  5
6A1
  8
0
  6
CONTINUOUS
 62
     7
 10
5895.3016950000001
 20
-622.63771199999985
 30
0.0
 11
5895.3782869999986
 21
-622.252657
 31
0.0
  0
LINE
  5
6A2
  8
0
  6
CONTINUOUS
 62
     7
 10
5895.3782869999986
 20
-622.252657
 30
0.0
 11
5895.4848540000003
 21
-621.87479900000005
 31
0.0
  0
LINE
  5
6A3
  8
0
  6
CONTINUOUS
 62
     7
 10
5895.4848540000003
 20
-621.87479900000005
 30
0.0
 11
5895.620739
 21
-621.50646700000004
 31
0.0
  0
LINE
  5
6A4
  8
0
  6
CONTINUOUS
 62
     7
 10
5895.620739
 20
-621.50646700000004
 30
0.0
 11
5895.7851039999987
 21
-621.14993200000004
 31
0.0
  0
LINE
  5
6A5
  8
0
  6
CONTINUOUS
 62
     7
 10
5895.7851039999987
 20
-621.14993200000004
 30
0.0
 11
5895.976936
 21
-620.80739100000005
 31
0.0
  0
LINE
  5
6A6
  8
0
  6
CONTINUOUS
 62
     7
 10
5895.976936
 20
-620.80739100000005
 30
0.0
 11
5896.195052
 21
-620.48095799999999
 31
0.0
  0
LINE
  5
6A7
  8
0
  6
CONTINUOUS
 62
     7
 10
5896.195052
 20
-620.48095799999999
 30
0.0
 11
5896.4381069999999
 21
-620.17264399999988
 31
0.0
  0
LINE
  5
6A8
  8
0
  6
CONTINUOUS
 62
     7
 10
5896.4381069999999
 20
-620.17264399999988
 30
0.0
 11
5896.7046030000001
 21
-619.88435000000004
 31
0.0
  0
LINE
  5
6A9
  8
0
  6
CONTINUOUS
 62
     7
 10
5896.7046030000001
 20
-619.88435000000004
 30
0.0
 11
5896.9928970000001
 21
-619.61785399999997
 31
0.0
  0
LINE
  5
6AA
  8
0
  6
CONTINUOUS
 62
     7
 10
5896.9928970000001
 20
-619.61785399999997
 30
0.0
 11
5897.301211
 21
-619.37479900000005
 31
0.0
  0
LINE
  5
6AB
  8
0
  6
CONTINUOUS
 62
     7
 10
5897.301211
 20
-619.37479900000005
 30
0.0
 11
5897.6276439999992
 21
-619.15668300000004
 31
0.0
  0
LINE
  5
6AC
  8
0
  6
CONTINUOUS
 62
     7
 10
5897.6276439999992
 20
-619.15668300000004
 30
0.0
 11
5897.9701840000007
 21
-618.96485099999995
 31
0.0
  0
LINE
  5
6AD
  8
0
  6
CONTINUOUS
 62
     7
 10
5897.9701840000007
 20
-618.96485099999995
 30
0.0
 11
5898.32672
 21
-618.80048599999986
 31
0.0
  0
LINE
  5
6AE
  8
0
  6
CONTINUOUS
 62
     7
 10
5898.32672
 20
-618.80048599999986
 30
0.0
 11
5898.695052
 21
-618.66460099999995
 31
0.0
  0
LINE
  5
6AF
  8
0
  6
CONTINUOUS
 62
     7
 10
5898.695052
 20
-618.66460099999995
 30
0.0
 11
5899.0729100000008
 21
-618.55803400000002
 31
0.0
  0
LINE
  5
6B0
  8
0
  6
CONTINUOUS
 62
     7
 10
5899.0729100000008
 20
-618.55803400000002
 30
0.0
 11
5899.4579640000002
 21
-618.48144200000002
 31
0.0
  0
LINE
  5
6B1
  8
0
  6
CONTINUOUS
 62
     7
 10
5899.4579640000002
 20
-618.48144200000002
 30
0.0
 11
5899.8478409999989
 21
-618.43529699999988
 31
0.0
  0
LINE
  5
6B2
  8
0
  6
CONTINUOUS
 62
     7
 10
5899.8478409999989
 20
-618.43529699999988
 30
0.0
 11
5900.2401369999998
 21
-618.41988400000002
 31
0.0
  0
LINE
  5
6B3
  8
0
  6
CONTINUOUS
 62
     7
 10
5900.2401369999998
 20
-618.41988400000002
 30
0.0
 11
5906.0641029999997
 21
-618.41988400000002
 31
0.0
  0
ENDSEC
  0
EOF
