  0
SECTION
  2
HEADER
  9
$ACADVER
  1
AC1009
  9
$INSBASE
 10
0.0
 20
0.0
 30
0.0
  9
$EXTMIN
 10
-1194.9919930488791
 20
-6334.3700686439979
 30
-0.0015258207003583
  9
$EXTMAX
 10
2775.2461251130212
 20
-3576.4939766070611
 30
0.0000000349246037
  9
$LIMMIN
 10
-2007.20697
 20
-6623.4239879999996
  9
$LIMMAX
 10
3191.9842659999999
 20
-2947.228165
  9
$ORTHOMODE
 70
     1
  9
$REGENMODE
 70
     1
  9
$FILLMODE
 70
     1
  9
$QTEXTMODE
 70
     0
  9
$MIRRTEXT
 70
     0
  9
$DRAGMODE
 70
     2
  9
$LTSCALE
 40
50.0
  9
$OSMODE
 70
    39
  9
$ATTMODE
 70
     1
  9
$TEXTSIZE
 40
0.0
  9
$TRACEWID
 40
0.05
  9
$TEXTSTYLE
  7
STANDARD
  9
$CLAYER
  8
LAYER01
  9
$CELTYPE
  6
CONTINUOUS
  9
$CECOLOR
 62
     7
  9
$DIMSCALE
 40
1.0
  9
$DIMASZ
 40
0.18
  9
$DIMEXO
 40
0.0625
  9
$DIMDLI
 40
0.38
  9
$DIMRND
 40
0.0
  9
$DIMDLE
 40
0.0
  9
$DIMEXE
 40
0.18
  9
$DIMTP
 40
0.0
  9
$DIMTM
 40
0.0
  9
$DIMTXT
 40
0.18
  9
$DIMCEN
 40
0.09
  9
$DIMTSZ
 40
0.0
  9
$DIMTOL
 70
     0
  9
$DIMLIM
 70
     0
  9
$DIMTIH
 70
     1
  9
$DIMTOH
 70
     1
  9
$DIMSE1
 70
     0
  9
$DIMSE2
 70
     0
  9
$DIMTAD
 70
     0
  9
$DIMZIN
 70
     0
  9
$DIMBLK
  1

  9
$DIMASO
 70
     1
  9
$DIMSHO
 70
     1
  9
$DIMPOST
  1

  9
$DIMAPOST
  1

  9
$DIMALT
 70
     0
  9
$DIMALTD
 70
     2
  9
$DIMALTF
 40
25.399999999999999
  9
$DIMLFAC
 40
1.0
  9
$DIMTOFL
 70
     0
  9
$DIMTVP
 40
0.0
  9
$DIMTIX
 70
     0
  9
$DIMSOXD
 70
     0
  9
$DIMSAH
 70
     0
  9
$DIMBLK1
  1

  9
$DIMBLK2
  1

  9
$DIMSTYLE
  2
STANDARD
  9
$DIMCLRD
 70
     0
  9
$DIMCLRE
 70
     0
  9
$DIMCLRT
 70
     0
  9
$DIMTFAC
 40
1.0
  9
$DIMGAP
 40
0.09
  9
$LUNITS
 70
     2
  9
$LUPREC
 70
     4
  9
$SKETCHINC
 40
0.1
  9
$FILLETRAD
 40
10.0
  9
$AUNITS
 70
     0
  9
$AUPREC
 70
     0
  9
$MENU
  1
acad
  9
$ELEVATION
 40
0.0
  9
$PELEVATION
 40
0.0
  9
$THICKNESS
 40
0.0
  9
$LIMCHECK
 70
     0
  9
$BLIPMODE
 70
     0
  9
$CHAMFERA
 40
0.0
  9
$CHAMFERB
 40
0.0
  9
$SKPOLY
 70
     0
  9
$TDCREATE
 40
2305814.0418231939
  9
$TDUPDATE
 40
2457394.359971019
  9
$TDINDWG
 40
0.0023990394
  9
$TDUSRTIMER
 40
0.0023989931
  9
$USRTIMER
 70
     1
  9
$ANGBASE
 50
0.0
  9
$ANGDIR
 70
     0
  9
$PDMODE
 70
     0
  9
$PDSIZE
 40
0.0
  9
$PLINEWID
 40
0.0
  9
$COORDS
 70
     1
  9
$SPLFRAME
 70
     0
  9
$SPLINETYPE
 70
     6
  9
$SPLINESEGS
 70
    10
  9
$ATTDIA
 70
     0
  9
$ATTREQ
 70
     1
  9
$HANDLING
 70
     1
  9
$HANDSEED
  5
EA0
  9
$SURFTAB1
 70
     6
  9
$SURFTAB2
 70
     6
  9
$SURFTYPE
 70
     6
  9
$SURFU
 70
     6
  9
$SURFV
 70
     6
  9
$UCSNAME
  2

  9
$UCSORG
 10
0.0
 20
0.0
 30
0.0
  9
$UCSXDIR
 10
1.0
 20
0.0
 30
0.0
  9
$UCSYDIR
 10
0.0
 20
1.0
 30
0.0
  9
$PUCSNAME
  2

  9
$PUCSORG
 10
0.0
 20
0.0
 30
0.0
  9
$PUCSXDIR
 10
1.0
 20
0.0
 30
0.0
  9
$PUCSYDIR
 10
0.0
 20
1.0
 30
0.0
  9
$USERI1
 70
     0
  9
$USERI2
 70
     0
  9
$USERI3
 70
     0
  9
$USERI4
 70
     0
  9
$USERI5
 70
     0
  9
$USERR1
 40
0.0
  9
$USERR2
 40
0.0
  9
$USERR3
 40
0.0
  9
$USERR4
 40
0.0
  9
$USERR5
 40
0.0
  9
$WORLDVIEW
 70
     1
  9
$SHADEDGE
 70
     3
  9
$SHADEDIF
 70
    70
  9
$TILEMODE
 70
     1
  9
$MAXACTVP
 70
    64
  9
$PLIMCHECK
 70
     0
  9
$PEXTMIN
 10
1.0000000000000000E+020
 20
1.0000000000000000E+020
 30
1.0000000000000000E+020
  9
$PEXTMAX
 10
-1.0000000000000000E+020
 20
-1.0000000000000000E+020
 30
-1.0000000000000000E+020
  9
$PLIMMIN
 10
0.0
 20
0.0
  9
$PLIMMAX
 10
12.0
 20
9.0
  9
$UNITMODE
 70
     0
  9
$VISRETAIN
 70
     1
  9
$PLINEGEN
 70
     0
  9
$PSLTSCALE
 70
     1
  0
ENDSEC
  0
SECTION
  2
TABLES
  0
TABLE
  2
VPORT
 70
     1
  0
VPORT
  2
*ACTIVE
 70
     0
 10
0.0
 20
0.0
 11
1.0
 21
1.0
 12
592.3886480000001
 22
-4785.3260765000014
 13
0.0
 23
0.0
 14
1.0
 24
1.0
 15
0.0
 25
0.0
 16
0.0
 26
0.0
 36
1.0
 17
0.0
 27
0.0
 37
0.0
 40
3700.1710131500008
 41
1.4396082698585411
 42
50.0
 43
0.0
 44
0.0
 50
0.0
 51
0.0
 71
     0
 72
   100
 73
     1
 74
     1
 75
     0
 76
     0
 77
     0
 78
     0
  0
ENDTAB
  0
TABLE
  2
LTYPE
 70
    12
  0
LTYPE
  2
CONTINUOUS
 70
     0
  3
Solid line
 72
    65
 73
     0
 40
0.0
  0
LTYPE
  2
GESTRICHELT
 70
     0
  3
__ __ __ __ __ __ __ __ __ __ __ __ __ __ __
 72
    65
 73
     2
 40
0.75
 49
0.5
 49
-0.25
  0
LTYPE
  2
VERDECKT
 70
     0
  3
_ _ _ _ _ _ _ _ _ _ _ _ _ _ _ _ _ _ _ _ _ _ 
 72
    65
 73
     2
 40
0.25
 49
0.125
 49
-0.125
  0
LTYPE
  2
MITTELLINIE
 70
     0
  3
____ _ ____ _ ____ _ ____ _ ____ _ ____ _ __
 72
    65
 73
     4
 40
2.0
 49
1.25
 49
-0.25
 49
0.25
 49
-0.25
  0
LTYPE
  2
PHANTOM
 70
     0
  3
_____ _ _ _____ _ _ _____ _ _ _____ _ _ ____
 72
    65
 73
     6
 40
2.5
 49
1.25
 49
-0.25
 49
0.25
 49
-0.25
 49
0.25
 49
-0.25
  0
LTYPE
  2
PUNKTIERT
 70
     0
  3
............................................
 72
    65
 73
     2
 40
0.25
 49
0.0
 49
-0.25
  0
LTYPE
  2
STRICHPUNKTIERT
 70
     0
  3
__ . __ . __ . __ . __ . __ . __ . __ . __ .
 72
    65
 73
     4
 40
1.0
 49
0.5
 49
-0.25
 49
0.0
 49
-0.25
  0
LTYPE
  2
RAND
 70
     0
  3
__ __ . __ __ . __ __ . __ __ . __ __ . __ _
 72
    65
 73
     6
 40
1.75
 49
0.5
 49
-0.25
 49
0.5
 49
-0.25
 49
0.0
 49
-0.25
  0
LTYPE
  2
TRENNLINIE
 70
     0
  3
__ . . __ . . __ . . __ . . __ . . __ . . __
 72
    65
 73
     6
 40
1.25
 49
0.5
 49
-0.25
 49
0.0
 49
-0.25
 49
0.0
 49
-0.25
  0
LTYPE
  2
ENG_PUNKTIERT
 70
     0
  3
Schließen                                   
 72
    65
 73
     2
 40
0.1
 49
0.05
 49
-0.05
  0
LTYPE
  2
CLOSE
 70
     0
  3
                                            
 72
    65
 73
     0
 40
0.0
  0
ENDTAB
  0
TABLE
  2
LAYER
 70
   255
  0
LAYER
  2
0
 70
     0
 62
     7
  6
CONTINUOUS
  0
LAYER
  2
LAYER01
 70
     0
 62
     7
  6
CONTINUOUS
  0
LAYER
  2
LAYER02
 70
     0
 62
     7
  6
CONTINUOUS
  0
LAYER
  2
LAYER03
 70
     0
 62
     7
  6
CONTINUOUS
  0
LAYER
  2
LAYER04
 70
     0
 62
     7
  6
CONTINUOUS
  0
LAYER
  2
LAYER05
 70
     0
 62
     7
  6
CONTINUOUS
  0
LAYER
  2
LAYER06
 70
     0
 62
     7
  6
CONTINUOUS
  0
LAYER
  2
LAYER07
 70
     0
 62
     7
  6
CONTINUOUS
  0
LAYER
  2
LAYER08
 70
     0
 62
     7
  6
CONTINUOUS
  0
LAYER
  2
LAYER09
 70
     0
 62
     7
  6
CONTINUOUS
  0
LAYER
  2
LAYER10
 70
     0
 62
     7
  6
CONTINUOUS
  0
LAYER
  2
BECKEN_FUTURA_EBENE_1
 70
     0
 62
     7
  6
CONTINUOUS
  0
LAYER
  2
KERA4
 70
     0
 62
     7
  6
CONTINUOUS
  0
LAYER
  2
KERA0
 70
     0
 62
     7
  6
CONTINUOUS
  0
LAYER
  2
KERA1
 70
     0
 62
     7
  6
CONTINUOUS
  0
LAYER
  2
KERA2
 70
     0
 62
     7
  6
CONTINUOUS
  0
LAYER
  2
KERA7
 70
     0
 62
     7
  6
CONTINUOUS
  0
LAYER
  2
AM_5
 70
     0
 62
     7
  6
CONTINUOUS
  0
LAYER
  2
2
 70
     0
 62
     7
  6
CONTINUOUS
  0
LAYER
  2
5
 70
     0
 62
     7
  6
CONTINUOUS
  0
LAYER
  2
RAUMAUFM
 70
     0
 62
     7
  6
CONTINUOUS
  0
LAYER
  2
EINRICHT
 70
     0
 62
     7
  6
CONTINUOUS
  0
LAYER
  2
HILFE
 70
     0
 62
     7
  6
CONTINUOUS
  0
LAYER
  2
SCHNITTE
 70
     0
 62
     7
  6
CONTINUOUS
  0
LAYER
  2
SCHRAFF1
 70
     0
 62
     7
  6
CONTINUOUS
  0
LAYER
  2
SCHRAFF2
 70
     0
 62
     7
  6
CONTINUOUS
  0
LAYER
  2
BEMASS-1
 70
     0
 62
     7
  6
CONTINUOUS
  0
LAYER
  2
BEMASS-2
 70
     0
 62
     7
  6
CONTINUOUS
  0
LAYER
  2
TEXT
 70
     0
 62
     7
  6
CONTINUOUS
  0
LAYER
  2
SYMBOLE
 70
     0
 62
     7
  6
CONTINUOUS
  0
LAYER
  2
RAHMEN
 70
     0
 62
     7
  6
CONTINUOUS
  0
LAYER
  2
SCHRIFTF
 70
     0
 62
     7
  6
CONTINUOUS
  0
LAYER
  2
ACHSEN
 70
     0
 62
     7
  6
CONTINUOUS
  0
LAYER
  2
ZEICHN
 70
     0
 62
     7
  6
CONTINUOUS
  0
LAYER
  2
7
 70
     0
 62
     7
  6
CONTINUOUS
  0
LAYER
  2
1
 70
     0
 62
     7
  6
CONTINUOUS
  0
LAYER
  2
6
 70
     0
 62
     7
  6
CONTINUOUS
  0
LAYER
  2
4
 70
     0
 62
     7
  6
CONTINUOUS
  0
LAYER
  2
GRUNDEBENE
 70
     0
 62
     7
  6
CONTINUOUS
  0
LAYER
  2
GRUNDRISS
 70
     0
 62
     7
  6
CONTINUOUS
  0
LAYER
  2
BEMASSUNGGRUNDRISS
 70
     0
 62
     7
  6
CONTINUOUS
  0
LAYER
  2
WANDELEMENTE
 70
     0
 62
     7
  6
CONTINUOUS
  0
LAYER
  2
KUECHE
 70
     0
 62
     7
  6
CONTINUOUS
  0
LAYER
  2
THEKEBROETCHEN
 70
     0
 62
     7
  6
CONTINUOUS
  0
LAYER
  2
CENTERLINIE
 70
     0
 62
     7
  6
CONTINUOUS
  0
LAYER
  2
UMRISSE
 70
     0
 62
     7
  6
CONTINUOUS
  0
LAYER
  2
MAUER
 70
     0
 62
     7
  6
CONTINUOUS
  0
LAYER
  2
SCHRAFFUR
 70
     0
 62
     7
  6
CONTINUOUS
  0
LAYER
  2
MASSLINIE
 70
     0
 62
     7
  6
CONTINUOUS
  0
LAYER
  2
PV
 70
     0
 62
     7
  6
CONTINUOUS
  0
LAYER
  2
BESCHRIFTUNG
 70
     0
 62
     7
  6
CONTINUOUS
  0
LAYER
  2
AS
 70
     0
 62
     7
  6
CONTINUOUS
  0
LAYER
  2
PL
 70
     0
 62
     7
  6
CONTINUOUS
  0
LAYER
  2
UK
 70
     0
 62
     7
  6
CONTINUOUS
  0
LAYER
  2
TEXT3
 70
     0
 62
     7
  6
CONTINUOUS
  0
LAYER
  2
TEXT7
 70
     0
 62
     7
  6
CONTINUOUS
  0
LAYER
  2
BEPL1
 70
     0
 62
     7
  6
CONTINUOUS
  0
LAYER
  2
BEPL2
 70
     0
 62
     7
  6
CONTINUOUS
  0
LAYER
  2
BEPL2V
 70
     0
 62
     7
  6
CONTINUOUS
  0
LAYER
  2
BEPL4
 70
     0
 62
     7
  6
CONTINUOUS
  0
LAYER
  2
BEPL
 70
     0
 62
     7
  6
CONTINUOUS
  0
LAYER
  2
UK1
 70
     0
 62
     7
  6
CONTINUOUS
  0
LAYER
  2
UK2
 70
     0
 62
     7
  6
CONTINUOUS
  0
LAYER
  2
UK2V
 70
     0
 62
     7
  6
CONTINUOUS
  0
LAYER
  2
UK3
 70
     0
 62
     7
  6
CONTINUOUS
  0
LAYER
  2
TEXT2
 70
     0
 62
     7
  6
CONTINUOUS
  0
LAYER
  2
HILF2S
 70
     0
 62
     7
  6
CONTINUOUS
  0
LAYER
  2
UK1V
 70
     0
 62
     7
  6
CONTINUOUS
  0
LAYER
  2
GAIN_ZRA
 70
     0
 62
     7
  6
CONTINUOUS
  0
LAYER
  2
GAIN_ZSF
 70
     0
 62
     7
  6
CONTINUOUS
  0
LAYER
  2
RAHM4
 70
     0
 62
     7
  6
CONTINUOUS
  0
LAYER
  2
KORPUSBAND
 70
     0
 62
     7
  6
CONTINUOUS
  0
LAYER
  2
E---LGPL--------
 70
     0
 62
     7
  6
CONTINUOUS
  0
LAYER
  2
E---NPFL--------
 70
     0
 62
     7
  6
CONTINUOUS
  0
LAYER
  2
E---PLNKTXT-----
 70
     0
 62
     7
  6
CONTINUOUS
  0
LAYER
  2
E---PLNK--------
 70
     0
 62
     7
  6
CONTINUOUS
  0
LAYER
  2
E---PLNR--------
 70
     0
 62
     7
  6
CONTINUOUS
  0
LAYER
  2
D547_ARCHICAD
 70
     0
 62
     7
  6
CONTINUOUS
  0
LAYER
  2
D547_E---TEXT--------
 70
     0
 62
     7
  6
CONTINUOUS
  0
LAYER
  2
E---LEGD--------
 70
     0
 62
     7
  6
CONTINUOUS
  0
LAYER
  2
D43_ARCHICAD
 70
     0
 62
     7
  6
CONTINUOUS
  0
LAYER
  2
D43_FENSTER_VON_B---FASS--
 70
     0
 62
     7
  6
CONTINUOUS
  0
LAYER
  2
D43_E---SCHN--------
 70
     0
 62
     7
  6
CONTINUOUS
  0
LAYER
  2
D43_B---MW-N--------
 70
     0
 62
     7
  6
CONTINUOUS
  0
LAYER
  2
D43_B---DECK--------
 70
     0
 62
     7
  6
CONTINUOUS
  0
LAYER
  2
D43_B---MW-S--------
 70
     0
 62
     7
  6
CONTINUOUS
  0
LAYER
  2
D43_B---MW----------
 70
     0
 62
     7
  6
CONTINUOUS
  0
LAYER
  2
D43_B---FASS--------
 70
     0
 62
     7
  6
CONTINUOUS
  0
LAYER
  2
D43_E---RASG--------
 70
     0
 62
     7
  6
CONTINUOUS
  0
LAYER
  2
D40_ARCHICAD
 70
     0
 62
     7
  6
CONTINUOUS
  0
LAYER
  2
D40_E---MW--------
 70
     0
 62
     7
  6
CONTINUOUS
  0
LAYER
  2
D40_E---FASSKON-----
 70
     0
 62
     7
  6
CONTINUOUS
  0
LAYER
  2
D40_TÜREN_VON_B---MW-N----
 70
     0
 62
     7
  6
CONTINUOUS
  0
LAYER
  2
D40_E---MW-L------
 70
     0
 62
     7
  6
CONTINUOUS
  0
LAYER
  2
D40_TÜREN_VON_B---MW------
 70
     0
 62
     7
  6
CONTINUOUS
  0
LAYER
  2
D40_E---VERM--------
 70
     0
 62
     7
  6
CONTINUOUS
  0
LAYER
  2
D40_FENSTER_VON_E---MW-L--
 70
     0
 62
     7
  6
CONTINUOUS
  0
LAYER
  2
D40_FENSTER_VON_B---MW-N--
 70
     0
 62
     7
  6
CONTINUOUS
  0
LAYER
  2
D40_E---SCHN--------
 70
     0
 62
     7
  6
CONTINUOUS
  0
LAYER
  2
D40_E---AUFZ--------
 70
     0
 62
     7
  6
CONTINUOUS
  0
LAYER
  2
D40_E---DECK--------
 70
     0
 62
     7
  6
CONTINUOUS
  0
LAYER
  2
D40_E---RAUMINF-----
 70
     0
 62
     7
  6
CONTINUOUS
  0
LAYER
  2
D40_E---TEXT--------
 70
     0
 62
     7
  6
CONTINUOUS
  0
LAYER
  2
D40_B---TEXT--------
 70
     0
 62
     7
  6
CONTINUOUS
  0
LAYER
  2
D40_B---MW-N--------
 70
     0
 62
     7
  6
CONTINUOUS
  0
LAYER
  2
D40_B---DECK--------
 70
     0
 62
     7
  6
CONTINUOUS
  0
LAYER
  2
D40_B---AUFZ--------
 70
     0
 62
     7
  6
CONTINUOUS
  0
LAYER
  2
D40_B---MW-S--------
 70
     0
 62
     7
  6
CONTINUOUS
  0
LAYER
  2
D40_B---MW----------
 70
     0
 62
     7
  6
CONTINUOUS
  0
LAYER
  2
D40_E---MOEB--------
 70
     0
 62
     7
  6
CONTINUOUS
  0
LAYER
  2
D40_B---UMGB--------
 70
     0
 62
     7
  6
CONTINUOUS
  0
LAYER
  2
D40_B---FASS--------
 70
     0
 62
     7
  6
CONTINUOUS
  0
LAYER
  2
D40_E---DACH--------
 70
     0
 62
     7
  6
CONTINUOUS
  0
LAYER
  2
D40_E---BODE--------
 70
     0
 62
     7
  6
CONTINUOUS
  0
LAYER
  2
D40_E---TREP--------
 70
     0
 62
     7
  6
CONTINUOUS
  0
LAYER
  2
D40_E---RASG--------
 70
     0
 62
     7
  6
CONTINUOUS
  0
LAYER
  2
D40_B---MW-K--------
 70
     0
 62
     7
  6
CONTINUOUS
  0
LAYER
  2
D40_E---FASSGLA-----
 70
     0
 62
     7
  6
CONTINUOUS
  0
LAYER
  2
D40_B---VERM--------
 70
     0
 62
     7
  6
CONTINUOUS
  0
LAYER
  2
D40_E---UMGBGSG-----
 70
     0
 62
     7
  6
CONTINUOUS
  0
LAYER
  2
D40_E---RASF--------
 70
     0
 62
     7
  6
CONTINUOUS
  0
LAYER
  2
D40_E---PFLA--------
 70
     0
 62
     7
  6
CONTINUOUS
  0
LAYER
  2
D40_E---KONS-ST-----
 70
     0
 62
     7
  6
CONTINUOUS
  0
LAYER
  2
D40_E---WERB--------
 70
     0
 62
     7
  6
CONTINUOUS
  0
LAYER
  2
D40_E---TUERINF-----
 70
     0
 62
     7
  6
CONTINUOUS
  0
LAYER
  2
D40_E---WOLK--------
 70
     0
 62
     7
  6
CONTINUOUS
  0
LAYER
  2
D40_B---MW-L--------
 70
     0
 62
     7
  6
CONTINUOUS
  0
LAYER
  2
D40_B---SANI--------
 70
     0
 62
     7
  6
CONTINUOUS
  0
LAYER
  2
D40_E---SANI--------
 70
     0
 62
     7
  6
CONTINUOUS
  0
LAYER
  2
D40_E---MW-K------
 70
     0
 62
     7
  6
CONTINUOUS
  0
LAYER
  2
D40_E---OBJE--------
 70
     0
 62
     7
  6
CONTINUOUS
  0
LAYER
  2
D40_E---ASPR--------
 70
     0
 62
     7
  6
CONTINUOUS
  0
LAYER
  2
D40_E---VERMTGA-----
 70
     0
 62
     7
  6
CONTINUOUS
  0
LAYER
  2
D40_E---PARK--------
 70
     0
 62
     7
  6
CONTINUOUS
  0
LAYER
  2
D40_E---ISOL--------
 70
     0
 62
     7
  6
CONTINUOUS
  0
LAYER
  2
D40_E---TUER--------
 70
     0
 62
     7
  6
CONTINUOUS
  0
LAYER
  2
D40_E---MW--BRA---
 70
     0
 62
     7
  6
CONTINUOUS
  0
LAYER
  2
D41_ARCHICAD
 70
     0
 62
     7
  6
CONTINUOUS
  0
LAYER
  2
D41_E---MW--------
 70
     0
 62
     7
  6
CONTINUOUS
  0
LAYER
  2
D41_E---FASSKON-----
 70
     0
 62
     7
  6
CONTINUOUS
  0
LAYER
  2
D41_TÜREN_VON_B---MW-N----
 70
     0
 62
     7
  6
CONTINUOUS
  0
LAYER
  2
D41_E---MW-L------
 70
     0
 62
     7
  6
CONTINUOUS
  0
LAYER
  2
D41_TÜREN_VON_B---MW------
 70
     0
 62
     7
  6
CONTINUOUS
  0
LAYER
  2
D41_E---VERM--------
 70
     0
 62
     7
  6
CONTINUOUS
  0
LAYER
  2
D41_FENSTER_VON_E---MW-L--
 70
     0
 62
     7
  6
CONTINUOUS
  0
LAYER
  2
D41_FENSTER_VON_B---MW-N--
 70
     0
 62
     7
  6
CONTINUOUS
  0
LAYER
  2
D41_E---SCHN--------
 70
     0
 62
     7
  6
CONTINUOUS
  0
LAYER
  2
D41_E---AUFZ--------
 70
     0
 62
     7
  6
CONTINUOUS
  0
LAYER
  2
D41_E---DECK--------
 70
     0
 62
     7
  6
CONTINUOUS
  0
LAYER
  2
D41_E---RAUMINF-----
 70
     0
 62
     7
  6
CONTINUOUS
  0
LAYER
  2
D41_E---TEXT--------
 70
     0
 62
     7
  6
CONTINUOUS
  0
LAYER
  2
D41_B---TEXT--------
 70
     0
 62
     7
  6
CONTINUOUS
  0
LAYER
  2
D41_B---MW-N--------
 70
     0
 62
     7
  6
CONTINUOUS
  0
LAYER
  2
D41_B---DECK--------
 70
     0
 62
     7
  6
CONTINUOUS
  0
LAYER
  2
D41_B---AUFZ--------
 70
     0
 62
     7
  6
CONTINUOUS
  0
LAYER
  2
D41_B---MW-S--------
 70
     0
 62
     7
  6
CONTINUOUS
  0
LAYER
  2
D41_B---MW----------
 70
     0
 62
     7
  6
CONTINUOUS
  0
LAYER
  2
D41_E---MOEB--------
 70
     0
 62
     7
  6
CONTINUOUS
  0
LAYER
  2
D41_B---UMGB--------
 70
     0
 62
     7
  6
CONTINUOUS
  0
LAYER
  2
D41_B---FASS--------
 70
     0
 62
     7
  6
CONTINUOUS
  0
LAYER
  2
D41_E---DACH--------
 70
     0
 62
     7
  6
CONTINUOUS
  0
LAYER
  2
D41_E---BODE--------
 70
     0
 62
     7
  6
CONTINUOUS
  0
LAYER
  2
D41_E---TREP--------
 70
     0
 62
     7
  6
CONTINUOUS
  0
LAYER
  2
D41_E---RASG--------
 70
     0
 62
     7
  6
CONTINUOUS
  0
LAYER
  2
D41_B---MW-K--------
 70
     0
 62
     7
  6
CONTINUOUS
  0
LAYER
  2
D41_E---FASSGLA-----
 70
     0
 62
     7
  6
CONTINUOUS
  0
LAYER
  2
D41_B---VERM--------
 70
     0
 62
     7
  6
CONTINUOUS
  0
LAYER
  2
D41_E---UMGBGSG-----
 70
     0
 62
     7
  6
CONTINUOUS
  0
LAYER
  2
D41_E---RASF--------
 70
     0
 62
     7
  6
CONTINUOUS
  0
LAYER
  2
D41_E---PFLA--------
 70
     0
 62
     7
  6
CONTINUOUS
  0
LAYER
  2
D41_E---KONS-ST-----
 70
     0
 62
     7
  6
CONTINUOUS
  0
LAYER
  2
D41_E---WERB--------
 70
     0
 62
     7
  6
CONTINUOUS
  0
LAYER
  2
D41_E---TUERINF-----
 70
     0
 62
     7
  6
CONTINUOUS
  0
LAYER
  2
D41_E---WOLK--------
 70
     0
 62
     7
  6
CONTINUOUS
  0
LAYER
  2
D41_B---MW-L--------
 70
     0
 62
     7
  6
CONTINUOUS
  0
LAYER
  2
D41_B---SANI--------
 70
     0
 62
     7
  6
CONTINUOUS
  0
LAYER
  2
D41_E---SANI--------
 70
     0
 62
     7
  6
CONTINUOUS
  0
LAYER
  2
D41_E---MW-K------
 70
     0
 62
     7
  6
CONTINUOUS
  0
LAYER
  2
D41_E---OBJE--------
 70
     0
 62
     7
  6
CONTINUOUS
  0
LAYER
  2
D41_E---ASPR--------
 70
     0
 62
     7
  6
CONTINUOUS
  0
LAYER
  2
D41_E---VERMTGA-----
 70
     0
 62
     7
  6
CONTINUOUS
  0
LAYER
  2
D41_E---PARK--------
 70
     0
 62
     7
  6
CONTINUOUS
  0
LAYER
  2
D41_E---ISOL--------
 70
     0
 62
     7
  6
CONTINUOUS
  0
LAYER
  2
D41_E---TUER--------
 70
     0
 62
     7
  6
CONTINUOUS
  0
LAYER
  2
D41_E---MW--BRA---
 70
     0
 62
     7
  6
CONTINUOUS
  0
LAYER
  2
D42_ARCHICAD
 70
     0
 62
     7
  6
CONTINUOUS
  0
LAYER
  2
D42_FENSTER_VON_B---FASS--
 70
     0
 62
     7
  6
CONTINUOUS
  0
LAYER
  2
D42_E---SCHN--------
 70
     0
 62
     7
  6
CONTINUOUS
  0
LAYER
  2
D42_B---MW-N--------
 70
     0
 62
     7
  6
CONTINUOUS
  0
LAYER
  2
D42_B---DECK--------
 70
     0
 62
     7
  6
CONTINUOUS
  0
LAYER
  2
D42_B---MW-S--------
 70
     0
 62
     7
  6
CONTINUOUS
  0
LAYER
  2
D42_B---MW----------
 70
     0
 62
     7
  6
CONTINUOUS
  0
LAYER
  2
D42_B---FASS--------
 70
     0
 62
     7
  6
CONTINUOUS
  0
LAYER
  2
D42_E---RASG--------
 70
     0
 62
     7
  6
CONTINUOUS
  0
LAYER
  2
CONSTRUCTION_CLASS
 70
     0
 62
     7
  6
CONTINUOUS
  0
LAYER
  2
PATTERN_CLASS
 70
     0
 62
     7
  6
CONTINUOUS
  0
LAYER
  2
KONSTRUKTION
 70
     0
 62
     7
  6
CONTINUOUS
  0
LAYER
  2
BEMAßUNG
 70
     0
 62
     7
  6
CONTINUOUS
  0
LAYER
  2
HILFSGEOMETRIE
 70
     0
 62
     7
  6
CONTINUOUS
  0
LAYER
  2
UNSICHTBAR
 70
     0
 62
     7
  6
CONTINUOUS
  0
LAYER
  2
LOGO
 70
     0
 62
     7
  6
CONTINUOUS
  0
LAYER
  2
VERWALTUNG
 70
     0
 62
     7
  6
CONTINUOUS
  0
LAYER
  2
UNSICHTBARE_GEWINDE
 70
     0
 62
     7
  6
CONTINUOUS
  0
LAYER
  2
SICHTBARE_GEWINDE
 70
     0
 62
     7
  6
CONTINUOUS
  0
LAYER
  2
DEFPOINTS
 70
     0
 62
     7
  6
CONTINUOUS
  0
LAYER
  2
THICK
 70
     0
 62
     7
  6
CONTINUOUS
  0
LAYER
  2
HIDDEN
 70
     0
 62
     7
  6
CONTINUOUS
  0
LAYER
  2
SCHRAFFURGRUNDRISS
 70
     0
 62
     7
  6
CONTINUOUS
  0
LAYER
  2
BEMASSUNG_GRUNDRISS
 70
     0
 62
     7
  6
CONTINUOUS
  0
LAYER
  2
STATIK
 70
     0
 62
     7
  6
CONTINUOUS
  0
LAYER
  2
TÜREN
 70
     0
 62
     7
  6
CONTINUOUS
  0
LAYER
  2
SANITÄR
 70
     0
 62
     7
  6
CONTINUOUS
  0
LAYER
  2
BEMASSUNG_GIPSKARTON
 70
     0
 62
     7
  6
CONTINUOUS
  0
LAYER
  2
EINRICHTUNGEN
 70
     0
 62
     7
  6
CONTINUOUS
  0
LAYER
  2
BECKEN
 70
     0
 62
     7
  6
CONTINUOUS
  0
LAYER
  2
BELEUCHTUNG
 70
     0
 62
     7
  6
CONTINUOUS
  0
LAYER
  2
BESCHRIFTUNGEN
 70
     0
 62
     7
  6
CONTINUOUS
  0
LAYER
  2
ELEKTRO_1__DOSEN_SCHALTER
 70
     0
 62
     7
  6
CONTINUOUS
  0
LAYER
  2
DEFAULT_1
 70
     0
 62
     7
  6
CONTINUOUS
  0
LAYER
  2
AM_0
 70
     0
 62
     7
  6
CONTINUOUS
  0
LAYER
  2
FRAME0_7
 70
     0
 62
     7
  6
CONTINUOUS
  0
LAYER
  2
AM_BOR
 70
     0
 62
     7
  6
CONTINUOUS
  0
LAYER
  2
RAHM2
 70
     0
 62
     7
  6
CONTINUOUS
  0
LAYER
  2
RAHM3
 70
     0
 62
     7
  6
CONTINUOUS
  0
LAYER
  2
FRAME0_5
 70
     0
 62
     7
  6
CONTINUOUS
  0
LAYER
  2
8
 70
     0
 62
     7
  6
CONTINUOUS
  0
LAYER
  2
AM_7
 70
     0
 62
     7
  6
CONTINUOUS
  0
LAYER
  2
HILFSLINIEN
 70
     0
 62
     7
  6
CONTINUOUS
  0
LAYER
  2
DRAWING_TEMPLATE
 70
     0
 62
     7
  6
CONTINUOUS
  0
LAYER
  2
TECHNOBOX_EXTERNALREFSYMBO
 70
     0
 62
     7
  6
CONTINUOUS
  0
LAYER
  2
TECHNOBOX_POLYCLIPSYMBOL_L
 70
     0
 62
     7
  6
CONTINUOUS
  0
LAYER
  2
100
 70
     0
 62
     7
  6
CONTINUOUS
  0
LAYER
  2
101
 70
     0
 62
     7
  6
CONTINUOUS
  0
LAYER
  2
KONTUR
 70
     0
 62
     7
  6
CONTINUOUS
  0
LAYER
  2
MITTELLINIE
 70
     0
 62
     7
  6
CONTINUOUS
  0
LAYER
  2
GESTRICHELT
 70
     0
 62
     7
  6
CONTINUOUS
  0
LAYER
  2
HILFSLINIE
 70
     0
 62
     7
  6
CONTINUOUS
  0
LAYER
  2
TEXT-25
 70
     0
 62
     7
  6
CONTINUOUS
  0
LAYER
  2
TEXT35
 70
     0
 62
     7
  6
CONTINUOUS
  0
LAYER
  2
TEXT-50
 70
     0
 62
     7
  6
CONTINUOUS
  0
LAYER
  2
TEXT-70
 70
     0
 62
     7
  6
CONTINUOUS
  0
LAYER
  2
ANSICHTSFENSTER
 70
     0
 62
     7
  6
CONTINUOUS
  0
LAYER
  2
KERA3
 70
     0
 62
     7
  6
CONTINUOUS
  0
LAYER
  2
KERA5
 70
     0
 62
     7
  6
CONTINUOUS
  0
LAYER
  2
KERA6
 70
     0
 62
     7
  6
CONTINUOUS
  0
LAYER
  2
20
 70
     0
 62
     7
  6
CONTINUOUS
  0
LAYER
  2
50
 70
     0
 62
     7
  6
CONTINUOUS
  0
LAYER
  2
EBENE_1
 70
     0
 62
     7
  6
CONTINUOUS
  0
LAYER
  2
EBENE_2
 70
     0
 62
     7
  6
CONTINUOUS
  0
LAYER
  2
EBENE_5
 70
     0
 62
     7
  6
CONTINUOUS
  0
LAYER
  2
3
 70
     0
 62
     7
  6
CONTINUOUS
  0
LAYER
  2
GEB-KONTUR-A
 70
     0
 62
     7
  6
CONTINUOUS
  0
LAYER
  2
GEB-SYMETRIE
 70
     0
 62
     7
  6
CONTINUOUS
  0
LAYER
  2
GEB-ART-NR
 70
     0
 62
     7
  6
CONTINUOUS
  0
LAYER
  2
PROJECTION
 70
     0
 62
     7
  6
CONTINUOUS
  0
ENDTAB
  0
TABLE
  2
STYLE
 70
     3
  0
STYLE
  2
STANDARD
 70
     0
 40
0.0
 41
1.0
 50
0.0
 71
     0
 42
0.0
  3
txt
  4

  0
STYLE
  2
ANNOTATIVE
 70
     0
 40
0.0
 41
1.0
 50
0.0
 71
     0
 42
0.2
  3
txt
  4

  0
STYLE
  2
SIMPLEX
 70
     0
 40
0.0
 41
1.0
 50
0.0
 71
     0
 42
0.0
  3
simplex
  4

  0
ENDTAB
  0
TABLE
  2
VIEW
 70
     0
  0
ENDTAB
  0
TABLE
  2
UCS
 70
     0
  0
ENDTAB
  0
TABLE
  2
APPID
 70
     8
  0
APPID
  2
ACAD
 70
     0
  0
APPID
  2
ACADANNOTATIVE
 70
     0
  0
APPID
  2
ACAD_MLEADERVER
 70
     0
  0
APPID
  2
ACAD_DSTYLE_DIMJAG
 70
     0
  0
APPID
  2
ACAD_DSTYLE_DIMTALN
 70
     0
  0
APPID
  2
ACAD_PSEXT
 70
     0
  0
APPID
  2
ACAD_NAV_VCDISPLAY
 70
     0
  0
APPID
  2
ACAD_EXEMPT_FROM_CAD_STANDARDS
 70
     0
  0
ENDTAB
  0
TABLE
  2
DIMSTYLE
 70
     2
  0
DIMSTYLE
  2
STANDARD
 70
     0
  3

  4

  5

  6

  7

 40
1.0
 41
0.18
 42
0.0625
 43
0.38
 44
0.18
 45
0.0
 46
0.0
 47
0.0
 48
0.0
140
0.18
141
0.09
142
0.0
143
25.399999999999999
144
1.0
145
0.0
146
1.0
147
0.09
 71
     0
 72
     0
 73
     1
 74
     1
 75
     0
 76
     0
 77
     0
 78
     0
170
     0
171
     2
172
     0
173
     0
174
     0
175
     0
176
     0
177
     0
178
     0
  0
DIMSTYLE
  2
ANNOTATIVE
 70
     0
  3

  4

  5

  6

  7

 40
1.0
 41
0.18
 42
0.0625
 43
0.38
 44
0.18
 45
0.0
 46
0.0
 47
0.0
 48
0.0
140
0.18
141
0.09
142
0.0
143
25.399999999999999
144
1.0
145
0.0
146
1.0
147
0.09
 71
     0
 72
     0
 73
     1
 74
     1
 75
     0
 76
     0
 77
     0
 78
     0
170
     0
171
     2
172
     0
173
     0
174
     0
175
     0
176
     0
177
     0
178
     0
  0
ENDTAB
  0
ENDSEC
  0
SECTION
  2
BLOCKS
  0
BLOCK
  8
0
  2
$MODEL_SPACE
 70
     0
 10
0.0
 20
0.0
 30
0.0
  3
$MODEL_SPACE
  1

  0
ENDBLK
  5
76
  8
0
  0
BLOCK
 67
     1
  8
0
  2
$PAPER_SPACE
 70
     0
 10
0.0
 20
0.0
 30
0.0
  3
$PAPER_SPACE
  1

  0
ENDBLK
  5
72
 67
     1
  8
0
  0
BLOCK
  8
0
  2
*D0
 70
     1
 10
0.0
 20
0.0
 30
0.0
  3
*D0
  1

  0
LINE
  5
184
  8
LAYER01
 62
     7
 10
412.25998499999997
 20
-4148.8737849999998
 30
0.0
 11
412.25998499999997
 21
-4453.3716490000006
 31
0.0
  0
LINE
  5
185
  8
LAYER01
 62
     7
 10
412.25998499999997
 20
-4898.8737849999998
 30
0.0
 11
412.25998499999997
 21
-4594.3759220000002
 31
0.0
  0
LINE
  5
186
  8
LAYER01
 62
     7
 10
345.00423799999999
 20
-4148.8737849999998
 30
0.0
 11
442.25998499999997
 21
-4148.8737849999998
 31
0.0
  0
LINE
  5
187
  8
LAYER01
 62
     7
 10
345.00423799999999
 20
-4898.8737849999998
 30
0.0
 11
442.25998499999997
 21
-4898.8737849999998
 31
0.0
  0
SOLID
  5
188
  8
LAYER01
 62
     7
 10
404.2603049999999
 20
-4196.8737849999998
 30
0.0
 11
412.25998499999997
 21
-4148.8737849999998
 31
0.0
 12
420.25966499999998
 22
-4196.8737849999998
 32
0.0
 13
420.25966499999998
 23
-4196.8737849999998
 33
0.0
  0
SOLID
  5
189
  8
LAYER01
 62
     7
 10
404.2603049999999
 20
-4850.8737849999998
 30
0.0
 11
412.25998499999997
 21
-4898.8737849999998
 31
0.0
 12
420.25966499999998
 22
-4850.8737849999998
 32
0.0
 13
420.25966499999998
 23
-4850.8737849999998
 33
0.0
  0
TEXT
  5
18A
  8
LAYER01
  6
CONTINUOUS
 62
     7
 10
442.25998499999997
 20
-4570.3759220000002
 30
0.0
 40
60.0
  1
750
 50
90.0
  0
POINT
  5
18B
  8
LAYER01
 62
     7
 10
321.00423799999999
 20
-4148.8737849999998
 30
0.0
  0
POINT
  5
18C
  8
LAYER01
 62
     7
 10
321.00423799999999
 20
-4898.8737849999998
 30
0.0
  0
POINT
  5
18D
  8
LAYER01
 62
     7
 10
412.25998499999997
 20
-4898.8737849999998
 30
0.0
  0
ENDBLK
  5
18E
  8
0
  0
BLOCK
  8
0
  2
*D1
 70
     1
 10
0.0
 20
0.0
 30
0.0
  3
*D1
  1

  0
LINE
  5
191
  8
LAYER01
 62
     7
 10
524.75086699999997
 20
-4098.8737849999998
 30
0.0
 11
524.75086699999997
 21
-4428.3716490000006
 31
0.0
  0
LINE
  5
192
  8
LAYER01
 62
     7
 10
524.75086699999997
 20
-4898.8737849999998
 30
0.0
 11
524.75086699999997
 21
-4569.3759220000002
 31
0.0
  0
LINE
  5
193
  8
LAYER01
 62
     7
 10
345.00423799999999
 20
-4098.8737849999998
 30
0.0
 11
554.75086699999997
 21
-4098.8737849999998
 31
0.0
  0
LINE
  5
194
  8
LAYER01
 62
     7
 10
345.00423799999999
 20
-4898.8737849999998
 30
0.0
 11
554.75086699999997
 21
-4898.8737849999998
 31
0.0
  0
SOLID
  5
195
  8
LAYER01
 62
     7
 10
516.75118699999985
 20
-4146.8737849999989
 30
0.0
 11
524.75086699999997
 21
-4098.8737849999998
 31
0.0
 12
532.75054699999998
 22
-4146.8737849999989
 32
0.0
 13
532.75054699999998
 23
-4146.8737849999989
 33
0.0
  0
SOLID
  5
196
  8
LAYER01
 62
     7
 10
516.75118699999985
 20
-4850.8737849999998
 30
0.0
 11
524.75086699999997
 21
-4898.8737849999998
 31
0.0
 12
532.75054699999998
 22
-4850.8737849999998
 32
0.0
 13
532.75054699999998
 23
-4850.8737849999998
 33
0.0
  0
TEXT
  5
197
  8
LAYER01
  6
CONTINUOUS
 62
     7
 10
554.75086699999997
 20
-4545.3759220000002
 30
0.0
 40
60.0
  1
800
 50
90.0
  0
POINT
  5
198
  8
LAYER01
 62
     7
 10
321.00423799999999
 20
-4098.8737849999998
 30
0.0
  0
POINT
  5
199
  8
LAYER01
 62
     7
 10
321.00423799999999
 20
-4898.8737849999998
 30
0.0
  0
POINT
  5
19A
  8
LAYER01
 62
     7
 10
524.75086699999997
 20
-4898.8737849999998
 30
0.0
  0
ENDBLK
  5
19B
  8
0
  0
BLOCK
  8
0
  2
*D2
 70
     1
 10
0.0
 20
0.0
 30
0.0
  3
*D2
  1

  0
LINE
  5
19E
  8
LAYER01
 62
     7
 10
269.653434
 20
-4213.8737849999989
 30
0.0
 11
269.653434
 21
-4487.6431590000002
 31
0.0
  0
LINE
  5
19F
  8
LAYER01
 62
     7
 10
269.653434
 20
-4898.8737849999998
 30
0.0
 11
269.653434
 21
-4626.8759219999993
 31
0.0
  0
LINE
  5
1A0
  8
LAYER01
 62
     7
 10
3.1258010000000001
 20
-4213.8737849999989
 30
0.0
 11
299.653434
 21
-4213.8737849999989
 31
0.0
  0
LINE
  5
1A1
  8
LAYER01
 62
     7
 10
3.1258010000000001
 20
-4898.8737849999998
 30
0.0
 11
299.653434
 21
-4898.8737849999998
 31
0.0
  0
SOLID
  5
1A2
  8
LAYER01
 62
     7
 10
261.65375399999999
 20
-4261.8737849999989
 30
0.0
 11
269.653434
 21
-4213.8737849999989
 31
0.0
 12
277.65311400000002
 22
-4261.8737849999989
 32
0.0
 13
277.65311400000002
 23
-4261.8737849999989
 33
0.0
  0
SOLID
  5
1A3
  8
LAYER01
 62
     7
 10
261.65375399999999
 20
-4850.8737849999998
 30
0.0
 11
269.653434
 21
-4898.8737849999998
 31
0.0
 12
277.65311400000002
 22
-4850.8737849999998
 32
0.0
 13
277.65311400000002
 23
-4850.8737849999998
 33
0.0
  0
TEXT
  5
1A4
  8
LAYER01
  6
CONTINUOUS
 62
     7
 10
299.653434
 20
-4602.8759220000002
 30
0.0
 40
60.0
  1
690
 50
90.0
  0
POINT
  5
1A5
  8
LAYER01
 62
     7
 10
-20.874199000000001
 20
-4213.8737849999989
 30
0.0
  0
POINT
  5
1A6
  8
LAYER01
 62
     7
 10
-20.874199000000001
 20
-4898.8737849999998
 30
0.0
  0
POINT
  5
1A7
  8
LAYER01
 62
     7
 10
269.653434
 20
-4898.8737849999998
 30
0.0
  0
ENDBLK
  5
1A8
  8
0
  0
BLOCK
  8
0
  2
*D3
 70
     1
 10
0.0
 20
0.0
 30
0.0
  3
*D3
  1

  0
LINE
  5
1AB
  8
LAYER01
 62
     7
 10
26.070815
 20
-4268.8737849999989
 30
0.0
 11
26.070815
 21
-4172.8737849999998
 31
0.0
  0
LINE
  5
1AC
  8
LAYER01
 62
     7
 10
26.070815
 20
-4318.8737849999998
 30
0.0
 11
26.070815
 21
-4414.8737849999998
 31
0.0
  0
LINE
  5
1AD
  8
LAYER01
 62
     7
 10
-37.618926999999999
 20
-4268.8737849999989
 30
0.0
 11
56.070815000000003
 21
-4268.8737849999989
 31
0.0
  0
LINE
  5
1AE
  8
LAYER01
 62
     7
 10
-37.618926999999999
 20
-4318.8737849999998
 30
0.0
 11
56.070815000000003
 21
-4318.8737849999998
 31
0.0
  0
SOLID
  5
1AF
  8
LAYER01
 62
     7
 10
18.071135000000002
 20
-4220.8737849999998
 30
0.0
 11
26.070815
 21
-4268.8737849999989
 31
0.0
 12
34.070495000000001
 22
-4220.8737849999998
 32
0.0
 13
34.070495000000001
 23
-4220.8737849999998
 33
0.0
  0
SOLID
  5
1B0
  8
LAYER01
 62
     7
 10
18.071135000000002
 20
-4366.8737849999998
 30
0.0
 11
26.070815
 21
-4318.8737849999998
 31
0.0
 12
34.070495000000001
 22
-4366.8737849999998
 32
0.0
 13
34.070495000000001
 23
-4366.8737849999998
 33
0.0
  0
TEXT
  5
1B1
  8
LAYER01
  6
CONTINUOUS
 62
     7
 10
51.757708999999998
 20
-4329.0298170000005
 30
0.0
 40
60.0
  1
50
 50
90.0
  0
POINT
  5
1B2
  8
LAYER01
 62
     7
 10
-61.618926999999999
 20
-4268.8737849999989
 30
0.0
  0
POINT
  5
1B3
  8
LAYER01
 62
     7
 10
-61.618926999999999
 20
-4318.8737849999998
 30
0.0
  0
POINT
  5
1B4
  8
LAYER01
 62
     7
 10
26.070815
 20
-4318.8737849999998
 30
0.0
  0
ENDBLK
  5
1B5
  8
0
  0
BLOCK
  8
0
  2
*D4
 70
     1
 10
0.0
 20
0.0
 30
0.0
  3
*D4
  1

  0
LINE
  5
1B8
  8
LAYER01
 62
     7
 10
-810.70390399999997
 20
-5894.8490069999998
 30
0.0
 11
-810.70390399999997
 21
-5343.7388060000012
 31
0.0
  0
LINE
  5
1B9
  8
LAYER01
 62
     7
 10
-612.15437799999995
 20
-5894.8490069999998
 30
0.0
 11
-840.70390399999985
 21
-5894.8490069999998
 31
0.0
  0
LINE
  5
1BA
  8
LAYER01
 62
     7
 10
-612.15437799999995
 20
-5343.7388060000012
 30
0.0
 11
-840.70390399999985
 21
-5343.7388060000012
 31
0.0
  0
SOLID
  5
1BB
  8
LAYER01
 62
     7
 10
-802.70422399999995
 20
-5846.8490069999998
 30
0.0
 11
-810.70390399999997
 21
-5894.8490069999998
 31
0.0
 12
-818.70358399999998
 22
-5846.8490069999998
 32
0.0
 13
-818.70358399999998
 23
-5846.8490069999998
 33
0.0
  0
SOLID
  5
1BC
  8
LAYER01
 62
     7
 10
-802.70422399999995
 20
-5391.7388060000012
 30
0.0
 11
-810.70390399999997
 21
-5343.7388060000012
 31
0.0
 12
-818.70358399999998
 22
-5391.7388060000012
 32
0.0
 13
-818.70358399999998
 23
-5391.7388060000012
 33
0.0
  0
TEXT
  5
1BD
  8
LAYER01
  6
CONTINUOUS
 62
     7
 10
-840.70390399999985
 20
-5669.4552819999999
 30
0.0
 40
60.0
  1
550
 50
90.0
  0
POINT
  5
1BE
  8
LAYER01
 62
     7
 10
-588.15437799999995
 20
-5894.8490069999998
 30
0.0
  0
POINT
  5
1BF
  8
LAYER01
 62
     7
 10
-588.15437799999995
 20
-5343.7388060000012
 30
0.0
  0
POINT
  5
1C0
  8
LAYER01
 62
     7
 10
-810.70390399999997
 20
-5343.7388060000012
 30
0.0
  0
ENDBLK
  5
1C1
  8
0
  0
BLOCK
  8
0
  2
*D5
 70
     1
 10
0.0
 20
0.0
 30
0.0
  3
*D5
  1

  0
LINE
  5
1C4
  8
LAYER01
 62
     7
 10
-692.54599800000005
 20
-5489.165661
 30
0.0
 11
-692.54599800000005
 21
-5849.2071370000003
 31
0.0
  0
LINE
  5
1C5
  8
LAYER01
 62
     7
 10
-611.50069900000005
 20
-5489.165661
 30
0.0
 11
-722.54599800000005
 21
-5489.165661
 31
0.0
  0
LINE
  5
1C6
  8
LAYER01
 62
     7
 10
-611.50069900000005
 20
-5849.2071370000003
 30
0.0
 11
-722.54599800000005
 21
-5849.2071370000003
 31
0.0
  0
SOLID
  5
1C7
  8
LAYER01
 62
     7
 10
-700.54567800000007
 20
-5537.165661
 30
0.0
 11
-692.54599800000005
 21
-5489.165661
 31
0.0
 12
-684.54631799999993
 22
-5537.165661
 32
0.0
 13
-684.54631799999993
 23
-5537.165661
 33
0.0
  0
SOLID
  5
1C8
  8
LAYER01
 62
     7
 10
-700.54567800000007
 20
-5801.2071369999994
 30
0.0
 11
-692.54599800000005
 21
-5849.2071370000003
 31
0.0
 12
-684.54631799999993
 22
-5801.2071369999994
 32
0.0
 13
-684.54631799999993
 23
-5801.2071369999994
 33
0.0
  0
TEXT
  5
1C9
  8
LAYER01
  6
CONTINUOUS
 62
     7
 10
-722.54599800000005
 20
-5719.3477739999998
 30
0.0
 40
60.0
  1
360
 50
90.0
  0
POINT
  5
1CA
  8
LAYER01
 62
     7
 10
-587.50069900000005
 20
-5489.165661
 30
0.0
  0
POINT
  5
1CB
  8
LAYER01
 62
     7
 10
-587.50069900000005
 20
-5849.2071370000003
 30
0.0
  0
POINT
  5
1CC
  8
LAYER01
 62
     7
 10
-692.54599800000005
 20
-5849.2071370000003
 30
0.0
  0
ENDBLK
  5
1CD
  8
0
  0
BLOCK
  8
0
  2
*D6
 70
     1
 10
0.0
 20
0.0
 30
0.0
  3
*D6
  1

  0
LINE
  5
1D0
  8
LAYER01
 62
     7
 10
-692.54599800000005
 20
-5343.7388060000012
 30
0.0
 11
-692.54599800000005
 21
-5489.165661
 31
0.0
  0
LINE
  5
1D1
  8
LAYER01
 62
     7
 10
-612.15437799999995
 20
-5343.7388060000012
 30
0.0
 11
-722.54599800000005
 21
-5343.7388060000012
 31
0.0
  0
LINE
  5
1D2
  8
LAYER01
 62
     7
 10
-612.15437799999995
 20
-5489.165661
 30
0.0
 11
-722.54599800000005
 21
-5489.165661
 31
0.0
  0
SOLID
  5
1D3
  8
LAYER01
 62
     7
 10
-700.54567800000007
 20
-5391.7388060000012
 30
0.0
 11
-692.54599800000005
 21
-5343.7388060000012
 31
0.0
 12
-684.54631799999993
 22
-5391.7388060000012
 32
0.0
 13
-684.54631799999993
 23
-5391.7388060000012
 33
0.0
  0
SOLID
  5
1D4
  8
LAYER01
 62
     7
 10
-700.54567800000007
 20
-5441.165661
 30
0.0
 11
-692.54599800000005
 21
-5489.165661
 31
0.0
 12
-684.54631799999993
 22
-5441.165661
 32
0.0
 13
-684.54631799999993
 23
-5441.165661
 33
0.0
  0
TEXT
  5
1D5
  8
LAYER01
  6
CONTINUOUS
 62
     7
 10
-722.54599800000005
 20
-5466.6136079999997
 30
0.0
 40
60.0
  1
145
 50
90.0
  0
POINT
  5
1D6
  8
LAYER01
 62
     7
 10
-588.15437799999995
 20
-5343.7388060000012
 30
0.0
  0
POINT
  5
1D7
  8
LAYER01
 62
     7
 10
-588.15437799999995
 20
-5489.165661
 30
0.0
  0
POINT
  5
1D8
  8
LAYER01
 62
     7
 10
-692.54599800000005
 20
-5489.165661
 30
0.0
  0
ENDBLK
  5
1D9
  8
0
  0
BLOCK
  8
0
  2
*D7
 70
     1
 10
0.0
 20
0.0
 30
0.0
  3
*D7
  1

  0
LINE
  5
1DC
  8
LAYER01
 62
     7
 10
410.13851799999998
 20
-5343.7388060000012
 30
0.0
 11
410.13851799999998
 21
-5551.2757979999988
 31
0.0
  0
LINE
  5
1DD
  8
LAYER01
 62
     7
 10
85.845621999999977
 20
-5343.7388060000012
 30
0.0
 11
440.13851799999998
 21
-5343.7388060000012
 31
0.0
  0
LINE
  5
1DE
  8
LAYER01
 62
     7
 10
85.845621999999977
 20
-5551.2757979999988
 30
0.0
 11
440.13851799999998
 21
-5551.2757979999988
 31
0.0
  0
SOLID
  5
1DF
  8
LAYER01
 62
     7
 10
402.13883799999991
 20
-5391.7388060000012
 30
0.0
 11
410.13851799999998
 21
-5343.7388060000012
 31
0.0
 12
418.13819799999999
 22
-5391.7388060000012
 32
0.0
 13
418.13819799999999
 23
-5391.7388060000012
 33
0.0
  0
SOLID
  5
1E0
  8
LAYER01
 62
     7
 10
402.13883799999991
 20
-5503.2757979999997
 30
0.0
 11
410.13851799999998
 21
-5551.2757979999988
 31
0.0
 12
418.13819799999999
 22
-5503.2757979999997
 32
0.0
 13
418.13819799999999
 23
-5503.2757979999997
 33
0.0
  0
TEXT
  5
1E1
  8
LAYER01
  6
CONTINUOUS
 62
     7
 10
380.13851799999998
 20
-5497.6686769999997
 30
0.0
 40
60.0
  1
210
 50
90.0
  0
POINT
  5
1E2
  8
LAYER01
 62
     7
 10
61.845621999999999
 20
-5343.7388060000012
 30
0.0
  0
POINT
  5
1E3
  8
LAYER01
 62
     7
 10
61.845621999999999
 20
-5551.2757979999988
 30
0.0
  0
POINT
  5
1E4
  8
LAYER01
 62
     7
 10
410.13851799999998
 20
-5551.2757979999988
 30
0.0
  0
ENDBLK
  5
1E5
  8
0
  0
BLOCK
  8
0
  2
*D8
 70
     1
 10
0.0
 20
0.0
 30
0.0
  3
*D8
  1

  0
LINE
  5
1E8
  8
LAYER01
 62
     7
 10
209.49301800000001
 20
-5343.7388060000012
 30
0.0
 11
209.49301800000001
 21
-5247.7388060000003
 31
0.0
  0
LINE
  5
1E9
  8
LAYER01
 62
     7
 10
209.49301800000001
 20
-5436.87374
 30
0.0
 11
209.49301800000001
 21
-5532.87374
 31
0.0
  0
LINE
  5
1EA
  8
LAYER01
 62
     7
 10
85.845621999999977
 20
-5343.7388060000012
 30
0.0
 11
239.49301800000001
 21
-5343.7388060000012
 31
0.0
  0
LINE
  5
1EB
  8
LAYER01
 62
     7
 10
85.845621999999977
 20
-5436.87374
 30
0.0
 11
239.49301800000001
 21
-5436.87374
 31
0.0
  0
SOLID
  5
1EC
  8
LAYER01
 62
     7
 10
201.49333799999999
 20
-5295.7388060000012
 30
0.0
 11
209.49301800000001
 21
-5343.7388060000012
 31
0.0
 12
217.49269799999999
 22
-5295.7388060000012
 32
0.0
 13
217.49269799999999
 23
-5295.7388060000012
 33
0.0
  0
SOLID
  5
1ED
  8
LAYER01
 62
     7
 10
201.49333799999999
 20
-5484.8737400000009
 30
0.0
 11
209.49301800000001
 21
-5436.87374
 31
0.0
 12
217.49269799999999
 22
-5484.8737400000009
 32
0.0
 13
217.49269799999999
 23
-5484.8737400000009
 33
0.0
  0
TEXT
  5
1EE
  8
LAYER01
  6
CONTINUOUS
 62
     7
 10
179.49301800000001
 20
-5217.7388060000003
 30
0.0
 40
60.0
  1
90
 50
90.0
  0
POINT
  5
1EF
  8
LAYER01
 62
     7
 10
61.845621999999999
 20
-5343.7388060000012
 30
0.0
  0
POINT
  5
1F0
  8
LAYER01
 62
     7
 10
61.845621999999999
 20
-5436.87374
 30
0.0
  0
POINT
  5
1F1
  8
LAYER01
 62
     7
 10
209.49301800000001
 20
-5436.87374
 30
0.0
  0
ENDBLK
  5
1F2
  8
0
  0
BLOCK
  8
0
  2
*D9
 70
     1
 10
0.0
 20
0.0
 30
0.0
  3
*D9
  1

  0
LINE
  5
1F5
  8
LAYER01
 62
     7
 10
-22.677094
 20
-6036.7985879999997
 30
0.0
 11
-502.67709400000001
 21
-6036.7985879999997
 31
0.0
  0
LINE
  5
1F6
  8
LAYER01
 62
     7
 10
-22.677094
 20
-5957.2506939999994
 30
0.0
 11
-22.677094
 21
-6066.7985880000006
 31
0.0
  0
LINE
  5
1F7
  8
LAYER01
 62
     7
 10
-502.67709400000001
 20
-5957.2506939999994
 30
0.0
 11
-502.67709400000001
 21
-6066.7985880000006
 31
0.0
  0
SOLID
  5
1F8
  8
LAYER01
 62
     7
 10
-70.677093999999997
 20
-6028.7989079999988
 30
0.0
 11
-22.677094
 21
-6036.7985879999997
 31
0.0
 12
-70.677093999999997
 22
-6044.7982679999996
 32
0.0
 13
-70.677093999999997
 23
-6044.7982679999996
 33
0.0
  0
SOLID
  5
1F9
  8
LAYER01
 62
     7
 10
-454.67709400000001
 20
-6028.7989079999988
 30
0.0
 11
-502.67709400000001
 21
-6036.7985879999997
 31
0.0
 12
-454.67709400000001
 22
-6044.7982679999996
 32
0.0
 13
-454.67709400000001
 23
-6044.7982679999996
 33
0.0
  0
TEXT
  5
1FA
  8
LAYER01
  6
CONTINUOUS
 62
     7
 10
-312.83846899999998
 20
-6006.7985880000006
 30
0.0
 40
60.0
  1
480
  0
POINT
  5
1FB
  8
LAYER01
 62
     7
 10
-22.677094
 20
-5933.2506939999994
 30
0.0
  0
POINT
  5
1FC
  8
LAYER01
 62
     7
 10
-502.67709400000001
 20
-5933.2506939999994
 30
0.0
  0
POINT
  5
1FD
  8
LAYER01
 62
     7
 10
-502.67709400000001
 20
-6036.7985879999997
 30
0.0
  0
ENDBLK
  5
1FE
  8
0
  0
BLOCK
  8
0
  2
*D10
 70
     1
 10
0.0
 20
0.0
 30
0.0
  3
*D10
  1

  0
LINE
  5
201
  8
LAYER01
 62
     7
 10
162.477081
 20
-4318.8737849999998
 30
0.0
 11
162.477081
 21
-4538.3716490000006
 31
0.0
  0
LINE
  5
202
  8
LAYER01
 62
     7
 10
162.477081
 20
-4898.8737849999998
 30
0.0
 11
162.477081
 21
-4679.3759220000011
 31
0.0
  0
LINE
  5
203
  8
LAYER01
 62
     7
 10
-197.41899100000001
 20
-4318.8737849999998
 30
0.0
 11
192.477081
 21
-4318.8737849999998
 31
0.0
  0
LINE
  5
204
  8
LAYER01
 62
     7
 10
-197.41899100000001
 20
-4898.8737849999998
 30
0.0
 11
192.477081
 21
-4898.8737849999998
 31
0.0
  0
SOLID
  5
205
  8
LAYER01
 62
     7
 10
154.47740099999999
 20
-4366.8737849999998
 30
0.0
 11
162.477081
 21
-4318.8737849999998
 31
0.0
 12
170.47676100000001
 22
-4366.8737849999998
 32
0.0
 13
170.47676100000001
 23
-4366.8737849999998
 33
0.0
  0
SOLID
  5
206
  8
LAYER01
 62
     7
 10
154.47740099999999
 20
-4850.8737849999998
 30
0.0
 11
162.477081
 21
-4898.8737849999998
 31
0.0
 12
170.47676100000001
 22
-4850.8737849999998
 32
0.0
 13
170.47676100000001
 23
-4850.8737849999998
 33
0.0
  0
TEXT
  5
207
  8
LAYER01
  6
CONTINUOUS
 62
     7
 10
192.477081
 20
-4655.3759220000002
 30
0.0
 40
60.0
  1
580
 50
90.0
  0
POINT
  5
208
  8
LAYER01
 62
     7
 10
-221.41899100000001
 20
-4318.8737849999998
 30
0.0
  0
POINT
  5
209
  8
LAYER01
 62
     7
 10
-221.41899100000001
 20
-4898.8737849999998
 30
0.0
  0
POINT
  5
20A
  8
LAYER01
 62
     7
 10
162.477081
 20
-4898.8737849999998
 30
0.0
  0
ENDBLK
  5
20B
  8
0
  0
BLOCK
  8
0
  2
*D11
 70
     1
 10
0.0
 20
0.0
 30
0.0
  3
*D11
  1

  0
LINE
  5
20E
  8
LAYER01
 62
     7
 10
62.499301000000003
 20
-5241.1964959999996
 30
0.0
 11
-262.500699
 21
-5241.1964959999996
 31
0.0
  0
LINE
  5
20F
  8
LAYER01
 62
     7
 10
62.499301000000003
 20
-5319.7388060000003
 30
0.0
 11
62.499301000000003
 21
-5211.1964960000014
 31
0.0
  0
LINE
  5
210
  8
LAYER01
 62
     7
 10
-262.500699
 20
-5319.7388060000003
 30
0.0
 11
-262.500699
 21
-5211.1964960000014
 31
0.0
  0
SOLID
  5
211
  8
LAYER01
 62
     7
 10
14.499301000000001
 20
-5233.1968159999988
 30
0.0
 11
62.499301000000003
 21
-5241.1964959999996
 31
0.0
 12
14.499301000000001
 22
-5249.1961759999986
 32
0.0
 13
14.499301000000001
 23
-5249.1961759999986
 33
0.0
  0
SOLID
  5
212
  8
LAYER01
 62
     7
 10
-214.500699
 20
-5233.1968159999988
 30
0.0
 11
-262.500699
 21
-5241.1964959999996
 31
0.0
 12
-214.500699
 22
-5249.1961759999986
 32
0.0
 13
-214.500699
 23
-5249.1961759999986
 33
0.0
  0
TEXT
  5
213
  8
LAYER01
  6
CONTINUOUS
 62
     7
 10
-146.54719399999999
 20
-5211.1964960000014
 30
0.0
 40
60.0
  1
325
  0
POINT
  5
214
  8
LAYER01
 62
     7
 10
62.499301000000003
 20
-5343.7388060000012
 30
0.0
  0
POINT
  5
215
  8
LAYER01
 62
     7
 10
-262.500699
 20
-5343.7388060000012
 30
0.0
  0
POINT
  5
216
  8
LAYER01
 62
     7
 10
-262.500699
 20
-5241.1964959999996
 30
0.0
  0
ENDBLK
  5
217
  8
0
  0
BLOCK
  8
0
  2
*D12
 70
     1
 10
0.0
 20
0.0
 30
0.0
  3
*D12
  1

  0
LINE
  5
21A
  8
LAYER01
 62
     7
 10
62.499301000000003
 20
-5102.1776289999989
 30
0.0
 11
-587.50069900000005
 21
-5102.1776289999989
 31
0.0
  0
LINE
  5
21B
  8
LAYER01
 62
     7
 10
62.499301000000003
 20
-5319.7388060000003
 30
0.0
 11
62.499301000000003
 21
-5072.1776289999998
 31
0.0
  0
LINE
  5
21C
  8
LAYER01
 62
     7
 10
-587.50069900000005
 20
-5319.7388060000003
 30
0.0
 11
-587.50069900000005
 21
-5072.1776289999998
 31
0.0
  0
SOLID
  5
21D
  8
LAYER01
 62
     7
 10
14.499301000000001
 20
-5094.1779489999999
 30
0.0
 11
62.499301000000003
 21
-5102.1776289999989
 31
0.0
 12
14.499301000000001
 22
-5110.1773089999997
 32
0.0
 13
14.499301000000001
 23
-5110.1773089999997
 33
0.0
  0
SOLID
  5
21E
  8
LAYER01
 62
     7
 10
-539.50069900000005
 20
-5094.1779489999999
 30
0.0
 11
-587.50069900000005
 21
-5102.1776289999989
 31
0.0
 12
-539.50069900000005
 22
-5110.1773089999997
 32
0.0
 13
-539.50069900000005
 23
-5110.1773089999997
 33
0.0
  0
TEXT
  5
21F
  8
LAYER01
  6
CONTINUOUS
 62
     7
 10
-309.04719399999999
 20
-5072.1776289999998
 30
0.0
 40
60.0
  1
650
  0
POINT
  5
220
  8
LAYER01
 62
     7
 10
62.499301000000003
 20
-5343.7388060000012
 30
0.0
  0
POINT
  5
221
  8
LAYER01
 62
     7
 10
-587.50069900000005
 20
-5343.7388060000012
 30
0.0
  0
POINT
  5
222
  8
LAYER01
 62
     7
 10
-587.50069900000005
 20
-5102.1776289999989
 30
0.0
  0
ENDBLK
  5
223
  8
0
  0
BLOCK
  8
0
  2
*D13
 70
     1
 10
0.0
 20
0.0
 30
0.0
  3
*D13
  1

  0
LINE
  5
226
  8
LAYER01
 62
     7
 10
-262.500699
 20
-5241.1964959999996
 30
0.0
 11
-587.50069900000005
 21
-5241.1964959999996
 31
0.0
  0
LINE
  5
227
  8
LAYER01
 62
     7
 10
-262.500699
 20
-5319.7388060000003
 30
0.0
 11
-262.500699
 21
-5211.1964960000014
 31
0.0
  0
LINE
  5
228
  8
LAYER01
 62
     7
 10
-587.50069900000005
 20
-5319.7388060000003
 30
0.0
 11
-587.50069900000005
 21
-5211.1964960000014
 31
0.0
  0
SOLID
  5
229
  8
LAYER01
 62
     7
 10
-310.500699
 20
-5233.1968159999988
 30
0.0
 11
-262.500699
 21
-5241.1964959999996
 31
0.0
 12
-310.500699
 22
-5249.1961759999986
 32
0.0
 13
-310.500699
 23
-5249.1961759999986
 33
0.0
  0
SOLID
  5
22A
  8
LAYER01
 62
     7
 10
-539.50069900000005
 20
-5233.1968159999988
 30
0.0
 11
-587.50069900000005
 21
-5241.1964959999996
 31
0.0
 12
-539.50069900000005
 22
-5249.1961759999986
 32
0.0
 13
-539.50069900000005
 23
-5249.1961759999986
 33
0.0
  0
TEXT
  5
22B
  8
LAYER01
  6
CONTINUOUS
 62
     7
 10
-471.54719399999999
 20
-5211.1964960000014
 30
0.0
 40
60.0
  1
325
  0
POINT
  5
22C
  8
LAYER01
 62
     7
 10
-262.500699
 20
-5343.7388060000012
 30
0.0
  0
POINT
  5
22D
  8
LAYER01
 62
     7
 10
-587.50069900000005
 20
-5343.7388060000012
 30
0.0
  0
POINT
  5
22E
  8
LAYER01
 62
     7
 10
-587.50069900000005
 20
-5241.1964959999996
 30
0.0
  0
ENDBLK
  5
22F
  8
0
  0
BLOCK
  8
0
  2
*D14
 70
     1
 10
0.0
 20
0.0
 30
0.0
  3
*D14
  1

  0
LINE
  5
232
  8
LAYER01
 62
     7
 10
-110.803991
 20
-4470.0665070000014
 30
0.0
 11
-410.803991
 21
-4470.0665070000014
 31
0.0
  0
LINE
  5
233
  8
LAYER01
 62
     7
 10
-110.803991
 20
-4389.2849679999999
 30
0.0
 11
-110.803991
 21
-4500.0665069999995
 31
0.0
  0
LINE
  5
234
  8
LAYER01
 62
     7
 10
-410.803991
 20
-4389.2849679999999
 30
0.0
 11
-410.803991
 21
-4500.0665069999995
 31
0.0
  0
SOLID
  5
235
  8
LAYER01
 62
     7
 10
-158.803991
 20
-4462.0668269999996
 30
0.0
 11
-110.803991
 21
-4470.0665070000014
 31
0.0
 12
-158.803991
 22
-4478.0661869999994
 32
0.0
 13
-158.803991
 23
-4478.0661869999994
 33
0.0
  0
SOLID
  5
236
  8
LAYER01
 62
     7
 10
-362.803991
 20
-4462.0668269999996
 30
0.0
 11
-410.803991
 21
-4470.0665070000014
 31
0.0
 12
-362.803991
 22
-4478.0661869999994
 32
0.0
 13
-362.803991
 23
-4478.0661869999994
 33
0.0
  0
TEXT
  5
237
  8
LAYER01
  6
CONTINUOUS
 62
     7
 10
-310.96536600000002
 20
-4440.0665069999995
 30
0.0
 40
60.0
  1
300
  0
POINT
  5
238
  8
LAYER01
 62
     7
 10
-110.803991
 20
-4365.2849679999999
 30
0.0
  0
POINT
  5
239
  8
LAYER01
 62
     7
 10
-410.803991
 20
-4365.2849679999999
 30
0.0
  0
POINT
  5
23A
  8
LAYER01
 62
     7
 10
-410.803991
 20
-4470.0665070000014
 30
0.0
  0
ENDBLK
  5
23B
  8
0
  0
BLOCK
  8
0
  2
*D15
 70
     1
 10
0.0
 20
0.0
 30
0.0
  3
*D15
  1

  0
LINE
  5
23E
  8
LAYER01
 62
     7
 10
159.19100900000001
 20
-3948.1760749999999
 30
0.0
 11
91.026600999999985
 21
-3948.1760749999999
 31
0.0
  0
LINE
  5
23F
  8
LAYER01
 62
     7
 10
-120.80899100000001
 20
-3948.1760749999999
 30
0.0
 11
-52.644581999999993
 21
-3948.1760749999999
 31
0.0
  0
LINE
  5
240
  8
LAYER01
 62
     7
 10
159.19100900000001
 20
-3987.9568640000002
 30
0.0
 11
159.19100900000001
 21
-3918.1760749999999
 31
0.0
  0
LINE
  5
241
  8
LAYER01
 62
     7
 10
-120.80899100000001
 20
-3987.9568640000002
 30
0.0
 11
-120.80899100000001
 21
-3918.1760749999999
 31
0.0
  0
SOLID
  5
242
  8
LAYER01
 62
     7
 10
111.19100899999999
 20
-3940.176395
 30
0.0
 11
159.19100900000001
 21
-3948.1760749999999
 31
0.0
 12
111.19100899999999
 22
-3956.1757550000002
 32
0.0
 13
111.19100899999999
 23
-3956.1757550000002
 33
0.0
  0
SOLID
  5
243
  8
LAYER01
 62
     7
 10
-72.808991000000006
 20
-3940.176395
 30
0.0
 11
-120.80899100000001
 21
-3948.1760749999999
 31
0.0
 12
-72.808991000000006
 22
-3956.1757550000002
 32
0.0
 13
-72.808991000000006
 23
-3956.1757550000002
 33
0.0
  0
TEXT
  5
244
  8
LAYER01
  6
CONTINUOUS
 62
     7
 10
-28.644582
 20
-3978.1760749999999
 30
0.0
 40
60.0
  1
280
  0
POINT
  5
245
  8
LAYER01
 62
     7
 10
159.19100900000001
 20
-4011.9568640000002
 30
0.0
  0
POINT
  5
246
  8
LAYER01
 62
     7
 10
-120.80899100000001
 20
-4011.9568640000002
 30
0.0
  0
POINT
  5
247
  8
LAYER01
 62
     7
 10
-120.80899100000001
 20
-3948.1760749999999
 30
0.0
  0
ENDBLK
  5
248
  8
0
  0
BLOCK
  8
0
  2
*D16
 70
     1
 10
0.0
 20
0.0
 30
0.0
  3
*D16
  1

  0
LINE
  5
24B
  8
LAYER01
 62
     7
 10
-120.80899100000001
 20
-3948.1760749999999
 30
0.0
 11
-188.973399
 21
-3948.1760749999999
 31
0.0
  0
LINE
  5
24C
  8
LAYER01
 62
     7
 10
-400.80899099999988
 20
-3948.1760749999999
 30
0.0
 11
-332.6445819999999
 21
-3948.1760749999999
 31
0.0
  0
LINE
  5
24D
  8
LAYER01
 62
     7
 10
-120.80899100000001
 20
-3987.9568640000002
 30
0.0
 11
-120.80899100000001
 21
-3918.1760749999999
 31
0.0
  0
LINE
  5
24E
  8
LAYER01
 62
     7
 10
-400.80899099999988
 20
-3987.9568640000002
 30
0.0
 11
-400.80899099999988
 21
-3918.1760749999999
 31
0.0
  0
SOLID
  5
24F
  8
LAYER01
 62
     7
 10
-168.80899099999999
 20
-3940.176395
 30
0.0
 11
-120.80899100000001
 21
-3948.1760749999999
 31
0.0
 12
-168.80899099999999
 22
-3956.1757550000002
 32
0.0
 13
-168.80899099999999
 23
-3956.1757550000002
 33
0.0
  0
SOLID
  5
250
  8
LAYER01
 62
     7
 10
-352.80899099999999
 20
-3940.176395
 30
0.0
 11
-400.80899099999988
 21
-3948.1760749999999
 31
0.0
 12
-352.80899099999999
 22
-3956.1757550000002
 32
0.0
 13
-352.80899099999999
 23
-3956.1757550000002
 33
0.0
  0
TEXT
  5
251
  8
LAYER01
  6
CONTINUOUS
 62
     7
 10
-308.64458200000001
 20
-3978.1760749999999
 30
0.0
 40
60.0
  1
280
  0
POINT
  5
252
  8
LAYER01
 62
     7
 10
-120.80899100000001
 20
-4011.9568640000002
 30
0.0
  0
POINT
  5
253
  8
LAYER01
 62
     7
 10
-400.80899099999988
 20
-4011.9568640000002
 30
0.0
  0
POINT
  5
254
  8
LAYER01
 62
     7
 10
-400.80899099999988
 20
-3948.1760749999999
 30
0.0
  0
ENDBLK
  5
255
  8
0
  0
BLOCK
  8
0
  2
JER55_W-G19
 70
     0
 10
0.0
 20
0.0
 30
0.0
  3
JER55_W-G19
  1

  0
POLYLINE
  5
258
  8
LAYER01
  6
VERDECKT
 62
     2
 66
     1
 10
0.0
 20
0.0
 30
0.0
  0
VERTEX
  5
BDD
  8
LAYER01
  6
VERDECKT
 62
     2
 10
-395.79607399999998
 20
-4137.8455789999989
 30
0.0
  0
VERTEX
  5
BDE
  8
LAYER01
  6
VERDECKT
 62
     2
 10
-397.04928100000001
 20
-4137.8455789999989
 30
0.0
  0
VERTEX
  5
BDF
  8
LAYER01
  6
VERDECKT
 62
     2
 10
-398.30248799999998
 20
-4137.8455789999989
 30
0.0
  0
VERTEX
  5
BE0
  8
LAYER01
  6
VERDECKT
 62
     2
 10
-399.55569500000001
 20
-4137.8455789999989
 30
0.0
  0
VERTEX
  5
BE1
  8
LAYER01
  6
VERDECKT
 62
     2
 10
-400.80890199999988
 20
-4137.8455789999989
 30
0.0
  0
VERTEX
  5
BE2
  8
LAYER01
  6
VERDECKT
 62
     2
 10
-402.06210899999991
 20
-4137.8455789999989
 30
0.0
  0
VERTEX
  5
BE3
  8
LAYER01
  6
VERDECKT
 62
     2
 10
-403.315316
 20
-4137.8455789999989
 30
0.0
  0
VERTEX
  5
BE4
  8
LAYER01
  6
VERDECKT
 62
     2
 10
-404.56852300000003
 20
-4137.8455789999989
 30
0.0
  0
VERTEX
  5
BE5
  8
LAYER01
  6
VERDECKT
 62
     2
 10
-405.82172999999989
 20
-4137.8455789999989
 30
0.0
  0
SEQEND
  5
BE6
  8
LAYER01
  6
VERDECKT
 62
     2
  0
POLYLINE
  5
263
  8
LAYER01
  6
VERDECKT
 62
     2
 66
     1
 10
0.0
 20
0.0
 30
0.0
  0
VERTEX
  5
BE7
  8
LAYER01
  6
VERDECKT
 62
     2
 10
-416.82190999999989
 20
-4148.8875270000008
 30
0.0
  0
VERTEX
  5
BE8
  8
LAYER01
  6
VERDECKT
 62
     2
 10
-416.83605499999999
 20
-4148.3338909999993
 30
0.0
  0
VERTEX
  5
BE9
  8
LAYER01
  6
VERDECKT
 62
     2
 10
-416.63168999999988
 20
-4146.7265229999994
 30
0.0
  0
VERTEX
  5
BEA
  8
LAYER01
  6
VERDECKT
 62
     2
 10
-416.19406599999991
 20
-4145.1636470000003
 30
0.0
  0
VERTEX
  5
BEB
  8
LAYER01
  6
VERDECKT
 62
     2
 10
-415.53700500000002
 20
-4143.6786329999986
 30
0.0
  0
VERTEX
  5
BEC
  8
LAYER01
  6
VERDECKT
 62
     2
 10
-414.67432899999989
 20
-4142.3048509999999
 30
0.0
  0
VERTEX
  5
BED
  8
LAYER01
  6
VERDECKT
 62
     2
 10
-413.61986100000001
 20
-4141.0756700000002
 30
0.0
  0
VERTEX
  5
BEE
  8
LAYER01
  6
VERDECKT
 62
     2
 10
-412.39067999999992
 20
-4140.021201999999
 30
0.0
  0
VERTEX
  5
BEF
  8
LAYER01
  6
VERDECKT
 62
     2
 10
-411.01689800000003
 20
-4139.1585260000002
 30
0.0
  0
VERTEX
  5
BF0
  8
LAYER01
  6
VERDECKT
 62
     2
 10
-409.53188399999999
 20
-4138.5014650000003
 30
0.0
  0
VERTEX
  5
BF1
  8
LAYER01
  6
VERDECKT
 62
     2
 10
-407.96900799999997
 20
-4138.0638410000001
 30
0.0
  0
VERTEX
  5
BF2
  8
LAYER01
  6
VERDECKT
 62
     2
 10
-406.36163899999991
 20
-4137.8594759999996
 30
0.0
  0
VERTEX
  5
BF3
  8
LAYER01
  6
VERDECKT
 62
     2
 10
-405.82172999999989
 20
-4137.8455789999989
 30
0.0
  0
SEQEND
  5
BF4
  8
LAYER01
  6
VERDECKT
 62
     2
  0
POLYLINE
  5
272
  8
LAYER01
  6
VERDECKT
 62
     2
 66
     1
 10
0.0
 20
0.0
 30
0.0
  0
VERTEX
  5
BF5
  8
LAYER01
  6
VERDECKT
 62
     2
 10
-395.79607399999998
 20
-4137.8455789999989
 30
0.0
  0
VERTEX
  5
BF6
  8
LAYER01
  6
VERDECKT
 62
     2
 10
-394.18128999999999
 20
-4137.9691190000003
 30
0.0
  0
VERTEX
  5
BF7
  8
LAYER01
  6
VERDECKT
 62
     2
 10
-392.59987599999999
 20
-4138.3305259999988
 30
0.0
  0
VERTEX
  5
BF8
  8
LAYER01
  6
VERDECKT
 62
     2
 10
-391.08519999999999
 20
-4138.9159769999997
 30
0.0
  0
VERTEX
  5
BF9
  8
LAYER01
  6
VERDECKT
 62
     2
 10
-389.67063300000001
 20
-4139.7116500000002
 30
0.0
  0
VERTEX
  5
BFA
  8
LAYER01
  6
VERDECKT
 62
     2
 10
-388.389544
 20
-4140.703724
 30
0.0
  0
VERTEX
  5
BFB
  8
LAYER01
  6
VERDECKT
 62
     2
 10
-387.274337
 20
-4141.8774090000006
 30
0.0
  0
VERTEX
  5
BFC
  8
LAYER01
  6
VERDECKT
 62
     2
 10
-386.34619500000008
 20
-4143.2066990000003
 30
0.0
  0
VERTEX
  5
BFD
  8
LAYER01
  6
VERDECKT
 62
     2
 10
-385.61905999999999
 20
-4144.6583430000001
 30
0.0
  0
VERTEX
  5
BFE
  8
LAYER01
  6
VERDECKT
 62
     2
 10
-385.10675400000002
 20
-4146.1989729999987
 30
0.0
  0
VERTEX
  5
BFF
  8
LAYER01
  6
VERDECKT
 62
     2
 10
-384.82310000000001
 20
-4147.7952180000002
 30
0.0
  0
VERTEX
  5
C00
  8
LAYER01
  6
VERDECKT
 62
     2
 10
-384.795366
 20
-4148.8807619999998
 30
0.0
  0
SEQEND
  5
C01
  8
LAYER01
  6
VERDECKT
 62
     2
  0
ENDBLK
  5
280
  8
0
  0
BLOCK
  8
0
  2
JER55_W-G18
 70
     0
 10
0.0
 20
0.0
 30
0.0
  3
JER55_W-G18
  1

  0
LINE
  5
283
  8
0
  6
CONTINUOUS
 62
     7
 10
-425.80899099999988
 20
-4148.8737849999998
 30
0.0
 11
-375.80899099999999
 21
-4148.8737849999998
 31
0.0
  0
POLYLINE
  5
284
  8
0
  6
CONTINUOUS
 62
     7
 66
     1
 10
0.0
 20
0.0
 30
0.0
  0
VERTEX
  5
C02
  8
0
  6
CONTINUOUS
 62
     7
 10
-400.80899099999988
 20
-4123.8737849999989
 30
0.0
  0
VERTEX
  5
C03
  8
0
  6
CONTINUOUS
 62
     7
 10
-400.80899099999988
 20
-4123.9898549999998
 30
0.0
  0
VERTEX
  5
C04
  8
0
  6
CONTINUOUS
 62
     7
 10
-400.80899099999988
 20
-4131.8508759999986
 30
0.0
  0
VERTEX
  5
C05
  8
0
  6
CONTINUOUS
 62
     7
 10
-400.80899099999988
 20
-4139.7118970000001
 30
0.0
  0
VERTEX
  5
C06
  8
0
  6
CONTINUOUS
 62
     7
 10
-400.80899099999988
 20
-4147.5729179999998
 30
0.0
  0
VERTEX
  5
C07
  8
0
  6
CONTINUOUS
 62
     7
 10
-400.80899099999988
 20
-4155.4339389999996
 30
0.0
  0
VERTEX
  5
C08
  8
0
  6
CONTINUOUS
 62
     7
 10
-400.80899099999988
 20
-4163.2949600000002
 30
0.0
  0
VERTEX
  5
C09
  8
0
  6
CONTINUOUS
 62
     7
 10
-400.80899099999988
 20
-4171.1559809999999
 30
0.0
  0
VERTEX
  5
C0A
  8
0
  6
CONTINUOUS
 62
     7
 10
-400.80899099999988
 20
-4173.8737849999998
 30
0.0
  0
SEQEND
  5
C0B
  8
0
  6
CONTINUOUS
 62
     7
  0
POLYLINE
  5
28F
  8
KERA4
  6
CONTINUOUS
 62
     1
 66
     1
 10
0.0
 20
0.0
 30
0.0
  0
VERTEX
  5
C0C
  8
KERA4
  6
CONTINUOUS
 62
     1
 10
-395.79607399999998
 20
-4159.9020219999993
 30
0.0
  0
VERTEX
  5
C0D
  8
KERA4
  6
CONTINUOUS
 62
     1
 10
-397.04928100000001
 20
-4159.9020219999993
 30
0.0
  0
VERTEX
  5
C0E
  8
KERA4
  6
CONTINUOUS
 62
     1
 10
-398.30248799999998
 20
-4159.9020219999993
 30
0.0
  0
VERTEX
  5
C0F
  8
KERA4
  6
CONTINUOUS
 62
     1
 10
-399.55569500000001
 20
-4159.9020219999993
 30
0.0
  0
VERTEX
  5
C10
  8
KERA4
  6
CONTINUOUS
 62
     1
 10
-400.80890199999988
 20
-4159.9020219999993
 30
0.0
  0
VERTEX
  5
C11
  8
KERA4
  6
CONTINUOUS
 62
     1
 10
-402.06210899999991
 20
-4159.9020219999993
 30
0.0
  0
VERTEX
  5
C12
  8
KERA4
  6
CONTINUOUS
 62
     1
 10
-403.315316
 20
-4159.9020219999993
 30
0.0
  0
VERTEX
  5
C13
  8
KERA4
  6
CONTINUOUS
 62
     1
 10
-404.56852300000003
 20
-4159.9020219999993
 30
0.0
  0
VERTEX
  5
C14
  8
KERA4
  6
CONTINUOUS
 62
     1
 10
-405.82172999999989
 20
-4159.9020219999993
 30
0.0
  0
SEQEND
  5
C15
  8
KERA4
  6
CONTINUOUS
 62
     1
  0
POLYLINE
  5
29A
  8
KERA4
  6
CONTINUOUS
 62
     1
 66
     1
 10
0.0
 20
0.0
 30
0.0
  0
VERTEX
  5
C16
  8
KERA4
  6
CONTINUOUS
 62
     1
 10
-405.82172999999989
 20
-4159.9020219999993
 30
0.0
  0
VERTEX
  5
C17
  8
KERA4
  6
CONTINUOUS
 62
     1
 10
-407.43651399999999
 20
-4159.7784819999997
 30
0.0
  0
VERTEX
  5
C18
  8
KERA4
  6
CONTINUOUS
 62
     1
 10
-409.01792899999998
 20
-4159.4170750000003
 30
0.0
  0
VERTEX
  5
C19
  8
KERA4
  6
CONTINUOUS
 62
     1
 10
-410.53260399999988
 20
-4158.8316240000004
 30
0.0
  0
VERTEX
  5
C1A
  8
KERA4
  6
CONTINUOUS
 62
     1
 10
-411.94717100000003
 20
-4158.0359509999998
 30
0.0
  0
VERTEX
  5
C1B
  8
KERA4
  6
CONTINUOUS
 62
     1
 10
-413.22825999999998
 20
-4157.0438780000004
 30
0.0
  0
VERTEX
  5
C1C
  8
KERA4
  6
CONTINUOUS
 62
     1
 10
-414.34346699999992
 20
-4155.8701920000003
 30
0.0
  0
VERTEX
  5
C1D
  8
KERA4
  6
CONTINUOUS
 62
     1
 10
-415.27161000000001
 20
-4154.5409019999997
 30
0.0
  0
VERTEX
  5
C1E
  8
KERA4
  6
CONTINUOUS
 62
     1
 10
-415.99874499999999
 20
-4153.089258
 30
0.0
  0
VERTEX
  5
C1F
  8
KERA4
  6
CONTINUOUS
 62
     1
 10
-416.5110499999999
 20
-4151.5486279999996
 30
0.0
  0
VERTEX
  5
C20
  8
KERA4
  6
CONTINUOUS
 62
     1
 10
-416.79470400000002
 20
-4149.9523829999998
 30
0.0
  0
VERTEX
  5
C21
  8
KERA4
  6
CONTINUOUS
 62
     1
 10
-416.82190999999989
 20
-4148.8875270000008
 30
0.0
  0
SEQEND
  5
C22
  8
KERA4
  6
CONTINUOUS
 62
     1
  0
POLYLINE
  5
2A8
  8
KERA4
  6
CONTINUOUS
 62
     1
 66
     1
 10
0.0
 20
0.0
 30
0.0
  0
VERTEX
  5
C23
  8
KERA4
  6
CONTINUOUS
 62
     1
 10
-384.795366
 20
-4148.8807619999998
 30
0.0
  0
VERTEX
  5
C24
  8
KERA4
  6
CONTINUOUS
 62
     1
 10
-384.78174999999999
 20
-4149.4137099999998
 30
0.0
  0
VERTEX
  5
C25
  8
KERA4
  6
CONTINUOUS
 62
     1
 10
-384.98611499999998
 20
-4151.0210779999998
 30
0.0
  0
VERTEX
  5
C26
  8
KERA4
  6
CONTINUOUS
 62
     1
 10
-385.42373900000001
 20
-4152.5839539999988
 30
0.0
  0
VERTEX
  5
C27
  8
KERA4
  6
CONTINUOUS
 62
     1
 10
-386.08080000000001
 20
-4154.0689679999987
 30
0.0
  0
VERTEX
  5
C28
  8
KERA4
  6
CONTINUOUS
 62
     1
 10
-386.94347499999998
 20
-4155.4427500000002
 30
0.0
  0
VERTEX
  5
C29
  8
KERA4
  6
CONTINUOUS
 62
     1
 10
-387.99794400000002
 20
-4156.6719309999989
 30
0.0
  0
VERTEX
  5
C2A
  8
KERA4
  6
CONTINUOUS
 62
     1
 10
-389.227125
 20
-4157.7263990000001
 30
0.0
  0
VERTEX
  5
C2B
  8
KERA4
  6
CONTINUOUS
 62
     1
 10
-390.60090700000001
 20
-4158.5890749999999
 30
0.0
  0
VERTEX
  5
C2C
  8
KERA4
  6
CONTINUOUS
 62
     1
 10
-392.0859200000001
 20
-4159.2461359999998
 30
0.0
  0
VERTEX
  5
C2D
  8
KERA4
  6
CONTINUOUS
 62
     1
 10
-393.648796
 20
-4159.6837599999999
 30
0.0
  0
VERTEX
  5
C2E
  8
KERA4
  6
CONTINUOUS
 62
     1
 10
-395.25616500000001
 20
-4159.8881250000013
 30
0.0
  0
VERTEX
  5
C2F
  8
KERA4
  6
CONTINUOUS
 62
     1
 10
-395.79607399999998
 20
-4159.9020219999993
 30
0.0
  0
SEQEND
  5
C30
  8
KERA4
  6
CONTINUOUS
 62
     1
  0
INSERT
  5
2B7
  8
LAYER01
  2
JER55_W-G19
 10
0.0
 20
0.0
 30
0.0
  0
ENDBLK
  5
2B8
  8
0
  0
BLOCK
  8
0
  2
JER55_W-G21
 70
     0
 10
0.0
 20
0.0
 30
0.0
  3
JER55_W-G21
  1

  0
POLYLINE
  5
2BB
  8
LAYER01
  6
VERDECKT
 62
     2
 66
     1
 10
0.0
 20
0.0
 30
0.0
  0
VERTEX
  5
C31
  8
LAYER01
  6
VERDECKT
 62
     2
 10
-115.796074
 20
-4137.8455789999989
 30
0.0
  0
VERTEX
  5
C32
  8
LAYER01
  6
VERDECKT
 62
     2
 10
-117.04928099999999
 20
-4137.8455789999989
 30
0.0
  0
VERTEX
  5
C33
  8
LAYER01
  6
VERDECKT
 62
     2
 10
-118.302488
 20
-4137.8455789999989
 30
0.0
  0
VERTEX
  5
C34
  8
LAYER01
  6
VERDECKT
 62
     2
 10
-119.555695
 20
-4137.8455789999989
 30
0.0
  0
VERTEX
  5
C35
  8
LAYER01
  6
VERDECKT
 62
     2
 10
-120.808902
 20
-4137.8455789999989
 30
0.0
  0
VERTEX
  5
C36
  8
LAYER01
  6
VERDECKT
 62
     2
 10
-122.06210900000001
 20
-4137.8455789999989
 30
0.0
  0
VERTEX
  5
C37
  8
LAYER01
  6
VERDECKT
 62
     2
 10
-123.315316
 20
-4137.8455789999989
 30
0.0
  0
VERTEX
  5
C38
  8
LAYER01
  6
VERDECKT
 62
     2
 10
-124.568523
 20
-4137.8455789999989
 30
0.0
  0
VERTEX
  5
C39
  8
LAYER01
  6
VERDECKT
 62
     2
 10
-125.82173
 20
-4137.8455789999989
 30
0.0
  0
SEQEND
  5
C3A
  8
LAYER01
  6
VERDECKT
 62
     2
  0
POLYLINE
  5
2C6
  8
LAYER01
  6
VERDECKT
 62
     2
 66
     1
 10
0.0
 20
0.0
 30
0.0
  0
VERTEX
  5
C3B
  8
LAYER01
  6
VERDECKT
 62
     2
 10
-136.82191
 20
-4148.8875270000008
 30
0.0
  0
VERTEX
  5
C3C
  8
LAYER01
  6
VERDECKT
 62
     2
 10
-136.83605499999999
 20
-4148.3338909999993
 30
0.0
  0
VERTEX
  5
C3D
  8
LAYER01
  6
VERDECKT
 62
     2
 10
-136.63168999999999
 20
-4146.7265229999994
 30
0.0
  0
VERTEX
  5
C3E
  8
LAYER01
  6
VERDECKT
 62
     2
 10
-136.19406599999999
 20
-4145.1636470000003
 30
0.0
  0
VERTEX
  5
C3F
  8
LAYER01
  6
VERDECKT
 62
     2
 10
-135.53700499999999
 20
-4143.6786329999986
 30
0.0
  0
VERTEX
  5
C40
  8
LAYER01
  6
VERDECKT
 62
     2
 10
-134.674329
 20
-4142.3048509999999
 30
0.0
  0
VERTEX
  5
C41
  8
LAYER01
  6
VERDECKT
 62
     2
 10
-133.61986099999999
 20
-4141.0756700000002
 30
0.0
  0
VERTEX
  5
C42
  8
LAYER01
  6
VERDECKT
 62
     2
 10
-132.39068
 20
-4140.021201999999
 30
0.0
  0
VERTEX
  5
C43
  8
LAYER01
  6
VERDECKT
 62
     2
 10
-131.016898
 20
-4139.1585260000002
 30
0.0
  0
VERTEX
  5
C44
  8
LAYER01
  6
VERDECKT
 62
     2
 10
-129.53188399999999
 20
-4138.5014650000003
 30
0.0
  0
VERTEX
  5
C45
  8
LAYER01
  6
VERDECKT
 62
     2
 10
-127.969008
 20
-4138.0638410000001
 30
0.0
  0
VERTEX
  5
C46
  8
LAYER01
  6
VERDECKT
 62
     2
 10
-126.361639
 20
-4137.8594759999996
 30
0.0
  0
VERTEX
  5
C47
  8
LAYER01
  6
VERDECKT
 62
     2
 10
-125.82173
 20
-4137.8455789999989
 30
0.0
  0
SEQEND
  5
C48
  8
LAYER01
  6
VERDECKT
 62
     2
  0
POLYLINE
  5
2D5
  8
LAYER01
  6
VERDECKT
 62
     2
 66
     1
 10
0.0
 20
0.0
 30
0.0
  0
VERTEX
  5
C49
  8
LAYER01
  6
VERDECKT
 62
     2
 10
-115.796074
 20
-4137.8455789999989
 30
0.0
  0
VERTEX
  5
C4A
  8
LAYER01
  6
VERDECKT
 62
     2
 10
-114.18129
 20
-4137.9691190000003
 30
0.0
  0
VERTEX
  5
C4B
  8
LAYER01
  6
VERDECKT
 62
     2
 10
-112.59987599999999
 20
-4138.3305259999988
 30
0.0
  0
VERTEX
  5
C4C
  8
LAYER01
  6
VERDECKT
 62
     2
 10
-111.0852
 20
-4138.9159769999997
 30
0.0
  0
VERTEX
  5
C4D
  8
LAYER01
  6
VERDECKT
 62
     2
 10
-109.670633
 20
-4139.7116500000002
 30
0.0
  0
VERTEX
  5
C4E
  8
LAYER01
  6
VERDECKT
 62
     2
 10
-108.389544
 20
-4140.703724
 30
0.0
  0
VERTEX
  5
C4F
  8
LAYER01
  6
VERDECKT
 62
     2
 10
-107.274337
 20
-4141.8774090000006
 30
0.0
  0
VERTEX
  5
C50
  8
LAYER01
  6
VERDECKT
 62
     2
 10
-106.34619499999999
 20
-4143.2066990000003
 30
0.0
  0
VERTEX
  5
C51
  8
LAYER01
  6
VERDECKT
 62
     2
 10
-105.61906
 20
-4144.6583430000001
 30
0.0
  0
VERTEX
  5
C52
  8
LAYER01
  6
VERDECKT
 62
     2
 10
-105.106754
 20
-4146.1989729999987
 30
0.0
  0
VERTEX
  5
C53
  8
LAYER01
  6
VERDECKT
 62
     2
 10
-104.8231
 20
-4147.7952180000002
 30
0.0
  0
VERTEX
  5
C54
  8
LAYER01
  6
VERDECKT
 62
     2
 10
-104.795366
 20
-4148.8807619999998
 30
0.0
  0
SEQEND
  5
C55
  8
LAYER01
  6
VERDECKT
 62
     2
  0
ENDBLK
  5
2E3
  8
0
  0
BLOCK
  8
0
  2
JER55_W-G20
 70
     0
 10
0.0
 20
0.0
 30
0.0
  3
JER55_W-G20
  1

  0
LINE
  5
2E6
  8
0
  6
CONTINUOUS
 62
     7
 10
-145.80899099999999
 20
-4148.8737849999998
 30
0.0
 11
-95.808991000000006
 21
-4148.8737849999998
 31
0.0
  0
POLYLINE
  5
2E7
  8
0
  6
CONTINUOUS
 62
     7
 66
     1
 10
0.0
 20
0.0
 30
0.0
  0
VERTEX
  5
C56
  8
0
  6
CONTINUOUS
 62
     7
 10
-120.80899100000001
 20
-4123.8737849999989
 30
0.0
  0
VERTEX
  5
C57
  8
0
  6
CONTINUOUS
 62
     7
 10
-120.80899100000001
 20
-4123.9898549999998
 30
0.0
  0
VERTEX
  5
C58
  8
0
  6
CONTINUOUS
 62
     7
 10
-120.80899100000001
 20
-4131.8508759999986
 30
0.0
  0
VERTEX
  5
C59
  8
0
  6
CONTINUOUS
 62
     7
 10
-120.80899100000001
 20
-4139.7118970000001
 30
0.0
  0
VERTEX
  5
C5A
  8
0
  6
CONTINUOUS
 62
     7
 10
-120.80899100000001
 20
-4147.5729179999998
 30
0.0
  0
VERTEX
  5
C5B
  8
0
  6
CONTINUOUS
 62
     7
 10
-120.80899100000001
 20
-4155.4339389999996
 30
0.0
  0
VERTEX
  5
C5C
  8
0
  6
CONTINUOUS
 62
     7
 10
-120.80899100000001
 20
-4163.2949600000002
 30
0.0
  0
VERTEX
  5
C5D
  8
0
  6
CONTINUOUS
 62
     7
 10
-120.80899100000001
 20
-4171.1559809999999
 30
0.0
  0
VERTEX
  5
C5E
  8
0
  6
CONTINUOUS
 62
     7
 10
-120.80899100000001
 20
-4173.8737849999998
 30
0.0
  0
SEQEND
  5
C5F
  8
0
  6
CONTINUOUS
 62
     7
  0
POLYLINE
  5
2F2
  8
KERA4
  6
CONTINUOUS
 62
     1
 66
     1
 10
0.0
 20
0.0
 30
0.0
  0
VERTEX
  5
C60
  8
KERA4
  6
CONTINUOUS
 62
     1
 10
-115.796074
 20
-4159.9020219999993
 30
0.0
  0
VERTEX
  5
C61
  8
KERA4
  6
CONTINUOUS
 62
     1
 10
-117.04928099999999
 20
-4159.9020219999993
 30
0.0
  0
VERTEX
  5
C62
  8
KERA4
  6
CONTINUOUS
 62
     1
 10
-118.302488
 20
-4159.9020219999993
 30
0.0
  0
VERTEX
  5
C63
  8
KERA4
  6
CONTINUOUS
 62
     1
 10
-119.555695
 20
-4159.9020219999993
 30
0.0
  0
VERTEX
  5
C64
  8
KERA4
  6
CONTINUOUS
 62
     1
 10
-120.808902
 20
-4159.9020219999993
 30
0.0
  0
VERTEX
  5
C65
  8
KERA4
  6
CONTINUOUS
 62
     1
 10
-122.06210900000001
 20
-4159.9020219999993
 30
0.0
  0
VERTEX
  5
C66
  8
KERA4
  6
CONTINUOUS
 62
     1
 10
-123.315316
 20
-4159.9020219999993
 30
0.0
  0
VERTEX
  5
C67
  8
KERA4
  6
CONTINUOUS
 62
     1
 10
-124.568523
 20
-4159.9020219999993
 30
0.0
  0
VERTEX
  5
C68
  8
KERA4
  6
CONTINUOUS
 62
     1
 10
-125.82173
 20
-4159.9020219999993
 30
0.0
  0
SEQEND
  5
C69
  8
KERA4
  6
CONTINUOUS
 62
     1
  0
POLYLINE
  5
2FD
  8
KERA4
  6
CONTINUOUS
 62
     1
 66
     1
 10
0.0
 20
0.0
 30
0.0
  0
VERTEX
  5
C6A
  8
KERA4
  6
CONTINUOUS
 62
     1
 10
-125.82173
 20
-4159.9020219999993
 30
0.0
  0
VERTEX
  5
C6B
  8
KERA4
  6
CONTINUOUS
 62
     1
 10
-127.436514
 20
-4159.7784819999997
 30
0.0
  0
VERTEX
  5
C6C
  8
KERA4
  6
CONTINUOUS
 62
     1
 10
-129.01792900000001
 20
-4159.4170750000003
 30
0.0
  0
VERTEX
  5
C6D
  8
KERA4
  6
CONTINUOUS
 62
     1
 10
-130.53260399999999
 20
-4158.8316240000004
 30
0.0
  0
VERTEX
  5
C6E
  8
KERA4
  6
CONTINUOUS
 62
     1
 10
-131.947171
 20
-4158.0359509999998
 30
0.0
  0
VERTEX
  5
C6F
  8
KERA4
  6
CONTINUOUS
 62
     1
 10
-133.22826000000001
 20
-4157.0438780000004
 30
0.0
  0
VERTEX
  5
C70
  8
KERA4
  6
CONTINUOUS
 62
     1
 10
-134.343467
 20
-4155.8701920000003
 30
0.0
  0
VERTEX
  5
C71
  8
KERA4
  6
CONTINUOUS
 62
     1
 10
-135.27161000000001
 20
-4154.5409019999997
 30
0.0
  0
VERTEX
  5
C72
  8
KERA4
  6
CONTINUOUS
 62
     1
 10
-135.99874500000001
 20
-4153.089258
 30
0.0
  0
VERTEX
  5
C73
  8
KERA4
  6
CONTINUOUS
 62
     1
 10
-136.51105000000001
 20
-4151.5486279999996
 30
0.0
  0
VERTEX
  5
C74
  8
KERA4
  6
CONTINUOUS
 62
     1
 10
-136.794704
 20
-4149.9523829999998
 30
0.0
  0
VERTEX
  5
C75
  8
KERA4
  6
CONTINUOUS
 62
     1
 10
-136.82191
 20
-4148.8875270000008
 30
0.0
  0
SEQEND
  5
C76
  8
KERA4
  6
CONTINUOUS
 62
     1
  0
POLYLINE
  5
30B
  8
KERA4
  6
CONTINUOUS
 62
     1
 66
     1
 10
0.0
 20
0.0
 30
0.0
  0
VERTEX
  5
C77
  8
KERA4
  6
CONTINUOUS
 62
     1
 10
-104.795366
 20
-4148.8807619999998
 30
0.0
  0
VERTEX
  5
C78
  8
KERA4
  6
CONTINUOUS
 62
     1
 10
-104.78175
 20
-4149.4137099999998
 30
0.0
  0
VERTEX
  5
C79
  8
KERA4
  6
CONTINUOUS
 62
     1
 10
-104.986115
 20
-4151.0210779999998
 30
0.0
  0
VERTEX
  5
C7A
  8
KERA4
  6
CONTINUOUS
 62
     1
 10
-105.423739
 20
-4152.5839539999988
 30
0.0
  0
VERTEX
  5
C7B
  8
KERA4
  6
CONTINUOUS
 62
     1
 10
-106.0808
 20
-4154.0689679999987
 30
0.0
  0
VERTEX
  5
C7C
  8
KERA4
  6
CONTINUOUS
 62
     1
 10
-106.94347500000001
 20
-4155.4427500000002
 30
0.0
  0
VERTEX
  5
C7D
  8
KERA4
  6
CONTINUOUS
 62
     1
 10
-107.997944
 20
-4156.6719309999989
 30
0.0
  0
VERTEX
  5
C7E
  8
KERA4
  6
CONTINUOUS
 62
     1
 10
-109.227125
 20
-4157.7263990000001
 30
0.0
  0
VERTEX
  5
C7F
  8
KERA4
  6
CONTINUOUS
 62
     1
 10
-110.60090700000001
 20
-4158.5890749999999
 30
0.0
  0
VERTEX
  5
C80
  8
KERA4
  6
CONTINUOUS
 62
     1
 10
-112.08592
 20
-4159.2461359999998
 30
0.0
  0
VERTEX
  5
C81
  8
KERA4
  6
CONTINUOUS
 62
     1
 10
-113.648796
 20
-4159.6837599999999
 30
0.0
  0
VERTEX
  5
C82
  8
KERA4
  6
CONTINUOUS
 62
     1
 10
-115.256165
 20
-4159.8881250000013
 30
0.0
  0
VERTEX
  5
C83
  8
KERA4
  6
CONTINUOUS
 62
     1
 10
-115.796074
 20
-4159.9020219999993
 30
0.0
  0
SEQEND
  5
C84
  8
KERA4
  6
CONTINUOUS
 62
     1
  0
INSERT
  5
31A
  8
LAYER01
  2
JER55_W-G21
 10
0.0
 20
0.0
 30
0.0
  0
ENDBLK
  5
31B
  8
0
  0
BLOCK
  8
0
  2
*D21
 70
     1
 10
0.0
 20
0.0
 30
0.0
  3
*D21
  1

  0
LINE
  5
31E
  8
LAYER01
 62
     7
 10
525.63662199999999
 20
-4098.8737849999998
 30
0.0
 11
525.63662199999999
 21
-4194.8737849999998
 31
0.0
  0
LINE
  5
31F
  8
LAYER01
 62
     7
 10
525.63662199999999
 20
-4058.8737850000002
 30
0.0
 11
525.63662199999999
 21
-3962.8737850000002
 31
0.0
  0
LINE
  5
320
  8
LAYER01
 62
     7
 10
345.00423799999999
 20
-4098.8737849999998
 30
0.0
 11
555.63662199999999
 21
-4098.8737849999998
 31
0.0
  0
LINE
  5
321
  8
LAYER01
 62
     7
 10
345.00423799999999
 20
-4058.8737850000002
 30
0.0
 11
555.63662199999999
 21
-4058.8737850000002
 31
0.0
  0
SOLID
  5
322
  8
LAYER01
 62
     7
 10
533.636302
 20
-4146.8737849999989
 30
0.0
 11
525.63662199999999
 21
-4098.8737849999998
 31
0.0
 12
517.63694199999986
 22
-4146.8737849999989
 32
0.0
 13
517.63694199999986
 23
-4146.8737849999989
 33
0.0
  0
SOLID
  5
323
  8
LAYER01
 62
     7
 10
533.636302
 20
-4010.8737850000002
 30
0.0
 11
525.63662199999999
 21
-4058.8737850000002
 31
0.0
 12
517.63694199999986
 22
-4010.8737850000002
 32
0.0
 13
517.63694199999986
 23
-4010.8737850000002
 33
0.0
  0
TEXT
  5
324
  8
LAYER01
  6
CONTINUOUS
 62
     7
 10
555.63662199999999
 20
-3932.8737850000002
 30
0.0
 40
60.0
  1
40
 50
90.0
  0
POINT
  5
325
  8
LAYER01
 62
     7
 10
321.00423799999999
 20
-4098.8737849999998
 30
0.0
  0
POINT
  5
326
  8
LAYER01
 62
     7
 10
321.00423799999999
 20
-4058.8737850000002
 30
0.0
  0
POINT
  5
327
  8
LAYER01
 62
     7
 10
525.63662199999999
 20
-4058.8737850000002
 30
0.0
  0
ENDBLK
  5
328
  8
0
  0
BLOCK
  8
0
  2
*D22
 70
     1
 10
0.0
 20
0.0
 30
0.0
  3
*D22
  1

  0
LINE
  5
32B
  8
LAYER01
 62
     7
 10
1580.4800439999999
 20
-4201.1872359999988
 30
0.0
 11
1580.4800439999999
 21
-4482.7506899999989
 31
0.0
  0
LINE
  5
32C
  8
LAYER01
 62
     7
 10
1580.4800439999999
 20
-4898.8737849999998
 30
0.0
 11
1580.4800439999999
 21
-4621.866102
 31
0.0
  0
LINE
  5
32D
  8
LAYER01
 62
     7
 10
1599.714248
 20
-4201.1872359999988
 30
0.0
 11
1610.4800439999999
 21
-4201.1872359999988
 31
0.0
  0
LINE
  5
32E
  8
LAYER01
 62
     7
 10
1599.714248
 20
-4898.8737849999998
 30
0.0
 11
1610.4800439999999
 21
-4898.8737849999998
 31
0.0
  0
SOLID
  5
32F
  8
LAYER01
 62
     7
 10
1572.480364
 20
-4249.1872359999998
 30
0.0
 11
1580.4800439999999
 21
-4201.1872359999988
 31
0.0
 12
1588.479724
 22
-4249.1872359999998
 32
0.0
 13
1588.479724
 23
-4249.1872359999998
 33
0.0
  0
SOLID
  5
330
  8
LAYER01
 62
     7
 10
1572.480364
 20
-4850.8737849999998
 30
0.0
 11
1580.4800439999999
 21
-4898.8737849999998
 31
0.0
 12
1588.479724
 22
-4850.8737849999998
 32
0.0
 13
1588.479724
 23
-4850.8737849999998
 33
0.0
  0
TEXT
  5
331
  8
LAYER01
  6
CONTINUOUS
 62
     7
 10
1610.4800439999999
 20
-4597.866102
 30
0.0
 40
60.0
  1
700
 50
90.0
  0
POINT
  5
332
  8
LAYER01
 62
     7
 10
1575.714248
 20
-4201.1872359999988
 30
0.0
  0
POINT
  5
333
  8
LAYER01
 62
     7
 10
1575.714248
 20
-4898.8737849999998
 30
0.0
  0
POINT
  5
334
  8
LAYER01
 62
     7
 10
1580.4800439999999
 20
-4898.8737849999998
 30
0.0
  0
ENDBLK
  5
335
  8
0
  0
BLOCK
  8
0
  2
*D23
 70
     1
 10
0.0
 20
0.0
 30
0.0
  3
*D23
  1

  0
LINE
  5
338
  8
LAYER01
 62
     7
 10
2225.280659
 20
-4098.8737849999998
 30
0.0
 11
2225.280659
 21
-4002.8737850000011
 31
0.0
  0
LINE
  5
339
  8
LAYER01
 62
     7
 10
2225.280659
 20
-4208.8737849999998
 30
0.0
 11
2225.280659
 21
-4304.8737849999998
 31
0.0
  0
LINE
  5
33A
  8
LAYER01
 62
     7
 10
2065.9872500000001
 20
-4098.8737849999998
 30
0.0
 11
2255.280659
 21
-4098.8737849999998
 31
0.0
  0
LINE
  5
33B
  8
LAYER01
 62
     7
 10
2065.9872500000001
 20
-4208.8737849999998
 30
0.0
 11
2255.280659
 21
-4208.8737849999998
 31
0.0
  0
SOLID
  5
33C
  8
LAYER01
 62
     7
 10
2217.2809790000001
 20
-4050.8737850000002
 30
0.0
 11
2225.280659
 21
-4098.8737849999998
 31
0.0
 12
2233.2803389999999
 22
-4050.8737850000002
 32
0.0
 13
2233.2803389999999
 23
-4050.8737850000002
 33
0.0
  0
SOLID
  5
33D
  8
LAYER01
 62
     7
 10
2217.2809790000001
 20
-4256.8737849999989
 30
0.0
 11
2225.280659
 21
-4208.8737849999998
 31
0.0
 12
2233.2803389999999
 22
-4256.8737849999989
 32
0.0
 13
2233.2803389999999
 23
-4256.8737849999989
 33
0.0
  0
TEXT
  5
33E
  8
LAYER01
  6
CONTINUOUS
 62
     7
 10
2255.280659
 20
-3972.8737850000002
 30
0.0
 40
60.0
  1
110
 50
90.0
  0
POINT
  5
33F
  8
LAYER01
 62
     7
 10
2041.9872499999999
 20
-4098.8737849999998
 30
0.0
  0
POINT
  5
340
  8
LAYER01
 62
     7
 10
2041.9872499999999
 20
-4208.8737849999998
 30
0.0
  0
POINT
  5
341
  8
LAYER01
 62
     7
 10
2225.280659
 20
-4208.8737849999998
 30
0.0
  0
ENDBLK
  5
342
  8
0
  0
BLOCK
  8
0
  2
*D24
 70
     1
 10
0.0
 20
0.0
 30
0.0
  3
*D24
  1

  0
LINE
  5
345
  8
LAYER01
 62
     7
 10
2126.9280979999999
 20
-4098.8737849999998
 30
0.0
 11
2126.9280979999999
 21
-4002.8737850000011
 31
0.0
  0
LINE
  5
346
  8
LAYER01
 62
     7
 10
2126.9280979999999
 20
-4188.8737849999998
 30
0.0
 11
2126.9280979999999
 21
-4284.8737849999998
 31
0.0
  0
LINE
  5
347
  8
LAYER01
 62
     7
 10
2065.9872500000001
 20
-4098.8737849999998
 30
0.0
 11
2156.9280979999999
 21
-4098.8737849999998
 31
0.0
  0
LINE
  5
348
  8
LAYER01
 62
     7
 10
2065.9872500000001
 20
-4188.8737849999998
 30
0.0
 11
2156.9280979999999
 21
-4188.8737849999998
 31
0.0
  0
SOLID
  5
349
  8
LAYER01
 62
     7
 10
2118.928418
 20
-4050.8737850000002
 30
0.0
 11
2126.9280979999999
 21
-4098.8737849999998
 31
0.0
 12
2134.9277780000002
 22
-4050.8737850000002
 32
0.0
 13
2134.9277780000002
 23
-4050.8737850000002
 33
0.0
  0
SOLID
  5
34A
  8
LAYER01
 62
     7
 10
2118.928418
 20
-4236.8737849999989
 30
0.0
 11
2126.9280979999999
 21
-4188.8737849999998
 31
0.0
 12
2134.9277780000002
 22
-4236.8737849999989
 32
0.0
 13
2134.9277780000002
 23
-4236.8737849999989
 33
0.0
  0
TEXT
  5
34B
  8
LAYER01
  6
CONTINUOUS
 62
     7
 10
2156.9280979999999
 20
-3972.8737850000002
 30
0.0
 40
60.0
  1
90
 50
90.0
  0
POINT
  5
34C
  8
LAYER01
 62
     7
 10
2041.9872499999999
 20
-4098.8737849999998
 30
0.0
  0
POINT
  5
34D
  8
LAYER01
 62
     7
 10
2041.9872499999999
 20
-4188.8737849999998
 30
0.0
  0
POINT
  5
34E
  8
LAYER01
 62
     7
 10
2126.9280979999999
 20
-4188.8737849999998
 30
0.0
  0
ENDBLK
  5
34F
  8
0
  0
BLOCK
  8
0
  2
*D25
 70
     1
 10
0.0
 20
0.0
 30
0.0
  3
*D25
  1

  0
LINE
  5
352
  8
LAYER01
 62
     7
 10
1546.5292420000001
 20
-4269.1976500000001
 30
0.0
 11
1642.5292420000001
 21
-4269.1976500000001
 31
0.0
  0
LINE
  5
353
  8
LAYER01
 62
     7
 10
1500.516742
 20
-4269.1976500000001
 30
0.0
 11
1404.516742
 21
-4269.1976500000001
 31
0.0
  0
LINE
  5
354
  8
LAYER01
 62
     7
 10
1546.5292420000001
 20
-4237.4952899999998
 30
0.0
 11
1546.5292420000001
 21
-4299.1976499999992
 31
0.0
  0
LINE
  5
355
  8
LAYER01
 62
     7
 10
1500.516742
 20
-4237.4952899999998
 30
0.0
 11
1500.516742
 21
-4299.1976499999992
 31
0.0
  0
SOLID
  5
356
  8
LAYER01
 62
     7
 10
1594.5292420000001
 20
-4261.1979700000002
 30
0.0
 11
1546.5292420000001
 21
-4269.1976500000001
 31
0.0
 12
1594.5292420000001
 22
-4277.1973299999991
 32
0.0
 13
1594.5292420000001
 23
-4277.1973299999991
 33
0.0
  0
SOLID
  5
357
  8
LAYER01
 62
     7
 10
1452.516742
 20
-4261.1979700000002
 30
0.0
 11
1500.516742
 21
-4269.1976500000001
 31
0.0
 12
1452.516742
 22
-4277.1973299999991
 32
0.0
 13
1452.516742
 23
-4277.1973299999991
 33
0.0
  0
TEXT
  5
358
  8
LAYER01
  6
CONTINUOUS
 62
     7
 10
1672.5292420000001
 20
-4239.1976500000001
 30
0.0
 40
60.0
  1
46
  0
POINT
  5
359
  8
LAYER01
 62
     7
 10
1546.5292420000001
 20
-4213.4952899999998
 30
0.0
  0
POINT
  5
35A
  8
LAYER01
 62
     7
 10
1500.516742
 20
-4213.4952899999998
 30
0.0
  0
POINT
  5
35B
  8
LAYER01
 62
     7
 10
1500.516742
 20
-4269.1976500000001
 30
0.0
  0
ENDBLK
  5
35C
  8
0
  0
BLOCK
  8
0
  2
*D26
 70
     1
 10
0.0
 20
0.0
 30
0.0
  3
*D26
  1

  0
LINE
  5
35F
  8
LAYER01
 62
     7
 10
1880.4638399999999
 20
-4383.1316029999989
 30
0.0
 11
1800.9153389999999
 21
-4383.1316029999989
 31
0.0
  0
LINE
  5
360
  8
LAYER01
 62
     7
 10
1580.4638399999999
 20
-4383.1316029999989
 30
0.0
 11
1660.012342
 21
-4383.1316029999989
 31
0.0
  0
LINE
  5
361
  8
LAYER01
 62
     7
 10
1880.4638399999999
 20
-4296.9443270000002
 30
0.0
 11
1880.4638399999999
 21
-4413.1316029999998
 31
0.0
  0
LINE
  5
362
  8
LAYER01
 62
     7
 10
1580.4638399999999
 20
-4296.9443270000002
 30
0.0
 11
1580.4638399999999
 21
-4413.1316029999998
 31
0.0
  0
SOLID
  5
363
  8
LAYER01
 62
     7
 10
1832.4638399999999
 20
-4375.1319229999999
 30
0.0
 11
1880.4638399999999
 21
-4383.1316029999989
 31
0.0
 12
1832.4638399999999
 22
-4391.1312829999988
 32
0.0
 13
1832.4638399999999
 23
-4391.1312829999988
 33
0.0
  0
SOLID
  5
364
  8
LAYER01
 62
     7
 10
1628.4638399999999
 20
-4375.1319229999999
 30
0.0
 11
1580.4638399999999
 21
-4383.1316029999989
 31
0.0
 12
1628.4638399999999
 22
-4391.1312829999988
 32
0.0
 13
1628.4638399999999
 23
-4391.1312829999988
 33
0.0
  0
TEXT
  5
365
  8
LAYER01
  6
CONTINUOUS
 62
     7
 10
1684.012342
 20
-4413.1316029999998
 30
0.0
 40
60.0
  1
300
  0
POINT
  5
366
  8
LAYER01
 62
     7
 10
1880.4638399999999
 20
-4272.9443270000002
 30
0.0
  0
POINT
  5
367
  8
LAYER01
 62
     7
 10
1580.4638399999999
 20
-4272.9443270000002
 30
0.0
  0
POINT
  5
368
  8
LAYER01
 62
     7
 10
1580.4638399999999
 20
-4383.1316029999989
 30
0.0
  0
ENDBLK
  5
369
  8
0
  0
BLOCK
  8
0
  2
*D27
 70
     1
 10
0.0
 20
0.0
 30
0.0
  3
*D27
  1

  0
LINE
  5
36C
  8
LAYER01
 62
     7
 10
1282.785621
 20
-4058.8897700000002
 30
0.0
 11
1282.785621
 21
-3962.8897700000002
 31
0.0
  0
LINE
  5
36D
  8
LAYER01
 62
     7
 10
1282.785621
 20
-4148.8737849999998
 30
0.0
 11
1282.785621
 21
-4244.8737849999998
 31
0.0
  0
LINE
  5
36E
  8
LAYER01
 62
     7
 10
1311.469257
 20
-4058.8897700000002
 30
0.0
 11
1252.785621
 21
-4058.8897700000002
 31
0.0
  0
LINE
  5
36F
  8
LAYER01
 62
     7
 10
1311.469257
 20
-4148.8737849999998
 30
0.0
 11
1252.785621
 21
-4148.8737849999998
 31
0.0
  0
SOLID
  5
370
  8
LAYER01
 62
     7
 10
1274.7859410000001
 20
-4010.8897700000002
 30
0.0
 11
1282.785621
 21
-4058.8897700000002
 31
0.0
 12
1290.7853009999999
 22
-4010.8897700000002
 32
0.0
 13
1290.7853009999999
 23
-4010.8897700000002
 33
0.0
  0
SOLID
  5
371
  8
LAYER01
 62
     7
 10
1274.7859410000001
 20
-4196.8737849999998
 30
0.0
 11
1282.785621
 21
-4148.8737849999998
 31
0.0
 12
1290.7853009999999
 22
-4196.8737849999998
 32
0.0
 13
1290.7853009999999
 23
-4196.8737849999998
 33
0.0
  0
TEXT
  5
372
  8
LAYER01
  6
CONTINUOUS
 62
     7
 10
1252.785621
 20
-3932.8897700000011
 30
0.0
 40
60.0
  1
90
 50
90.0
  0
POINT
  5
373
  8
LAYER01
 62
     7
 10
1335.469257
 20
-4058.8897700000002
 30
0.0
  0
POINT
  5
374
  8
LAYER01
 62
     7
 10
1335.469257
 20
-4148.8737849999998
 30
0.0
  0
POINT
  5
375
  8
LAYER01
 62
     7
 10
1282.785621
 20
-4148.8737849999998
 30
0.0
  0
ENDBLK
  5
376
  8
0
  0
BLOCK
  8
0
  2
*D28
 70
     1
 10
0.0
 20
0.0
 30
0.0
  3
*D28
  1

  0
LINE
  5
379
  8
LAYER01
 62
     7
 10
1170.8031470000001
 20
-4058.8015
 30
0.0
 11
1170.8031470000001
 21
-4174.6659839999993
 31
0.0
  0
LINE
  5
37A
  8
LAYER01
 62
     7
 10
1311.5240020000001
 20
-4058.8015
 30
0.0
 11
1140.8031470000001
 21
-4058.8015
 31
0.0
  0
LINE
  5
37B
  8
LAYER01
 62
     7
 10
1311.5240020000001
 20
-4174.6659839999993
 30
0.0
 11
1140.8031470000001
 21
-4174.6659839999993
 31
0.0
  0
SOLID
  5
37C
  8
LAYER01
 62
     7
 10
1162.803467
 20
-4106.8014999999987
 30
0.0
 11
1170.8031470000001
 21
-4058.8015
 31
0.0
 12
1178.802827
 22
-4106.8014999999987
 32
0.0
 13
1178.802827
 23
-4106.8014999999987
 33
0.0
  0
SOLID
  5
37D
  8
LAYER01
 62
     7
 10
1162.803467
 20
-4126.6659840000002
 30
0.0
 11
1170.8031470000001
 21
-4174.6659839999993
 31
0.0
 12
1178.802827
 22
-4126.6659840000002
 32
0.0
 13
1178.802827
 23
-4126.6659840000002
 33
0.0
  0
TEXT
  5
37E
  8
LAYER01
  6
CONTINUOUS
 62
     7
 10
1140.8031470000001
 20
-4161.8306000000002
 30
0.0
 40
60.0
  1
116
 50
90.0
  0
POINT
  5
37F
  8
LAYER01
 62
     7
 10
1335.5240020000001
 20
-4058.8015
 30
0.0
  0
POINT
  5
380
  8
LAYER01
 62
     7
 10
1335.5240020000001
 20
-4174.6659839999993
 30
0.0
  0
POINT
  5
381
  8
LAYER01
 62
     7
 10
1170.8031470000001
 20
-4174.6659839999993
 30
0.0
  0
ENDBLK
  5
382
  8
0
  0
BLOCK
  8
0
  2
*D29
 70
     1
 10
0.0
 20
0.0
 30
0.0
  3
*D29
  1

  0
LINE
  5
385
  8
LAYER01
 62
     7
 10
1029.963964
 20
-4058.8897700000002
 30
0.0
 11
1029.963964
 21
-4208.4944799999994
 31
0.0
  0
LINE
  5
386
  8
LAYER01
 62
     7
 10
1311.469257
 20
-4058.8897700000002
 30
0.0
 11
999.96396399999992
 21
-4058.8897700000002
 31
0.0
  0
LINE
  5
387
  8
LAYER01
 62
     7
 10
1311.469257
 20
-4208.4944799999994
 30
0.0
 11
999.96396399999992
 21
-4208.4944799999994
 31
0.0
  0
SOLID
  5
388
  8
LAYER01
 62
     7
 10
1021.964284
 20
-4106.8897700000007
 30
0.0
 11
1029.963964
 21
-4058.8897700000002
 31
0.0
 12
1037.9636439999999
 22
-4106.8897700000007
 32
0.0
 13
1037.9636439999999
 23
-4106.8897700000007
 33
0.0
  0
SOLID
  5
389
  8
LAYER01
 62
     7
 10
1021.964284
 20
-4160.4944799999994
 30
0.0
 11
1029.963964
 21
-4208.4944799999994
 31
0.0
 12
1037.9636439999999
 22
-4160.4944799999994
 32
0.0
 13
1037.9636439999999
 23
-4160.4944799999994
 33
0.0
  0
TEXT
  5
38A
  8
LAYER01
  6
CONTINUOUS
 62
     7
 10
999.96396399999992
 20
-4181.5277159999987
 30
0.0
 40
60.0
  1
150
 50
90.0
  0
POINT
  5
38B
  8
LAYER01
 62
     7
 10
1335.469257
 20
-4058.8897700000002
 30
0.0
  0
POINT
  5
38C
  8
LAYER01
 62
     7
 10
1335.469257
 20
-4208.4944799999994
 30
0.0
  0
POINT
  5
38D
  8
LAYER01
 62
     7
 10
1029.963964
 20
-4208.4944799999994
 30
0.0
  0
ENDBLK
  5
38E
  8
0
  0
BLOCK
  8
0
  2
*D30
 70
     1
 10
0.0
 20
0.0
 30
0.0
  3
*D30
  1

  0
LINE
  5
391
  8
LAYER01
 62
     7
 10
1981.386178
 20
-4089.0367500000002
 30
0.0
 11
1981.386178
 21
-3993.0367500000002
 31
0.0
  0
LINE
  5
392
  8
LAYER01
 62
     7
 10
1981.386178
 20
-4144.0367500000002
 30
0.0
 11
1981.386178
 21
-4240.0367500000002
 31
0.0
  0
LINE
  5
393
  8
LAYER01
 62
     7
 10
1920.44533
 20
-4089.0367500000002
 30
0.0
 11
2011.386178
 21
-4089.0367500000002
 31
0.0
  0
LINE
  5
394
  8
LAYER01
 62
     7
 10
1920.44533
 20
-4144.0367500000002
 30
0.0
 11
2011.386178
 21
-4144.0367500000002
 31
0.0
  0
SOLID
  5
395
  8
LAYER01
 62
     7
 10
1973.3864980000001
 20
-4041.0367499999988
 30
0.0
 11
1981.386178
 21
-4089.0367500000002
 31
0.0
 12
1989.3858580000001
 22
-4041.0367499999988
 32
0.0
 13
1989.3858580000001
 23
-4041.0367499999988
 33
0.0
  0
SOLID
  5
396
  8
LAYER01
 62
     7
 10
1973.3864980000001
 20
-4192.0367500000002
 30
0.0
 11
1981.386178
 21
-4144.0367500000002
 31
0.0
 12
1989.3858580000001
 22
-4192.0367500000002
 32
0.0
 13
1989.3858580000001
 23
-4192.0367500000002
 33
0.0
  0
TEXT
  5
397
  8
LAYER01
  6
CONTINUOUS
 62
     7
 10
2011.386178
 20
-3963.0367500000002
 30
0.0
 40
60.0
  1
55
 50
90.0
  0
POINT
  5
398
  8
LAYER01
 62
     7
 10
1896.44533
 20
-4089.0367500000002
 30
0.0
  0
POINT
  5
399
  8
LAYER01
 62
     7
 10
1896.44533
 20
-4144.0367500000002
 30
0.0
  0
POINT
  5
39A
  8
LAYER01
 62
     7
 10
1981.386178
 20
-4144.0367500000002
 30
0.0
  0
ENDBLK
  5
39B
  8
0
  0
BLOCK
  8
0
  2
_DOTSMALL
 70
     0
 10
0.0
 20
0.0
 30
0.0
  3
_DOTSMALL
  1

  0
POLYLINE
  5
461
  8
0
  6
BYBLOCK
 62
     0
 66
     1
 10
0.0
 20
0.0
 30
0.0
 70
     1
 40
0.5
 41
0.5
  0
VERTEX
  5
CB7
  8
0
  6
BYBLOCK
 62
     0
 10
-0.0625
 20
0.0
 30
0.0
 42
1.0
  0
VERTEX
  5
CB8
  8
0
  6
BYBLOCK
 62
     0
 10
0.0625
 20
0.0
 30
0.0
 42
1.0
  0
SEQEND
  5
CB9
  8
0
  6
BYBLOCK
 62
     0
  0
ENDBLK
  5
462
  8
0
  0
BLOCK
  8
0
  2
DEFAULT2-G7
 70
     0
 10
0.0
 20
0.0
 30
0.0
  3
DEFAULT2-G7
  1

  0
TEXT
  5
465
  8
LAYER01
  6
VERDECKT
 62
     1
 10
3286.9151940000002
 20
511.13932199999999
 30
0.0
 40
14.0
  1
A. Sprenger GmbH
  7
SIMPLEX
  0
TEXT
  5
466
  8
LAYER01
  6
VERDECKT
 62
     1
 10
3286.9151940000002
 20
487.13932199999988
 30
0.0
 40
14.0
  1
Berner Str. 10
  7
SIMPLEX
  0
TEXT
  5
467
  8
LAYER01
  6
VERDECKT
 62
     1
 10
3286.9151940000002
 20
463.13932199999988
 30
0.0
 40
14.0
  1
60437 Frankfurt
  7
SIMPLEX
  0
TEXT
  5
468
  8
LAYER01
  6
VERDECKT
 62
     1
 10
3286.9151940000002
 20
439.13932199999999
 30
0.0
 40
14.0
  1
Tel.: 069 - 507 27 41
  7
SIMPLEX
  0
TEXT
  5
469
  8
LAYER01
  6
VERDECKT
 62
     1
 10
3286.9151940000002
 20
415.13932199999999
 30
0.0
 40
14.0
  1
Fax: 069 - 507 72 91
  7
SIMPLEX
  0
TEXT
  5
46A
  8
LAYER01
  6
VERDECKT
 62
     1
 10
3286.9151940000002
 20
391.13932199999999
 30
0.0
 40
14.0
  1
info@varicor.org
  7
SIMPLEX
  0
ENDBLK
  5
46B
  8
0
  0
BLOCK
  8
0
  2
DEFAULT2-G6
 70
     0
 10
0.0
 20
0.0
 30
0.0
  3
DEFAULT2-G6
  1

  0
TEXT
  5
46E
  8
LAYER01
  6
CONTINUOUS
 62
     1
 10
4758.0610299999989
 20
182.02706000000001
 30
0.0
 40
14.0
  1
Blatt
  7
SIMPLEX
  0
LINE
  5
46F
  8
LAYER01
  6
CONTINUOUS
 62
     1
 10
3267.0610300000012
 20
280.02706000000001
 30
0.0
 11
4107.0610299999989
 21
280.02706000000001
 31
0.0
  0
LINE
  5
470
  8
LAYER01
  6
CONTINUOUS
 62
     1
 10
3267.0610300000012
 20
245.02706000000001
 30
0.0
 11
4107.0610299999989
 21
245.02706000000001
 31
0.0
  0
LINE
  5
471
  8
LAYER01
  6
CONTINUOUS
 62
     1
 10
3267.0610300000012
 20
210.02706000000001
 30
0.0
 11
4849.0610299999998
 21
210.02706000000001
 31
0.0
  0
LINE
  5
472
  8
LAYER01
  6
CONTINUOUS
 62
     1
 10
3267.0610300000012
 20
105.02706000000001
 30
0.0
 11
4849.0610299999998
 21
105.02706000000001
 31
0.0
  0
LINE
  5
473
  8
LAYER01
  6
CONTINUOUS
 62
     1
 10
3267.0610300000012
 20
385.02706000000001
 30
0.0
 11
4849.0610299999998
 21
385.02706000000001
 31
0.0
  0
POLYLINE
  5
474
  8
LAYER01
  6
CONTINUOUS
 62
     1
 66
     1
 10
0.0
 20
0.0
 30
0.0
 70
     1
  0
VERTEX
  5
CBA
  8
LAYER01
  6
CONTINUOUS
 62
     1
 10
3267.0610300000012
 20
63.027059999999999
 30
0.0
  0
VERTEX
  5
CBB
  8
LAYER01
  6
CONTINUOUS
 62
     1
 10
3267.0610300000012
 20
532.02705999999989
 30
0.0
  0
VERTEX
  5
CBC
  8
LAYER01
  6
CONTINUOUS
 62
     1
 10
4849.0610299999998
 20
532.02705999999989
 30
0.0
  0
VERTEX
  5
CBD
  8
LAYER01
  6
CONTINUOUS
 62
     1
 10
4849.0610299999998
 20
63.027059999999999
 30
0.0
  0
SEQEND
  5
CBE
  8
LAYER01
  6
CONTINUOUS
 62
     1
  0
LINE
  5
475
  8
LAYER01
  6
CONTINUOUS
 62
     1
 10
3267.0610300000012
 20
350.02706000000001
 30
0.0
 11
4107.0610299999989
 21
350.02706000000001
 31
0.0
  0
LINE
  5
476
  8
LAYER01
  6
CONTINUOUS
 62
     1
 10
3267.0610300000012
 20
315.02706000000001
 30
0.0
 11
4107.0610299999989
 21
315.02706000000001
 31
0.0
  0
LINE
  5
477
  8
LAYER01
  6
CONTINUOUS
 62
     1
 10
3722.0610299999998
 20
532.02705999999989
 30
0.0
 11
3722.0610299999998
 21
63.027059999999999
 31
0.0
  0
INSERT
  5
478
  8
LAYER01
  2
DEFAULT2-G7
 10
0.0
 20
0.0
 30
0.0
  0
LINE
  5
479
  8
LAYER01
  6
CONTINUOUS
 62
     1
 10
3267.0610300000012
 20
140.02706000000001
 30
0.0
 11
3722.0610299999998
 21
140.02706000000001
 31
0.0
  0
LINE
  5
47A
  8
LAYER01
  6
CONTINUOUS
 62
     1
 10
3267.0610300000012
 20
175.02706000000001
 30
0.0
 11
3722.0610299999998
 21
175.02706000000001
 31
0.0
  0
LINE
  5
47B
  8
LAYER01
  6
CONTINUOUS
 62
     1
 10
3330.0610299999998
 20
385.02706000000001
 30
0.0
 11
3330.0610299999998
 21
63.027059999999999
 31
0.0
  0
TEXT
  5
47C
  8
LAYER01
  6
CONTINUOUS
 62
     1
 10
3278.8200019999999
 20
77.027059999999992
 30
0.0
 40
13.300000000000001
  1
Zust
  7
SIMPLEX
  0
LINE
  5
47D
  8
LAYER01
  6
CONTINUOUS
 62
     1
 10
3550.959492
 20
63.027059999999999
 30
0.0
 11
3550.959492
 21
385.02706000000001
 31
0.0
  0
LINE
  5
47E
  8
LAYER01
  6
CONTINUOUS
 62
     1
 10
3659.0610299999998
 20
385.02706000000001
 30
0.0
 11
3659.0610299999998
 21
63.027059999999999
 31
0.0
  0
TEXT
  5
47F
  8
LAYER01
  6
CONTINUOUS
 62
     1
 10
3391.8409890000012
 20
77.027059999999992
 30
0.0
 40
13.300000000000001
  1
Änderung
  7
SIMPLEX
  0
TEXT
  5
480
  8
LAYER01
  6
CONTINUOUS
 62
     1
 10
3570.6568330000009
 20
77.027059999999992
 30
0.0
 40
13.300000000000001
  1
Datum
  7
SIMPLEX
  0
TEXT
  5
481
  8
LAYER01
  6
CONTINUOUS
 62
     1
 10
3664.3304950000002
 20
77.027059999999992
 30
0.0
 40
13.300000000000001
  1
Name
  7
SIMPLEX
  0
LINE
  5
482
  8
LAYER01
  6
CONTINUOUS
 62
     1
 10
4849.0610299999998
 20
476.02705999999989
 30
0.0
 11
4107.0610299999989
 21
476.02705999999989
 31
0.0
  0
LINE
  5
483
  8
LAYER01
  6
CONTINUOUS
 62
     1
 10
3813.0610299999998
 20
245.02706000000001
 30
0.0
 11
3813.0610299999998
 21
385.02706000000001
 31
0.0
  0
TEXT
  5
484
  8
LAYER01
  6
CONTINUOUS
 62
     1
 10
3736.0610299999998
 20
322.02706000000001
 30
0.0
 40
14.0
  1
Bearb.
  7
SIMPLEX
  0
TEXT
  5
485
  8
LAYER01
  6
CONTINUOUS
 62
     1
 10
3736.0610299999998
 20
252.02706000000001
 30
0.0
 40
14.0
  1
Norm
  7
SIMPLEX
  0
TEXT
  5
486
  8
LAYER01
  6
CONTINUOUS
 62
     1
 10
3736.0610299999998
 20
287.02706000000001
 30
0.0
 40
14.0
  1
Gepr.
  7
SIMPLEX
  0
TEXT
  5
487
  8
LAYER01
  6
CONTINUOUS
 62
     1
 10
3848.0610299999998
 20
357.02706000000001
 30
0.0
 40
14.0
  1
Datum
  7
SIMPLEX
  0
TEXT
  5
488
  8
LAYER01
  6
CONTINUOUS
 62
     1
 10
3988.0610299999998
 20
357.02706000000001
 30
0.0
 40
14.0
  1
Name
  7
SIMPLEX
  0
TEXT
  5
489
  8
LAYER01
  6
CONTINUOUS
 62
     1
 10
4814.0610299999998
 20
112.02706000000001
 30
0.0
 40
14.0
  1
Bl.
  7
SIMPLEX
  0
LINE
  5
48A
  8
LAYER01
  6
CONTINUOUS
 62
     1
 10
4107.0610299999989
 20
63.027059999999999
 30
0.0
 11
4107.0610299999989
 21
532.02705999999989
 31
0.0
  0
LINE
  5
48B
  8
LAYER01
  6
CONTINUOUS
 62
     1
 10
3946.0610299999998
 20
210.02706000000001
 30
0.0
 11
3946.0610299999998
 21
532.02705999999989
 31
0.0
  0
LINE
  5
48C
  8
LAYER01
  6
CONTINUOUS
 62
     1
 10
4548.0610299999998
 20
532.02705999999989
 30
0.0
 11
4548.0610299999998
 21
476.02705999999989
 31
0.0
  0
TEXT
  5
48D
  8
LAYER01
  6
CONTINUOUS
 62
     1
 10
4122.3126299999994
 20
496.28505699999999
 30
0.0
 40
14.0
  1
Maßstab
  7
SIMPLEX
  0
LINE
  5
48E
  8
LAYER01
  6
CONTINUOUS
 62
     1
 10
4744.0610299999998
 20
210.02706000000001
 30
0.0
 11
4744.0610299999998
 21
105.02706000000001
 31
0.0
  0
LINE
  5
48F
  8
LAYER01
  6
CONTINUOUS
 62
     1
 10
4744.0610299999998
 20
140.02706000000001
 30
0.0
 11
4849.0610299999998
 21
140.02706000000001
 31
0.0
  0
ENDBLK
  5
490
  8
0
  0
BLOCK
  8
0
 62
     7
  2
WMF0
 70
     0
 10
0.0
 20
0.0
 30
0.0
  3
WMF0
  1

  0
POLYLINE
  5
493
  8
LAYER01
 62
     7
 66
     1
 10
0.0
 20
0.0
 30
0.0
 70
     1
  0
VERTEX
  5
494
  8
LAYER01
 62
     7
 10
2458.2645046842372
 20
7351.0038575557664
 30
0.0
  0
VERTEX
  5
495
  8
LAYER01
 62
     7
 10
2628.7570429123371
 20
7351.0038575557664
 30
0.0
  0
VERTEX
  5
496
  8
LAYER01
 62
     7
 10
2842.8639513848352
 20
6863.3158993684092
 30
0.0
  0
VERTEX
  5
497
  8
LAYER01
 62
     7
 10
3056.9708598573329
 20
7351.0038575557664
 30
0.0
  0
VERTEX
  5
498
  8
LAYER01
 62
     7
 10
3235.3932835844148
 20
7351.0038575557664
 30
0.0
  0
VERTEX
  5
499
  8
LAYER01
 62
     7
 10
2842.8639513848352
 20
6478.7164526678107
 30
0.0
  0
VERTEX
  5
49A
  8
LAYER01
 62
     7
 10
2458.2645046842372
 20
7351.0038575557664
 30
0.0
  0
VERTEX
  5
49B
  8
LAYER01
 62
     7
 10
2458.2645046842372
 20
7351.0038575557664
 30
0.0
  0
SEQEND
  5
49C
  8
LAYER01
 62
     7
  0
POLYLINE
  5
49D
  8
LAYER01
 62
     7
 66
     1
 10
0.0
 20
0.0
 30
0.0
 70
     1
  0
VERTEX
  5
49E
  8
LAYER01
 62
     7
 10
3041.1110888593698
 20
6756.2624451321599
 30
0.0
  0
VERTEX
  5
49F
  8
LAYER01
 62
     7
 10
3100.5852301017312
 20
6895.0354413643354
 30
0.0
  0
VERTEX
  5
4A0
  8
LAYER01
 62
     7
 10
3358.3065088186272
 20
6895.0354413643354
 30
0.0
  0
VERTEX
  5
4A1
  8
LAYER01
 62
     7
 10
3227.4633980854328
 20
7180.5113193276648
 30
0.0
  0
VERTEX
  5
4A2
  8
LAYER01
 62
     7
 10
3302.7973103257568
 20
7362.8986858042381
 30
0.0
  0
VERTEX
  5
4A3
  8
LAYER01
 62
     7
 10
3655.67721503043
 20
6617.4894488999853
 30
0.0
  0
VERTEX
  5
4A4
  8
LAYER01
 62
     7
 10
3655.67721503043
 20
7351.0038575557664
 30
0.0
  0
VERTEX
  5
4A5
  8
LAYER01
 62
     7
 10
4127.5054022198219
 20
7351.0038575557664
 30
0.0
  0
VERTEX
  5
4A6
  8
LAYER01
 62
     7
 10
4127.5054022198219
 20
7351.0038575557664
 30
0.0
  0
VERTEX
  5
4A7
  8
LAYER01
 62
     7
 10
4171.1197724642197
 20
7343.0739720567844
 30
0.0
  0
VERTEX
  5
4A8
  8
LAYER01
 62
     7
 10
4210.7691999591279
 20
7327.2142010588213
 30
0.0
  0
VERTEX
  5
4A9
  8
LAYER01
 62
     7
 10
4246.4536847045438
 20
7299.4596018123866
 30
0.0
  0
VERTEX
  5
4AA
  8
LAYER01
 62
     7
 10
4278.1732267004691
 20
7271.705002565951
 30
0.0
  0
VERTEX
  5
4AB
  8
LAYER01
 62
     7
 10
4305.9278259469047
 20
7236.0205178205342
 30
0.0
  0
VERTEX
  5
4AC
  8
LAYER01
 62
     7
 10
4325.7525396943593
 20
7196.3710903256278
 30
0.0
  0
VERTEX
  5
4AD
  8
LAYER01
 62
     7
 10
4341.6123106923224
 20
7148.7917773317413
 30
0.0
  0
VERTEX
  5
4AE
  8
LAYER01
 62
     7
 10
4345.577253441812
 20
7105.1774070873416
 30
0.0
  0
VERTEX
  5
4AF
  8
LAYER01
 62
     7
 10
4345.577253441812
 20
7105.1774070873416
 30
0.0
  0
VERTEX
  5
4B0
  8
LAYER01
 62
     7
 10
4345.577253441812
 20
7057.5980940934542
 30
0.0
  0
VERTEX
  5
4B1
  8
LAYER01
 62
     7
 10
4337.6473679428309
 20
7017.948666598546
 30
0.0
  0
VERTEX
  5
4B2
  8
LAYER01
 62
     7
 10
4321.7875969448678
 20
6978.2992391036396
 30
0.0
  0
VERTEX
  5
4B3
  8
LAYER01
 62
     7
 10
4301.9628831974142
 20
6942.6147543582238
 30
0.0
  0
VERTEX
  5
4B4
  8
LAYER01
 62
     7
 10
4274.2082839509794
 20
6910.8952123622976
 30
0.0
  0
VERTEX
  5
4B5
  8
LAYER01
 62
     7
 10
4242.4887419550541
 20
6883.1406131158628
 30
0.0
  0
VERTEX
  5
4B6
  8
LAYER01
 62
     7
 10
4206.8042572096374
 20
6863.3158993684092
 30
0.0
  0
VERTEX
  5
4B7
  8
LAYER01
 62
     7
 10
4163.1898869652387
 20
6847.4561283704461
 30
0.0
  0
VERTEX
  5
4B8
  8
LAYER01
 62
     7
 10
4416.9462229326446
 20
6510.4359946637369
 30
0.0
  0
VERTEX
  5
4B9
  8
LAYER01
 62
     7
 10
4416.9462229326446
 20
7351.0038575557664
 30
0.0
  0
VERTEX
  5
4BA
  8
LAYER01
 62
     7
 10
4583.4738184112539
 20
7351.0038575557664
 30
0.0
  0
VERTEX
  5
4BB
  8
LAYER01
 62
     7
 10
4583.4738184112539
 20
6502.506109164754
 30
0.0
  0
VERTEX
  5
4BC
  8
LAYER01
 62
     7
 10
4226.628970957091
 20
6502.506109164754
 30
0.0
  0
VERTEX
  5
4BD
  8
LAYER01
 62
     7
 10
3881.6789517513998
 20
6942.6147543582238
 30
0.0
  0
VERTEX
  5
4BE
  8
LAYER01
 62
     7
 10
4056.1364327289898
 20
6942.6147543582238
 30
0.0
  0
VERTEX
  5
4BF
  8
LAYER01
 62
     7
 10
4056.1364327289898
 20
6942.6147543582238
 30
0.0
  0
VERTEX
  5
4C0
  8
LAYER01
 62
     7
 10
4079.926089225934
 20
6946.5796971077143
 30
0.0
  0
VERTEX
  5
4C1
  8
LAYER01
 62
     7
 10
4103.7157457228786
 20
6954.5095826066963
 30
0.0
  0
VERTEX
  5
4C2
  8
LAYER01
 62
     7
 10
4123.5404594703332
 20
6966.404410855168
 30
0.0
  0
VERTEX
  5
4C3
  8
LAYER01
 62
     7
 10
4143.3651732177859
 20
6982.264181853131
 30
0.0
  0
VERTEX
  5
4C4
  8
LAYER01
 62
     7
 10
4155.2600014662594
 20
7002.0888956005829
 30
0.0
  0
VERTEX
  5
4C5
  8
LAYER01
 62
     7
 10
4167.1548297147301
 20
7025.878552097528
 30
0.0
  0
VERTEX
  5
4C6
  8
LAYER01
 62
     7
 10
4175.0847152137121
 20
7049.6682085944722
 30
0.0
  0
VERTEX
  5
4C7
  8
LAYER01
 62
     7
 10
4175.0847152137121
 20
7077.4228078409069
 30
0.0
  0
VERTEX
  5
4C8
  8
LAYER01
 62
     7
 10
4175.0847152137121
 20
7077.4228078409069
 30
0.0
  0
VERTEX
  5
4C9
  8
LAYER01
 62
     7
 10
4175.0847152137121
 20
7101.212464337852
 30
0.0
  0
VERTEX
  5
4CA
  8
LAYER01
 62
     7
 10
4167.1548297147301
 20
7125.0021208347962
 30
0.0
  0
VERTEX
  5
4CB
  8
LAYER01
 62
     7
 10
4159.224944215749
 20
7148.7917773317413
 30
0.0
  0
VERTEX
  5
4CC
  8
LAYER01
 62
     7
 10
4143.3651732177859
 20
7168.6164910791931
 30
0.0
  0
VERTEX
  5
4CD
  8
LAYER01
 62
     7
 10
4127.5054022198219
 20
7184.4762620771562
 30
0.0
  0
VERTEX
  5
4CE
  8
LAYER01
 62
     7
 10
4103.7157457228786
 20
7196.3710903256278
 30
0.0
  0
VERTEX
  5
4CF
  8
LAYER01
 62
     7
 10
4079.926089225934
 20
7204.3009758246098
 30
0.0
  0
VERTEX
  5
4D0
  8
LAYER01
 62
     7
 10
4056.1364327289898
 20
7208.2659185741013
 30
0.0
  0
VERTEX
  5
4D1
  8
LAYER01
 62
     7
 10
3834.099638757511
 20
7208.2659185741013
 30
0.0
  0
VERTEX
  5
4D2
  8
LAYER01
 62
     7
 10
3834.099638757511
 20
6502.506109164754
 30
0.0
  0
VERTEX
  5
4D3
  8
LAYER01
 62
     7
 10
3548.6237607941812
 20
6502.506109164754
 30
0.0
  0
VERTEX
  5
4D4
  8
LAYER01
 62
     7
 10
3429.6754783094589
 20
6756.2624451321599
 30
0.0
  0
VERTEX
  5
4D5
  8
LAYER01
 62
     7
 10
3041.1110888593698
 20
6756.2624451321599
 30
0.0
  0
VERTEX
  5
4D6
  8
LAYER01
 62
     7
 10
3041.1110888593698
 20
6756.2624451321599
 30
0.0
  0
SEQEND
  5
4D7
  8
LAYER01
 62
     7
  0
POLYLINE
  5
4D8
  8
LAYER01
 62
     7
 66
     1
 10
0.0
 20
0.0
 30
0.0
 70
     1
  0
VERTEX
  5
4D9
  8
LAYER01
 62
     7
 10
5352.6727118124509
 20
7295.4946590628961
 30
0.0
  0
VERTEX
  5
4DA
  8
LAYER01
 62
     7
 10
5245.6192575762007
 20
7160.6866055802111
 30
0.0
  0
VERTEX
  5
4DB
  8
LAYER01
 62
     7
 10
5245.6192575762007
 20
7160.6866055802111
 30
0.0
  0
VERTEX
  5
4DC
  8
LAYER01
 62
     7
 10
5209.9347728307857
 20
7184.4762620771562
 30
0.0
  0
VERTEX
  5
4DD
  8
LAYER01
 62
     7
 10
5174.250288085369
 20
7204.3009758246098
 30
0.0
  0
VERTEX
  5
4DE
  8
LAYER01
 62
     7
 10
5134.6008605904626
 20
7216.1958040730824
 30
0.0
  0
VERTEX
  5
4DF
  8
LAYER01
 62
     7
 10
5090.9864903460648
 20
7216.1958040730824
 30
0.0
  0
VERTEX
  5
4E0
  8
LAYER01
 62
     7
 10
5090.9864903460648
 20
7216.1958040730824
 30
0.0
  0
VERTEX
  5
4E1
  8
LAYER01
 62
     7
 10
5063.2318910996291
 20
7216.1958040730824
 30
0.0
  0
VERTEX
  5
4E2
  8
LAYER01
 62
     7
 10
5035.4772918531944
 20
7212.2308613235909
 30
0.0
  0
VERTEX
  5
4E3
  8
LAYER01
 62
     7
 10
5007.7226926067588
 20
7204.3009758246098
 30
0.0
  0
VERTEX
  5
4E4
  8
LAYER01
 62
     7
 10
4979.9680933603249
 20
7192.4061475761382
 30
0.0
  0
VERTEX
  5
4E5
  8
LAYER01
 62
     7
 10
4956.1784368633807
 20
7180.5113193276648
 30
0.0
  0
VERTEX
  5
4E6
  8
LAYER01
 62
     7
 10
4936.3537231159271
 20
7164.6515483297017
 30
0.0
  0
VERTEX
  5
4E7
  8
LAYER01
 62
     7
 10
4912.5640666189829
 20
7148.7917773317413
 30
0.0
  0
VERTEX
  5
4E8
  8
LAYER01
 62
     7
 10
4896.7042956210198
 20
7128.9670635842867
 30
0.0
  0
VERTEX
  5
4E9
  8
LAYER01
 62
     7
 10
4876.8795818735662
 20
7105.1774070873416
 30
0.0
  0
VERTEX
  5
4EA
  8
LAYER01
 62
     7
 10
4864.9847536250936
 20
7081.3877505903993
 30
0.0
  0
VERTEX
  5
4EB
  8
LAYER01
 62
     7
 10
4849.1249826271314
 20
7057.5980940934542
 30
0.0
  0
VERTEX
  5
4EC
  8
LAYER01
 62
     7
 10
4837.2301543786589
 20
7033.8084375965091
 30
0.0
  0
VERTEX
  5
4ED
  8
LAYER01
 62
     7
 10
4829.3002688796769
 20
7006.0538383500743
 30
0.0
  0
VERTEX
  5
4EE
  8
LAYER01
 62
     7
 10
4825.3353261301872
 20
6978.2992391036396
 30
0.0
  0
VERTEX
  5
4EF
  8
LAYER01
 62
     7
 10
4821.3703833806958
 20
6950.5446398572049
 30
0.0
  0
VERTEX
  5
4F0
  8
LAYER01
 62
     7
 10
4817.4054406312061
 20
6918.8250978612787
 30
0.0
  0
VERTEX
  5
4F1
  8
LAYER01
 62
     7
 10
4817.4054406312061
 20
6918.8250978612787
 30
0.0
  0
VERTEX
  5
4F2
  8
LAYER01
 62
     7
 10
4821.3703833806958
 20
6891.0704986148439
 30
0.0
  0
VERTEX
  5
4F3
  8
LAYER01
 62
     7
 10
4825.3353261301872
 20
6863.3158993684092
 30
0.0
  0
VERTEX
  5
4F4
  8
LAYER01
 62
     7
 10
4829.3002688796769
 20
6835.5613001219754
 30
0.0
  0
VERTEX
  5
4F5
  8
LAYER01
 62
     7
 10
4841.1950971281503
 20
6811.7716436250303
 30
0.0
  0
VERTEX
  5
4F6
  8
LAYER01
 62
     7
 10
4849.1249826271314
 20
6787.9819871280861
 30
0.0
  0
VERTEX
  5
4F7
  8
LAYER01
 62
     7
 10
4864.9847536250936
 20
6764.1923306311428
 30
0.0
  0
VERTEX
  5
4F8
  8
LAYER01
 62
     7
 10
4880.8445246230567
 20
6740.4026741341977
 30
0.0
  0
VERTEX
  5
4F9
  8
LAYER01
 62
     7
 10
4896.7042956210198
 20
6720.5779603867441
 30
0.0
  0
VERTEX
  5
4FA
  8
LAYER01
 62
     7
 10
4916.5290093684744
 20
6700.7532466392904
 30
0.0
  0
VERTEX
  5
4FB
  8
LAYER01
 62
     7
 10
4936.3537231159271
 20
6684.8934756413273
 30
0.0
  0
VERTEX
  5
4FC
  8
LAYER01
 62
     7
 10
4960.1433796128722
 20
6672.9986473928557
 30
0.0
  0
VERTEX
  5
4FD
  8
LAYER01
 62
     7
 10
4983.9330361098146
 20
6661.103819144384
 30
0.0
  0
VERTEX
  5
4FE
  8
LAYER01
 62
     7
 10
5011.6876353562502
 20
6649.2089908959106
 30
0.0
  0
VERTEX
  5
4FF
  8
LAYER01
 62
     7
 10
5035.4772918531944
 20
6641.2791053969304
 30
0.0
  0
VERTEX
  5
500
  8
LAYER01
 62
     7
 10
5063.2318910996291
 20
6637.3141626474389
 30
0.0
  0
VERTEX
  5
501
  8
LAYER01
 62
     7
 10
5094.9514330955553
 20
6637.3141626474389
 30
0.0
  0
VERTEX
  5
502
  8
LAYER01
 62
     7
 10
5094.9514330955553
 20
6637.3141626474389
 30
0.0
  0
VERTEX
  5
503
  8
LAYER01
 62
     7
 10
5138.5658033399532
 20
6641.2791053969304
 30
0.0
  0
VERTEX
  5
504
  8
LAYER01
 62
     7
 10
5174.250288085369
 20
6649.2089908959106
 30
0.0
  0
VERTEX
  5
505
  8
LAYER01
 62
     7
 10
5209.9347728307857
 20
6669.0337046433651
 30
0.0
  0
VERTEX
  5
506
  8
LAYER01
 62
     7
 10
5245.6192575762007
 20
6692.8233611403102
 30
0.0
  0
VERTEX
  5
507
  8
LAYER01
 62
     7
 10
5348.7077690629603
 20
6554.0503649081338
 30
0.0
  0
VERTEX
  5
508
  8
LAYER01
 62
     7
 10
5348.7077690629603
 20
6554.0503649081338
 30
0.0
  0
VERTEX
  5
509
  8
LAYER01
 62
     7
 10
5289.2336278206003
 20
6518.365880162718
 30
0.0
  0
VERTEX
  5
50A
  8
LAYER01
 62
     7
 10
5257.5140858246741
 20
6506.4710519142463
 30
0.0
  0
VERTEX
  5
50B
  8
LAYER01
 62
     7
 10
5229.7594865782394
 20
6494.5762236657738
 30
0.0
  0
VERTEX
  5
50C
  8
LAYER01
 62
     7
 10
5198.0399445823132
 20
6486.6463381667918
 30
0.0
  0
VERTEX
  5
50D
  8
LAYER01
 62
     7
 10
5166.3204025863879
 20
6482.6813954173012
 30
0.0
  0
VERTEX
  5
50E
  8
LAYER01
 62
     7
 10
5094.9514330955553
 20
6478.7164526678107
 30
0.0
  0
VERTEX
  5
50F
  8
LAYER01
 62
     7
 10
5094.9514330955553
 20
6478.7164526678107
 30
0.0
  0
VERTEX
  5
510
  8
LAYER01
 62
     7
 10
5047.372120101667
 20
6482.6813954173012
 30
0.0
  0
VERTEX
  5
511
  8
LAYER01
 62
     7
 10
5003.7577498572691
 20
6490.6112809162832
 30
0.0
  0
VERTEX
  5
512
  8
LAYER01
 62
     7
 10
4960.1433796128722
 20
6498.5411664152653
 30
0.0
  0
VERTEX
  5
513
  8
LAYER01
 62
     7
 10
4920.493952117964
 20
6514.4009374132283
 30
0.0
  0
VERTEX
  5
514
  8
LAYER01
 62
     7
 10
4880.8445246230567
 20
6534.2256511606811
 30
0.0
  0
VERTEX
  5
515
  8
LAYER01
 62
     7
 10
4845.16003987764
 20
6554.0503649081338
 30
0.0
  0
VERTEX
  5
516
  8
LAYER01
 62
     7
 10
4809.4755551322241
 20
6581.8049641545704
 30
0.0
  0
VERTEX
  5
517
  8
LAYER01
 62
     7
 10
4777.7560131362989
 20
6609.5595634010042
 30
0.0
  0
VERTEX
  5
518
  8
LAYER01
 62
     7
 10
4746.0364711403727
 20
6641.2791053969304
 30
0.0
  0
VERTEX
  5
519
  8
LAYER01
 62
     7
 10
4722.2468146434294
 20
6676.9635901423471
 30
0.0
  0
VERTEX
  5
51A
  8
LAYER01
 62
     7
 10
4698.4571581464843
 20
6712.648074887763
 30
0.0
  0
VERTEX
  5
51B
  8
LAYER01
 62
     7
 10
4678.6324443990306
 20
6752.2975023826693
 30
0.0
  0
VERTEX
  5
51C
  8
LAYER01
 62
     7
 10
4666.737616150559
 20
6791.9469298775757
 30
0.0
  0
VERTEX
  5
51D
  8
LAYER01
 62
     7
 10
4654.8427879020874
 20
6835.5613001219754
 30
0.0
  0
VERTEX
  5
51E
  8
LAYER01
 62
     7
 10
4646.9129024031054
 20
6879.1756703663723
 30
0.0
  0
VERTEX
  5
51F
  8
LAYER01
 62
     7
 10
4642.9479596536139
 20
6926.7549833602607
 30
0.0
  0
VERTEX
  5
520
  8
LAYER01
 62
     7
 10
4642.9479596536139
 20
6926.7549833602607
 30
0.0
  0
VERTEX
  5
521
  8
LAYER01
 62
     7
 10
4646.9129024031054
 20
6970.3693536046594
 30
0.0
  0
VERTEX
  5
522
  8
LAYER01
 62
     7
 10
4654.8427879020874
 20
7017.948666598546
 30
0.0
  0
VERTEX
  5
523
  8
LAYER01
 62
     7
 10
4662.7726734010676
 20
7057.5980940934542
 30
0.0
  0
VERTEX
  5
524
  8
LAYER01
 62
     7
 10
4678.6324443990306
 20
7101.212464337852
 30
0.0
  0
VERTEX
  5
525
  8
LAYER01
 62
     7
 10
4698.4571581464843
 20
7140.8618918327593
 30
0.0
  0
VERTEX
  5
526
  8
LAYER01
 62
     7
 10
4718.2818718939379
 20
7176.5463765781742
 30
0.0
  0
VERTEX
  5
527
  8
LAYER01
 62
     7
 10
4746.0364711403727
 20
7212.2308613235909
 30
0.0
  0
VERTEX
  5
528
  8
LAYER01
 62
     7
 10
4773.7910703868083
 20
7243.950403319518
 30
0.0
  0
VERTEX
  5
529
  8
LAYER01
 62
     7
 10
4805.5106123827327
 20
7271.705002565951
 30
0.0
  0
VERTEX
  5
52A
  8
LAYER01
 62
     7
 10
4841.1950971281503
 20
7299.4596018123866
 30
0.0
  0
VERTEX
  5
52B
  8
LAYER01
 62
     7
 10
4876.8795818735662
 20
7319.2843155598412
 30
0.0
  0
VERTEX
  5
52C
  8
LAYER01
 62
     7
 10
4916.5290093684744
 20
7339.1090293072939
 30
0.0
  0
VERTEX
  5
52D
  8
LAYER01
 62
     7
 10
4956.1784368633807
 20
7354.968800305257
 30
0.0
  0
VERTEX
  5
52E
  8
LAYER01
 62
     7
 10
4999.7928071077786
 20
7366.8636285537286
 30
0.0
  0
VERTEX
  5
52F
  8
LAYER01
 62
     7
 10
5047.372120101667
 20
7370.8285713032201
 30
0.0
  0
VERTEX
  5
530
  8
LAYER01
 62
     7
 10
5090.9864903460648
 20
7374.7935140527097
 30
0.0
  0
VERTEX
  5
531
  8
LAYER01
 62
     7
 10
5090.9864903460648
 20
7374.7935140527097
 30
0.0
  0
VERTEX
  5
532
  8
LAYER01
 62
     7
 10
5162.3554598368983
 20
7370.8285713032201
 30
0.0
  0
VERTEX
  5
533
  8
LAYER01
 62
     7
 10
5198.0399445823132
 20
7366.8636285537286
 30
0.0
  0
VERTEX
  5
534
  8
LAYER01
 62
     7
 10
5229.7594865782394
 20
7358.9337430547466
 30
0.0
  0
VERTEX
  5
535
  8
LAYER01
 62
     7
 10
5257.5140858246741
 20
7347.038914806275
 30
0.0
  0
VERTEX
  5
536
  8
LAYER01
 62
     7
 10
5289.2336278206003
 20
7335.1440865578043
 30
0.0
  0
VERTEX
  5
537
  8
LAYER01
 62
     7
 10
5320.9531698165256
 20
7315.3193728103497
 30
0.0
  0
VERTEX
  5
538
  8
LAYER01
 62
     7
 10
5352.6727118124509
 20
7295.4946590628961
 30
0.0
  0
VERTEX
  5
539
  8
LAYER01
 62
     7
 10
5352.6727118124509
 20
7295.4946590628961
 30
0.0
  0
SEQEND
  5
53A
  8
LAYER01
 62
     7
  0
POLYLINE
  5
53B
  8
LAYER01
 62
     7
 66
     1
 10
0.0
 20
0.0
 30
0.0
 70
     1
  0
VERTEX
  5
53C
  8
LAYER01
 62
     7
 10
5737.2721585130494
 20
7370.8285713032201
 30
0.0
  0
VERTEX
  5
53D
  8
LAYER01
 62
     7
 10
5737.2721585130494
 20
7370.8285713032201
 30
0.0
  0
VERTEX
  5
53E
  8
LAYER01
 62
     7
 10
5693.6577882686524
 20
7366.8636285537286
 30
0.0
  0
VERTEX
  5
53F
  8
LAYER01
 62
     7
 10
5646.0784752747632
 20
7362.8986858042381
 30
0.0
  0
VERTEX
  5
540
  8
LAYER01
 62
     7
 10
5606.429047779855
 20
7351.0038575557664
 30
0.0
  0
VERTEX
  5
541
  8
LAYER01
 62
     7
 10
5562.814677535458
 20
7335.1440865578043
 30
0.0
  0
VERTEX
  5
542
  8
LAYER01
 62
     7
 10
5523.1652500405517
 20
7319.2843155598412
 30
0.0
  0
VERTEX
  5
543
  8
LAYER01
 62
     7
 10
5487.4807652951349
 20
7295.4946590628961
 30
0.0
  0
VERTEX
  5
544
  8
LAYER01
 62
     7
 10
5451.7962805497182
 20
7271.705002565951
 30
0.0
  0
VERTEX
  5
545
  8
LAYER01
 62
     7
 10
5420.0767385537929
 20
7239.9854605700266
 30
0.0
  0
VERTEX
  5
546
  8
LAYER01
 62
     7
 10
5392.3221393073582
 20
7208.2659185741013
 30
0.0
  0
VERTEX
  5
547
  8
LAYER01
 62
     7
 10
5364.5675400609243
 20
7176.5463765781742
 30
0.0
  0
VERTEX
  5
548
  8
LAYER01
 62
     7
 10
5340.7778835639801
 20
7140.8618918327593
 30
0.0
  0
VERTEX
  5
549
  8
LAYER01
 62
     7
 10
5320.9531698165256
 20
7101.212464337852
 30
0.0
  0
VERTEX
  5
54A
  8
LAYER01
 62
     7
 10
5309.0583415680539
 20
7057.5980940934542
 30
0.0
  0
VERTEX
  5
54B
  8
LAYER01
 62
     7
 10
5297.1635133195814
 20
7017.948666598546
 30
0.0
  0
VERTEX
  5
54C
  8
LAYER01
 62
     7
 10
5289.2336278206003
 20
6970.3693536046594
 30
0.0
  0
VERTEX
  5
54D
  8
LAYER01
 62
     7
 10
5285.2686850711088
 20
6926.7549833602607
 30
0.0
  0
VERTEX
  5
54E
  8
LAYER01
 62
     7
 10
5285.2686850711088
 20
6926.7549833602607
 30
0.0
  0
VERTEX
  5
54F
  8
LAYER01
 62
     7
 10
5289.2336278206003
 20
6879.1756703663723
 30
0.0
  0
VERTEX
  5
550
  8
LAYER01
 62
     7
 10
5293.1985705700909
 20
6835.5613001219754
 30
0.0
  0
VERTEX
  5
551
  8
LAYER01
 62
     7
 10
5305.0933988185634
 20
6791.9469298775757
 30
0.0
  0
VERTEX
  5
552
  8
LAYER01
 62
     7
 10
5320.9531698165256
 20
6752.2975023826693
 30
0.0
  0
VERTEX
  5
553
  8
LAYER01
 62
     7
 10
5336.8129408144878
 20
6712.648074887763
 30
0.0
  0
VERTEX
  5
554
  8
LAYER01
 62
     7
 10
5360.602597311432
 20
6676.9635901423471
 30
0.0
  0
VERTEX
  5
555
  8
LAYER01
 62
     7
 10
5384.3922538083762
 20
6641.2791053969304
 30
0.0
  0
VERTEX
  5
556
  8
LAYER01
 62
     7
 10
5412.1468530548118
 20
6609.5595634010042
 30
0.0
  0
VERTEX
  5
557
  8
LAYER01
 62
     7
 10
5443.8663950507362
 20
6577.8400214050789
 30
0.0
  0
VERTEX
  5
558
  8
LAYER01
 62
     7
 10
5479.5508797961529
 20
6554.0503649081338
 30
0.0
  0
VERTEX
  5
559
  8
LAYER01
 62
     7
 10
5515.2353645415697
 20
6530.2607084111914
 30
0.0
  0
VERTEX
  5
55A
  8
LAYER01
 62
     7
 10
5554.8847920364769
 20
6510.4359946637369
 30
0.0
  0
VERTEX
  5
55B
  8
LAYER01
 62
     7
 10
5594.5342195313842
 20
6494.5762236657738
 30
0.0
  0
VERTEX
  5
55C
  8
LAYER01
 62
     7
 10
5638.1485897757821
 20
6486.6463381667918
 30
0.0
  0
VERTEX
  5
55D
  8
LAYER01
 62
     7
 10
5681.762960020179
 20
6478.7164526678107
 30
0.0
  0
VERTEX
  5
55E
  8
LAYER01
 62
     7
 10
5725.3773302645768
 20
6474.7515099183202
 30
0.0
  0
VERTEX
  5
55F
  8
LAYER01
 62
     7
 10
5725.3773302645768
 20
6474.7515099183202
 30
0.0
  0
VERTEX
  5
560
  8
LAYER01
 62
     7
 10
5772.9566432584652
 20
6478.7164526678107
 30
0.0
  0
VERTEX
  5
561
  8
LAYER01
 62
     7
 10
5816.571013502863
 20
6486.6463381667918
 30
0.0
  0
VERTEX
  5
562
  8
LAYER01
 62
     7
 10
5860.1853837472609
 20
6498.5411664152653
 30
0.0
  0
VERTEX
  5
563
  8
LAYER01
 62
     7
 10
5899.8348112421681
 20
6514.4009374132283
 30
0.0
  0
VERTEX
  5
564
  8
LAYER01
 62
     7
 10
5939.4842387370763
 20
6534.2256511606811
 30
0.0
  0
VERTEX
  5
565
  8
LAYER01
 62
     7
 10
5975.1687234824913
 20
6558.0153076576253
 30
0.0
  0
VERTEX
  5
566
  8
LAYER01
 62
     7
 10
6010.853208227908
 20
6581.8049641545704
 30
0.0
  0
VERTEX
  5
567
  8
LAYER01
 62
     7
 10
6042.5727502238333
 20
6613.5245061504938
 30
0.0
  0
VERTEX
  5
568
  8
LAYER01
 62
     7
 10
6070.327349470268
 20
6645.2440481464209
 30
0.0
  0
VERTEX
  5
569
  8
LAYER01
 62
     7
 10
6094.1170059672131
 20
6680.9285328918368
 30
0.0
  0
VERTEX
  5
56A
  8
LAYER01
 62
     7
 10
6113.9417197146659
 20
6716.6130176372544
 30
0.0
  0
VERTEX
  5
56B
  8
LAYER01
 62
     7
 10
6133.7664334621204
 20
6756.2624451321599
 30
0.0
  0
VERTEX
  5
56C
  8
LAYER01
 62
     7
 10
6149.6262044600826
 20
6799.8768153765577
 30
0.0
  0
VERTEX
  5
56D
  8
LAYER01
 62
     7
 10
6157.5560899590637
 20
6843.4911856209546
 30
0.0
  0
VERTEX
  5
56E
  8
LAYER01
 62
     7
 10
6161.5210327085542
 20
6887.1055558653534
 30
0.0
  0
VERTEX
  5
56F
  8
LAYER01
 62
     7
 10
6165.4859754580457
 20
6934.6848688592418
 30
0.0
  0
VERTEX
  5
570
  8
LAYER01
 62
     7
 10
6165.4859754580457
 20
6934.6848688592418
 30
0.0
  0
VERTEX
  5
571
  8
LAYER01
 62
     7
 10
6161.5210327085542
 20
6978.2992391036396
 30
0.0
  0
VERTEX
  5
572
  8
LAYER01
 62
     7
 10
6153.5911472095731
 20
7021.9136093480374
 30
0.0
  0
VERTEX
  5
573
  8
LAYER01
 62
     7
 10
6141.6963189611024
 20
7061.5630368429447
 30
0.0
  0
VERTEX
  5
574
  8
LAYER01
 62
     7
 10
6129.8014907126289
 20
7101.212464337852
 30
0.0
  0
VERTEX
  5
575
  8
LAYER01
 62
     7
 10
6109.9767769651762
 20
7136.8969490832678
 30
0.0
  0
VERTEX
  5
576
  8
LAYER01
 62
     7
 10
6090.1520632177217
 20
7172.5814338286846
 30
0.0
  0
VERTEX
  5
577
  8
LAYER01
 62
     7
 10
6066.3624067207766
 20
7208.2659185741013
 30
0.0
  0
VERTEX
  5
578
  8
LAYER01
 62
     7
 10
6038.6078074743427
 20
7236.0205178205342
 30
0.0
  0
VERTEX
  5
579
  8
LAYER01
 62
     7
 10
6006.8882654784175
 20
7263.7751170669708
 30
0.0
  0
VERTEX
  5
57A
  8
LAYER01
 62
     7
 10
5975.1687234824913
 20
7291.5297163134046
 30
0.0
  0
VERTEX
  5
57B
  8
LAYER01
 62
     7
 10
5939.4842387370763
 20
7311.3544300608592
 30
0.0
  0
VERTEX
  5
57C
  8
LAYER01
 62
     7
 10
5903.7997539916587
 20
7331.1791438083128
 30
0.0
  0
VERTEX
  5
57D
  8
LAYER01
 62
     7
 10
5864.1503264967514
 20
7347.038914806275
 30
0.0
  0
VERTEX
  5
57E
  8
LAYER01
 62
     7
 10
5824.5008990018441
 20
7358.9337430547466
 30
0.0
  0
VERTEX
  5
57F
  8
LAYER01
 62
     7
 10
5780.8865287574472
 20
7366.8636285537286
 30
0.0
  0
VERTEX
  5
580
  8
LAYER01
 62
     7
 10
5737.2721585130494
 20
7370.8285713032201
 30
0.0
  0
VERTEX
  5
581
  8
LAYER01
 62
     7
 10
5737.2721585130494
 20
7370.8285713032201
 30
0.0
  0
SEQEND
  5
582
  8
LAYER01
 62
     7
  0
POLYLINE
  5
583
  8
LAYER01
 62
     7
 66
     1
 10
0.0
 20
0.0
 30
0.0
 70
     1
  0
VERTEX
  5
584
  8
LAYER01
 62
     7
 10
5725.3773302645768
 20
6637.3141626474389
 30
0.0
  0
VERTEX
  5
585
  8
LAYER01
 62
     7
 10
5725.3773302645768
 20
6637.3141626474389
 30
0.0
  0
VERTEX
  5
586
  8
LAYER01
 62
     7
 10
5697.6227310181421
 20
6641.2791053969304
 30
0.0
  0
VERTEX
  5
587
  8
LAYER01
 62
     7
 10
5669.8681317717073
 20
6645.2440481464209
 30
0.0
  0
VERTEX
  5
588
  8
LAYER01
 62
     7
 10
5642.1135325252717
 20
6649.2089908959106
 30
0.0
  0
VERTEX
  5
589
  8
LAYER01
 62
     7
 10
5614.3589332788379
 20
6661.103819144384
 30
0.0
  0
VERTEX
  5
58A
  8
LAYER01
 62
     7
 10
5590.5692767818919
 20
6672.9986473928557
 30
0.0
  0
VERTEX
  5
58B
  8
LAYER01
 62
     7
 10
5566.7796202849486
 20
6688.8584183908179
 30
0.0
  0
VERTEX
  5
58C
  8
LAYER01
 62
     7
 10
5546.9549065374968
 20
6704.718189388781
 30
0.0
  0
VERTEX
  5
58D
  8
LAYER01
 62
     7
 10
5527.1301927900431
 20
6724.5429031362346
 30
0.0
  0
VERTEX
  5
58E
  8
LAYER01
 62
     7
 10
5507.3054790425886
 20
6744.3676168836892
 30
0.0
  0
VERTEX
  5
58F
  8
LAYER01
 62
     7
 10
5491.4457080446264
 20
6764.1923306311428
 30
0.0
  0
VERTEX
  5
590
  8
LAYER01
 62
     7
 10
5479.5508797961529
 20
6787.9819871280861
 30
0.0
  0
VERTEX
  5
591
  8
LAYER01
 62
     7
 10
5467.6560515476813
 20
6815.7365863745208
 30
0.0
  0
VERTEX
  5
592
  8
LAYER01
 62
     7
 10
5455.7612232992096
 20
6839.5262428714641
 30
0.0
  0
VERTEX
  5
593
  8
LAYER01
 62
     7
 10
5451.7962805497182
 20
6867.2808421178988
 30
0.0
  0
VERTEX
  5
594
  8
LAYER01
 62
     7
 10
5443.8663950507362
 20
6895.0354413643354
 30
0.0
  0
VERTEX
  5
595
  8
LAYER01
 62
     7
 10
5443.8663950507362
 20
6926.7549833602607
 30
0.0
  0
VERTEX
  5
596
  8
LAYER01
 62
     7
 10
5443.8663950507362
 20
6926.7549833602607
 30
0.0
  0
VERTEX
  5
597
  8
LAYER01
 62
     7
 10
5447.8313378002267
 20
6954.5095826066963
 30
0.0
  0
VERTEX
  5
598
  8
LAYER01
 62
     7
 10
5451.7962805497182
 20
6982.264181853131
 30
0.0
  0
VERTEX
  5
599
  8
LAYER01
 62
     7
 10
5459.7261660486993
 20
7010.0187810995658
 30
0.0
  0
VERTEX
  5
59A
  8
LAYER01
 62
     7
 10
5467.6560515476813
 20
7037.7733803459996
 30
0.0
  0
VERTEX
  5
59B
  8
LAYER01
 62
     7
 10
5479.5508797961529
 20
7061.5630368429447
 30
0.0
  0
VERTEX
  5
59C
  8
LAYER01
 62
     7
 10
5495.410650794116
 20
7085.3526933398889
 30
0.0
  0
VERTEX
  5
59D
  8
LAYER01
 62
     7
 10
5511.27042179208
 20
7105.1774070873416
 30
0.0
  0
VERTEX
  5
59E
  8
LAYER01
 62
     7
 10
5531.0951355395327
 20
7125.0021208347962
 30
0.0
  0
VERTEX
  5
59F
  8
LAYER01
 62
     7
 10
5550.9198492869864
 20
7144.826834582248
 30
0.0
  0
VERTEX
  5
5A0
  8
LAYER01
 62
     7
 10
5570.74456303444
 20
7160.6866055802111
 30
0.0
  0
VERTEX
  5
5A1
  8
LAYER01
 62
     7
 10
5594.5342195313842
 20
7176.5463765781742
 30
0.0
  0
VERTEX
  5
5A2
  8
LAYER01
 62
     7
 10
5622.288818777819
 20
7188.4412048266468
 30
0.0
  0
VERTEX
  5
5A3
  8
LAYER01
 62
     7
 10
5646.0784752747632
 20
7196.3710903256278
 30
0.0
  0
VERTEX
  5
5A4
  8
LAYER01
 62
     7
 10
5673.8330745211979
 20
7204.3009758246098
 30
0.0
  0
VERTEX
  5
5A5
  8
LAYER01
 62
     7
 10
5701.5876737676326
 20
7208.2659185741013
 30
0.0
  0
VERTEX
  5
5A6
  8
LAYER01
 62
     7
 10
5733.3072157635588
 20
7208.2659185741013
 30
0.0
  0
VERTEX
  5
5A7
  8
LAYER01
 62
     7
 10
5733.3072157635588
 20
7208.2659185741013
 30
0.0
  0
VERTEX
  5
5A8
  8
LAYER01
 62
     7
 10
5761.0618150099936
 20
7204.3009758246098
 30
0.0
  0
VERTEX
  5
5A9
  8
LAYER01
 62
     7
 10
5788.8164142564283
 20
7200.3360330751193
 30
0.0
  0
VERTEX
  5
5AA
  8
LAYER01
 62
     7
 10
5812.6060707533716
 20
7192.4061475761382
 30
0.0
  0
VERTEX
  5
5AB
  8
LAYER01
 62
     7
 10
5840.3606699998072
 20
7184.4762620771562
 30
0.0
  0
VERTEX
  5
5AC
  8
LAYER01
 62
     7
 10
5860.1853837472609
 20
7172.5814338286846
 30
0.0
  0
VERTEX
  5
5AD
  8
LAYER01
 62
     7
 10
5883.975040244205
 20
7156.7216628307224
 30
0.0
  0
VERTEX
  5
5AE
  8
LAYER01
 62
     7
 10
5903.7997539916587
 20
7140.8618918327593
 30
0.0
  0
VERTEX
  5
5AF
  8
LAYER01
 62
     7
 10
5923.6244677391132
 20
7125.0021208347962
 30
0.0
  0
VERTEX
  5
5B0
  8
LAYER01
 62
     7
 10
5939.4842387370763
 20
7105.1774070873416
 30
0.0
  0
VERTEX
  5
5B1
  8
LAYER01
 62
     7
 10
5955.3440097350367
 20
7081.3877505903993
 30
0.0
  0
VERTEX
  5
5B2
  8
LAYER01
 62
     7
 10
5971.2037807329998
 20
7061.5630368429447
 30
0.0
  0
VERTEX
  5
5B3
  8
LAYER01
 62
     7
 10
5983.0986089814742
 20
7037.7733803459996
 30
0.0
  0
VERTEX
  5
5B4
  8
LAYER01
 62
     7
 10
5991.0284944804544
 20
7010.0187810995658
 30
0.0
  0
VERTEX
  5
5B5
  8
LAYER01
 62
     7
 10
5998.9583799794354
 20
6986.2291246026198
 30
0.0
  0
VERTEX
  5
5B6
  8
LAYER01
 62
     7
 10
6002.923322728926
 20
6958.4745253561859
 30
0.0
  0
VERTEX
  5
5B7
  8
LAYER01
 62
     7
 10
6002.923322728926
 20
6930.7199261097512
 30
0.0
  0
VERTEX
  5
5B8
  8
LAYER01
 62
     7
 10
6002.923322728926
 20
6930.7199261097512
 30
0.0
  0
VERTEX
  5
5B9
  8
LAYER01
 62
     7
 10
6002.923322728926
 20
6899.0003841138259
 30
0.0
  0
VERTEX
  5
5BA
  8
LAYER01
 62
     7
 10
5998.9583799794354
 20
6871.2457848673903
 30
0.0
  0
VERTEX
  5
5BB
  8
LAYER01
 62
     7
 10
5994.9934372299449
 20
6843.4911856209546
 30
0.0
  0
VERTEX
  5
5BC
  8
LAYER01
 62
     7
 10
5983.0986089814742
 20
6819.7015291240123
 30
0.0
  0
VERTEX
  5
5BD
  8
LAYER01
 62
     7
 10
5975.1687234824913
 20
6791.9469298775757
 30
0.0
  0
VERTEX
  5
5BE
  8
LAYER01
 62
     7
 10
5959.3089524845291
 20
6768.1572733806324
 30
0.0
  0
VERTEX
  5
5BF
  8
LAYER01
 62
     7
 10
5943.449181486566
 20
6744.3676168836892
 30
0.0
  0
VERTEX
  5
5C0
  8
LAYER01
 62
     7
 10
5923.6244677391132
 20
6724.5429031362346
 30
0.0
  0
VERTEX
  5
5C1
  8
LAYER01
 62
     7
 10
5903.7997539916587
 20
6704.718189388781
 30
0.0
  0
VERTEX
  5
5C2
  8
LAYER01
 62
     7
 10
5883.975040244205
 20
6688.8584183908179
 30
0.0
  0
VERTEX
  5
5C3
  8
LAYER01
 62
     7
 10
5860.1853837472609
 20
6672.9986473928557
 30
0.0
  0
VERTEX
  5
5C4
  8
LAYER01
 62
     7
 10
5836.3957272503167
 20
6661.103819144384
 30
0.0
  0
VERTEX
  5
5C5
  8
LAYER01
 62
     7
 10
5808.641128003881
 20
6653.173933645402
 30
0.0
  0
VERTEX
  5
5C6
  8
LAYER01
 62
     7
 10
5780.8865287574472
 20
6645.2440481464209
 30
0.0
  0
VERTEX
  5
5C7
  8
LAYER01
 62
     7
 10
5753.1319295110115
 20
6641.2791053969304
 30
0.0
  0
VERTEX
  5
5C8
  8
LAYER01
 62
     7
 10
5725.3773302645768
 20
6637.3141626474389
 30
0.0
  0
VERTEX
  5
5C9
  8
LAYER01
 62
     7
 10
5725.3773302645768
 20
6637.3141626474389
 30
0.0
  0
SEQEND
  5
5CA
  8
LAYER01
 62
     7
  0
POLYLINE
  5
5CB
  8
LAYER01
 62
     7
 66
     1
 10
0.0
 20
0.0
 30
0.0
 70
     1
  0
VERTEX
  5
5CC
  8
LAYER01
 62
     7
 10
6042.5727502238333
 20
7351.0038575557664
 30
0.0
  0
VERTEX
  5
5CD
  8
LAYER01
 62
     7
 10
6462.8566816698476
 20
7351.0038575557664
 30
0.0
  0
VERTEX
  5
5CE
  8
LAYER01
 62
     7
 10
6462.8566816698476
 20
7351.0038575557664
 30
0.0
  0
VERTEX
  5
5CF
  8
LAYER01
 62
     7
 10
6510.4359946637369
 20
7343.0739720567844
 30
0.0
  0
VERTEX
  5
5D0
  8
LAYER01
 62
     7
 10
6554.0503649081338
 20
7323.2492583093299
 30
0.0
  0
VERTEX
  5
5D1
  8
LAYER01
 62
     7
 10
6589.7348496535496
 20
7299.4596018123866
 30
0.0
  0
VERTEX
  5
5D2
  8
LAYER01
 62
     7
 10
6621.4543916494758
 20
7267.7400598164604
 30
0.0
  0
VERTEX
  5
5D3
  8
LAYER01
 62
     7
 10
6649.2089908959106
 20
7236.0205178205342
 30
0.0
  0
VERTEX
  5
5D4
  8
LAYER01
 62
     7
 10
6669.0337046433651
 20
7196.3710903256278
 30
0.0
  0
VERTEX
  5
5D5
  8
LAYER01
 62
     7
 10
6680.9285328918368
 20
7148.7917773317413
 30
0.0
  0
VERTEX
  5
5D6
  8
LAYER01
 62
     7
 10
6684.8934756413273
 20
7105.1774070873416
 30
0.0
  0
VERTEX
  5
5D7
  8
LAYER01
 62
     7
 10
6684.8934756413273
 20
7105.1774070873416
 30
0.0
  0
VERTEX
  5
5D8
  8
LAYER01
 62
     7
 10
6680.9285328918368
 20
7057.5980940934542
 30
0.0
  0
VERTEX
  5
5D9
  8
LAYER01
 62
     7
 10
6672.9986473928557
 20
7017.948666598546
 30
0.0
  0
VERTEX
  5
5DA
  8
LAYER01
 62
     7
 10
6657.1388763948926
 20
6978.2992391036396
 30
0.0
  0
VERTEX
  5
5DB
  8
LAYER01
 62
     7
 10
6637.3141626474389
 20
6942.6147543582238
 30
0.0
  0
VERTEX
  5
5DC
  8
LAYER01
 62
     7
 10
6609.5595634010042
 20
6910.8952123622976
 30
0.0
  0
VERTEX
  5
5DD
  8
LAYER01
 62
     7
 10
6581.8049641545704
 20
6887.1055558653534
 30
0.0
  0
VERTEX
  5
5DE
  8
LAYER01
 62
     7
 10
6542.1555366596622
 20
6863.3158993684092
 30
0.0
  0
VERTEX
  5
5DF
  8
LAYER01
 62
     7
 10
6502.506109164754
 20
6847.4561283704461
 30
0.0
  0
VERTEX
  5
5E0
  8
LAYER01
 62
     7
 10
6760.2273878816522
 20
6502.506109164754
 30
0.0
  0
VERTEX
  5
5E1
  8
LAYER01
 62
     7
 10
6561.9802504071158
 20
6502.506109164754
 30
0.0
  0
VERTEX
  5
5E2
  8
LAYER01
 62
     7
 10
6217.0302312014246
 20
6942.6147543582238
 30
0.0
  0
VERTEX
  5
5E3
  8
LAYER01
 62
     7
 10
6411.3124259264687
 20
6942.6147543582238
 30
0.0
  0
VERTEX
  5
5E4
  8
LAYER01
 62
     7
 10
6411.3124259264687
 20
6942.6147543582238
 30
0.0
  0
VERTEX
  5
5E5
  8
LAYER01
 62
     7
 10
6435.102082423412
 20
6950.5446398572049
 30
0.0
  0
VERTEX
  5
5E6
  8
LAYER01
 62
     7
 10
6454.9267961708656
 20
6958.4745253561859
 30
0.0
  0
VERTEX
  5
5E7
  8
LAYER01
 62
     7
 10
6470.7865671688287
 20
6974.334296354149
 30
0.0
  0
VERTEX
  5
5E8
  8
LAYER01
 62
     7
 10
6486.6463381667918
 20
6990.1940673521131
 30
0.0
  0
VERTEX
  5
5E9
  8
LAYER01
 62
     7
 10
6498.5411664152653
 20
7010.0187810995658
 30
0.0
  0
VERTEX
  5
5EA
  8
LAYER01
 62
     7
 10
6510.4359946637369
 20
7029.8434948470176
 30
0.0
  0
VERTEX
  5
5EB
  8
LAYER01
 62
     7
 10
6514.4009374132283
 20
7053.6331513439627
 30
0.0
  0
VERTEX
  5
5EC
  8
LAYER01
 62
     7
 10
6514.4009374132283
 20
7077.4228078409069
 30
0.0
  0
VERTEX
  5
5ED
  8
LAYER01
 62
     7
 10
6514.4009374132283
 20
7077.4228078409069
 30
0.0
  0
VERTEX
  5
5EE
  8
LAYER01
 62
     7
 10
6514.4009374132283
 20
7101.212464337852
 30
0.0
  0
VERTEX
  5
5EF
  8
LAYER01
 62
     7
 10
6506.4710519142463
 20
7121.0371780853047
 30
0.0
  0
VERTEX
  5
5F0
  8
LAYER01
 62
     7
 10
6498.5411664152653
 20
7140.8618918327593
 30
0.0
  0
VERTEX
  5
5F1
  8
LAYER01
 62
     7
 10
6486.6463381667918
 20
7160.6866055802111
 30
0.0
  0
VERTEX
  5
5F2
  8
LAYER01
 62
     7
 10
6470.7865671688287
 20
7176.5463765781742
 30
0.0
  0
VERTEX
  5
5F3
  8
LAYER01
 62
     7
 10
6454.9267961708656
 20
7188.4412048266468
 30
0.0
  0
VERTEX
  5
5F4
  8
LAYER01
 62
     7
 10
6431.1371396739214
 20
7200.3360330751193
 30
0.0
  0
VERTEX
  5
5F5
  8
LAYER01
 62
     7
 10
6411.3124259264687
 20
7208.2659185741013
 30
0.0
  0
VERTEX
  5
5F6
  8
LAYER01
 62
     7
 10
6185.3106892054993
 20
7208.2659185741013
 30
0.0
  0
VERTEX
  5
5F7
  8
LAYER01
 62
     7
 10
6042.5727502238333
 20
7351.0038575557664
 30
0.0
  0
VERTEX
  5
5F8
  8
LAYER01
 62
     7
 10
6042.5727502238333
 20
7351.0038575557664
 30
0.0
  0
SEQEND
  5
5F9
  8
LAYER01
 62
     7
  0
POLYLINE
  5
5FA
  8
LAYER01
 62
     7
 66
     1
 10
0.0
 20
0.0
 30
0.0
 70
     1
  0
VERTEX
  5
5FB
  8
LAYER01
 62
     7
 10
6867.2808421178988
 20
7140.8618918327593
 30
0.0
  0
VERTEX
  5
5FC
  8
LAYER01
 62
     7
 10
6867.2808421178988
 20
7140.8618918327593
 30
0.0
  0
VERTEX
  5
5FD
  8
LAYER01
 62
     7
 10
6887.1055558653534
 20
7144.826834582248
 30
0.0
  0
VERTEX
  5
5FE
  8
LAYER01
 62
     7
 10
6906.930269612807
 20
7148.7917773317413
 30
0.0
  0
VERTEX
  5
5FF
  8
LAYER01
 62
     7
 10
6926.7549833602607
 20
7160.6866055802111
 30
0.0
  0
VERTEX
  5
600
  8
LAYER01
 62
     7
 10
6942.6147543582238
 20
7172.5814338286846
 30
0.0
  0
VERTEX
  5
601
  8
LAYER01
 62
     7
 10
6954.5095826066963
 20
7188.4412048266468
 30
0.0
  0
VERTEX
  5
602
  8
LAYER01
 62
     7
 10
6962.4394681056774
 20
7204.3009758246098
 30
0.0
  0
VERTEX
  5
603
  8
LAYER01
 62
     7
 10
6970.3693536046594
 20
7224.1256895720644
 30
0.0
  0
VERTEX
  5
604
  8
LAYER01
 62
     7
 10
6970.3693536046594
 20
7247.9153460690077
 30
0.0
  0
VERTEX
  5
605
  8
LAYER01
 62
     7
 10
6970.3693536046594
 20
7247.9153460690077
 30
0.0
  0
VERTEX
  5
606
  8
LAYER01
 62
     7
 10
6970.3693536046594
 20
7267.7400598164604
 30
0.0
  0
VERTEX
  5
607
  8
LAYER01
 62
     7
 10
6962.4394681056774
 20
7287.5647735639141
 30
0.0
  0
VERTEX
  5
608
  8
LAYER01
 62
     7
 10
6954.5095826066963
 20
7303.4245445618772
 30
0.0
  0
VERTEX
  5
609
  8
LAYER01
 62
     7
 10
6942.6147543582238
 20
7319.2843155598412
 30
0.0
  0
VERTEX
  5
60A
  8
LAYER01
 62
     7
 10
6926.7549833602607
 20
7331.1791438083128
 30
0.0
  0
VERTEX
  5
60B
  8
LAYER01
 62
     7
 10
6906.930269612807
 20
7343.0739720567844
 30
0.0
  0
VERTEX
  5
60C
  8
LAYER01
 62
     7
 10
6887.1055558653534
 20
7347.038914806275
 30
0.0
  0
VERTEX
  5
60D
  8
LAYER01
 62
     7
 10
6867.2808421178988
 20
7351.0038575557664
 30
0.0
  0
VERTEX
  5
60E
  8
LAYER01
 62
     7
 10
6867.2808421178988
 20
7351.0038575557664
 30
0.0
  0
VERTEX
  5
60F
  8
LAYER01
 62
     7
 10
6847.4561283704461
 20
7347.038914806275
 30
0.0
  0
VERTEX
  5
610
  8
LAYER01
 62
     7
 10
6827.6314146229934
 20
7343.0739720567844
 30
0.0
  0
VERTEX
  5
611
  8
LAYER01
 62
     7
 10
6807.8067008755397
 20
7331.1791438083128
 30
0.0
  0
VERTEX
  5
612
  8
LAYER01
 62
     7
 10
6791.9469298775757
 20
7319.2843155598412
 30
0.0
  0
VERTEX
  5
613
  8
LAYER01
 62
     7
 10
6780.0521016291041
 20
7303.4245445618772
 30
0.0
  0
VERTEX
  5
614
  8
LAYER01
 62
     7
 10
6772.122216130123
 20
7287.5647735639141
 30
0.0
  0
VERTEX
  5
615
  8
LAYER01
 62
     7
 10
6764.1923306311428
 20
7267.7400598164604
 30
0.0
  0
VERTEX
  5
616
  8
LAYER01
 62
     7
 10
6764.1923306311428
 20
7247.9153460690077
 30
0.0
  0
VERTEX
  5
617
  8
LAYER01
 62
     7
 10
6764.1923306311428
 20
7247.9153460690077
 30
0.0
  0
VERTEX
  5
618
  8
LAYER01
 62
     7
 10
6764.1923306311428
 20
7224.1256895720644
 30
0.0
  0
VERTEX
  5
619
  8
LAYER01
 62
     7
 10
6772.122216130123
 20
7204.3009758246098
 30
0.0
  0
VERTEX
  5
61A
  8
LAYER01
 62
     7
 10
6780.0521016291041
 20
7188.4412048266468
 30
0.0
  0
VERTEX
  5
61B
  8
LAYER01
 62
     7
 10
6791.9469298775757
 20
7172.5814338286846
 30
0.0
  0
VERTEX
  5
61C
  8
LAYER01
 62
     7
 10
6807.8067008755397
 20
7160.6866055802111
 30
0.0
  0
VERTEX
  5
61D
  8
LAYER01
 62
     7
 10
6827.6314146229934
 20
7148.7917773317413
 30
0.0
  0
VERTEX
  5
61E
  8
LAYER01
 62
     7
 10
6847.4561283704461
 20
7144.826834582248
 30
0.0
  0
VERTEX
  5
61F
  8
LAYER01
 62
     7
 10
6867.2808421178988
 20
7140.8618918327593
 30
0.0
  0
VERTEX
  5
620
  8
LAYER01
 62
     7
 10
6867.2808421178988
 20
7140.8618918327593
 30
0.0
  0
SEQEND
  5
621
  8
LAYER01
 62
     7
  0
POLYLINE
  5
622
  8
LAYER01
 62
     7
 66
     1
 10
0.0
 20
0.0
 30
0.0
 70
     1
  0
VERTEX
  5
623
  8
LAYER01
 62
     7
 10
6867.2808421178988
 20
7335.1440865578043
 30
0.0
  0
VERTEX
  5
624
  8
LAYER01
 62
     7
 10
6867.2808421178988
 20
7335.1440865578043
 30
0.0
  0
VERTEX
  5
625
  8
LAYER01
 62
     7
 10
6883.1406131158628
 20
7331.1791438083128
 30
0.0
  0
VERTEX
  5
626
  8
LAYER01
 62
     7
 10
6899.0003841138259
 20
7327.2142010588213
 30
0.0
  0
VERTEX
  5
627
  8
LAYER01
 62
     7
 10
6914.8601551117881
 20
7319.2843155598412
 30
0.0
  0
VERTEX
  5
628
  8
LAYER01
 62
     7
 10
6926.7549833602607
 20
7307.3894873113677
 30
0.0
  0
VERTEX
  5
629
  8
LAYER01
 62
     7
 10
6938.6498116087323
 20
7295.4946590628961
 30
0.0
  0
VERTEX
  5
62A
  8
LAYER01
 62
     7
 10
6946.5796971077143
 20
7279.634888064933
 30
0.0
  0
VERTEX
  5
62B
  8
LAYER01
 62
     7
 10
6954.5095826066963
 20
7263.7751170669708
 30
0.0
  0
VERTEX
  5
62C
  8
LAYER01
 62
     7
 10
6954.5095826066963
 20
7247.9153460690077
 30
0.0
  0
VERTEX
  5
62D
  8
LAYER01
 62
     7
 10
6954.5095826066963
 20
7247.9153460690077
 30
0.0
  0
VERTEX
  5
62E
  8
LAYER01
 62
     7
 10
6954.5095826066963
 20
7228.0906323215549
 30
0.0
  0
VERTEX
  5
62F
  8
LAYER01
 62
     7
 10
6946.5796971077143
 20
7212.2308613235909
 30
0.0
  0
VERTEX
  5
630
  8
LAYER01
 62
     7
 10
6938.6498116087323
 20
7196.3710903256278
 30
0.0
  0
VERTEX
  5
631
  8
LAYER01
 62
     7
 10
6926.7549833602607
 20
7184.4762620771562
 30
0.0
  0
VERTEX
  5
632
  8
LAYER01
 62
     7
 10
6914.8601551117881
 20
7172.5814338286846
 30
0.0
  0
VERTEX
  5
633
  8
LAYER01
 62
     7
 10
6899.0003841138259
 20
7164.6515483297017
 30
0.0
  0
VERTEX
  5
634
  8
LAYER01
 62
     7
 10
6883.1406131158628
 20
7160.6866055802111
 30
0.0
  0
VERTEX
  5
635
  8
LAYER01
 62
     7
 10
6867.2808421178988
 20
7160.6866055802111
 30
0.0
  0
VERTEX
  5
636
  8
LAYER01
 62
     7
 10
6867.2808421178988
 20
7160.6866055802111
 30
0.0
  0
VERTEX
  5
637
  8
LAYER01
 62
     7
 10
6851.4210711199376
 20
7160.6866055802111
 30
0.0
  0
VERTEX
  5
638
  8
LAYER01
 62
     7
 10
6831.5963573724839
 20
7164.6515483297017
 30
0.0
  0
VERTEX
  5
639
  8
LAYER01
 62
     7
 10
6819.7015291240123
 20
7172.5814338286846
 30
0.0
  0
VERTEX
  5
63A
  8
LAYER01
 62
     7
 10
6803.8417581260492
 20
7184.4762620771562
 30
0.0
  0
VERTEX
  5
63B
  8
LAYER01
 62
     7
 10
6795.9118726270672
 20
7196.3710903256278
 30
0.0
  0
VERTEX
  5
63C
  8
LAYER01
 62
     7
 10
6787.9819871280861
 20
7212.2308613235909
 30
0.0
  0
VERTEX
  5
63D
  8
LAYER01
 62
     7
 10
6780.0521016291041
 20
7228.0906323215549
 30
0.0
  0
VERTEX
  5
63E
  8
LAYER01
 62
     7
 10
6780.0521016291041
 20
7247.9153460690077
 30
0.0
  0
VERTEX
  5
63F
  8
LAYER01
 62
     7
 10
6780.0521016291041
 20
7247.9153460690077
 30
0.0
  0
VERTEX
  5
640
  8
LAYER01
 62
     7
 10
6780.0521016291041
 20
7263.7751170669708
 30
0.0
  0
VERTEX
  5
641
  8
LAYER01
 62
     7
 10
6787.9819871280861
 20
7279.634888064933
 30
0.0
  0
VERTEX
  5
642
  8
LAYER01
 62
     7
 10
6795.9118726270672
 20
7295.4946590628961
 30
0.0
  0
VERTEX
  5
643
  8
LAYER01
 62
     7
 10
6803.8417581260492
 20
7307.3894873113677
 30
0.0
  0
VERTEX
  5
644
  8
LAYER01
 62
     7
 10
6819.7015291240123
 20
7319.2843155598412
 30
0.0
  0
VERTEX
  5
645
  8
LAYER01
 62
     7
 10
6831.5963573724839
 20
7327.2142010588213
 30
0.0
  0
VERTEX
  5
646
  8
LAYER01
 62
     7
 10
6851.4210711199376
 20
7331.1791438083128
 30
0.0
  0
VERTEX
  5
647
  8
LAYER01
 62
     7
 10
6867.2808421178988
 20
7335.1440865578043
 30
0.0
  0
VERTEX
  5
648
  8
LAYER01
 62
     7
 10
6867.2808421178988
 20
7335.1440865578043
 30
0.0
  0
SEQEND
  5
649
  8
LAYER01
 62
     7
  0
POLYLINE
  5
64A
  8
LAYER01
 62
     7
 66
     1
 10
0.0
 20
0.0
 30
0.0
 70
     1
  0
VERTEX
  5
64B
  8
LAYER01
 62
     7
 10
6883.1406131158628
 20
7239.9854605700266
 30
0.0
  0
VERTEX
  5
64C
  8
LAYER01
 62
     7
 10
6883.1406131158628
 20
7239.9854605700266
 30
0.0
  0
VERTEX
  5
64D
  8
LAYER01
 62
     7
 10
6895.0354413643354
 20
7243.950403319518
 30
0.0
  0
VERTEX
  5
64E
  8
LAYER01
 62
     7
 10
6906.930269612807
 20
7247.9153460690077
 30
0.0
  0
VERTEX
  5
64F
  8
LAYER01
 62
     7
 10
6914.8601551117881
 20
7259.8101743174793
 30
0.0
  0
VERTEX
  5
650
  8
LAYER01
 62
     7
 10
6914.8601551117881
 20
7271.705002565951
 30
0.0
  0
VERTEX
  5
651
  8
LAYER01
 62
     7
 10
6914.8601551117881
 20
7271.705002565951
 30
0.0
  0
VERTEX
  5
652
  8
LAYER01
 62
     7
 10
6914.8601551117881
 20
7287.5647735639141
 30
0.0
  0
VERTEX
  5
653
  8
LAYER01
 62
     7
 10
6902.9653268633156
 20
7299.4596018123866
 30
0.0
  0
VERTEX
  5
654
  8
LAYER01
 62
     7
 10
6891.0704986148439
 20
7303.4245445618772
 30
0.0
  0
VERTEX
  5
655
  8
LAYER01
 62
     7
 10
6875.2107276168808
 20
7303.4245445618772
 30
0.0
  0
VERTEX
  5
656
  8
LAYER01
 62
     7
 10
6827.6314146229934
 20
7303.4245445618772
 30
0.0
  0
VERTEX
  5
657
  8
LAYER01
 62
     7
 10
6827.6314146229934
 20
7188.4412048266468
 30
0.0
  0
VERTEX
  5
658
  8
LAYER01
 62
     7
 10
6843.4911856209546
 20
7188.4412048266468
 30
0.0
  0
VERTEX
  5
659
  8
LAYER01
 62
     7
 10
6843.4911856209546
 20
7239.9854605700266
 30
0.0
  0
VERTEX
  5
65A
  8
LAYER01
 62
     7
 10
6867.2808421178988
 20
7239.9854605700266
 30
0.0
  0
VERTEX
  5
65B
  8
LAYER01
 62
     7
 10
6895.0354413643354
 20
7188.4412048266468
 30
0.0
  0
VERTEX
  5
65C
  8
LAYER01
 62
     7
 10
6914.8601551117881
 20
7188.4412048266468
 30
0.0
  0
VERTEX
  5
65D
  8
LAYER01
 62
     7
 10
6883.1406131158628
 20
7239.9854605700266
 30
0.0
  0
VERTEX
  5
65E
  8
LAYER01
 62
     7
 10
6883.1406131158628
 20
7239.9854605700266
 30
0.0
  0
SEQEND
  5
65F
  8
LAYER01
 62
     7
  0
POLYLINE
  5
660
  8
LAYER01
 62
     7
 66
     1
 10
0.0
 20
0.0
 30
0.0
 70
     1
  0
VERTEX
  5
661
  8
LAYER01
 62
     7
 10
6871.2457848673903
 20
7287.5647735639141
 30
0.0
  0
VERTEX
  5
662
  8
LAYER01
 62
     7
 10
6871.2457848673903
 20
7287.5647735639141
 30
0.0
  0
VERTEX
  5
663
  8
LAYER01
 62
     7
 10
6891.0704986148439
 20
7283.5998308144244
 30
0.0
  0
VERTEX
  5
664
  8
LAYER01
 62
     7
 10
6899.0003841138259
 20
7279.634888064933
 30
0.0
  0
VERTEX
  5
665
  8
LAYER01
 62
     7
 10
6899.0003841138259
 20
7271.705002565951
 30
0.0
  0
VERTEX
  5
666
  8
LAYER01
 62
     7
 10
6899.0003841138259
 20
7271.705002565951
 30
0.0
  0
VERTEX
  5
667
  8
LAYER01
 62
     7
 10
6895.0354413643354
 20
7263.7751170669708
 30
0.0
  0
VERTEX
  5
668
  8
LAYER01
 62
     7
 10
6887.1055558653534
 20
7259.8101743174793
 30
0.0
  0
VERTEX
  5
669
  8
LAYER01
 62
     7
 10
6863.3158993684092
 20
7255.8452315679879
 30
0.0
  0
VERTEX
  5
66A
  8
LAYER01
 62
     7
 10
6843.4911856209546
 20
7255.8452315679879
 30
0.0
  0
VERTEX
  5
66B
  8
LAYER01
 62
     7
 10
6843.4911856209546
 20
7287.5647735639141
 30
0.0
  0
VERTEX
  5
66C
  8
LAYER01
 62
     7
 10
6871.2457848673903
 20
7287.5647735639141
 30
0.0
  0
VERTEX
  5
66D
  8
LAYER01
 62
     7
 10
6871.2457848673903
 20
7287.5647735639141
 30
0.0
  0
SEQEND
  5
66E
  8
LAYER01
 62
     7
  0
ENDBLK
  5
66F
  8
0
 62
     7
  0
BLOCK
  8
0
  2
TRIGO-G1
 70
     0
 10
0.0
 20
0.0
 30
0.0
  3
TRIGO-G1
  1

  0
POLYLINE
  5
8A0
  8
LAYER01
  6
CONTINUOUS
 62
     7
 66
     1
 10
0.0
 20
0.0
 30
0.0
 70
     1
  0
VERTEX
  5
CBF
  8
LAYER01
  6
CONTINUOUS
 62
     7
 10
5333.4588920000006
 20
1798.015065
 30
0.0
  0
VERTEX
  5
CC0
  8
LAYER01
  6
CONTINUOUS
 62
     7
 10
5376.0820270000004
 20
1798.015065
 30
0.0
  0
VERTEX
  5
CC1
  8
LAYER01
  6
CONTINUOUS
 62
     7
 10
5429.6087539999999
 20
1676.0930760000001
 30
0.0
  0
VERTEX
  5
CC2
  8
LAYER01
  6
CONTINUOUS
 62
     7
 10
5483.1354810000003
 20
1798.015065
 30
0.0
  0
VERTEX
  5
CC3
  8
LAYER01
  6
CONTINUOUS
 62
     7
 10
5527.7410869999994
 20
1798.015065
 30
0.0
  0
VERTEX
  5
CC4
  8
LAYER01
  6
CONTINUOUS
 62
     7
 10
5429.6087539999999
 20
1579.9432139999999
 30
0.0
  0
VERTEX
  5
CC5
  8
LAYER01
  6
CONTINUOUS
 62
     7
 10
5333.4588920000006
 20
1798.015065
 30
0.0
  0
VERTEX
  5
CC6
  8
LAYER01
  6
CONTINUOUS
 62
     7
 10
5333.4588920000006
 20
1798.015065
 30
0.0
  0
SEQEND
  5
CC7
  8
LAYER01
  6
CONTINUOUS
 62
     7
  0
POLYLINE
  5
8A1
  8
LAYER01
  6
CONTINUOUS
 62
     7
 66
     1
 10
0.0
 20
0.0
 30
0.0
 70
     1
  0
VERTEX
  5
CC8
  8
LAYER01
  6
CONTINUOUS
 62
     7
 10
5479.1705380000003
 20
1649.329712
 30
0.0
  0
VERTEX
  5
CC9
  8
LAYER01
  6
CONTINUOUS
 62
     7
 10
5494.0390740000003
 20
1684.0229609999999
 30
0.0
  0
VERTEX
  5
CCA
  8
LAYER01
  6
CONTINUOUS
 62
     7
 10
5558.4693930000012
 20
1684.0229609999999
 30
0.0
  0
VERTEX
  5
CCB
  8
LAYER01
  6
CONTINUOUS
 62
     7
 10
5525.7586160000001
 20
1755.3919310000001
 30
0.0
  0
VERTEX
  5
CCC
  8
LAYER01
  6
CONTINUOUS
 62
     7
 10
5544.5920939999996
 20
1800.9887719999999
 30
0.0
  0
VERTEX
  5
CCD
  8
LAYER01
  6
CONTINUOUS
 62
     7
 10
5632.812069999999
 20
1614.636463
 30
0.0
  0
VERTEX
  5
CCE
  8
LAYER01
  6
CONTINUOUS
 62
     7
 10
5632.812069999999
 20
1798.015065
 30
0.0
  0
VERTEX
  5
CCF
  8
LAYER01
  6
CONTINUOUS
 62
     7
 10
5750.7691169999998
 20
1798.015065
 30
0.0
  0
VERTEX
  5
CD0
  8
LAYER01
  6
CONTINUOUS
 62
     7
 10
5750.7691169999998
 20
1798.015065
 30
0.0
  0
VERTEX
  5
CD1
  8
LAYER01
  6
CONTINUOUS
 62
     7
 10
5761.6727090000004
 20
1796.032594
 30
0.0
  0
VERTEX
  5
CD2
  8
LAYER01
  6
CONTINUOUS
 62
     7
 10
5771.5850659999996
 20
1792.0676510000001
 30
0.0
  0
VERTEX
  5
CD3
  8
LAYER01
  6
CONTINUOUS
 62
     7
 10
5780.506187
 20
1785.129001
 30
0.0
  0
VERTEX
  5
CD4
  8
LAYER01
  6
CONTINUOUS
 62
     7
 10
5788.4360729999989
 20
1778.190351
 30
0.0
  0
VERTEX
  5
CD5
  8
LAYER01
  6
CONTINUOUS
 62
     7
 10
5795.3747219999996
 20
1769.2692300000001
 30
0.0
  0
VERTEX
  5
CD6
  8
LAYER01
  6
CONTINUOUS
 62
     7
 10
5800.3309009999994
 20
1759.356873
 30
0.0
  0
VERTEX
  5
CD7
  8
LAYER01
  6
CONTINUOUS
 62
     7
 10
5804.2958440000011
 20
1747.462045
 30
0.0
  0
VERTEX
  5
CD8
  8
LAYER01
  6
CONTINUOUS
 62
     7
 10
5805.2870789999997
 20
1736.5584530000001
 30
0.0
  0
VERTEX
  5
CD9
  8
LAYER01
  6
CONTINUOUS
 62
     7
 10
5805.2870789999997
 20
1736.5584530000001
 30
0.0
  0
VERTEX
  5
CDA
  8
LAYER01
  6
CONTINUOUS
 62
     7
 10
5805.2870789999997
 20
1724.6636239999989
 30
0.0
  0
VERTEX
  5
CDB
  8
LAYER01
  6
CONTINUOUS
 62
     7
 10
5803.3046080000004
 20
1714.7512670000001
 30
0.0
  0
VERTEX
  5
CDC
  8
LAYER01
  6
CONTINUOUS
 62
     7
 10
5799.3396649999986
 20
1704.8389110000001
 30
0.0
  0
VERTEX
  5
CDD
  8
LAYER01
  6
CONTINUOUS
 62
     7
 10
5794.383487000001
 20
1695.9177890000001
 30
0.0
  0
VERTEX
  5
CDE
  8
LAYER01
  6
CONTINUOUS
 62
     7
 10
5787.444837
 20
1687.9879040000001
 30
0.0
  0
VERTEX
  5
CDF
  8
LAYER01
  6
CONTINUOUS
 62
     7
 10
5779.5149510000001
 20
1681.049254
 30
0.0
  0
VERTEX
  5
CE0
  8
LAYER01
  6
CONTINUOUS
 62
     7
 10
5770.5938299999998
 20
1676.0930760000001
 30
0.0
  0
VERTEX
  5
CE1
  8
LAYER01
  6
CONTINUOUS
 62
     7
 10
5759.690238000001
 20
1672.1281329999999
 30
0.0
  0
VERTEX
  5
CE2
  8
LAYER01
  6
CONTINUOUS
 62
     7
 10
5823.1293219999989
 20
1587.8730989999999
 30
0.0
  0
VERTEX
  5
CE3
  8
LAYER01
  6
CONTINUOUS
 62
     7
 10
5823.1293219999989
 20
1798.015065
 30
0.0
  0
VERTEX
  5
CE4
  8
LAYER01
  6
CONTINUOUS
 62
     7
 10
5864.7612209999998
 20
1798.015065
 30
0.0
  0
VERTEX
  5
CE5
  8
LAYER01
  6
CONTINUOUS
 62
     7
 10
5864.7612209999998
 20
1585.8906280000001
 30
0.0
  0
VERTEX
  5
CE6
  8
LAYER01
  6
CONTINUOUS
 62
     7
 10
5775.5500089999996
 20
1585.8906280000001
 30
0.0
  0
VERTEX
  5
CE7
  8
LAYER01
  6
CONTINUOUS
 62
     7
 10
5689.3125040000004
 20
1695.9177890000001
 30
0.0
  0
VERTEX
  5
CE8
  8
LAYER01
  6
CONTINUOUS
 62
     7
 10
5732.9268739999998
 20
1695.9177890000001
 30
0.0
  0
VERTEX
  5
CE9
  8
LAYER01
  6
CONTINUOUS
 62
     7
 10
5732.9268739999998
 20
1695.9177890000001
 30
0.0
  0
VERTEX
  5
CEA
  8
LAYER01
  6
CONTINUOUS
 62
     7
 10
5738.874288
 20
1696.9090249999999
 30
0.0
  0
VERTEX
  5
CEB
  8
LAYER01
  6
CONTINUOUS
 62
     7
 10
5744.8217020000002
 20
1698.891496
 30
0.0
  0
VERTEX
  5
CEC
  8
LAYER01
  6
CONTINUOUS
 62
     7
 10
5749.7778809999991
 20
1701.8652039999999
 30
0.0
  0
VERTEX
  5
CED
  8
LAYER01
  6
CONTINUOUS
 62
     7
 10
5754.7340590000003
 20
1705.830146
 30
0.0
  0
VERTEX
  5
CEE
  8
LAYER01
  6
CONTINUOUS
 62
     7
 10
5757.7077659999986
 20
1710.786325
 30
0.0
  0
VERTEX
  5
CEF
  8
LAYER01
  6
CONTINUOUS
 62
     7
 10
5760.6814729999987
 20
1716.733739
 30
0.0
  0
VERTEX
  5
CF0
  8
LAYER01
  6
CONTINUOUS
 62
     7
 10
5762.6639450000002
 20
1722.681153
 30
0.0
  0
VERTEX
  5
CF1
  8
LAYER01
  6
CONTINUOUS
 62
     7
 10
5762.6639450000002
 20
1729.619803
 30
0.0
  0
VERTEX
  5
CF2
  8
LAYER01
  6
CONTINUOUS
 62
     7
 10
5762.6639450000002
 20
1729.619803
 30
0.0
  0
VERTEX
  5
CF3
  8
LAYER01
  6
CONTINUOUS
 62
     7
 10
5762.6639450000002
 20
1735.567217
 30
0.0
  0
VERTEX
  5
CF4
  8
LAYER01
  6
CONTINUOUS
 62
     7
 10
5760.6814729999987
 20
1741.514631
 30
0.0
  0
VERTEX
  5
CF5
  8
LAYER01
  6
CONTINUOUS
 62
     7
 10
5758.6990020000003
 20
1747.462045
 30
0.0
  0
VERTEX
  5
CF6
  8
LAYER01
  6
CONTINUOUS
 62
     7
 10
5754.7340590000003
 20
1752.418224
 30
0.0
  0
VERTEX
  5
CF7
  8
LAYER01
  6
CONTINUOUS
 62
     7
 10
5750.7691169999998
 20
1756.3831660000001
 30
0.0
  0
VERTEX
  5
CF8
  8
LAYER01
  6
CONTINUOUS
 62
     7
 10
5744.8217020000002
 20
1759.356873
 30
0.0
  0
VERTEX
  5
CF9
  8
LAYER01
  6
CONTINUOUS
 62
     7
 10
5738.874288
 20
1761.3393450000001
 30
0.0
  0
VERTEX
  5
CFA
  8
LAYER01
  6
CONTINUOUS
 62
     7
 10
5732.9268739999998
 20
1762.3305800000001
 30
0.0
  0
VERTEX
  5
CFB
  8
LAYER01
  6
CONTINUOUS
 62
     7
 10
5677.4176760000009
 20
1762.3305800000001
 30
0.0
  0
VERTEX
  5
CFC
  8
LAYER01
  6
CONTINUOUS
 62
     7
 10
5677.4176760000009
 20
1585.8906280000001
 30
0.0
  0
VERTEX
  5
CFD
  8
LAYER01
  6
CONTINUOUS
 62
     7
 10
5606.0487060000014
 20
1585.8906280000001
 30
0.0
  0
VERTEX
  5
CFE
  8
LAYER01
  6
CONTINUOUS
 62
     7
 10
5576.3116360000004
 20
1649.329712
 30
0.0
  0
VERTEX
  5
CFF
  8
LAYER01
  6
CONTINUOUS
 62
     7
 10
5479.1705380000003
 20
1649.329712
 30
0.0
  0
VERTEX
  5
D00
  8
LAYER01
  6
CONTINUOUS
 62
     7
 10
5479.1705380000003
 20
1649.329712
 30
0.0
  0
SEQEND
  5
D01
  8
LAYER01
  6
CONTINUOUS
 62
     7
  0
POLYLINE
  5
8A2
  8
LAYER01
  6
CONTINUOUS
 62
     7
 66
     1
 10
0.0
 20
0.0
 30
0.0
 70
     1
  0
VERTEX
  5
D02
  8
LAYER01
  6
CONTINUOUS
 62
     7
 10
6057.0609439999989
 20
1784.1377660000001
 30
0.0
  0
VERTEX
  5
D03
  8
LAYER01
  6
CONTINUOUS
 62
     7
 10
6030.2975800000004
 20
1750.4357520000001
 30
0.0
  0
VERTEX
  5
D04
  8
LAYER01
  6
CONTINUOUS
 62
     7
 10
6030.2975800000004
 20
1750.4357520000001
 30
0.0
  0
VERTEX
  5
D05
  8
LAYER01
  6
CONTINUOUS
 62
     7
 10
6021.3764590000001
 20
1756.3831660000001
 30
0.0
  0
VERTEX
  5
D06
  8
LAYER01
  6
CONTINUOUS
 62
     7
 10
6012.4553380000007
 20
1761.3393450000001
 30
0.0
  0
VERTEX
  5
D07
  8
LAYER01
  6
CONTINUOUS
 62
     7
 10
6002.5429810000014
 20
1764.313052
 30
0.0
  0
VERTEX
  5
D08
  8
LAYER01
  6
CONTINUOUS
 62
     7
 10
5991.6393889999999
 20
1764.313052
 30
0.0
  0
VERTEX
  5
D09
  8
LAYER01
  6
CONTINUOUS
 62
     7
 10
5991.6393889999999
 20
1764.313052
 30
0.0
  0
VERTEX
  5
D0A
  8
LAYER01
  6
CONTINUOUS
 62
     7
 10
5984.7007389999999
 20
1764.313052
 30
0.0
  0
VERTEX
  5
D0B
  8
LAYER01
  6
CONTINUOUS
 62
     7
 10
5977.7620889999998
 20
1763.3218159999999
 30
0.0
  0
VERTEX
  5
D0C
  8
LAYER01
  6
CONTINUOUS
 62
     7
 10
5970.8234389999998
 20
1761.3393450000001
 30
0.0
  0
VERTEX
  5
D0D
  8
LAYER01
  6
CONTINUOUS
 62
     7
 10
5963.8847889999997
 20
1758.365638
 30
0.0
  0
VERTEX
  5
D0E
  8
LAYER01
  6
CONTINUOUS
 62
     7
 10
5957.9373750000004
 20
1755.3919310000001
 30
0.0
  0
VERTEX
  5
D0F
  8
LAYER01
  6
CONTINUOUS
 62
     7
 10
5952.9811970000001
 20
1751.4269879999999
 30
0.0
  0
VERTEX
  5
D10
  8
LAYER01
  6
CONTINUOUS
 62
     7
 10
5947.0337829999999
 20
1747.462045
 30
0.0
  0
VERTEX
  5
D11
  8
LAYER01
  6
CONTINUOUS
 62
     7
 10
5943.0688399999999
 20
1742.5058670000001
 30
0.0
  0
VERTEX
  5
D12
  8
LAYER01
  6
CONTINUOUS
 62
     7
 10
5938.1126610000001
 20
1736.5584530000001
 30
0.0
  0
VERTEX
  5
D13
  8
LAYER01
  6
CONTINUOUS
 62
     7
 10
5935.138954
 20
1730.611038
 30
0.0
  0
VERTEX
  5
D14
  8
LAYER01
  6
CONTINUOUS
 62
     7
 10
5931.1740119999986
 20
1724.6636239999989
 30
0.0
  0
VERTEX
  5
D15
  8
LAYER01
  6
CONTINUOUS
 62
     7
 10
5928.2003049999994
 20
1718.71621
 30
0.0
  0
VERTEX
  5
D16
  8
LAYER01
  6
CONTINUOUS
 62
     7
 10
5926.2178329999988
 20
1711.77756
 30
0.0
  0
VERTEX
  5
D17
  8
LAYER01
  6
CONTINUOUS
 62
     7
 10
5925.2265980000002
 20
1704.8389110000001
 30
0.0
  0
VERTEX
  5
D18
  8
LAYER01
  6
CONTINUOUS
 62
     7
 10
5924.2353620000004
 20
1697.900261
 30
0.0
  0
VERTEX
  5
D19
  8
LAYER01
  6
CONTINUOUS
 62
     7
 10
5923.2441259999996
 20
1689.9703750000001
 30
0.0
  0
VERTEX
  5
D1A
  8
LAYER01
  6
CONTINUOUS
 62
     7
 10
5923.2441259999996
 20
1689.9703750000001
 30
0.0
  0
VERTEX
  5
D1B
  8
LAYER01
  6
CONTINUOUS
 62
     7
 10
5924.2353620000004
 20
1683.0317250000001
 30
0.0
  0
VERTEX
  5
D1C
  8
LAYER01
  6
CONTINUOUS
 62
     7
 10
5925.2265980000002
 20
1676.0930760000001
 30
0.0
  0
VERTEX
  5
D1D
  8
LAYER01
  6
CONTINUOUS
 62
     7
 10
5926.2178329999988
 20
1669.1544260000001
 30
0.0
  0
VERTEX
  5
D1E
  8
LAYER01
  6
CONTINUOUS
 62
     7
 10
5929.1915399999998
 20
1663.2070120000001
 30
0.0
  0
VERTEX
  5
D1F
  8
LAYER01
  6
CONTINUOUS
 62
     7
 10
5931.1740119999986
 20
1657.2595980000001
 30
0.0
  0
VERTEX
  5
D20
  8
LAYER01
  6
CONTINUOUS
 62
     7
 10
5935.138954
 20
1651.312183
 30
0.0
  0
VERTEX
  5
D21
  8
LAYER01
  6
CONTINUOUS
 62
     7
 10
5939.103897
 20
1645.364769
 30
0.0
  0
VERTEX
  5
D22
  8
LAYER01
  6
CONTINUOUS
 62
     7
 10
5943.0688399999999
 20
1640.4085909999999
 30
0.0
  0
VERTEX
  5
D23
  8
LAYER01
  6
CONTINUOUS
 62
     7
 10
5948.0250180000003
 20
1635.4524120000001
 30
0.0
  0
VERTEX
  5
D24
  8
LAYER01
  6
CONTINUOUS
 62
     7
 10
5952.9811970000001
 20
1631.48747
 30
0.0
  0
VERTEX
  5
D25
  8
LAYER01
  6
CONTINUOUS
 62
     7
 10
5958.9286110000012
 20
1628.5137629999999
 30
0.0
  0
VERTEX
  5
D26
  8
LAYER01
  6
CONTINUOUS
 62
     7
 10
5964.8760249999987
 20
1625.540056
 30
0.0
  0
VERTEX
  5
D27
  8
LAYER01
  6
CONTINUOUS
 62
     7
 10
5971.8146749999996
 20
1622.5663489999999
 30
0.0
  0
VERTEX
  5
D28
  8
LAYER01
  6
CONTINUOUS
 62
     7
 10
5977.7620889999998
 20
1620.583877
 30
0.0
  0
VERTEX
  5
D29
  8
LAYER01
  6
CONTINUOUS
 62
     7
 10
5984.7007389999999
 20
1619.592641
 30
0.0
  0
VERTEX
  5
D2A
  8
LAYER01
  6
CONTINUOUS
 62
     7
 10
5992.6306240000004
 20
1619.592641
 30
0.0
  0
VERTEX
  5
D2B
  8
LAYER01
  6
CONTINUOUS
 62
     7
 10
5992.6306240000004
 20
1619.592641
 30
0.0
  0
VERTEX
  5
D2C
  8
LAYER01
  6
CONTINUOUS
 62
     7
 10
6003.5342170000013
 20
1620.583877
 30
0.0
  0
VERTEX
  5
D2D
  8
LAYER01
  6
CONTINUOUS
 62
     7
 10
6012.4553380000007
 20
1622.5663489999999
 30
0.0
  0
VERTEX
  5
D2E
  8
LAYER01
  6
CONTINUOUS
 62
     7
 10
6021.3764590000001
 20
1627.5225270000001
 30
0.0
  0
VERTEX
  5
D2F
  8
LAYER01
  6
CONTINUOUS
 62
     7
 10
6030.2975800000004
 20
1633.4699410000001
 30
0.0
  0
VERTEX
  5
D30
  8
LAYER01
  6
CONTINUOUS
 62
     7
 10
6056.069708
 20
1598.7766919999999
 30
0.0
  0
VERTEX
  5
D31
  8
LAYER01
  6
CONTINUOUS
 62
     7
 10
6056.069708
 20
1598.7766919999999
 30
0.0
  0
VERTEX
  5
D32
  8
LAYER01
  6
CONTINUOUS
 62
     7
 10
6041.2011730000004
 20
1589.8555710000001
 30
0.0
  0
VERTEX
  5
D33
  8
LAYER01
  6
CONTINUOUS
 62
     7
 10
6033.2712869999987
 20
1586.881864
 30
0.0
  0
VERTEX
  5
D34
  8
LAYER01
  6
CONTINUOUS
 62
     7
 10
6026.3326379999999
 20
1583.9081570000001
 30
0.0
  0
VERTEX
  5
D35
  8
LAYER01
  6
CONTINUOUS
 62
     7
 10
6018.402752
 20
1581.9256849999999
 30
0.0
  0
VERTEX
  5
D36
  8
LAYER01
  6
CONTINUOUS
 62
     7
 10
6010.4728670000004
 20
1580.93445
 30
0.0
  0
VERTEX
  5
D37
  8
LAYER01
  6
CONTINUOUS
 62
     7
 10
5992.6306240000004
 20
1579.9432139999999
 30
0.0
  0
VERTEX
  5
D38
  8
LAYER01
  6
CONTINUOUS
 62
     7
 10
5992.6306240000004
 20
1579.9432139999999
 30
0.0
  0
VERTEX
  5
D39
  8
LAYER01
  6
CONTINUOUS
 62
     7
 10
5980.7357959999999
 20
1580.93445
 30
0.0
  0
VERTEX
  5
D3A
  8
LAYER01
  6
CONTINUOUS
 62
     7
 10
5969.8322029999999
 20
1582.916921
 30
0.0
  0
VERTEX
  5
D3B
  8
LAYER01
  6
CONTINUOUS
 62
     7
 10
5958.9286110000012
 20
1584.899392
 30
0.0
  0
VERTEX
  5
D3C
  8
LAYER01
  6
CONTINUOUS
 62
     7
 10
5949.0162540000001
 20
1588.864335
 30
0.0
  0
VERTEX
  5
D3D
  8
LAYER01
  6
CONTINUOUS
 62
     7
 10
5939.103897
 20
1593.820514
 30
0.0
  0
VERTEX
  5
D3E
  8
LAYER01
  6
CONTINUOUS
 62
     7
 10
5930.1827759999987
 20
1598.7766919999999
 30
0.0
  0
VERTEX
  5
D3F
  8
LAYER01
  6
CONTINUOUS
 62
     7
 10
5921.2616549999993
 20
1605.715342
 30
0.0
  0
VERTEX
  5
D40
  8
LAYER01
  6
CONTINUOUS
 62
     7
 10
5913.3317690000003
 20
1612.653992
 30
0.0
  0
VERTEX
  5
D41
  8
LAYER01
  6
CONTINUOUS
 62
     7
 10
5905.4018840000008
 20
1620.583877
 30
0.0
  0
VERTEX
  5
D42
  8
LAYER01
  6
CONTINUOUS
 62
     7
 10
5899.4544700000006
 20
1629.5049979999999
 30
0.0
  0
VERTEX
  5
D43
  8
LAYER01
  6
CONTINUOUS
 62
     7
 10
5893.5070560000004
 20
1638.4261200000001
 30
0.0
  0
VERTEX
  5
D44
  8
LAYER01
  6
CONTINUOUS
 62
     7
 10
5888.5508770000006
 20
1648.3384759999999
 30
0.0
  0
VERTEX
  5
D45
  8
LAYER01
  6
CONTINUOUS
 62
     7
 10
5885.5771700000014
 20
1658.2508330000001
 30
0.0
  0
VERTEX
  5
D46
  8
LAYER01
  6
CONTINUOUS
 62
     7
 10
5882.6034630000004
 20
1669.1544260000001
 30
0.0
  0
VERTEX
  5
D47
  8
LAYER01
  6
CONTINUOUS
 62
     7
 10
5880.6209920000001
 20
1680.0580179999999
 30
0.0
  0
VERTEX
  5
D48
  8
LAYER01
  6
CONTINUOUS
 62
     7
 10
5879.6297560000003
 20
1691.952847
 30
0.0
  0
VERTEX
  5
D49
  8
LAYER01
  6
CONTINUOUS
 62
     7
 10
5879.6297560000003
 20
1691.952847
 30
0.0
  0
VERTEX
  5
D4A
  8
LAYER01
  6
CONTINUOUS
 62
     7
 10
5880.6209920000001
 20
1702.8564389999999
 30
0.0
  0
VERTEX
  5
D4B
  8
LAYER01
  6
CONTINUOUS
 62
     7
 10
5882.6034630000004
 20
1714.7512670000001
 30
0.0
  0
VERTEX
  5
D4C
  8
LAYER01
  6
CONTINUOUS
 62
     7
 10
5884.5859339999997
 20
1724.6636239999989
 30
0.0
  0
VERTEX
  5
D4D
  8
LAYER01
  6
CONTINUOUS
 62
     7
 10
5888.5508770000006
 20
1735.567217
 30
0.0
  0
VERTEX
  5
D4E
  8
LAYER01
  6
CONTINUOUS
 62
     7
 10
5893.5070560000004
 20
1745.479574
 30
0.0
  0
VERTEX
  5
D4F
  8
LAYER01
  6
CONTINUOUS
 62
     7
 10
5898.4632340000007
 20
1754.400695
 30
0.0
  0
VERTEX
  5
D50
  8
LAYER01
  6
CONTINUOUS
 62
     7
 10
5905.4018840000008
 20
1763.3218159999999
 30
0.0
  0
VERTEX
  5
D51
  8
LAYER01
  6
CONTINUOUS
 62
     7
 10
5912.3405339999999
 20
1771.251702
 30
0.0
  0
VERTEX
  5
D52
  8
LAYER01
  6
CONTINUOUS
 62
     7
 10
5920.2704190000004
 20
1778.190351
 30
0.0
  0
VERTEX
  5
D53
  8
LAYER01
  6
CONTINUOUS
 62
     7
 10
5929.1915399999998
 20
1785.129001
 30
0.0
  0
VERTEX
  5
D54
  8
LAYER01
  6
CONTINUOUS
 62
     7
 10
5938.1126610000001
 20
1790.08518
 30
0.0
  0
VERTEX
  5
D55
  8
LAYER01
  6
CONTINUOUS
 62
     7
 10
5948.0250180000003
 20
1795.0413579999999
 30
0.0
  0
VERTEX
  5
D56
  8
LAYER01
  6
CONTINUOUS
 62
     7
 10
5957.9373750000004
 20
1799.0063009999999
 30
0.0
  0
VERTEX
  5
D57
  8
LAYER01
  6
CONTINUOUS
 62
     7
 10
5968.8409680000004
 20
1801.980008
 30
0.0
  0
VERTEX
  5
D58
  8
LAYER01
  6
CONTINUOUS
 62
     7
 10
5980.7357959999999
 20
1802.9712440000001
 30
0.0
  0
VERTEX
  5
D59
  8
LAYER01
  6
CONTINUOUS
 62
     7
 10
5991.6393889999999
 20
1803.962479
 30
0.0
  0
VERTEX
  5
D5A
  8
LAYER01
  6
CONTINUOUS
 62
     7
 10
5991.6393889999999
 20
1803.962479
 30
0.0
  0
VERTEX
  5
D5B
  8
LAYER01
  6
CONTINUOUS
 62
     7
 10
6009.4816309999997
 20
1802.9712440000001
 30
0.0
  0
VERTEX
  5
D5C
  8
LAYER01
  6
CONTINUOUS
 62
     7
 10
6018.402752
 20
1801.980008
 30
0.0
  0
VERTEX
  5
D5D
  8
LAYER01
  6
CONTINUOUS
 62
     7
 10
6026.3326379999999
 20
1799.997537
 30
0.0
  0
VERTEX
  5
D5E
  8
LAYER01
  6
CONTINUOUS
 62
     7
 10
6033.2712869999987
 20
1797.0238300000001
 30
0.0
  0
VERTEX
  5
D5F
  8
LAYER01
  6
CONTINUOUS
 62
     7
 10
6041.2011730000004
 20
1794.050121999999
 30
0.0
  0
VERTEX
  5
D60
  8
LAYER01
  6
CONTINUOUS
 62
     7
 10
6049.1310579999999
 20
1789.093944
 30
0.0
  0
VERTEX
  5
D61
  8
LAYER01
  6
CONTINUOUS
 62
     7
 10
6057.0609439999989
 20
1784.1377660000001
 30
0.0
  0
VERTEX
  5
D62
  8
LAYER01
  6
CONTINUOUS
 62
     7
 10
6057.0609439999989
 20
1784.1377660000001
 30
0.0
  0
SEQEND
  5
D63
  8
LAYER01
  6
CONTINUOUS
 62
     7
  0
POLYLINE
  5
8A3
  8
LAYER01
  6
CONTINUOUS
 62
     7
 66
     1
 10
0.0
 20
0.0
 30
0.0
 70
     1
  0
VERTEX
  5
D64
  8
LAYER01
  6
CONTINUOUS
 62
     7
 10
6153.210806
 20
1802.9712440000001
 30
0.0
  0
VERTEX
  5
D65
  8
LAYER01
  6
CONTINUOUS
 62
     7
 10
6153.210806
 20
1802.9712440000001
 30
0.0
  0
VERTEX
  5
D66
  8
LAYER01
  6
CONTINUOUS
 62
     7
 10
6142.307213
 20
1801.980008
 30
0.0
  0
VERTEX
  5
D67
  8
LAYER01
  6
CONTINUOUS
 62
     7
 10
6130.4123849999996
 20
1800.9887719999999
 30
0.0
  0
VERTEX
  5
D68
  8
LAYER01
  6
CONTINUOUS
 62
     7
 10
6120.5000280000013
 20
1798.015065
 30
0.0
  0
VERTEX
  5
D69
  8
LAYER01
  6
CONTINUOUS
 62
     7
 10
6109.5964350000004
 20
1794.050121999999
 30
0.0
  0
VERTEX
  5
D6A
  8
LAYER01
  6
CONTINUOUS
 62
     7
 10
6099.6840789999997
 20
1790.08518
 30
0.0
  0
VERTEX
  5
D6B
  8
LAYER01
  6
CONTINUOUS
 62
     7
 10
6090.762956999999
 20
1784.1377660000001
 30
0.0
  0
VERTEX
  5
D6C
  8
LAYER01
  6
CONTINUOUS
 62
     7
 10
6081.8418359999987
 20
1778.190351
 30
0.0
  0
VERTEX
  5
D6D
  8
LAYER01
  6
CONTINUOUS
 62
     7
 10
6073.911951
 20
1770.260466
 30
0.0
  0
VERTEX
  5
D6E
  8
LAYER01
  6
CONTINUOUS
 62
     7
 10
6066.973301
 20
1762.3305800000001
 30
0.0
  0
VERTEX
  5
D6F
  8
LAYER01
  6
CONTINUOUS
 62
     7
 10
6060.0346509999999
 20
1754.400695
 30
0.0
  0
VERTEX
  5
D70
  8
LAYER01
  6
CONTINUOUS
 62
     7
 10
6054.0872369999997
 20
1745.479574
 30
0.0
  0
VERTEX
  5
D71
  8
LAYER01
  6
CONTINUOUS
 62
     7
 10
6049.1310579999999
 20
1735.567217
 30
0.0
  0
VERTEX
  5
D72
  8
LAYER01
  6
CONTINUOUS
 62
     7
 10
6046.1573509999998
 20
1724.6636239999989
 30
0.0
  0
VERTEX
  5
D73
  8
LAYER01
  6
CONTINUOUS
 62
     7
 10
6043.1836439999988
 20
1714.7512670000001
 30
0.0
  0
VERTEX
  5
D74
  8
LAYER01
  6
CONTINUOUS
 62
     7
 10
6041.2011730000004
 20
1702.8564389999999
 30
0.0
  0
VERTEX
  5
D75
  8
LAYER01
  6
CONTINUOUS
 62
     7
 10
6040.2099369999996
 20
1691.952847
 30
0.0
  0
VERTEX
  5
D76
  8
LAYER01
  6
CONTINUOUS
 62
     7
 10
6040.2099369999996
 20
1691.952847
 30
0.0
  0
VERTEX
  5
D77
  8
LAYER01
  6
CONTINUOUS
 62
     7
 10
6041.2011730000004
 20
1680.0580179999999
 30
0.0
  0
VERTEX
  5
D78
  8
LAYER01
  6
CONTINUOUS
 62
     7
 10
6042.1924090000002
 20
1669.1544260000001
 30
0.0
  0
VERTEX
  5
D79
  8
LAYER01
  6
CONTINUOUS
 62
     7
 10
6045.1661159999994
 20
1658.2508330000001
 30
0.0
  0
VERTEX
  5
D7A
  8
LAYER01
  6
CONTINUOUS
 62
     7
 10
6049.1310579999999
 20
1648.3384759999999
 30
0.0
  0
VERTEX
  5
D7B
  8
LAYER01
  6
CONTINUOUS
 62
     7
 10
6053.0960009999999
 20
1638.4261200000001
 30
0.0
  0
VERTEX
  5
D7C
  8
LAYER01
  6
CONTINUOUS
 62
     7
 10
6059.0434150000001
 20
1629.5049979999999
 30
0.0
  0
VERTEX
  5
D7D
  8
LAYER01
  6
CONTINUOUS
 62
     7
 10
6064.9908290000003
 20
1620.583877
 30
0.0
  0
VERTEX
  5
D7E
  8
LAYER01
  6
CONTINUOUS
 62
     7
 10
6071.9294790000013
 20
1612.653992
 30
0.0
  0
VERTEX
  5
D7F
  8
LAYER01
  6
CONTINUOUS
 62
     7
 10
6079.8593650000003
 20
1604.7241059999999
 30
0.0
  0
VERTEX
  5
D80
  8
LAYER01
  6
CONTINUOUS
 62
     7
 10
6088.7804859999997
 20
1598.7766919999999
 30
0.0
  0
VERTEX
  5
D81
  8
LAYER01
  6
CONTINUOUS
 62
     7
 10
6097.701607
 20
1592.8292779999999
 30
0.0
  0
VERTEX
  5
D82
  8
LAYER01
  6
CONTINUOUS
 62
     7
 10
6107.6139640000001
 20
1587.8730989999999
 30
0.0
  0
VERTEX
  5
D83
  8
LAYER01
  6
CONTINUOUS
 62
     7
 10
6117.5263210000003
 20
1583.9081570000001
 30
0.0
  0
VERTEX
  5
D84
  8
LAYER01
  6
CONTINUOUS
 62
     7
 10
6128.4299129999999
 20
1581.9256849999999
 30
0.0
  0
VERTEX
  5
D85
  8
LAYER01
  6
CONTINUOUS
 62
     7
 10
6139.333505999999
 20
1579.9432139999999
 30
0.0
  0
VERTEX
  5
D86
  8
LAYER01
  6
CONTINUOUS
 62
     7
 10
6150.2370989999999
 20
1578.9519780000001
 30
0.0
  0
VERTEX
  5
D87
  8
LAYER01
  6
CONTINUOUS
 62
     7
 10
6150.2370989999999
 20
1578.9519780000001
 30
0.0
  0
VERTEX
  5
D88
  8
LAYER01
  6
CONTINUOUS
 62
     7
 10
6162.1319270000004
 20
1579.9432139999999
 30
0.0
  0
VERTEX
  5
D89
  8
LAYER01
  6
CONTINUOUS
 62
     7
 10
6173.035519
 20
1581.9256849999999
 30
0.0
  0
VERTEX
  5
D8A
  8
LAYER01
  6
CONTINUOUS
 62
     7
 10
6183.939112
 20
1584.899392
 30
0.0
  0
VERTEX
  5
D8B
  8
LAYER01
  6
CONTINUOUS
 62
     7
 10
6193.8514690000011
 20
1588.864335
 30
0.0
  0
VERTEX
  5
D8C
  8
LAYER01
  6
CONTINUOUS
 62
     7
 10
6203.7638259999994
 20
1593.820514
 30
0.0
  0
VERTEX
  5
D8D
  8
LAYER01
  6
CONTINUOUS
 62
     7
 10
6212.6849469999988
 20
1599.767928
 30
0.0
  0
VERTEX
  5
D8E
  8
LAYER01
  6
CONTINUOUS
 62
     7
 10
6221.6060680000001
 20
1605.715342
 30
0.0
  0
VERTEX
  5
D8F
  8
LAYER01
  6
CONTINUOUS
 62
     7
 10
6229.5359539999999
 20
1613.645227
 30
0.0
  0
VERTEX
  5
D90
  8
LAYER01
  6
CONTINUOUS
 62
     7
 10
6236.4746030000006
 20
1621.5751130000001
 30
0.0
  0
VERTEX
  5
D91
  8
LAYER01
  6
CONTINUOUS
 62
     7
 10
6242.422016999999
 20
1630.496234
 30
0.0
  0
VERTEX
  5
D92
  8
LAYER01
  6
CONTINUOUS
 62
     7
 10
6247.3781959999988
 20
1639.417355
 30
0.0
  0
VERTEX
  5
D93
  8
LAYER01
  6
CONTINUOUS
 62
     7
 10
6252.334374
 20
1649.329712
 30
0.0
  0
VERTEX
  5
D94
  8
LAYER01
  6
CONTINUOUS
 62
     7
 10
6256.2993169999991
 20
1660.233305
 30
0.0
  0
VERTEX
  5
D95
  8
LAYER01
  6
CONTINUOUS
 62
     7
 10
6258.2817880000002
 20
1671.1368970000001
 30
0.0
  0
VERTEX
  5
D96
  8
LAYER01
  6
CONTINUOUS
 62
     7
 10
6259.2730240000001
 20
1682.0404900000001
 30
0.0
  0
VERTEX
  5
D97
  8
LAYER01
  6
CONTINUOUS
 62
     7
 10
6260.2642599999999
 20
1693.9353180000001
 30
0.0
  0
VERTEX
  5
D98
  8
LAYER01
  6
CONTINUOUS
 62
     7
 10
6260.2642599999999
 20
1693.9353180000001
 30
0.0
  0
VERTEX
  5
D99
  8
LAYER01
  6
CONTINUOUS
 62
     7
 10
6259.2730240000001
 20
1704.8389110000001
 30
0.0
  0
VERTEX
  5
D9A
  8
LAYER01
  6
CONTINUOUS
 62
     7
 10
6257.2905529999998
 20
1715.7425029999999
 30
0.0
  0
VERTEX
  5
D9B
  8
LAYER01
  6
CONTINUOUS
 62
     7
 10
6254.3168459999997
 20
1725.6548600000001
 30
0.0
  0
VERTEX
  5
D9C
  8
LAYER01
  6
CONTINUOUS
 62
     7
 10
6251.3431389999996
 20
1735.567217
 30
0.0
  0
VERTEX
  5
D9D
  8
LAYER01
  6
CONTINUOUS
 62
     7
 10
6246.3869599999998
 20
1744.4883380000001
 30
0.0
  0
VERTEX
  5
D9E
  8
LAYER01
  6
CONTINUOUS
 62
     7
 10
6241.4307820000013
 20
1753.409459
 30
0.0
  0
VERTEX
  5
D9F
  8
LAYER01
  6
CONTINUOUS
 62
     7
 10
6235.4833680000002
 20
1762.3305800000001
 30
0.0
  0
VERTEX
  5
DA0
  8
LAYER01
  6
CONTINUOUS
 62
     7
 10
6228.544718000001
 20
1769.2692300000001
 30
0.0
  0
VERTEX
  5
DA1
  8
LAYER01
  6
CONTINUOUS
 62
     7
 10
6220.6148320000002
 20
1776.2078799999999
 30
0.0
  0
VERTEX
  5
DA2
  8
LAYER01
  6
CONTINUOUS
 62
     7
 10
6212.6849469999988
 20
1783.14653
 30
0.0
  0
VERTEX
  5
DA3
  8
LAYER01
  6
CONTINUOUS
 62
     7
 10
6203.7638259999994
 20
1788.1027079999999
 30
0.0
  0
VERTEX
  5
DA4
  8
LAYER01
  6
CONTINUOUS
 62
     7
 10
6194.842705
 20
1793.0588869999999
 30
0.0
  0
VERTEX
  5
DA5
  8
LAYER01
  6
CONTINUOUS
 62
     7
 10
6184.9303479999999
 20
1797.0238300000001
 30
0.0
  0
VERTEX
  5
DA6
  8
LAYER01
  6
CONTINUOUS
 62
     7
 10
6175.0179909999997
 20
1799.997537
 30
0.0
  0
VERTEX
  5
DA7
  8
LAYER01
  6
CONTINUOUS
 62
     7
 10
6164.1143979999988
 20
1801.980008
 30
0.0
  0
VERTEX
  5
DA8
  8
LAYER01
  6
CONTINUOUS
 62
     7
 10
6153.210806
 20
1802.9712440000001
 30
0.0
  0
VERTEX
  5
DA9
  8
LAYER01
  6
CONTINUOUS
 62
     7
 10
6153.210806
 20
1802.9712440000001
 30
0.0
  0
SEQEND
  5
DAA
  8
LAYER01
  6
CONTINUOUS
 62
     7
  0
POLYLINE
  5
8A4
  8
LAYER01
  6
CONTINUOUS
 62
     7
 66
     1
 10
0.0
 20
0.0
 30
0.0
 70
     1
  0
VERTEX
  5
DAB
  8
LAYER01
  6
CONTINUOUS
 62
     7
 10
6150.2370989999999
 20
1619.592641
 30
0.0
  0
VERTEX
  5
DAC
  8
LAYER01
  6
CONTINUOUS
 62
     7
 10
6150.2370989999999
 20
1619.592641
 30
0.0
  0
VERTEX
  5
DAD
  8
LAYER01
  6
CONTINUOUS
 62
     7
 10
6143.2984489999999
 20
1620.583877
 30
0.0
  0
VERTEX
  5
DAE
  8
LAYER01
  6
CONTINUOUS
 62
     7
 10
6136.3597989999998
 20
1621.5751130000001
 30
0.0
  0
VERTEX
  5
DAF
  8
LAYER01
  6
CONTINUOUS
 62
     7
 10
6129.4211489999998
 20
1622.5663489999999
 30
0.0
  0
VERTEX
  5
DB0
  8
LAYER01
  6
CONTINUOUS
 62
     7
 10
6122.4824990000006
 20
1625.540056
 30
0.0
  0
VERTEX
  5
DB1
  8
LAYER01
  6
CONTINUOUS
 62
     7
 10
6116.5350850000004
 20
1628.5137629999999
 30
0.0
  0
VERTEX
  5
DB2
  8
LAYER01
  6
CONTINUOUS
 62
     7
 10
6110.5876710000011
 20
1632.478705
 30
0.0
  0
VERTEX
  5
DB3
  8
LAYER01
  6
CONTINUOUS
 62
     7
 10
6105.6314929999999
 20
1636.4436479999999
 30
0.0
  0
VERTEX
  5
DB4
  8
LAYER01
  6
CONTINUOUS
 62
     7
 10
6100.6753140000001
 20
1641.399827
 30
0.0
  0
VERTEX
  5
DB5
  8
LAYER01
  6
CONTINUOUS
 62
     7
 10
6095.7191359999988
 20
1646.3560050000001
 30
0.0
  0
VERTEX
  5
DB6
  8
LAYER01
  6
CONTINUOUS
 62
     7
 10
6091.7541929999988
 20
1651.312183
 30
0.0
  0
VERTEX
  5
DB7
  8
LAYER01
  6
CONTINUOUS
 62
     7
 10
6088.7804859999997
 20
1657.2595980000001
 30
0.0
  0
VERTEX
  5
DB8
  8
LAYER01
  6
CONTINUOUS
 62
     7
 10
6085.8067789999996
 20
1664.198247
 30
0.0
  0
VERTEX
  5
DB9
  8
LAYER01
  6
CONTINUOUS
 62
     7
 10
6082.8330719999994
 20
1670.1456619999999
 30
0.0
  0
VERTEX
  5
DBA
  8
LAYER01
  6
CONTINUOUS
 62
     7
 10
6081.8418359999987
 20
1677.0843109999989
 30
0.0
  0
VERTEX
  5
DBB
  8
LAYER01
  6
CONTINUOUS
 62
     7
 10
6079.8593650000003
 20
1684.0229609999999
 30
0.0
  0
VERTEX
  5
DBC
  8
LAYER01
  6
CONTINUOUS
 62
     7
 10
6079.8593650000003
 20
1691.952847
 30
0.0
  0
VERTEX
  5
DBD
  8
LAYER01
  6
CONTINUOUS
 62
     7
 10
6079.8593650000003
 20
1691.952847
 30
0.0
  0
VERTEX
  5
DBE
  8
LAYER01
  6
CONTINUOUS
 62
     7
 10
6080.8505999999998
 20
1698.891496
 30
0.0
  0
VERTEX
  5
DBF
  8
LAYER01
  6
CONTINUOUS
 62
     7
 10
6081.8418359999987
 20
1705.830146
 30
0.0
  0
VERTEX
  5
DC0
  8
LAYER01
  6
CONTINUOUS
 62
     7
 10
6083.8243080000002
 20
1712.7687960000001
 30
0.0
  0
VERTEX
  5
DC1
  8
LAYER01
  6
CONTINUOUS
 62
     7
 10
6085.8067789999996
 20
1719.7074459999999
 30
0.0
  0
VERTEX
  5
DC2
  8
LAYER01
  6
CONTINUOUS
 62
     7
 10
6088.7804859999997
 20
1725.6548600000001
 30
0.0
  0
VERTEX
  5
DC3
  8
LAYER01
  6
CONTINUOUS
 62
     7
 10
6092.7454289999996
 20
1731.6022740000001
 30
0.0
  0
VERTEX
  5
DC4
  8
LAYER01
  6
CONTINUOUS
 62
     7
 10
6096.7103710000001
 20
1736.5584530000001
 30
0.0
  0
VERTEX
  5
DC5
  8
LAYER01
  6
CONTINUOUS
 62
     7
 10
6101.6665499999999
 20
1741.514631
 30
0.0
  0
VERTEX
  5
DC6
  8
LAYER01
  6
CONTINUOUS
 62
     7
 10
6106.6227280000012
 20
1746.4708089999999
 30
0.0
  0
VERTEX
  5
DC7
  8
LAYER01
  6
CONTINUOUS
 62
     7
 10
6111.578907000001
 20
1750.4357520000001
 30
0.0
  0
VERTEX
  5
DC8
  8
LAYER01
  6
CONTINUOUS
 62
     7
 10
6117.5263210000003
 20
1754.400695
 30
0.0
  0
VERTEX
  5
DC9
  8
LAYER01
  6
CONTINUOUS
 62
     7
 10
6124.4649710000003
 20
1757.3744019999999
 30
0.0
  0
VERTEX
  5
DCA
  8
LAYER01
  6
CONTINUOUS
 62
     7
 10
6130.4123849999996
 20
1759.356873
 30
0.0
  0
VERTEX
  5
DCB
  8
LAYER01
  6
CONTINUOUS
 62
     7
 10
6137.3510349999997
 20
1761.3393450000001
 30
0.0
  0
VERTEX
  5
DCC
  8
LAYER01
  6
CONTINUOUS
 62
     7
 10
6144.2896840000003
 20
1762.3305800000001
 30
0.0
  0
VERTEX
  5
DCD
  8
LAYER01
  6
CONTINUOUS
 62
     7
 10
6152.2195700000002
 20
1762.3305800000001
 30
0.0
  0
VERTEX
  5
DCE
  8
LAYER01
  6
CONTINUOUS
 62
     7
 10
6152.2195700000002
 20
1762.3305800000001
 30
0.0
  0
VERTEX
  5
DCF
  8
LAYER01
  6
CONTINUOUS
 62
     7
 10
6159.1582200000012
 20
1761.3393450000001
 30
0.0
  0
VERTEX
  5
DD0
  8
LAYER01
  6
CONTINUOUS
 62
     7
 10
6166.0968700000003
 20
1760.348109
 30
0.0
  0
VERTEX
  5
DD1
  8
LAYER01
  6
CONTINUOUS
 62
     7
 10
6172.0442839999996
 20
1758.365638
 30
0.0
  0
VERTEX
  5
DD2
  8
LAYER01
  6
CONTINUOUS
 62
     7
 10
6178.9829339999997
 20
1756.3831660000001
 30
0.0
  0
VERTEX
  5
DD3
  8
LAYER01
  6
CONTINUOUS
 62
     7
 10
6183.939112
 20
1753.409459
 30
0.0
  0
VERTEX
  5
DD4
  8
LAYER01
  6
CONTINUOUS
 62
     7
 10
6189.8865260000002
 20
1749.4445169999999
 30
0.0
  0
VERTEX
  5
DD5
  8
LAYER01
  6
CONTINUOUS
 62
     7
 10
6194.842705
 20
1745.479574
 30
0.0
  0
VERTEX
  5
DD6
  8
LAYER01
  6
CONTINUOUS
 62
     7
 10
6199.7988829999986
 20
1741.514631
 30
0.0
  0
VERTEX
  5
DD7
  8
LAYER01
  6
CONTINUOUS
 62
     7
 10
6203.7638259999994
 20
1736.5584530000001
 30
0.0
  0
VERTEX
  5
DD8
  8
LAYER01
  6
CONTINUOUS
 62
     7
 10
6207.728767999999
 20
1730.611038
 30
0.0
  0
VERTEX
  5
DD9
  8
LAYER01
  6
CONTINUOUS
 62
     7
 10
6211.6937109999999
 20
1725.6548600000001
 30
0.0
  0
VERTEX
  5
DDA
  8
LAYER01
  6
CONTINUOUS
 62
     7
 10
6214.667418
 20
1719.7074459999999
 30
0.0
  0
VERTEX
  5
DDB
  8
LAYER01
  6
CONTINUOUS
 62
     7
 10
6216.6498899999997
 20
1712.7687960000001
 30
0.0
  0
VERTEX
  5
DDC
  8
LAYER01
  6
CONTINUOUS
 62
     7
 10
6218.6323609999999
 20
1706.8213820000001
 30
0.0
  0
VERTEX
  5
DDD
  8
LAYER01
  6
CONTINUOUS
 62
     7
 10
6219.6235969999998
 20
1699.882732
 30
0.0
  0
VERTEX
  5
DDE
  8
LAYER01
  6
CONTINUOUS
 62
     7
 10
6219.6235969999998
 20
1692.944082
 30
0.0
  0
VERTEX
  5
DDF
  8
LAYER01
  6
CONTINUOUS
 62
     7
 10
6219.6235969999998
 20
1692.944082
 30
0.0
  0
VERTEX
  5
DE0
  8
LAYER01
  6
CONTINUOUS
 62
     7
 10
6219.6235969999998
 20
1685.014197
 30
0.0
  0
VERTEX
  5
DE1
  8
LAYER01
  6
CONTINUOUS
 62
     7
 10
6218.6323609999999
 20
1678.0755469999999
 30
0.0
  0
VERTEX
  5
DE2
  8
LAYER01
  6
CONTINUOUS
 62
     7
 10
6217.6411250000001
 20
1671.1368970000001
 30
0.0
  0
VERTEX
  5
DE3
  8
LAYER01
  6
CONTINUOUS
 62
     7
 10
6214.667418
 20
1665.1894830000001
 30
0.0
  0
VERTEX
  5
DE4
  8
LAYER01
  6
CONTINUOUS
 62
     7
 10
6212.6849469999988
 20
1658.2508330000001
 30
0.0
  0
VERTEX
  5
DE5
  8
LAYER01
  6
CONTINUOUS
 62
     7
 10
6208.7200039999989
 20
1652.3034190000001
 30
0.0
  0
VERTEX
  5
DE6
  8
LAYER01
  6
CONTINUOUS
 62
     7
 10
6204.7550609999998
 20
1646.3560050000001
 30
0.0
  0
VERTEX
  5
DE7
  8
LAYER01
  6
CONTINUOUS
 62
     7
 10
6199.7988829999986
 20
1641.399827
 30
0.0
  0
VERTEX
  5
DE8
  8
LAYER01
  6
CONTINUOUS
 62
     7
 10
6194.842705
 20
1636.4436479999999
 30
0.0
  0
VERTEX
  5
DE9
  8
LAYER01
  6
CONTINUOUS
 62
     7
 10
6189.8865260000002
 20
1632.478705
 30
0.0
  0
VERTEX
  5
DEA
  8
LAYER01
  6
CONTINUOUS
 62
     7
 10
6183.939112
 20
1628.5137629999999
 30
0.0
  0
VERTEX
  5
DEB
  8
LAYER01
  6
CONTINUOUS
 62
     7
 10
6177.9916979999998
 20
1625.540056
 30
0.0
  0
VERTEX
  5
DEC
  8
LAYER01
  6
CONTINUOUS
 62
     7
 10
6171.0530479999998
 20
1623.5575839999999
 30
0.0
  0
VERTEX
  5
DED
  8
LAYER01
  6
CONTINUOUS
 62
     7
 10
6164.1143979999988
 20
1621.5751130000001
 30
0.0
  0
VERTEX
  5
DEE
  8
LAYER01
  6
CONTINUOUS
 62
     7
 10
6157.1757479999997
 20
1620.583877
 30
0.0
  0
VERTEX
  5
DEF
  8
LAYER01
  6
CONTINUOUS
 62
     7
 10
6150.2370989999999
 20
1619.592641
 30
0.0
  0
VERTEX
  5
DF0
  8
LAYER01
  6
CONTINUOUS
 62
     7
 10
6150.2370989999999
 20
1619.592641
 30
0.0
  0
SEQEND
  5
DF1
  8
LAYER01
  6
CONTINUOUS
 62
     7
  0
POLYLINE
  5
8A5
  8
LAYER01
  6
CONTINUOUS
 62
     7
 66
     1
 10
0.0
 20
0.0
 30
0.0
 70
     1
  0
VERTEX
  5
DF2
  8
LAYER01
  6
CONTINUOUS
 62
     7
 10
6229.5359539999999
 20
1798.015065
 30
0.0
  0
VERTEX
  5
DF3
  8
LAYER01
  6
CONTINUOUS
 62
     7
 10
6334.6069360000001
 20
1798.015065
 30
0.0
  0
VERTEX
  5
DF4
  8
LAYER01
  6
CONTINUOUS
 62
     7
 10
6334.6069360000001
 20
1798.015065
 30
0.0
  0
VERTEX
  5
DF5
  8
LAYER01
  6
CONTINUOUS
 62
     7
 10
6346.501765
 20
1796.032594
 30
0.0
  0
VERTEX
  5
DF6
  8
LAYER01
  6
CONTINUOUS
 62
     7
 10
6357.4053569999996
 20
1791.076415
 30
0.0
  0
VERTEX
  5
DF7
  8
LAYER01
  6
CONTINUOUS
 62
     7
 10
6366.326478
 20
1785.129001
 30
0.0
  0
VERTEX
  5
DF8
  8
LAYER01
  6
CONTINUOUS
 62
     7
 10
6374.2563639999998
 20
1777.199116
 30
0.0
  0
VERTEX
  5
DF9
  8
LAYER01
  6
CONTINUOUS
 62
     7
 10
6381.1950139999999
 20
1769.2692300000001
 30
0.0
  0
VERTEX
  5
DFA
  8
LAYER01
  6
CONTINUOUS
 62
     7
 10
6386.1511920000003
 20
1759.356873
 30
0.0
  0
VERTEX
  5
DFB
  8
LAYER01
  6
CONTINUOUS
 62
     7
 10
6389.1248990000013
 20
1747.462045
 30
0.0
  0
VERTEX
  5
DFC
  8
LAYER01
  6
CONTINUOUS
 62
     7
 10
6390.1161350000002
 20
1736.5584530000001
 30
0.0
  0
VERTEX
  5
DFD
  8
LAYER01
  6
CONTINUOUS
 62
     7
 10
6390.1161350000002
 20
1736.5584530000001
 30
0.0
  0
VERTEX
  5
DFE
  8
LAYER01
  6
CONTINUOUS
 62
     7
 10
6389.1248990000013
 20
1724.6636239999989
 30
0.0
  0
VERTEX
  5
DFF
  8
LAYER01
  6
CONTINUOUS
 62
     7
 10
6387.1424280000001
 20
1714.7512670000001
 30
0.0
  0
VERTEX
  5
E00
  8
LAYER01
  6
CONTINUOUS
 62
     7
 10
6383.1774850000002
 20
1704.8389110000001
 30
0.0
  0
VERTEX
  5
E01
  8
LAYER01
  6
CONTINUOUS
 62
     7
 10
6378.2213069999998
 20
1695.9177890000001
 30
0.0
  0
VERTEX
  5
E02
  8
LAYER01
  6
CONTINUOUS
 62
     7
 10
6371.2826569999997
 20
1687.9879040000001
 30
0.0
  0
VERTEX
  5
E03
  8
LAYER01
  6
CONTINUOUS
 62
     7
 10
6364.3440069999988
 20
1682.0404900000001
 30
0.0
  0
VERTEX
  5
E04
  8
LAYER01
  6
CONTINUOUS
 62
     7
 10
6354.4316500000014
 20
1676.0930760000001
 30
0.0
  0
VERTEX
  5
E05
  8
LAYER01
  6
CONTINUOUS
 62
     7
 10
6344.5192930000012
 20
1672.1281329999999
 30
0.0
  0
VERTEX
  5
E06
  8
LAYER01
  6
CONTINUOUS
 62
     7
 10
6408.9496130000007
 20
1585.8906280000001
 30
0.0
  0
VERTEX
  5
E07
  8
LAYER01
  6
CONTINUOUS
 62
     7
 10
6359.3878290000002
 20
1585.8906280000001
 30
0.0
  0
VERTEX
  5
E08
  8
LAYER01
  6
CONTINUOUS
 62
     7
 10
6273.1503240000002
 20
1695.9177890000001
 30
0.0
  0
VERTEX
  5
E09
  8
LAYER01
  6
CONTINUOUS
 62
     7
 10
6321.7208719999999
 20
1695.9177890000001
 30
0.0
  0
VERTEX
  5
E0A
  8
LAYER01
  6
CONTINUOUS
 62
     7
 10
6321.7208719999999
 20
1695.9177890000001
 30
0.0
  0
VERTEX
  5
E0B
  8
LAYER01
  6
CONTINUOUS
 62
     7
 10
6327.6682869999986
 20
1697.900261
 30
0.0
  0
VERTEX
  5
E0C
  8
LAYER01
  6
CONTINUOUS
 62
     7
 10
6332.6244649999999
 20
1699.882732
 30
0.0
  0
VERTEX
  5
E0D
  8
LAYER01
  6
CONTINUOUS
 62
     7
 10
6336.5894079999998
 20
1703.847675
 30
0.0
  0
VERTEX
  5
E0E
  8
LAYER01
  6
CONTINUOUS
 62
     7
 10
6340.5543509999998
 20
1707.8126179999999
 30
0.0
  0
VERTEX
  5
E0F
  8
LAYER01
  6
CONTINUOUS
 62
     7
 10
6343.5280579999999
 20
1712.7687960000001
 30
0.0
  0
VERTEX
  5
E10
  8
LAYER01
  6
CONTINUOUS
 62
     7
 10
6346.501765
 20
1717.7249750000001
 30
0.0
  0
VERTEX
  5
E11
  8
LAYER01
  6
CONTINUOUS
 62
     7
 10
6347.4930000000004
 20
1723.6723890000001
 30
0.0
  0
VERTEX
  5
E12
  8
LAYER01
  6
CONTINUOUS
 62
     7
 10
6347.4930000000004
 20
1729.619803
 30
0.0
  0
VERTEX
  5
E13
  8
LAYER01
  6
CONTINUOUS
 62
     7
 10
6347.4930000000004
 20
1729.619803
 30
0.0
  0
VERTEX
  5
E14
  8
LAYER01
  6
CONTINUOUS
 62
     7
 10
6347.4930000000004
 20
1735.567217
 30
0.0
  0
VERTEX
  5
E15
  8
LAYER01
  6
CONTINUOUS
 62
     7
 10
6345.510529000001
 20
1740.5233949999999
 30
0.0
  0
VERTEX
  5
E16
  8
LAYER01
  6
CONTINUOUS
 62
     7
 10
6343.5280579999999
 20
1745.479574
 30
0.0
  0
VERTEX
  5
E17
  8
LAYER01
  6
CONTINUOUS
 62
     7
 10
6340.5543509999998
 20
1750.4357520000001
 30
0.0
  0
VERTEX
  5
E18
  8
LAYER01
  6
CONTINUOUS
 62
     7
 10
6336.5894079999998
 20
1754.400695
 30
0.0
  0
VERTEX
  5
E19
  8
LAYER01
  6
CONTINUOUS
 62
     7
 10
6332.6244649999999
 20
1757.3744019999999
 30
0.0
  0
VERTEX
  5
E1A
  8
LAYER01
  6
CONTINUOUS
 62
     7
 10
6326.6770509999997
 20
1760.348109
 30
0.0
  0
VERTEX
  5
E1B
  8
LAYER01
  6
CONTINUOUS
 62
     7
 10
6321.7208719999999
 20
1762.3305800000001
 30
0.0
  0
VERTEX
  5
E1C
  8
LAYER01
  6
CONTINUOUS
 62
     7
 10
6265.2204380000003
 20
1762.3305800000001
 30
0.0
  0
VERTEX
  5
E1D
  8
LAYER01
  6
CONTINUOUS
 62
     7
 10
6229.5359539999999
 20
1798.015065
 30
0.0
  0
VERTEX
  5
E1E
  8
LAYER01
  6
CONTINUOUS
 62
     7
 10
6229.5359539999999
 20
1798.015065
 30
0.0
  0
SEQEND
  5
E1F
  8
LAYER01
  6
CONTINUOUS
 62
     7
  0
POLYLINE
  5
8A6
  8
LAYER01
  6
CONTINUOUS
 62
     7
 66
     1
 10
0.0
 20
0.0
 30
0.0
 70
     1
  0
VERTEX
  5
E20
  8
LAYER01
  6
CONTINUOUS
 62
     7
 10
6435.7129770000001
 20
1745.479574
 30
0.0
  0
VERTEX
  5
E21
  8
LAYER01
  6
CONTINUOUS
 62
     7
 10
6435.7129770000001
 20
1745.479574
 30
0.0
  0
VERTEX
  5
E22
  8
LAYER01
  6
CONTINUOUS
 62
     7
 10
6440.6691549999987
 20
1746.4708089999999
 30
0.0
  0
VERTEX
  5
E23
  8
LAYER01
  6
CONTINUOUS
 62
     7
 10
6445.625332999999
 20
1747.462045
 30
0.0
  0
VERTEX
  5
E24
  8
LAYER01
  6
CONTINUOUS
 62
     7
 10
6450.5815119999988
 20
1750.4357520000001
 30
0.0
  0
VERTEX
  5
E25
  8
LAYER01
  6
CONTINUOUS
 62
     7
 10
6454.5464549999988
 20
1753.409459
 30
0.0
  0
VERTEX
  5
E26
  8
LAYER01
  6
CONTINUOUS
 62
     7
 10
6457.5201619999998
 20
1757.3744019999999
 30
0.0
  0
VERTEX
  5
E27
  8
LAYER01
  6
CONTINUOUS
 62
     7
 10
6459.5026329999992
 20
1761.3393450000001
 30
0.0
  0
VERTEX
  5
E28
  8
LAYER01
  6
CONTINUOUS
 62
     7
 10
6461.4851040000012
 20
1766.295523
 30
0.0
  0
VERTEX
  5
E29
  8
LAYER01
  6
CONTINUOUS
 62
     7
 10
6461.4851040000012
 20
1772.242937
 30
0.0
  0
VERTEX
  5
E2A
  8
LAYER01
  6
CONTINUOUS
 62
     7
 10
6461.4851040000012
 20
1772.242937
 30
0.0
  0
VERTEX
  5
E2B
  8
LAYER01
  6
CONTINUOUS
 62
     7
 10
6461.4851040000012
 20
1777.199116
 30
0.0
  0
VERTEX
  5
E2C
  8
LAYER01
  6
CONTINUOUS
 62
     7
 10
6459.5026329999992
 20
1782.1552939999999
 30
0.0
  0
VERTEX
  5
E2D
  8
LAYER01
  6
CONTINUOUS
 62
     7
 10
6457.5201619999998
 20
1786.1202370000001
 30
0.0
  0
VERTEX
  5
E2E
  8
LAYER01
  6
CONTINUOUS
 62
     7
 10
6454.5464549999988
 20
1790.08518
 30
0.0
  0
VERTEX
  5
E2F
  8
LAYER01
  6
CONTINUOUS
 62
     7
 10
6450.5815119999988
 20
1793.0588869999999
 30
0.0
  0
VERTEX
  5
E30
  8
LAYER01
  6
CONTINUOUS
 62
     7
 10
6445.625332999999
 20
1796.032594
 30
0.0
  0
VERTEX
  5
E31
  8
LAYER01
  6
CONTINUOUS
 62
     7
 10
6440.6691549999987
 20
1797.0238300000001
 30
0.0
  0
VERTEX
  5
E32
  8
LAYER01
  6
CONTINUOUS
 62
     7
 10
6435.7129770000001
 20
1798.015065
 30
0.0
  0
VERTEX
  5
E33
  8
LAYER01
  6
CONTINUOUS
 62
     7
 10
6435.7129770000001
 20
1798.015065
 30
0.0
  0
VERTEX
  5
E34
  8
LAYER01
  6
CONTINUOUS
 62
     7
 10
6430.7567980000003
 20
1797.0238300000001
 30
0.0
  0
VERTEX
  5
E35
  8
LAYER01
  6
CONTINUOUS
 62
     7
 10
6425.80062
 20
1796.032594
 30
0.0
  0
VERTEX
  5
E36
  8
LAYER01
  6
CONTINUOUS
 62
     7
 10
6420.8444409999993
 20
1793.0588869999999
 30
0.0
  0
VERTEX
  5
E37
  8
LAYER01
  6
CONTINUOUS
 62
     7
 10
6416.8794980000002
 20
1790.08518
 30
0.0
  0
VERTEX
  5
E38
  8
LAYER01
  6
CONTINUOUS
 62
     7
 10
6413.9057909999992
 20
1786.1202370000001
 30
0.0
  0
VERTEX
  5
E39
  8
LAYER01
  6
CONTINUOUS
 62
     7
 10
6411.923319999999
 20
1782.1552939999999
 30
0.0
  0
VERTEX
  5
E3A
  8
LAYER01
  6
CONTINUOUS
 62
     7
 10
6409.9408489999996
 20
1777.199116
 30
0.0
  0
VERTEX
  5
E3B
  8
LAYER01
  6
CONTINUOUS
 62
     7
 10
6409.9408489999996
 20
1772.242937
 30
0.0
  0
VERTEX
  5
E3C
  8
LAYER01
  6
CONTINUOUS
 62
     7
 10
6409.9408489999996
 20
1772.242937
 30
0.0
  0
VERTEX
  5
E3D
  8
LAYER01
  6
CONTINUOUS
 62
     7
 10
6409.9408489999996
 20
1766.295523
 30
0.0
  0
VERTEX
  5
E3E
  8
LAYER01
  6
CONTINUOUS
 62
     7
 10
6411.923319999999
 20
1761.3393450000001
 30
0.0
  0
VERTEX
  5
E3F
  8
LAYER01
  6
CONTINUOUS
 62
     7
 10
6413.9057909999992
 20
1757.3744019999999
 30
0.0
  0
VERTEX
  5
E40
  8
LAYER01
  6
CONTINUOUS
 62
     7
 10
6416.8794980000002
 20
1753.409459
 30
0.0
  0
VERTEX
  5
E41
  8
LAYER01
  6
CONTINUOUS
 62
     7
 10
6420.8444409999993
 20
1750.4357520000001
 30
0.0
  0
VERTEX
  5
E42
  8
LAYER01
  6
CONTINUOUS
 62
     7
 10
6425.80062
 20
1747.462045
 30
0.0
  0
VERTEX
  5
E43
  8
LAYER01
  6
CONTINUOUS
 62
     7
 10
6430.7567980000003
 20
1746.4708089999999
 30
0.0
  0
VERTEX
  5
E44
  8
LAYER01
  6
CONTINUOUS
 62
     7
 10
6435.7129770000001
 20
1745.479574
 30
0.0
  0
VERTEX
  5
E45
  8
LAYER01
  6
CONTINUOUS
 62
     7
 10
6435.7129770000001
 20
1745.479574
 30
0.0
  0
SEQEND
  5
E46
  8
LAYER01
  6
CONTINUOUS
 62
     7
  0
POLYLINE
  5
8A7
  8
LAYER01
  6
CONTINUOUS
 62
     7
 66
     1
 10
0.0
 20
0.0
 30
0.0
 70
     1
  0
VERTEX
  5
E47
  8
LAYER01
  6
CONTINUOUS
 62
     7
 10
6435.7129770000001
 20
1794.050121999999
 30
0.0
  0
VERTEX
  5
E48
  8
LAYER01
  6
CONTINUOUS
 62
     7
 10
6435.7129770000001
 20
1794.050121999999
 30
0.0
  0
VERTEX
  5
E49
  8
LAYER01
  6
CONTINUOUS
 62
     7
 10
6439.6779190000007
 20
1793.0588869999999
 30
0.0
  0
VERTEX
  5
E4A
  8
LAYER01
  6
CONTINUOUS
 62
     7
 10
6443.6428619999997
 20
1792.0676510000001
 30
0.0
  0
VERTEX
  5
E4B
  8
LAYER01
  6
CONTINUOUS
 62
     7
 10
6447.6078049999996
 20
1790.08518
 30
0.0
  0
VERTEX
  5
E4C
  8
LAYER01
  6
CONTINUOUS
 62
     7
 10
6450.5815119999988
 20
1787.1114729999999
 30
0.0
  0
VERTEX
  5
E4D
  8
LAYER01
  6
CONTINUOUS
 62
     7
 10
6453.5552189999999
 20
1784.1377660000001
 30
0.0
  0
VERTEX
  5
E4E
  8
LAYER01
  6
CONTINUOUS
 62
     7
 10
6455.5376899999992
 20
1780.1728230000001
 30
0.0
  0
VERTEX
  5
E4F
  8
LAYER01
  6
CONTINUOUS
 62
     7
 10
6457.5201619999998
 20
1776.2078799999999
 30
0.0
  0
VERTEX
  5
E50
  8
LAYER01
  6
CONTINUOUS
 62
     7
 10
6457.5201619999998
 20
1772.242937
 30
0.0
  0
VERTEX
  5
E51
  8
LAYER01
  6
CONTINUOUS
 62
     7
 10
6457.5201619999998
 20
1772.242937
 30
0.0
  0
VERTEX
  5
E52
  8
LAYER01
  6
CONTINUOUS
 62
     7
 10
6457.5201619999998
 20
1767.2867590000001
 30
0.0
  0
VERTEX
  5
E53
  8
LAYER01
  6
CONTINUOUS
 62
     7
 10
6455.5376899999992
 20
1763.3218159999999
 30
0.0
  0
VERTEX
  5
E54
  8
LAYER01
  6
CONTINUOUS
 62
     7
 10
6453.5552189999999
 20
1759.356873
 30
0.0
  0
VERTEX
  5
E55
  8
LAYER01
  6
CONTINUOUS
 62
     7
 10
6450.5815119999988
 20
1756.3831660000001
 30
0.0
  0
VERTEX
  5
E56
  8
LAYER01
  6
CONTINUOUS
 62
     7
 10
6447.6078049999996
 20
1753.409459
 30
0.0
  0
VERTEX
  5
E57
  8
LAYER01
  6
CONTINUOUS
 62
     7
 10
6443.6428619999997
 20
1751.4269879999999
 30
0.0
  0
VERTEX
  5
E58
  8
LAYER01
  6
CONTINUOUS
 62
     7
 10
6439.6779190000007
 20
1750.4357520000001
 30
0.0
  0
VERTEX
  5
E59
  8
LAYER01
  6
CONTINUOUS
 62
     7
 10
6435.7129770000001
 20
1750.4357520000001
 30
0.0
  0
VERTEX
  5
E5A
  8
LAYER01
  6
CONTINUOUS
 62
     7
 10
6435.7129770000001
 20
1750.4357520000001
 30
0.0
  0
VERTEX
  5
E5B
  8
LAYER01
  6
CONTINUOUS
 62
     7
 10
6431.7480340000002
 20
1750.4357520000001
 30
0.0
  0
VERTEX
  5
E5C
  8
LAYER01
  6
CONTINUOUS
 62
     7
 10
6426.7918549999986
 20
1751.4269879999999
 30
0.0
  0
VERTEX
  5
E5D
  8
LAYER01
  6
CONTINUOUS
 62
     7
 10
6423.8181479999994
 20
1753.409459
 30
0.0
  0
VERTEX
  5
E5E
  8
LAYER01
  6
CONTINUOUS
 62
     7
 10
6419.8532059999998
 20
1756.3831660000001
 30
0.0
  0
VERTEX
  5
E5F
  8
LAYER01
  6
CONTINUOUS
 62
     7
 10
6417.8707340000001
 20
1759.356873
 30
0.0
  0
VERTEX
  5
E60
  8
LAYER01
  6
CONTINUOUS
 62
     7
 10
6415.8882629999989
 20
1763.3218159999999
 30
0.0
  0
VERTEX
  5
E61
  8
LAYER01
  6
CONTINUOUS
 62
     7
 10
6413.9057909999992
 20
1767.2867590000001
 30
0.0
  0
VERTEX
  5
E62
  8
LAYER01
  6
CONTINUOUS
 62
     7
 10
6413.9057909999992
 20
1772.242937
 30
0.0
  0
VERTEX
  5
E63
  8
LAYER01
  6
CONTINUOUS
 62
     7
 10
6413.9057909999992
 20
1772.242937
 30
0.0
  0
VERTEX
  5
E64
  8
LAYER01
  6
CONTINUOUS
 62
     7
 10
6413.9057909999992
 20
1776.2078799999999
 30
0.0
  0
VERTEX
  5
E65
  8
LAYER01
  6
CONTINUOUS
 62
     7
 10
6415.8882629999989
 20
1780.1728230000001
 30
0.0
  0
VERTEX
  5
E66
  8
LAYER01
  6
CONTINUOUS
 62
     7
 10
6417.8707340000001
 20
1784.1377660000001
 30
0.0
  0
VERTEX
  5
E67
  8
LAYER01
  6
CONTINUOUS
 62
     7
 10
6419.8532059999998
 20
1787.1114729999999
 30
0.0
  0
VERTEX
  5
E68
  8
LAYER01
  6
CONTINUOUS
 62
     7
 10
6423.8181479999994
 20
1790.08518
 30
0.0
  0
VERTEX
  5
E69
  8
LAYER01
  6
CONTINUOUS
 62
     7
 10
6426.7918549999986
 20
1792.0676510000001
 30
0.0
  0
VERTEX
  5
E6A
  8
LAYER01
  6
CONTINUOUS
 62
     7
 10
6431.7480340000002
 20
1793.0588869999999
 30
0.0
  0
VERTEX
  5
E6B
  8
LAYER01
  6
CONTINUOUS
 62
     7
 10
6435.7129770000001
 20
1794.050121999999
 30
0.0
  0
VERTEX
  5
E6C
  8
LAYER01
  6
CONTINUOUS
 62
     7
 10
6435.7129770000001
 20
1794.050121999999
 30
0.0
  0
SEQEND
  5
E6D
  8
LAYER01
  6
CONTINUOUS
 62
     7
  0
POLYLINE
  5
8A8
  8
LAYER01
  6
CONTINUOUS
 62
     7
 66
     1
 10
0.0
 20
0.0
 30
0.0
 70
     1
  0
VERTEX
  5
E6E
  8
LAYER01
  6
CONTINUOUS
 62
     7
 10
6439.6779190000007
 20
1770.260466
 30
0.0
  0
VERTEX
  5
E6F
  8
LAYER01
  6
CONTINUOUS
 62
     7
 10
6439.6779190000007
 20
1770.260466
 30
0.0
  0
VERTEX
  5
E70
  8
LAYER01
  6
CONTINUOUS
 62
     7
 10
6442.6516259999989
 20
1771.251702
 30
0.0
  0
VERTEX
  5
E71
  8
LAYER01
  6
CONTINUOUS
 62
     7
 10
6445.625332999999
 20
1772.242937
 30
0.0
  0
VERTEX
  5
E72
  8
LAYER01
  6
CONTINUOUS
 62
     7
 10
6447.6078049999996
 20
1775.2166440000001
 30
0.0
  0
VERTEX
  5
E73
  8
LAYER01
  6
CONTINUOUS
 62
     7
 10
6447.6078049999996
 20
1778.190351
 30
0.0
  0
VERTEX
  5
E74
  8
LAYER01
  6
CONTINUOUS
 62
     7
 10
6447.6078049999996
 20
1778.190351
 30
0.0
  0
VERTEX
  5
E75
  8
LAYER01
  6
CONTINUOUS
 62
     7
 10
6447.6078049999996
 20
1782.1552939999999
 30
0.0
  0
VERTEX
  5
E76
  8
LAYER01
  6
CONTINUOUS
 62
     7
 10
6444.6340980000004
 20
1785.129001
 30
0.0
  0
VERTEX
  5
E77
  8
LAYER01
  6
CONTINUOUS
 62
     7
 10
6441.6603909999994
 20
1786.1202370000001
 30
0.0
  0
VERTEX
  5
E78
  8
LAYER01
  6
CONTINUOUS
 62
     7
 10
6437.6954479999986
 20
1786.1202370000001
 30
0.0
  0
VERTEX
  5
E79
  8
LAYER01
  6
CONTINUOUS
 62
     7
 10
6425.80062
 20
1786.1202370000001
 30
0.0
  0
VERTEX
  5
E7A
  8
LAYER01
  6
CONTINUOUS
 62
     7
 10
6425.80062
 20
1757.3744019999999
 30
0.0
  0
VERTEX
  5
E7B
  8
LAYER01
  6
CONTINUOUS
 62
     7
 10
6429.7655619999996
 20
1757.3744019999999
 30
0.0
  0
VERTEX
  5
E7C
  8
LAYER01
  6
CONTINUOUS
 62
     7
 10
6429.7655619999996
 20
1770.260466
 30
0.0
  0
VERTEX
  5
E7D
  8
LAYER01
  6
CONTINUOUS
 62
     7
 10
6435.7129770000001
 20
1770.260466
 30
0.0
  0
VERTEX
  5
E7E
  8
LAYER01
  6
CONTINUOUS
 62
     7
 10
6442.6516259999989
 20
1757.3744019999999
 30
0.0
  0
VERTEX
  5
E7F
  8
LAYER01
  6
CONTINUOUS
 62
     7
 10
6447.6078049999996
 20
1757.3744019999999
 30
0.0
  0
VERTEX
  5
E80
  8
LAYER01
  6
CONTINUOUS
 62
     7
 10
6439.6779190000007
 20
1770.260466
 30
0.0
  0
VERTEX
  5
E81
  8
LAYER01
  6
CONTINUOUS
 62
     7
 10
6439.6779190000007
 20
1770.260466
 30
0.0
  0
SEQEND
  5
E82
  8
LAYER01
  6
CONTINUOUS
 62
     7
  0
POLYLINE
  5
8A9
  8
LAYER01
  6
CONTINUOUS
 62
     7
 66
     1
 10
0.0
 20
0.0
 30
0.0
 70
     1
  0
VERTEX
  5
E83
  8
LAYER01
  6
CONTINUOUS
 62
     7
 10
6436.7042119999987
 20
1782.1552939999999
 30
0.0
  0
VERTEX
  5
E84
  8
LAYER01
  6
CONTINUOUS
 62
     7
 10
6436.7042119999987
 20
1782.1552939999999
 30
0.0
  0
VERTEX
  5
E85
  8
LAYER01
  6
CONTINUOUS
 62
     7
 10
6441.6603909999994
 20
1781.164059
 30
0.0
  0
VERTEX
  5
E86
  8
LAYER01
  6
CONTINUOUS
 62
     7
 10
6443.6428619999997
 20
1780.1728230000001
 30
0.0
  0
VERTEX
  5
E87
  8
LAYER01
  6
CONTINUOUS
 62
     7
 10
6443.6428619999997
 20
1778.190351
 30
0.0
  0
VERTEX
  5
E88
  8
LAYER01
  6
CONTINUOUS
 62
     7
 10
6443.6428619999997
 20
1778.190351
 30
0.0
  0
VERTEX
  5
E89
  8
LAYER01
  6
CONTINUOUS
 62
     7
 10
6442.6516259999989
 20
1776.2078799999999
 30
0.0
  0
VERTEX
  5
E8A
  8
LAYER01
  6
CONTINUOUS
 62
     7
 10
6440.6691549999987
 20
1775.2166440000001
 30
0.0
  0
VERTEX
  5
E8B
  8
LAYER01
  6
CONTINUOUS
 62
     7
 10
6434.7217410000003
 20
1774.2254089999999
 30
0.0
  0
VERTEX
  5
E8C
  8
LAYER01
  6
CONTINUOUS
 62
     7
 10
6429.7655619999996
 20
1774.2254089999999
 30
0.0
  0
VERTEX
  5
E8D
  8
LAYER01
  6
CONTINUOUS
 62
     7
 10
6429.7655619999996
 20
1782.1552939999999
 30
0.0
  0
VERTEX
  5
E8E
  8
LAYER01
  6
CONTINUOUS
 62
     7
 10
6436.7042119999987
 20
1782.1552939999999
 30
0.0
  0
VERTEX
  5
E8F
  8
LAYER01
  6
CONTINUOUS
 62
     7
 10
6436.7042119999987
 20
1782.1552939999999
 30
0.0
  0
SEQEND
  5
E90
  8
LAYER01
  6
CONTINUOUS
 62
     7
  0
ENDBLK
  5
8AA
  8
0
  0
BLOCK
  8
0
  2
TRIGO-G11
 70
     0
 10
0.0
 20
0.0
 30
0.0
  3
TRIGO-G11
  1

  0
TEXT
  5
8AD
  8
LAYER01
  6
VERDECKT
 62
     1
 10
2133.219951
 20
-311.285303
 30
0.0
 40
13.0
  1
A. Sprenger GmbH
  7
SIMPLEX
  0
TEXT
  5
8AE
  8
LAYER01
  6
VERDECKT
 62
     1
 10
2133.219951
 20
-333.57101699999998
 30
0.0
 40
13.0
  1
Berner Str. 10
  7
SIMPLEX
  0
TEXT
  5
8AF
  8
LAYER01
  6
VERDECKT
 62
     1
 10
2133.219951
 20
-355.85673100000002
 30
0.0
 40
13.0
  1
60437 Frankfurt
  7
SIMPLEX
  0
TEXT
  5
8B0
  8
LAYER01
  6
VERDECKT
 62
     1
 10
2133.219951
 20
-378.14244500000001
 30
0.0
 40
13.0
  1
Tel.: 069 - 507 27 41
  7
SIMPLEX
  0
TEXT
  5
8B1
  8
LAYER01
  6
VERDECKT
 62
     1
 10
2133.219951
 20
-400.42815999999988
 30
0.0
 40
13.0
  1
Fax: 069 - 507 72 91
  7
SIMPLEX
  0
TEXT
  5
8B2
  8
LAYER01
  6
VERDECKT
 62
     1
 10
2133.219951
 20
-422.71387399999998
 30
0.0
 40
13.0
  1
info@varicor.org
  7
SIMPLEX
  0
ENDBLK
  5
8B3
  8
0
  0
BLOCK
  8
0
  2
TRIGO-G10
 70
     0
 10
0.0
 20
0.0
 30
0.0
  3
TRIGO-G10
  1

  0
TEXT
  5
8B6
  8
LAYER01
  6
CONTINUOUS
 62
     1
 10
3499.283942
 20
-616.88954599999988
 30
0.0
 40
13.0
  1
Blatt
  7
SIMPLEX
  0
LINE
  5
8B7
  8
LAYER01
  6
CONTINUOUS
 62
     1
 10
2114.783942
 20
-525.88954599999988
 30
0.0
 11
2894.783942
 21
-525.88954599999988
 31
0.0
  0
LINE
  5
8B8
  8
LAYER01
  6
CONTINUOUS
 62
     1
 10
2114.783942
 20
-558.38954599999988
 30
0.0
 11
2894.783942
 21
-558.38954599999988
 31
0.0
  0
LINE
  5
8B9
  8
LAYER01
  6
CONTINUOUS
 62
     1
 10
2114.783942
 20
-590.889546
 30
0.0
 11
3583.783942
 21
-590.889546
 31
0.0
  0
LINE
  5
8BA
  8
LAYER01
  6
CONTINUOUS
 62
     1
 10
2114.783942
 20
-688.38954599999988
 30
0.0
 11
3583.783942
 21
-688.38954599999988
 31
0.0
  0
LINE
  5
8BB
  8
LAYER01
  6
CONTINUOUS
 62
     1
 10
2114.783942
 20
-428.389546
 30
0.0
 11
3583.783942
 21
-428.389546
 31
0.0
  0
POLYLINE
  5
8BC
  8
LAYER01
  6
CONTINUOUS
 62
     1
 66
     1
 10
0.0
 20
0.0
 30
0.0
 70
     1
  0
VERTEX
  5
E91
  8
LAYER01
  6
CONTINUOUS
 62
     1
 10
2114.783942
 20
-727.389546
 30
0.0
  0
VERTEX
  5
E92
  8
LAYER01
  6
CONTINUOUS
 62
     1
 10
2114.783942
 20
-291.889546
 30
0.0
  0
VERTEX
  5
E93
  8
LAYER01
  6
CONTINUOUS
 62
     1
 10
3583.783942
 20
-291.889546
 30
0.0
  0
VERTEX
  5
E94
  8
LAYER01
  6
CONTINUOUS
 62
     1
 10
3583.783942
 20
-727.389546
 30
0.0
  0
SEQEND
  5
E95
  8
LAYER01
  6
CONTINUOUS
 62
     1
  0
LINE
  5
8BD
  8
LAYER01
  6
CONTINUOUS
 62
     1
 10
2114.783942
 20
-460.889546
 30
0.0
 11
2894.783942
 21
-460.889546
 31
0.0
  0
LINE
  5
8BE
  8
LAYER01
  6
CONTINUOUS
 62
     1
 10
2114.783942
 20
-493.389546
 30
0.0
 11
2894.783942
 21
-493.389546
 31
0.0
  0
LINE
  5
8BF
  8
LAYER01
  6
CONTINUOUS
 62
     1
 10
2537.283942
 20
-291.889546
 30
0.0
 11
2537.283942
 21
-727.389546
 31
0.0
  0
INSERT
  5
8C0
  8
LAYER01
  2
TRIGO-G11
 10
0.0
 20
0.0
 30
0.0
  0
LINE
  5
8C1
  8
LAYER01
  6
CONTINUOUS
 62
     1
 10
2114.783942
 20
-655.889546
 30
0.0
 11
2537.283942
 21
-655.889546
 31
0.0
  0
LINE
  5
8C2
  8
LAYER01
  6
CONTINUOUS
 62
     1
 10
2114.783942
 20
-623.389546
 30
0.0
 11
2537.283942
 21
-623.389546
 31
0.0
  0
LINE
  5
8C3
  8
LAYER01
  6
CONTINUOUS
 62
     1
 10
2173.283942
 20
-428.389546
 30
0.0
 11
2173.283942
 21
-727.389546
 31
0.0
  0
TEXT
  5
8C4
  8
LAYER01
  6
CONTINUOUS
 62
     1
 10
2125.7029859999998
 20
-714.389546
 30
0.0
 40
12.35
  1
Zust
  7
SIMPLEX
  0
LINE
  5
8C5
  8
LAYER01
  6
CONTINUOUS
 62
     1
 10
2378.4039419999999
 20
-727.389546
 30
0.0
 11
2378.4039419999999
 21
-428.389546
 31
0.0
  0
LINE
  5
8C6
  8
LAYER01
  6
CONTINUOUS
 62
     1
 10
2478.783942
 20
-428.389546
 30
0.0
 11
2478.783942
 21
-727.389546
 31
0.0
  0
TEXT
  5
8C7
  8
LAYER01
  6
CONTINUOUS
 62
     1
 10
2230.6510469999998
 20
-714.389546
 30
0.0
 40
12.35
  1
Änderung
  7
SIMPLEX
  0
TEXT
  5
8C8
  8
LAYER01
  6
CONTINUOUS
 62
     1
 10
2396.6943299999998
 20
-714.389546
 30
0.0
 40
12.35
  1
Datum
  7
SIMPLEX
  0
TEXT
  5
8C9
  8
LAYER01
  6
CONTINUOUS
 62
     1
 10
2483.677017
 20
-714.389546
 30
0.0
 40
12.35
  1
Name
  7
SIMPLEX
  0
LINE
  5
8CA
  8
LAYER01
  6
CONTINUOUS
 62
     1
 10
3583.783942
 20
-343.889546
 30
0.0
 11
2894.783942
 21
-343.889546
 31
0.0
  0
LINE
  5
8CB
  8
LAYER01
  6
CONTINUOUS
 62
     1
 10
2621.783942
 20
-558.38954599999988
 30
0.0
 11
2621.783942
 21
-428.389546
 31
0.0
  0
TEXT
  5
8CC
  8
LAYER01
  6
CONTINUOUS
 62
     1
 10
2550.283942
 20
-486.889546
 30
0.0
 40
13.0
  1
Bearb.
  7
SIMPLEX
  0
TEXT
  5
8CD
  8
LAYER01
  6
CONTINUOUS
 62
     1
 10
2550.283942
 20
-551.889546
 30
0.0
 40
13.0
  1
Norm
  7
SIMPLEX
  0
TEXT
  5
8CE
  8
LAYER01
  6
CONTINUOUS
 62
     1
 10
2550.283942
 20
-519.389546
 30
0.0
 40
13.0
  1
Gepr.
  7
SIMPLEX
  0
TEXT
  5
8CF
  8
LAYER01
  6
CONTINUOUS
 62
     1
 10
2654.283942
 20
-454.38954599999988
 30
0.0
 40
13.0
  1
Datum
  7
SIMPLEX
  0
TEXT
  5
8D0
  8
LAYER01
  6
CONTINUOUS
 62
     1
 10
2784.283942
 20
-454.38954599999988
 30
0.0
 40
13.0
  1
Name
  7
SIMPLEX
  0
TEXT
  5
8D1
  8
LAYER01
  6
CONTINUOUS
 62
     1
 10
3551.283942
 20
-681.889546
 30
0.0
 40
13.0
  1
Bl.
  7
SIMPLEX
  0
LINE
  5
8D2
  8
LAYER01
  6
CONTINUOUS
 62
     1
 10
2894.783942
 20
-727.389546
 30
0.0
 11
2894.783942
 21
-291.889546
 31
0.0
  0
LINE
  5
8D3
  8
LAYER01
  6
CONTINUOUS
 62
     1
 10
2745.283942
 20
-590.889546
 30
0.0
 11
2745.283942
 21
-291.889546
 31
0.0
  0
LINE
  5
8D4
  8
LAYER01
  6
CONTINUOUS
 62
     1
 10
3304.283942
 20
-291.889546
 30
0.0
 11
3304.283942
 21
-343.889546
 31
0.0
  0
TEXT
  5
8D5
  8
LAYER01
  6
CONTINUOUS
 62
     1
 10
2908.9461409999999
 20
-325.07854900000001
 30
0.0
 40
13.0
  1
Maßstab
  7
SIMPLEX
  0
LINE
  5
8D6
  8
LAYER01
  6
CONTINUOUS
 62
     1
 10
3486.283942
 20
-590.889546
 30
0.0
 11
3486.283942
 21
-688.38954599999988
 31
0.0
  0
LINE
  5
8D7
  8
LAYER01
  6
CONTINUOUS
 62
     1
 10
3486.283942
 20
-655.889546
 30
0.0
 11
3583.783942
 21
-655.889546
 31
0.0
  0
ENDBLK
  5
8D8
  8
0
  0
ENDSEC
  0
SECTION
  2
ENTITIES
  0
LINE
  5
39C
  8
LAYER01
  6
CONTINUOUS
 62
     7
 10
-888.23809699999993
 20
-4897.3737849999998
 30
0.0
 11
2294.6561080000001
 21
-4897.3737849999998
 31
0.0
  0
LINE
  5
39D
  8
LAYER01
  6
CONTINUOUS
 62
     7
 10
-888.23809699999993
 20
-4900.3737849999998
 30
0.0
 11
2294.6561080000001
 21
-4900.3737849999998
 31
0.0
  0
LINE
  5
39E
  8
LAYER01
  6
CONTINUOUS
 62
     7
 10
-888.23809699999993
 20
-4897.3737849999998
 30
0.0
 11
-888.23809699999993
 21
-4900.3737849999998
 31
0.0
  0
LINE
  5
39F
  8
LAYER01
  6
CONTINUOUS
 62
     7
 10
2294.6561080000001
 20
-4897.3737849999998
 30
0.0
 11
2294.6561080000001
 21
-4900.3737849999998
 31
0.0
  0
SOLID
  5
3A0
  8
LAYER01
  6
CONTINUOUS
 62
     7
 10
-888.23809699999993
 20
-4897.3737849999998
 30
0.0
 11
2294.6561080000001
 21
-4897.3737849999998
 31
0.0
 12
-888.23809699999993
 22
-4900.3737849999998
 32
0.0
 13
2294.6561080000001
 23
-4900.3737849999998
 33
0.0
  0
LINE
  5
3A1
  8
KERA4
  6
CONTINUOUS
 62
     1
 10
341.00423799999999
 20
-4898.8737849999998
 30
0.0
 11
614.58029799999997
 21
-4898.8737849999998
 31
0.0
  0
DIMENSION
  5
3A2
  8
LAYER01
 62
     7
  2
*D0
 10
412.25998499999997
 20
-4898.8737849999998
 30
0.0
 11
412.25998499999997
 21
-4523.9587430000001
 31
0.0
 53
90.0
 13
321.00423799999999
 23
-4148.8737849999998
 33
0.0
 14
321.00423799999999
 24
-4898.8737849999998
 34
0.0
 50
90.0
  0
DIMENSION
  5
3A3
  8
LAYER01
 62
     7
  2
*D1
 10
524.75086699999997
 20
-4898.8737849999998
 30
0.0
 11
524.75086699999997
 21
-4498.9587430000001
 31
0.0
 53
90.0
 13
321.00423799999999
 23
-4098.8737849999998
 33
0.0
 14
321.00423799999999
 24
-4898.8737849999998
 34
0.0
 50
90.0
  0
DIMENSION
  5
3A4
  8
LAYER01
 62
     7
  2
*D2
 10
269.653434
 20
-4898.8737849999998
 30
0.0
 11
269.653434
 21
-4557.6048460000002
 31
0.0
 53
90.0
 13
-20.874199000000001
 23
-4213.8737849999989
 33
0.0
 14
-20.874199000000001
 24
-4898.8737849999998
 34
0.0
 50
90.0
  0
LINE
  5
3A5
  8
KERA2
  6
CONTINUOUS
 62
    18
 10
-410.803991
 20
-4288.8737849999989
 30
0.0
 11
-410.803991
 21
-4248.8737849999989
 31
0.0
  0
LINE
  5
3A6
  8
KERA2
  6
CONTINUOUS
 62
    18
 10
-110.803991
 20
-4288.8737849999989
 30
0.0
 11
-110.803991
 21
-4248.8737849999989
 31
0.0
  0
DIMENSION
  5
3A7
  8
LAYER01
 62
     7
  2
*D3
 10
26.070815
 20
-4318.8737849999998
 30
0.0
 11
21.757708999999998
 21
-4298.0850310000014
 31
0.0
 53
90.0
 13
-61.618926999999999
 23
-4268.8737849999989
 33
0.0
 14
-61.618926999999999
 24
-4318.8737849999998
 34
0.0
 50
90.0
  0
POLYLINE
  5
3A8
  8
LAYER01
  6
CONTINUOUS
 62
     7
 66
     1
 10
0.0
 20
0.0
 30
0.0
 70
     1
  0
VERTEX
  5
C85
  8
LAYER01
  6
CONTINUOUS
 62
     7
 10
-398.303991
 20
-4268.8737849999989
 30
0.0
 42
0.4142140000000001
  0
VERTEX
  5
C86
  8
LAYER01
  6
CONTINUOUS
 62
     7
 10
-410.803991
 20
-4256.3737849999998
 30
0.0
 42
2.414213999999999
  0
VERTEX
  5
C87
  8
LAYER01
  6
CONTINUOUS
 62
     7
 10
-398.303991
 20
-4268.8737849999989
 30
0.0
  0
SEQEND
  5
C88
  8
LAYER01
  6
CONTINUOUS
 62
     7
  0
POLYLINE
  5
3AD
  8
LAYER01
  6
CONTINUOUS
 62
     7
 66
     1
 10
0.0
 20
0.0
 30
0.0
 70
     1
  0
VERTEX
  5
C89
  8
LAYER01
  6
CONTINUOUS
 62
     7
 10
-98.303991000000011
 20
-4268.8737849999989
 30
0.0
 42
0.4142140000000001
  0
VERTEX
  5
C8A
  8
LAYER01
  6
CONTINUOUS
 62
     7
 10
-110.803991
 20
-4256.3737849999998
 30
0.0
 42
2.414213999999999
  0
VERTEX
  5
C8B
  8
LAYER01
  6
CONTINUOUS
 62
     7
 10
-98.303991000000011
 20
-4268.8737849999989
 30
0.0
  0
SEQEND
  5
C8C
  8
LAYER01
  6
CONTINUOUS
 62
     7
  0
DIMENSION
  5
3B2
  8
LAYER01
 62
     7
  2
*D4
 10
-810.70390399999997
 20
-5343.7388060000012
 30
0.0
 11
-870.70390399999985
 21
-5624.1842059999999
 31
0.0
 53
90.0
 13
-588.15437799999995
 23
-5894.8490069999998
 33
0.0
 14
-588.15437799999995
 24
-5343.7388060000012
 34
0.0
 50
90.0
  0
DIMENSION
  5
3B3
  8
LAYER01
 62
     7
  2
*D5
 10
-692.54599800000005
 20
-5849.2071370000003
 30
0.0
 11
-752.54599800000005
 21
-5672.9305950000007
 31
0.0
 53
90.0
 13
-587.50069900000005
 23
-5489.165661
 33
0.0
 14
-587.50069900000005
 24
-5849.2071370000003
 34
0.0
 50
90.0
  0
DIMENSION
  5
3B4
  8
LAYER01
 62
     7
  2
*D6
 10
-692.54599800000005
 20
-5489.165661
 30
0.0
 11
-752.54599800000005
 21
-5420.1964289999996
 31
0.0
 53
90.0
 13
-588.15437799999995
 23
-5343.7388060000012
 33
0.0
 14
-588.15437799999995
 24
-5489.165661
 34
0.0
 50
90.0
  0
POLYLINE
  5
3B5
  8
LAYER01
  6
CONTINUOUS
 62
     7
 66
     1
 10
0.0
 20
0.0
 30
0.0
  0
VERTEX
  5
C8D
  8
LAYER01
  6
CONTINUOUS
 62
     7
 10
-262.40716800000001
 20
-5412.7762579999999
 30
0.0
  0
VERTEX
  5
C8E
  8
LAYER01
  6
CONTINUOUS
 62
     7
 10
-262.53647799999999
 20
-5438.9243580000011
 30
0.0
  0
VERTEX
  5
C8F
  8
LAYER01
  6
CONTINUOUS
 62
     7
 10
-262.67707000000001
 20
-5467.3538760000001
 30
0.0
  0
SEQEND
  5
C90
  8
LAYER01
  6
CONTINUOUS
 62
     7
  0
DIMENSION
  5
3BA
  8
LAYER01
 62
     7
  2
*D7
 10
410.13851799999998
 20
-5551.2757979999988
 30
0.0
 11
350.13851799999998
 21
-5452.3976009999997
 31
0.0
 53
90.0
 13
61.845621999999999
 23
-5343.7388060000012
 33
0.0
 14
61.845621999999999
 24
-5551.2757979999988
 34
0.0
 50
90.0
  0
DIMENSION
  5
3BB
  8
LAYER01
 62
     7
  2
*D8
 10
209.49301800000001
 20
-5436.87374
 30
0.0
 11
149.49301800000001
 21
-5187.3670709999997
 31
0.0
 53
90.0
 13
61.845621999999999
 23
-5343.7388060000012
 33
0.0
 14
61.845621999999999
 24
-5436.87374
 34
0.0
 50
90.0
  0
LINE
  5
3BC
  8
LAYER01
  6
GESTRICHELT
 62
     7
 10
-575.50069900000005
 20
-5882.8490069999998
 30
0.0
 11
-575.50069900000005
 21
-5343.7388060000012
 31
0.0
  0
LINE
  5
3BD
  8
LAYER01
  6
GESTRICHELT
 62
     7
 10
50.499301000000003
 20
-5882.8490069999998
 30
0.0
 11
50.499301000000003
 21
-5343.7388060000012
 31
0.0
  0
LINE
  5
3BE
  8
LAYER01
  6
CONTINUOUS
 62
     7
 10
62.499301000000003
 20
-5894.8490069999998
 30
0.0
 11
62.499301000000003
 21
-5343.7388060000012
 31
0.0
  0
LINE
  5
3BF
  8
LAYER01
  6
CONTINUOUS
 62
     7
 10
-587.50069900000005
 20
-5894.8490069999998
 30
0.0
 11
-587.50069900000005
 21
-5343.7388060000012
 31
0.0
  0
CIRCLE
  5
3C0
  8
LAYER01
  6
CONTINUOUS
 62
     7
 10
-262.73611699999998
 20
-5436.87374
 30
0.0
 40
17.5
  0
DIMENSION
  5
3C1
  8
LAYER01
 62
     7
  2
*D9
 10
-502.67709400000001
 20
-6036.7985879999997
 30
0.0
 11
-266.42129
 21
-5976.7985880000006
 31
0.0
 13
-22.677094
 23
-5933.2506939999994
 33
0.0
 14
-502.67709400000001
 24
-5933.2506939999994
 34
0.0
  0
LINE
  5
3C2
  8
LAYER01
  6
GESTRICHELT
 62
     7
 10
-575.50069900000005
 20
-5882.8490069999998
 30
0.0
 11
50.499301000000003
 21
-5882.8490069999998
 31
0.0
  0
LINE
  5
3C3
  8
LAYER01
  6
CONTINUOUS
 62
     7
 10
-587.50069900000005
 20
-5894.8490069999998
 30
0.0
 11
62.499301000000003
 21
-5894.8490069999998
 31
0.0
  0
LINE
  5
3C4
  8
LAYER01
  6
CONTINUOUS
 62
     7
 10
-472.67709400000001
 20
-5489.165661
 30
0.0
 11
-52.677093999999997
 21
-5489.165661
 31
0.0
  0
LINE
  5
3C5
  8
LAYER01
  6
CONTINUOUS
 62
     7
 10
-472.67709400000001
 20
-5849.2071370000003
 30
0.0
 11
-52.677093999999997
 21
-5849.2071370000003
 31
0.0
  0
POLYLINE
  5
3C6
  8
LAYER01
  6
CONTINUOUS
 62
     7
 66
     1
 10
0.0
 20
0.0
 30
0.0
  0
VERTEX
  5
C91
  8
LAYER01
  6
CONTINUOUS
 62
     7
 10
-262.50069300000001
 20
-5491.3302970000004
 30
0.0
  0
VERTEX
  5
C92
  8
LAYER01
  6
CONTINUOUS
 62
     7
 10
-262.500696
 20
-5548.9446269999999
 30
0.0
  0
VERTEX
  5
C93
  8
LAYER01
  6
CONTINUOUS
 62
     7
 10
-262.500699
 20
-5611.2212980000004
 30
0.0
  0
SEQEND
  5
C94
  8
LAYER01
  6
CONTINUOUS
 62
     7
  0
POLYLINE
  5
3CB
  8
LAYER01
  6
CONTINUOUS
 62
     7
 66
     1
 10
0.0
 20
0.0
 30
0.0
  0
VERTEX
  5
C95
  8
LAYER01
  6
CONTINUOUS
 62
     7
 10
-324.37925300000001
 20
-5551.2757979999988
 30
0.0
  0
VERTEX
  5
C96
  8
LAYER01
  6
CONTINUOUS
 62
     7
 10
-316.12954100000002
 20
-5551.2757979999988
 30
0.0
  0
VERTEX
  5
C97
  8
LAYER01
  6
CONTINUOUS
 62
     7
 10
-308.81786699999998
 20
-5551.2757979999988
 30
0.0
  0
VERTEX
  5
C98
  8
LAYER01
  6
CONTINUOUS
 62
     7
 10
-302.33745699999997
 20
-5551.2757979999988
 30
0.0
  0
VERTEX
  5
C99
  8
LAYER01
  6
CONTINUOUS
 62
     7
 10
-296.58154000000002
 20
-5551.2757979999988
 30
0.0
  0
VERTEX
  5
C9A
  8
LAYER01
  6
CONTINUOUS
 62
     7
 10
-291.44334099999998
 20
-5551.2757979999988
 30
0.0
  0
VERTEX
  5
C9B
  8
LAYER01
  6
CONTINUOUS
 62
     7
 10
-286.81608999999997
 20
-5551.2757979999988
 30
0.0
  0
VERTEX
  5
C9C
  8
LAYER01
  6
CONTINUOUS
 62
     7
 10
-282.59301199999999
 20
-5551.2757979999988
 30
0.0
  0
VERTEX
  5
C9D
  8
LAYER01
  6
CONTINUOUS
 62
     7
 10
-278.66733599999998
 20
-5551.2757979999988
 30
0.0
  0
VERTEX
  5
C9E
  8
LAYER01
  6
CONTINUOUS
 62
     7
 10
-274.94213999999999
 20
-5551.2757979999988
 30
0.0
  0
VERTEX
  5
C9F
  8
LAYER01
  6
CONTINUOUS
 62
     7
 10
-271.359916
 20
-5551.2757979999988
 30
0.0
  0
VERTEX
  5
CA0
  8
LAYER01
  6
CONTINUOUS
 62
     7
 10
-267.87300599999998
 20
-5551.2757979999988
 30
0.0
  0
VERTEX
  5
CA1
  8
LAYER01
  6
CONTINUOUS
 62
     7
 10
-264.43375300000002
 20
-5551.2757979999988
 30
0.0
  0
VERTEX
  5
CA2
  8
LAYER01
  6
CONTINUOUS
 62
     7
 10
-260.99449900000002
 20
-5551.2757979999988
 30
0.0
  0
VERTEX
  5
CA3
  8
LAYER01
  6
CONTINUOUS
 62
     7
 10
-257.507589
 20
-5551.2757979999988
 30
0.0
  0
VERTEX
  5
CA4
  8
LAYER01
  6
CONTINUOUS
 62
     7
 10
-253.925365
 20
-5551.2757979999988
 30
0.0
  0
VERTEX
  5
CA5
  8
LAYER01
  6
CONTINUOUS
 62
     7
 10
-250.20016899999999
 20
-5551.2757979999988
 30
0.0
  0
VERTEX
  5
CA6
  8
LAYER01
  6
CONTINUOUS
 62
     7
 10
-246.27449300000001
 20
-5551.2757979999988
 30
0.0
  0
VERTEX
  5
CA7
  8
LAYER01
  6
CONTINUOUS
 62
     7
 10
-242.05141499999999
 20
-5551.2757979999988
 30
0.0
  0
VERTEX
  5
CA8
  8
LAYER01
  6
CONTINUOUS
 62
     7
 10
-237.42416399999999
 20
-5551.2757979999988
 30
0.0
  0
VERTEX
  5
CA9
  8
LAYER01
  6
CONTINUOUS
 62
     7
 10
-232.285965
 20
-5551.2757979999988
 30
0.0
  0
VERTEX
  5
CAA
  8
LAYER01
  6
CONTINUOUS
 62
     7
 10
-226.53004799999999
 20
-5551.2757979999988
 30
0.0
  0
VERTEX
  5
CAB
  8
LAYER01
  6
CONTINUOUS
 62
     7
 10
-220.04963799999999
 20
-5551.2757979999988
 30
0.0
  0
VERTEX
  5
CAC
  8
LAYER01
  6
CONTINUOUS
 62
     7
 10
-212.73796400000001
 20
-5551.2757979999988
 30
0.0
  0
VERTEX
  5
CAD
  8
LAYER01
  6
CONTINUOUS
 62
     7
 10
-204.48825199999999
 20
-5551.2757979999988
 30
0.0
  0
SEQEND
  5
CAE
  8
LAYER01
  6
CONTINUOUS
 62
     7
  0
ARC
  5
3E6
  8
LAYER01
  6
CONTINUOUS
 62
     7
 10
-472.67709400000001
 20
-5519.165661
 30
0.0
 40
30.0
 50
90.0
 51
180.0
  0
ARC
  5
3E7
  8
LAYER01
  6
CONTINUOUS
 62
     7
 10
-472.67709400000001
 20
-5819.2071369999994
 30
0.0
 40
30.0
 50
180.0
 51
270.0
  0
LINE
  5
3E8
  8
LAYER01
  6
CONTINUOUS
 62
     7
 10
-502.67709400000001
 20
-5519.165661
 30
0.0
 11
-502.67709400000001
 21
-5819.2071369999994
 31
0.0
  0
POLYLINE
  5
3E9
  8
LAYER01
  6
CONTINUOUS
 62
     7
 66
     1
 10
0.0
 20
0.0
 30
0.0
 70
     1
  0
VERTEX
  5
CAF
  8
LAYER01
  6
CONTINUOUS
 62
     7
 10
-239.72429
 20
-5550.7925329999998
 30
0.0
 42
0.4142140000000001
  0
VERTEX
  5
CB0
  8
LAYER01
  6
CONTINUOUS
 62
     7
 10
-262.500696
 20
-5528.0161280000002
 30
0.0
 42
2.414213999999999
  0
VERTEX
  5
CB1
  8
LAYER01
  6
CONTINUOUS
 62
     7
 10
-239.72429
 20
-5550.7925329999998
 30
0.0
  0
SEQEND
  5
CB2
  8
LAYER01
  6
CONTINUOUS
 62
     7
  0
CIRCLE
  5
3EE
  8
LAYER01
  6
CONTINUOUS
 62
     7
 10
-262.01743099999999
 20
-5551.2757979999988
 30
0.0
 40
35.0
  0
ARC
  5
3EF
  8
LAYER01
  6
CONTINUOUS
 62
     7
 10
-52.677093999999997
 20
-5519.165661
 30
0.0
 40
30.0
 50
0.0
 51
90.0
  0
ARC
  5
3F0
  8
LAYER01
  6
CONTINUOUS
 62
     7
 10
-52.677093999999997
 20
-5819.2071369999994
 30
0.0
 40
30.0
 50
270.0
 51
0.0
  0
LINE
  5
3F1
  8
LAYER01
  6
CONTINUOUS
 62
     7
 10
-22.677094
 20
-5519.165661
 30
0.0
 11
-22.677094
 21
-5819.2071369999994
 31
0.0
  0
DIMENSION
  5
3F2
  8
LAYER01
 62
     7
  2
*D10
 10
162.477081
 20
-4898.8737849999998
 30
0.0
 11
162.477081
 21
-4608.9587430000001
 31
0.0
 53
90.0
 13
-221.41899100000001
 23
-4318.8737849999998
 33
0.0
 14
-221.41899100000001
 24
-4898.8737849999998
 34
0.0
 50
90.0
  0
DIMENSION
  5
3F3
  8
LAYER01
 62
     7
  2
*D11
 10
-262.500699
 20
-5241.1964959999996
 30
0.0
 11
-100.130015
 21
-5181.1964959999996
 31
0.0
 13
62.499301000000003
 23
-5343.7388060000012
 33
0.0
 14
-262.500699
 24
-5343.7388060000012
 34
0.0
  0
DIMENSION
  5
3F4
  8
LAYER01
 62
     7
  2
*D12
 10
-587.50069900000005
 20
-5102.1776289999989
 30
0.0
 11
-262.63001500000001
 21
-5042.1776289999998
 31
0.0
 13
62.499301000000003
 23
-5343.7388060000012
 33
0.0
 14
-587.50069900000005
 24
-5343.7388060000012
 34
0.0
  0
LINE
  5
3F5
  8
LAYER01
  6
CONTINUOUS
 62
     7
 10
-587.50069900000005
 20
-5359.8375450000012
 30
0.0
 11
62.499301000000003
 21
-5359.8375450000012
 31
0.0
  0
LINE
  5
3F6
  8
LAYER01
  6
CONTINUOUS
 62
     7
 10
-587.50069900000005
 20
-5343.7388060000012
 30
0.0
 11
62.499301000000003
 21
-5343.7388060000012
 31
0.0
  0
LINE
  5
3F7
  8
LAYER01
  6
CONTINUOUS
 62
     7
 10
-297.16772400000002
 20
-5436.87374
 30
0.0
 11
-228.304509
 21
-5436.87374
 31
0.0
  0
DIMENSION
  5
3F8
  8
LAYER01
 62
     7
  2
*D13
 10
-587.50069900000005
 20
-5241.1964959999996
 30
0.0
 11
-425.13001500000001
 21
-5181.1964959999996
 31
0.0
 13
-262.500699
 23
-5343.7388060000012
 33
0.0
 14
-587.50069900000005
 24
-5343.7388060000012
 34
0.0
  0
LINE
  5
3F9
  8
KERA2
  6
CONTINUOUS
 62
    18
 10
-260.80899099999999
 20
-4357.0557849999996
 30
0.0
 11
-260.80899099999999
 21
-4275.1657850000001
 31
0.0
  0
DIMENSION
  5
3FA
  8
LAYER01
 62
     7
  2
*D14
 10
-410.803991
 20
-4470.0665070000014
 30
0.0
 11
-264.54818599999999
 21
-4410.0665069999995
 31
0.0
 13
-110.803991
 23
-4365.2849679999999
 33
0.0
 14
-410.803991
 24
-4365.2849679999999
 34
0.0
  0
LINE
  5
3FB
  8
KERA2
  6
CONTINUOUS
 62
    18
 10
-302.46899100000002
 20
-4318.8737849999998
 30
0.0
 11
-221.41899100000001
 21
-4318.8737849999998
 31
0.0
  0
POLYLINE
  5
3FC
  8
LAYER01
  6
CONTINUOUS
 62
     7
 66
     1
 10
0.0
 20
0.0
 30
0.0
 70
     1
  0
VERTEX
  5
CB3
  8
LAYER01
  6
CONTINUOUS
 62
     7
 10
-235.80899099999999
 20
-4318.8737849999998
 30
0.0
 42
0.4142140000000001
  0
VERTEX
  5
CB4
  8
LAYER01
  6
CONTINUOUS
 62
     7
 10
-260.80899099999999
 20
-4293.8737849999989
 30
0.0
 42
2.414213999999999
  0
VERTEX
  5
CB5
  8
LAYER01
  6
CONTINUOUS
 62
     7
 10
-235.80899099999999
 20
-4318.8737849999998
 30
0.0
  0
SEQEND
  5
CB6
  8
LAYER01
  6
CONTINUOUS
 62
     7
  0
DIMENSION
  5
401
  8
LAYER01
 62
     7
  2
*D15
 10
-120.80899100000001
 20
-3948.1760749999999
 30
0.0
 11
17.772597000000001
 21
-3948.1760749999999
 31
0.0
 13
159.19100900000001
 23
-4011.9568640000002
 33
0.0
 14
-120.80899100000001
 24
-4011.9568640000002
 34
0.0
  0
LINE
  5
402
  8
LAYER01
  6
CONTINUOUS
 62
     7
 10
-587.50069900000005
 20
-4098.8737849999998
 30
0.0
 11
62.499301000000003
 21
-4098.8737849999998
 31
0.0
  0
LINE
  5
403
  8
LAYER01
  6
CONTINUOUS
 62
     7
 10
-587.50069900000005
 20
-4058.8737850000002
 30
0.0
 11
62.499301000000003
 21
-4058.8737850000002
 31
0.0
  0
LINE
  5
404
  8
LAYER01
  6
CONTINUOUS
 62
     7
 10
-587.50069900000005
 20
-4148.8737849999998
 30
0.0
 11
62.499301000000003
 21
-4148.8737849999998
 31
0.0
  0
LINE
  5
405
  8
LAYER01
  6
CONTINUOUS
 62
     7
 10
-57.253669000000002
 20
-4194.0795870000002
 30
0.0
 11
-236.80899099999999
 21
-4203.2786670000014
 31
0.0
  0
DIMENSION
  5
406
  8
LAYER01
 62
     7
  2
*D16
 10
-400.80899099999988
 20
-3948.1760749999999
 30
0.0
 11
-262.22740299999998
 21
-3948.1760749999999
 31
0.0
 13
-120.80899100000001
 23
-4011.9568640000002
 33
0.0
 14
-400.80899099999988
 24
-4011.9568640000002
 34
0.0
  0
LINE
  5
407
  8
KERA2
  6
CONTINUOUS
 62
    18
 10
-260.80899099999999
 20
-4168.0006159999994
 30
0.0
 11
-260.80899099999999
 21
-4229.735545999999
 31
0.0
  0
LINE
  5
408
  8
KERA2
  6
CONTINUOUS
 62
    18
 10
-430.80399099999988
 20
-4268.8737849999989
 30
0.0
 11
-390.803991
 21
-4268.8737849999989
 31
0.0
  0
LINE
  5
409
  8
KERA2
  6
CONTINUOUS
 62
    18
 10
-130.803991
 20
-4268.8737849999989
 30
0.0
 11
-90.803990999999996
 21
-4268.8737849999989
 31
0.0
  0
INSERT
  5
40A
  8
LAYER01
  2
JER55_W-G18
 10
0.0
 20
0.0
 30
0.0
  0
INSERT
  5
40B
  8
LAYER01
  2
JER55_W-G20
 10
0.0
 20
0.0
 30
0.0
  0
LINE
  5
40C
  8
KERA4
  6
CONTINUOUS
 62
     1
 10
-587.50069900000005
 20
-4190.8737849999989
 30
0.0
 11
-484.31009799999998
 21
-4190.8737849999989
 31
0.0
  0
LINE
  5
40D
  8
LAYER01
  6
CONTINUOUS
 62
     7
 10
-587.50069900000005
 20
-4190.8737849999989
 30
0.0
 11
-587.50069900000005
 21
-4058.8737850000002
 31
0.0
  0
ARC
  5
40E
  8
LAYER01
  6
CONTINUOUS
 62
     7
 10
-462.0618659999999
 20
-4149.1385280000004
 30
0.0
 40
45.0
 50
189.417722
 51
267.06715400000002
  0
LINE
  5
40F
  8
LAYER01
  6
CONTINUOUS
 62
     7
 10
-464.36431199999998
 20
-4194.0795870000002
 30
0.0
 11
-284.80899099999999
 21
-4203.2786670000014
 31
0.0
  0
LINE
  5
410
  8
LAYER01
  6
CONTINUOUS
 62
     7
 10
-507.7301599999999
 20
-4148.8161030000001
 30
0.0
 11
-506.45533799999993
 21
-4156.5019279999988
 31
0.0
  0
LINE
  5
411
  8
LAYER01
  6
CONTINUOUS
 62
     7
 10
-284.80899099999999
 20
-4213.8737849999989
 30
0.0
 11
-236.80899099999999
 21
-4213.8737849999989
 31
0.0
  0
LINE
  5
412
  8
LAYER01
  6
CONTINUOUS
 62
     7
 10
-284.80899099999999
 20
-4203.2786670000014
 30
0.0
 11
-284.80899099999999
 21
-4213.8737849999989
 31
0.0
  0
LINE
  5
413
  8
LAYER01
  6
CONTINUOUS
 62
     7
 10
-236.80899099999999
 20
-4203.2786670000014
 30
0.0
 11
-236.80899099999999
 21
-4213.8737849999989
 31
0.0
  0
LINE
  5
414
  8
KERA4
  6
CONTINUOUS
 62
     1
 10
-31.136306999999999
 20
-4190.8737849999989
 30
0.0
 11
62.499301000000003
 21
-4190.8737849999989
 31
0.0
  0
DIMENSION
  5
415
  8
LAYER01
 62
     7
  2
*D21
 10
525.63662199999999
 20
-4058.8737850000002
 30
0.0
 11
525.63662199999999
 21
-3901.9289990000011
 31
0.0
 53
90.0
 13
321.00423799999999
 23
-4098.8737849999998
 33
0.0
 14
321.00423799999999
 24
-4058.8737850000002
 34
0.0
 50
90.0
  0
ARC
  5
416
  8
LAYER01
  6
CONTINUOUS
 62
     7
 10
-59.556114999999998
 20
-4149.1385280000004
 30
0.0
 40
45.0
 50
272.93284599999998
 51
350.58227799999997
  0
LINE
  5
417
  8
LAYER01
  6
CONTINUOUS
 62
     7
 10
-13.879336
 20
-4148.7649490000003
 30
0.0
 11
-15.162642999999999
 21
-4156.5019279999988
 31
0.0
  0
LINE
  5
418
  8
LAYER01
  6
CONTINUOUS
 62
     7
 10
62.499301000000003
 20
-4190.8737849999989
 30
0.0
 11
62.499301000000003
 21
-4058.8737850000002
 31
0.0
  0
DIMENSION
  5
419
  8
LAYER01
 62
     7
  2
*D22
 10
1580.4800439999999
 20
-4898.8737849999998
 30
0.0
 11
1580.4800439999999
 21
-4552.595026
 31
0.0
 53
90.0
 13
1575.714248
 23
-4201.1872359999988
 33
0.0
 14
1575.714248
 24
-4898.8737849999998
 34
0.0
 50
90.0
  0
DIMENSION
  5
41A
  8
LAYER01
 62
     7
  2
*D23
 10
2225.280659
 20
-4208.8737849999998
 30
0.0
 11
2225.280659
 21
-3926.4566060000002
 31
0.0
 53
90.0
 13
2041.9872499999999
 23
-4098.8737849999998
 33
0.0
 14
2041.9872499999999
 24
-4208.8737849999998
 34
0.0
 50
90.0
  0
DIMENSION
  5
41B
  8
LAYER01
 62
     7
  2
*D24
 10
2126.9280979999999
 20
-4188.8737849999998
 30
0.0
 11
2126.9280979999999
 21
-3941.9289990000002
 31
0.0
 53
90.0
 13
2041.9872499999999
 23
-4098.8737849999998
 33
0.0
 14
2041.9872499999999
 24
-4188.8737849999998
 34
0.0
 50
90.0
  0
DIMENSION
  5
41C
  8
LAYER01
 62
     7
  2
*D25
 10
1500.516742
 20
-4269.1976500000001
 30
0.0
 11
1703.4740280000001
 21
-4209.1976500000001
 31
0.0
 13
1546.5292420000001
 23
-4213.4952899999998
 33
0.0
 14
1500.516742
 24
-4213.4952899999998
 34
0.0
  0
LINE
  5
41D
  8
LAYER01
  6
CONTINUOUS
 62
     7
 10
1335.469257
 20
-3862.1499509999999
 30
0.0
 11
1335.469257
 21
-4898.8737849999998
 31
0.0
  0
LINE
  5
41E
  8
KERA7
  6
CONTINUOUS
 62
    22
 10
1060.516511
 20
-4898.8737849999998
 30
0.0
 11
2065.079839
 21
-4898.8737849999998
 31
0.0
  0
LINE
  5
41F
  8
KERA7
  6
CONTINUOUS
 62
    22
 10
1190.4840349999999
 20
-4898.8737849999998
 30
0.0
 11
1278.213207
 21
-4898.8737849999998
 31
0.0
  0
DIMENSION
  5
420
  8
LAYER01
 62
     7
  2
*D26
 10
1580.4638399999999
 20
-4383.1316029999989
 30
0.0
 11
1730.429521
 21
-4383.1316029999989
 31
0.0
 13
1880.4638399999999
 23
-4272.9443270000002
 33
0.0
 14
1580.4638399999999
 24
-4272.9443270000002
 34
0.0
  0
TEXT
  5
421
  8
LAYER01
  6
CONTINUOUS
 62
     7
 10
1606.86052
 20
-4483.0354399999997
 30
0.0
 40
60.0
  1
Kniefreiheit
  0
DIMENSION
  5
422
  8
LAYER01
 62
     7
  2
*D27
 10
1282.785621
 20
-4148.8737849999998
 30
0.0
 11
1222.785621
 21
-3901.9449840000002
 31
0.0
 53
90.0
 13
1335.469257
 23
-4058.8897700000002
 33
0.0
 14
1335.469257
 24
-4148.8737849999998
 34
0.0
 50
90.0
  0
DIMENSION
  5
423
  8
LAYER01
 62
     7
  2
*D28
 10
1170.8031470000001
 20
-4174.6659839999993
 30
0.0
 11
1110.8031470000001
 21
-4115.4134210000002
 31
0.0
 53
90.0
 13
1335.5240020000001
 23
-4058.8015
 33
0.0
 14
1335.5240020000001
 24
-4174.6659839999993
 34
0.0
 50
90.0
  0
DIMENSION
  5
424
  8
LAYER01
 62
     7
  2
*D29
 10
1029.963964
 20
-4208.4944799999994
 30
0.0
 11
969.96396400000003
 21
-4135.1105369999996
 31
0.0
 53
90.0
 13
1335.469257
 23
-4058.8897700000002
 33
0.0
 14
1335.469257
 24
-4208.4944799999994
 34
0.0
 50
90.0
  0
ARC
  5
425
  8
LAYER01
  6
CONTINUOUS
 62
     7
 10
1867.481352
 20
-4095.8737850000011
 30
0.0
 40
3.0
 50
270.0
 51
359.92320699999999
  0
LINE
  5
426
  8
LAYER01
  6
CONTINUOUS
 62
     7
 10
1870.4840349999999
 20
-4093.8737850000002
 30
0.0
 11
1870.4813489999999
 21
-4095.877806
 31
0.0
  0
ARC
  5
427
  8
LAYER01
  6
CONTINUOUS
 62
     7
 10
1875.4857480000001
 20
-4094.0412660000002
 30
0.0
 40
5.0045159999999997
 50
1.8593580000000001
 51
178.08218600000001
  0
LINE
  5
428
  8
LAYER01
  6
CONTINUOUS
 62
     7
 10
1865.4638399999999
 20
-4144.0205640000004
 30
0.0
 11
1880.4638399999999
 21
-4144.0205640000004
 31
0.0
  0
LINE
  5
429
  8
LAYER01
  6
CONTINUOUS
 62
     7
 10
1458.4307779999999
 20
-4098.8737849999998
 30
0.0
 11
1815.234547
 21
-4098.8737849999998
 31
0.0
  0
LINE
  5
42A
  8
LAYER01
  6
CONTINUOUS
 62
     7
 10
1552.4983099999999
 20
-4188.864603
 30
0.0
 11
1498.0102690000001
 21
-4188.864603
 31
0.0
  0
LINE
  5
42B
  8
LAYER01
  6
CONTINUOUS
 62
     7
 10
1500.4869980000001
 20
-4197.5029509999986
 30
0.0
 11
1546.397099
 21
-4197.5029509999986
 31
0.0
  0
LINE
  5
42C
  8
LAYER01
  6
CONTINUOUS
 62
     7
 10
1488.4840349999999
 20
-4213.8737849999989
 30
0.0
 11
1557.7651350000001
 21
-4213.9226079999989
 31
0.0
  0
LINE
  5
42D
  8
LAYER01
  6
CONTINUOUS
 62
     7
 10
1407.5945400000001
 20
-4148.8737849999998
 30
0.0
 11
1332.824963
 21
-4148.8737849999998
 31
0.0
  0
LINE
  5
42E
  8
LAYER01
  6
CONTINUOUS
 62
     7
 10
1415.4840349999999
 20
-4136.2420519999996
 30
0.0
 11
1415.4840349999999
 21
-4062.24532
 31
0.0
  0
LINE
  5
42F
  8
LAYER01
  6
CONTINUOUS
 62
     7
 10
1399.4840349999999
 20
-4113.8737849999998
 30
0.0
 11
1399.4840349999999
 21
-4098.8737849999998
 31
0.0
  0
LINE
  5
430
  8
LAYER01
  6
CONTINUOUS
 62
     7
 10
1431.4840349999999
 20
-4113.8737849999998
 30
0.0
 11
1431.4840349999999
 21
-4098.8737849999998
 31
0.0
  0
LINE
  5
431
  8
LAYER01
  6
CONTINUOUS
 62
     7
 10
1336.184749
 20
-4174.6659839999993
 30
0.0
 11
1351.184749
 21
-4174.6659839999993
 31
0.0
  0
LINE
  5
432
  8
LAYER01
  6
CONTINUOUS
 62
     7
 10
1351.2961600000001
 20
-4058.8033879999998
 30
0.0
 11
1335.5240020000001
 21
-4058.8015
 31
0.0
  0
LINE
  5
433
  8
LAYER01
  6
CONTINUOUS
 62
     7
 10
1335.469257
 20
-4058.8897700000002
 30
0.0
 11
1335.469257
 21
-4190.8897699999998
 31
0.0
  0
ARC
  5
434
  8
LAYER01
  6
CONTINUOUS
 62
     7
 10
1361.2737649999999
 20
-4088.8964070000002
 30
0.0
 40
10.0
 50
179.957356
 51
270.05354700000009
  0
LINE
  5
435
  8
LAYER01
  6
CONTINUOUS
 62
     7
 10
1385.4840349999999
 20
-4098.8737849999998
 30
0.0
 11
1361.283111
 21
-4098.8964029999997
 31
0.0
  0
ARC
  5
436
  8
LAYER01
  6
CONTINUOUS
 62
     7
 10
1356.2514410000001
 20
-4118.8890430000001
 30
0.0
 40
5.0
 50
90.036073000000002
 51
179.957356
  0
LINE
  5
437
  8
LAYER01
  6
CONTINUOUS
 62
     7
 10
1380.4840349999999
 20
-4113.8737849999998
 30
0.0
 11
1356.2482930000001
 21
-4113.8890439999986
 31
0.0
  0
LINE
  5
438
  8
LAYER01
  6
CONTINUOUS
 62
     7
 10
1351.273768
 20
-4088.8889649999992
 30
0.0
 11
1351.2961600000001
 21
-4058.8033879999998
 31
0.0
  0
LINE
  5
439
  8
LAYER01
  6
CONTINUOUS
 62
     7
 10
1336.184749
 20
-4208.4944799999994
 30
0.0
 11
1351.184749
 21
-4208.4944799999994
 31
0.0
  0
LINE
  5
43A
  8
LAYER01
  6
CONTINUOUS
 62
     7
 10
1351.184749
 20
-4208.4944799999994
 30
0.0
 11
1351.251442
 21
-4118.8853219999992
 31
0.0
  0
LINE
  5
43B
  8
LAYER01
  6
CONTINUOUS
 62
     7
 10
1380.4840349999999
 20
-4113.8737849999998
 30
0.0
 11
1440.8234239999999
 21
-4113.8737849999998
 31
0.0
  0
LINE
  5
43C
  8
LAYER01
  6
CONTINUOUS
 62
     7
 10
1385.4840349999999
 20
-4098.8737849999998
 30
0.0
 11
1457.389089
 21
-4098.8737849999998
 31
0.0
  0
LINE
  5
43D
  8
LAYER01
  6
CONTINUOUS
 62
     7
 10
1457.4840349999999
 20
-4098.8737849999998
 30
0.0
 11
1468.918617
 21
-4161.1187840000011
 31
0.0
  0
ARC
  5
43E
  8
LAYER01
  6
CONTINUOUS
 62
     7
 10
1440.8234239999999
 20
-4118.8737849999989
 30
0.0
 40
5.0
 50
10.409338
 51
90.0
  0
LINE
  5
43F
  8
LAYER01
  6
CONTINUOUS
 62
     7
 10
1445.7411340000001
 20
-4117.9703879999997
 30
0.0
 11
1451.424473
 21
-4148.9080640000002
 31
0.0
  0
LINE
  5
440
  8
LAYER01
  6
CONTINUOUS
 62
     7
 10
1451.6273120000001
 20
-4150.012232
 30
0.0
 11
1454.1654860000001
 21
-4163.8289759999998
 31
0.0
  0
ARC
  5
441
  8
LAYER01
  6
CONTINUOUS
 62
     7
 10
1498.424878
 20
-4155.6984000000002
 30
0.0
 40
45.0
 50
190.40933799999999
 51
248.04676699999999
  0
ARC
  5
442
  8
LAYER01
  6
CONTINUOUS
 62
     7
 10
1498.424878
 20
-4155.6984000000002
 30
0.0
 40
30.0
 50
190.40933799999999
 51
248.04676699999999
  0
LINE
  5
443
  8
LAYER01
  6
CONTINUOUS
 62
     7
 10
1500.492968
 20
-4195.6151630000013
 30
0.0
 11
1500.517202
 21
-4213.90373
 31
0.0
  0
ARC
  5
444
  8
LAYER01
  6
CONTINUOUS
 62
     7
 10
1490.4929770000001
 20
-4195.6284139999998
 30
0.0
 40
10.0
 50
0.075923
 51
68.046767000000003
  0
LINE
  5
445
  8
LAYER01
  6
CONTINUOUS
 62
     7
 10
1487.209388
 20
-4183.523079999999
 30
0.0
 11
1494.2314730000001
 21
-4186.353521
 31
0.0
  0
ARC
  5
446
  8
LAYER01
  6
CONTINUOUS
 62
     7
 10
1480.1178110000001
 20
-4206.1252810000015
 30
0.0
 40
8.8156369999999988
 50
18.373677000000001
 51
80.309949000000003
  0
LINE
  5
447
  8
LAYER01
  6
CONTINUOUS
 62
     7
 10
1488.4840349999999
 20
-4203.2786670000014
 30
0.0
 11
1488.4840349999999
 21
-4213.8737849999989
 31
0.0
  0
LINE
  5
448
  8
LAYER01
  6
CONTINUOUS
 62
     7
 10
1828.513232
 20
-4117.7465709999997
 30
0.0
 11
1822.5113120000001
 21
-4142.5536169999996
 31
0.0
  0
LINE
  5
449
  8
LAYER01
  6
CONTINUOUS
 62
     7
 10
1817.4840349999999
 20
-4098.8737849999998
 30
0.0
 11
1804.4742590000001
 21
-4153.9654429999991
 31
0.0
  0
LINE
  5
44A
  8
LAYER01
  6
CONTINUOUS
 62
     7
 10
1833.3845140000001
 20
-4113.8737849999998
 30
0.0
 11
1840.4840349999999
 21
-4113.8737849999998
 31
0.0
  0
ARC
  5
44B
  8
LAYER01
  6
CONTINUOUS
 62
     7
 10
1833.3845140000001
 20
-4118.8737849999989
 30
0.0
 40
5.0
 50
90.0
 51
166.971081
  0
ARC
  5
44C
  8
LAYER01
  6
CONTINUOUS
 62
     7
 10
1860.4237250000001
 20
-4118.833106
 30
0.0
 40
5.0
 50
0.076544
 51
90.116918999999996
  0
LINE
  5
44D
  8
LAYER01
  6
CONTINUOUS
 62
     7
 10
1840.4840349999999
 20
-4113.8737849999998
 30
0.0
 11
1860.4135220000001
 21
-4113.8331170000001
 31
0.0
  0
LINE
  5
44E
  8
LAYER01
  6
CONTINUOUS
 62
     7
 10
1817.4840349999999
 20
-4098.8737849999998
 30
0.0
 11
1867.481352
 21
-4098.8737849999998
 31
0.0
  0
LINE
  5
44F
  8
LAYER01
  6
CONTINUOUS
 62
     7
 10
1865.42372
 20
-4118.826427
 30
0.0
 11
1865.4573780000001
 21
-4144.0205640000004
 31
0.0
  0
LINE
  5
450
  8
LAYER01
  6
CONTINUOUS
 62
     7
 10
1775.8853449999999
 20
-4177.1953569999987
 30
0.0
 11
1556.0371580000001
 21
-4188.0268530000003
 31
0.0
  0
ARC
  5
451
  8
LAYER01
  6
CONTINUOUS
 62
     7
 10
1775.2465669999999
 20
-4147.2021580000001
 30
0.0
 40
45.0
 50
271.22006899999991
 51
346.97108100000003
  0
ARC
  5
452
  8
LAYER01
  6
CONTINUOUS
 62
     7
 10
1775.2465669999999
 20
-4147.2021580000001
 30
0.0
 40
30.0
 50
271.22006899999991
 51
346.97108100000003
  0
LINE
  5
453
  8
LAYER01
  6
CONTINUOUS
 62
     7
 10
1822.2388860000001
 20
-4143.7309100000002
 30
0.0
 11
1819.088105
 21
-4157.3470850000003
 31
0.0
  0
LINE
  5
454
  8
LAYER01
  6
CONTINUOUS
 62
     7
 10
1776.2047339999999
 20
-4192.1919560000006
 30
0.0
 11
1567.3348699999999
 21
-4201.1872359999988
 31
0.0
  0
LINE
  5
455
  8
LAYER01
  6
CONTINUOUS
 62
     7
 10
1557.7651350000001
 20
-4213.9226079999989
 30
0.0
 11
1557.7651350000001
 21
-4211.1779749999996
 31
0.0
  0
LINE
  5
456
  8
LAYER01
  6
CONTINUOUS
 62
     7
 10
1546.5292420000001
 20
-4198.0147390000002
 30
0.0
 11
1546.5292420000001
 21
-4213.4952899999998
 31
0.0
  0
ARC
  5
457
  8
LAYER01
  6
CONTINUOUS
 62
     7
 10
1556.5292420000001
 20
-4198.0147390000002
 30
0.0
 40
10.0
 50
92.820571999999999
 51
180.0
  0
ARC
  5
458
  8
LAYER01
  6
CONTINUOUS
 62
     7
 10
1567.7651350000001
 20
-4211.1779749999996
 30
0.0
 40
10.0
 50
92.466001000000006
 51
180.0
  0
LINE
  5
459
  8
LAYER01
  6
CONTINUOUS
 62
     7
 10
1880.4840349999999
 20
-4103.8737849999998
 30
0.0
 11
1880.487629
 21
-4093.8788880000002
 31
0.0
  0
LINE
  5
45A
  8
LAYER01
  6
CONTINUOUS
 62
     7
 10
1880.4840349999999
 20
-4103.8737849999998
 30
0.0
 11
1880.4840349999999
 21
-4144.0205640000004
 31
0.0
  0
LINE
  5
45B
  8
LAYER01
  6
CONTINUOUS
 62
     7
 10
1450.8872690000001
 20
-4144.0205640000004
 30
0.0
 11
1349.7330199999999
 21
-4144.0205640000004
 31
0.0
  0
LINE
  5
45C
  8
LAYER01
  6
CONTINUOUS
 62
     7
 10
1865.4573780000001
 20
-4144.0205640000004
 30
0.0
 11
1822.5251479999999
 21
-4144.0205640000004
 31
0.0
  0
DIMENSION
  5
45D
  8
LAYER01
 62
     7
  2
*D30
 10
1981.386178
 20
-4144.0367500000002
 30
0.0
 11
1981.386178
 21
-3932.0919640000002
 31
0.0
 53
90.0
 13
1896.44533
 23
-4089.0367500000002
 33
0.0
 14
1896.44533
 24
-4144.0367500000002
 34
0.0
 50
90.0
  0
INSERT
  5
8EB
  8
LAYER01
  2
TRIGO-G1
 10
-3951.884867364457
 20
-7132.990148260461
 30
0.0
  0
POLYLINE
  5
8EC
  8
LAYER01
  6
CONTINUOUS
 62
     7
 66
     1
 10
0.0
 20
0.0
 30
0.0
 70
     1
  0
VERTEX
  5
E9B
  8
LAYER01
  6
CONTINUOUS
 62
     7
 10
-1194.754793032793
 20
-6334.1954383023667
 30
0.0
  0
VERTEX
  5
E9C
  8
LAYER01
  6
CONTINUOUS
 62
     7
 10
-1194.754793032793
 20
-3576.5194773023682
 30
0.0
  0
VERTEX
  5
E9D
  8
LAYER01
  6
CONTINUOUS
 62
     7
 10
2775.0864259672071
 20
-3576.5194773023682
 30
0.0
  0
VERTEX
  5
E9E
  8
LAYER01
  6
CONTINUOUS
 62
     7
 10
2775.0864259672071
 20
-6334.1954383023667
 30
0.0
  0
SEQEND
  5
E9F
  8
LAYER01
  6
CONTINUOUS
 62
     7
  0
INSERT
  5
8ED
  8
LAYER01
  2
TRIGO-G10
 10
-808.69751603279292
 20
-5606.8058923023673
 30
0.0
  0
TEXT
  5
8EE
  8
LAYER01
  6
STRICHPUNKTIERT
 62
     7
 10
1388.615816967206
 20
-5707.3718133023667
 30
0.0
 40
60.0
  1
http://www.varicor.org
  0
TEXT
  5
8EF
  8
LAYER01
  6
VERDECKT
 62
     1
 10
2125.6960389672072
 20
-6016.320291302367
 30
0.0
 40
32.5
  1
A. Sprenger GmbH
  7
SIMPLEX
  0
TEXT
  5
8F0
  8
LAYER01
  6
CONTINUOUS
 62
     7
 10
2115.152835967207
 20
-5815.052122302367
 30
0.0
 40
9.75
  1
Diese Zeichnung ist geistiges Eigentum der A. Sprenger GmbH
  7
SIMPLEX
  0
TEXT
  5
8F1
  8
LAYER01
  6
CONTINUOUS
 62
     7
 10
2115.152835967207
 20
-5831.7664083023674
 30
0.0
 40
9.75
  1
und urheberrechtlich geschützt. Ohne unsere Zustimmung darf 
  7
SIMPLEX
  0
TEXT
  5
8F2
  8
LAYER01
  6
CONTINUOUS
 62
     7
 10
2115.152835967207
 20
-5848.4806943023668
 30
0.0
 40
9.75
  1
sie in keiner Form verwendet oder Dritten zugänglich gemacht
  7
SIMPLEX
  0
TEXT
  5
8F3
  8
LAYER01
  6
CONTINUOUS
 62
     7
 10
2115.152835967207
 20
-5865.1949793023659
 30
0.0
 40
9.75
  1
werden. (§106 Urheberrecht)
  7
SIMPLEX
  0
TEXT
  5
8F4
  8
LAYER01
  6
VERDECKT
 62
     1
 10
2125.6960389672072
 20
-6143.9580413023668
 30
0.0
 40
45.499999999999993
  1
Jerico550 Integra
  7
SIMPLEX
  0
TEXT
  5
8F5
  8
LAYER01
  6
VERDECKT
 62
     1
 10
1824.5301569672069
 20
-6091.5705293023684
 30
0.0
 40
13.0
  1
Jan. 2015
  7
SIMPLEX
  0
TEXT
  5
8F6
  8
LAYER01
  6
VERDECKT
 62
     1
 10
1949.5344599672071
 20
-6091.6180273023674
 30
0.0
 40
13.0
  1
b.s.
  7
SIMPLEX
  0
TEXT
  5
8F7
  8
LAYER01
  6
VERDECKT
 62
     1
 10
2211.4228849672072
 20
-5932.4984863023674
 30
0.0
 40
13.0
  1
1 : 10 (DIN A3)
  7
SIMPLEX
  0
TEXT
  5
8F8
  8
LAYER01
  6
VERDECKT
 62
     1
 10
2546.4700569672068
 20
-5932.4984863023674
 30
0.0
 40
13.0
  1
trigo.skd
  7
SIMPLEX
  0
ENDSEC
  0
EOF
