  0
SECTION
  2
HEADER
  9
$ACADVER
  1
AC1009
  9
$INSBASE
 10
0.0
 20
0.0
 30
0.0
  9
$EXTMIN
 10
-186.06921921489081
 20
1817.0320020936319
 30
-0.0015258207003583
  9
$EXTMAX
 10
3761.0438176000848
 20
4578.7477000933441
 30
0.0000000349246037
  9
$LIMMIN
 10
-318.921402
 20
1710.623914
  9
$LIMMAX
 10
3881.0785980000001
 20
4680.6239139999989
  9
$ORTHOMODE
 70
     1
  9
$REGENMODE
 70
     1
  9
$FILLMODE
 70
     1
  9
$QTEXTMODE
 70
     0
  9
$MIRRTEXT
 70
     0
  9
$DRAGMODE
 70
     2
  9
$LTSCALE
 40
5.0
  9
$OSMODE
 70
    37
  9
$ATTMODE
 70
     1
  9
$TEXTSIZE
 40
0.0
  9
$TRACEWID
 40
0.05
  9
$TEXTSTYLE
  7
STANDARD
  9
$CLAYER
  8
LAYER01
  9
$CELTYPE
  6
VERDECKT
  9
$CECOLOR
 62
     7
  9
$DIMSCALE
 40
1.0
  9
$DIMASZ
 40
0.18
  9
$DIMEXO
 40
0.0625
  9
$DIMDLI
 40
0.38
  9
$DIMRND
 40
0.0
  9
$DIMDLE
 40
0.0
  9
$DIMEXE
 40
0.18
  9
$DIMTP
 40
0.0
  9
$DIMTM
 40
0.0
  9
$DIMTXT
 40
0.18
  9
$DIMCEN
 40
0.09
  9
$DIMTSZ
 40
0.0
  9
$DIMTOL
 70
     0
  9
$DIMLIM
 70
     0
  9
$DIMTIH
 70
     1
  9
$DIMTOH
 70
     1
  9
$DIMSE1
 70
     0
  9
$DIMSE2
 70
     0
  9
$DIMTAD
 70
     0
  9
$DIMZIN
 70
     0
  9
$DIMBLK
  1

  9
$DIMASO
 70
     1
  9
$DIMSHO
 70
     1
  9
$DIMPOST
  1

  9
$DIMAPOST
  1

  9
$DIMALT
 70
     0
  9
$DIMALTD
 70
     2
  9
$DIMALTF
 40
25.399999999999999
  9
$DIMLFAC
 40
1.0
  9
$DIMTOFL
 70
     0
  9
$DIMTVP
 40
0.0
  9
$DIMTIX
 70
     0
  9
$DIMSOXD
 70
     0
  9
$DIMSAH
 70
     0
  9
$DIMBLK1
  1

  9
$DIMBLK2
  1

  9
$DIMSTYLE
  2
STANDARD
  9
$DIMCLRD
 70
     0
  9
$DIMCLRE
 70
     0
  9
$DIMCLRT
 70
     0
  9
$DIMTFAC
 40
1.0
  9
$DIMGAP
 40
0.09
  9
$LUNITS
 70
     2
  9
$LUPREC
 70
     4
  9
$SKETCHINC
 40
0.1
  9
$FILLETRAD
 40
11.0
  9
$AUNITS
 70
     0
  9
$AUPREC
 70
     0
  9
$MENU
  1
acad
  9
$ELEVATION
 40
0.0
  9
$PELEVATION
 40
0.0
  9
$THICKNESS
 40
0.0
  9
$LIMCHECK
 70
     0
  9
$BLIPMODE
 70
     0
  9
$CHAMFERA
 40
0.0
  9
$CHAMFERB
 40
0.0
  9
$SKPOLY
 70
     0
  9
$TDCREATE
 40
2305814.0419038199
  9
$TDUPDATE
 40
2459635.516453519
  9
$TDINDWG
 40
0.0004209954
  9
$TDUSRTIMER
 40
0.0004202431
  9
$USRTIMER
 70
     1
  9
$ANGBASE
 50
0.0
  9
$ANGDIR
 70
     0
  9
$PDMODE
 70
     0
  9
$PDSIZE
 40
0.0
  9
$PLINEWID
 40
0.0
  9
$COORDS
 70
     0
  9
$SPLFRAME
 70
     0
  9
$SPLINETYPE
 70
     6
  9
$SPLINESEGS
 70
    10
  9
$ATTDIA
 70
     0
  9
$ATTREQ
 70
     1
  9
$HANDLING
 70
     1
  9
$HANDSEED
  5
989
  9
$SURFTAB1
 70
     6
  9
$SURFTAB2
 70
     6
  9
$SURFTYPE
 70
     6
  9
$SURFU
 70
     6
  9
$SURFV
 70
     6
  9
$UCSNAME
  2

  9
$UCSORG
 10
0.0
 20
0.0
 30
0.0
  9
$UCSXDIR
 10
1.0
 20
0.0
 30
0.0
  9
$UCSYDIR
 10
0.0
 20
1.0
 30
0.0
  9
$PUCSNAME
  2

  9
$PUCSORG
 10
0.0
 20
0.0
 30
0.0
  9
$PUCSXDIR
 10
1.0
 20
0.0
 30
0.0
  9
$PUCSYDIR
 10
0.0
 20
1.0
 30
0.0
  9
$USERI1
 70
     0
  9
$USERI2
 70
     0
  9
$USERI3
 70
     0
  9
$USERI4
 70
     0
  9
$USERI5
 70
     0
  9
$USERR1
 40
0.0
  9
$USERR2
 40
0.0
  9
$USERR3
 40
0.0
  9
$USERR4
 40
0.0
  9
$USERR5
 40
0.0
  9
$WORLDVIEW
 70
     1
  9
$SHADEDGE
 70
     3
  9
$SHADEDIF
 70
    70
  9
$TILEMODE
 70
     1
  9
$MAXACTVP
 70
    64
  9
$PLIMCHECK
 70
     0
  9
$PEXTMIN
 10
1.0000000000000000E+020
 20
1.0000000000000000E+020
 30
1.0000000000000000E+020
  9
$PEXTMAX
 10
-1.0000000000000000E+020
 20
-1.0000000000000000E+020
 30
-1.0000000000000000E+020
  9
$PLIMMIN
 10
0.0
 20
0.0
  9
$PLIMMAX
 10
12.0
 20
9.0
  9
$UNITMODE
 70
     0
  9
$VISRETAIN
 70
     1
  9
$PLINEGEN
 70
     0
  9
$PSLTSCALE
 70
     1
  0
ENDSEC
  0
SECTION
  2
TABLES
  0
TABLE
  2
VPORT
 70
     1
  0
VPORT
  2
*ACTIVE
 70
     0
 10
0.0
 20
0.0
 11
1.0
 21
1.0
 12
1781.0785980000001
 22
3195.6239139999998
 13
0.0
 23
0.0
 14
1.0
 24
1.0
 15
0.0
 25
0.0
 16
0.0
 26
0.0
 36
1.0
 17
0.0
 27
0.0
 37
0.0
 40
2997.5
 41
1.9134466769706331
 42
50.0
 43
0.0
 44
0.0
 50
0.0
 51
0.0
 71
     0
 72
   100
 73
     1
 74
     1
 75
     0
 76
     0
 77
     0
 78
     0
  0
ENDTAB
  0
TABLE
  2
LTYPE
 70
    11
  0
LTYPE
  2
CONTINUOUS
 70
     0
  3
Solid line
 72
    65
 73
     0
 40
0.0
  0
LTYPE
  2
VERDECKT
 70
     0
  3
_ _ _ _ _ _ _ _ _ _ _ _ _ _ _ _ _ _ _ _ _ _ 
 72
    65
 73
     2
 40
0.25
 49
0.125
 49
-0.125
  0
LTYPE
  2
GESTRICHELT
 70
     0
  3
__ __ __ __ __ __ __ __ __ __ __ __ __ __ __
 72
    65
 73
     2
 40
0.75
 49
0.5
 49
-0.25
  0
LTYPE
  2
MITTELLINIE
 70
     0
  3
____ _ ____ _ ____ _ ____ _ ____ _ ____ _ __
 72
    65
 73
     4
 40
2.0
 49
1.25
 49
-0.25
 49
0.25
 49
-0.25
  0
LTYPE
  2
PHANTOM
 70
     0
  3
_____ _ _ _____ _ _ _____ _ _ _____ _ _ ____
 72
    65
 73
     6
 40
2.5
 49
1.25
 49
-0.25
 49
0.25
 49
-0.25
 49
0.25
 49
-0.25
  0
LTYPE
  2
PUNKTIERT
 70
     0
  3
............................................
 72
    65
 73
     2
 40
0.25
 49
0.0
 49
-0.25
  0
LTYPE
  2
STRICHPUNKTIERT
 70
     0
  3
__ . __ . __ . __ . __ . __ . __ . __ . __ .
 72
    65
 73
     4
 40
1.0
 49
0.5
 49
-0.25
 49
0.0
 49
-0.25
  0
LTYPE
  2
RAND
 70
     0
  3
__ __ . __ __ . __ __ . __ __ . __ __ . __ _
 72
    65
 73
     6
 40
1.75
 49
0.5
 49
-0.25
 49
0.5
 49
-0.25
 49
0.0
 49
-0.25
  0
LTYPE
  2
TRENNLINIE
 70
     0
  3
__ . . __ . . __ . . __ . . __ . . __ . . __
 72
    65
 73
     6
 40
1.25
 49
0.5
 49
-0.25
 49
0.0
 49
-0.25
 49
0.0
 49
-0.25
  0
LTYPE
  2
ENG_PUNKTIERT
 70
     0
  3
Schließen                                   
 72
    65
 73
     2
 40
0.1
 49
0.05
 49
-0.05
  0
LTYPE
  2
CLOSE
 70
     0
  3
                                            
 72
    65
 73
     0
 40
0.0
  0
ENDTAB
  0
TABLE
  2
LAYER
 70
   256
  0
LAYER
  2
0
 70
     0
 62
     7
  6
CONTINUOUS
  0
LAYER
  2
LAYER01
 70
     0
 62
     7
  6
CONTINUOUS
  0
LAYER
  2
LAYER02
 70
     0
 62
     7
  6
CONTINUOUS
  0
LAYER
  2
LAYER03
 70
     0
 62
     7
  6
CONTINUOUS
  0
LAYER
  2
LAYER04
 70
     0
 62
     7
  6
CONTINUOUS
  0
LAYER
  2
LAYER05
 70
     0
 62
     7
  6
CONTINUOUS
  0
LAYER
  2
LAYER06
 70
     0
 62
     7
  6
CONTINUOUS
  0
LAYER
  2
LAYER07
 70
     0
 62
     7
  6
CONTINUOUS
  0
LAYER
  2
LAYER08
 70
     0
 62
     7
  6
CONTINUOUS
  0
LAYER
  2
LAYER09
 70
     0
 62
     7
  6
CONTINUOUS
  0
LAYER
  2
LAYER10
 70
     0
 62
     7
  6
CONTINUOUS
  0
LAYER
  2
2
 70
     0
 62
     7
  6
CONTINUOUS
  0
LAYER
  2
5
 70
     0
 62
     7
  6
CONTINUOUS
  0
LAYER
  2
RAUMAUFM
 70
     0
 62
     7
  6
CONTINUOUS
  0
LAYER
  2
EINRICHT
 70
     0
 62
     7
  6
CONTINUOUS
  0
LAYER
  2
HILFE
 70
     0
 62
     7
  6
CONTINUOUS
  0
LAYER
  2
SCHNITTE
 70
     0
 62
     7
  6
CONTINUOUS
  0
LAYER
  2
SCHRAFF1
 70
     0
 62
     7
  6
CONTINUOUS
  0
LAYER
  2
SCHRAFF2
 70
     0
 62
     7
  6
CONTINUOUS
  0
LAYER
  2
BEMASS-1
 70
     0
 62
     7
  6
CONTINUOUS
  0
LAYER
  2
BEMASS-2
 70
     0
 62
     7
  6
CONTINUOUS
  0
LAYER
  2
TEXT
 70
     0
 62
     7
  6
CONTINUOUS
  0
LAYER
  2
SYMBOLE
 70
     0
 62
     7
  6
CONTINUOUS
  0
LAYER
  2
RAHMEN
 70
     0
 62
     7
  6
CONTINUOUS
  0
LAYER
  2
SCHRIFTF
 70
     0
 62
     7
  6
CONTINUOUS
  0
LAYER
  2
ACHSEN
 70
     0
 62
     7
  6
CONTINUOUS
  0
LAYER
  2
ZEICHN
 70
     0
 62
     7
  6
CONTINUOUS
  0
LAYER
  2
7
 70
     0
 62
     7
  6
CONTINUOUS
  0
LAYER
  2
1
 70
     0
 62
     7
  6
CONTINUOUS
  0
LAYER
  2
6
 70
     0
 62
     7
  6
CONTINUOUS
  0
LAYER
  2
4
 70
     0
 62
     7
  6
CONTINUOUS
  0
LAYER
  2
GRUNDEBENE
 70
     0
 62
     7
  6
CONTINUOUS
  0
LAYER
  2
GRUNDRISS
 70
     0
 62
     7
  6
CONTINUOUS
  0
LAYER
  2
BEMASSUNGGRUNDRISS
 70
     0
 62
     7
  6
CONTINUOUS
  0
LAYER
  2
WANDELEMENTE
 70
     0
 62
     7
  6
CONTINUOUS
  0
LAYER
  2
KUECHE
 70
     0
 62
     7
  6
CONTINUOUS
  0
LAYER
  2
THEKEBROETCHEN
 70
     0
 62
     7
  6
CONTINUOUS
  0
LAYER
  2
CENTERLINIE
 70
     0
 62
     7
  6
CONTINUOUS
  0
LAYER
  2
UMRISSE
 70
     0
 62
     7
  6
CONTINUOUS
  0
LAYER
  2
MAUER
 70
     0
 62
     7
  6
CONTINUOUS
  0
LAYER
  2
SCHRAFFUR
 70
     0
 62
     7
  6
CONTINUOUS
  0
LAYER
  2
MASSLINIE
 70
     0
 62
     7
  6
CONTINUOUS
  0
LAYER
  2
PV
 70
     0
 62
     7
  6
CONTINUOUS
  0
LAYER
  2
BESCHRIFTUNG
 70
     0
 62
     7
  6
CONTINUOUS
  0
LAYER
  2
AS
 70
     0
 62
     7
  6
CONTINUOUS
  0
LAYER
  2
PL
 70
     0
 62
     7
  6
CONTINUOUS
  0
LAYER
  2
UK
 70
     0
 62
     7
  6
CONTINUOUS
  0
LAYER
  2
TEXT3
 70
     0
 62
     7
  6
CONTINUOUS
  0
LAYER
  2
TEXT7
 70
     0
 62
     7
  6
CONTINUOUS
  0
LAYER
  2
BEPL1
 70
     0
 62
     7
  6
CONTINUOUS
  0
LAYER
  2
BEPL2
 70
     0
 62
     7
  6
CONTINUOUS
  0
LAYER
  2
BEPL2V
 70
     0
 62
     7
  6
CONTINUOUS
  0
LAYER
  2
BEPL4
 70
     0
 62
     7
  6
CONTINUOUS
  0
LAYER
  2
BEPL
 70
     0
 62
     7
  6
CONTINUOUS
  0
LAYER
  2
UK1
 70
     0
 62
     7
  6
CONTINUOUS
  0
LAYER
  2
UK2
 70
     0
 62
     7
  6
CONTINUOUS
  0
LAYER
  2
UK2V
 70
     0
 62
     7
  6
CONTINUOUS
  0
LAYER
  2
UK3
 70
     0
 62
     7
  6
CONTINUOUS
  0
LAYER
  2
TEXT2
 70
     0
 62
     7
  6
CONTINUOUS
  0
LAYER
  2
HILF2S
 70
     0
 62
     7
  6
CONTINUOUS
  0
LAYER
  2
UK1V
 70
     0
 62
     7
  6
CONTINUOUS
  0
LAYER
  2
GAIN_ZRA
 70
     0
 62
     7
  6
CONTINUOUS
  0
LAYER
  2
GAIN_ZSF
 70
     0
 62
     7
  6
CONTINUOUS
  0
LAYER
  2
RAHM4
 70
     0
 62
     7
  6
CONTINUOUS
  0
LAYER
  2
KORPUSBAND
 70
     0
 62
     7
  6
CONTINUOUS
  0
LAYER
  2
E---LGPL--------
 70
     0
 62
     7
  6
CONTINUOUS
  0
LAYER
  2
E---NPFL--------
 70
     0
 62
     7
  6
CONTINUOUS
  0
LAYER
  2
E---PLNKTXT-----
 70
     0
 62
     7
  6
CONTINUOUS
  0
LAYER
  2
E---PLNK--------
 70
     0
 62
     7
  6
CONTINUOUS
  0
LAYER
  2
E---PLNR--------
 70
     0
 62
     7
  6
CONTINUOUS
  0
LAYER
  2
D547_ARCHICAD
 70
     0
 62
     7
  6
CONTINUOUS
  0
LAYER
  2
D547_E---TEXT--------
 70
     0
 62
     7
  6
CONTINUOUS
  0
LAYER
  2
E---LEGD--------
 70
     0
 62
     7
  6
CONTINUOUS
  0
LAYER
  2
D43_ARCHICAD
 70
     0
 62
     7
  6
CONTINUOUS
  0
LAYER
  2
D43_FENSTER_VON_B---FASS--
 70
     0
 62
     7
  6
CONTINUOUS
  0
LAYER
  2
D43_E---SCHN--------
 70
     0
 62
     7
  6
CONTINUOUS
  0
LAYER
  2
D43_B---MW-N--------
 70
     0
 62
     7
  6
CONTINUOUS
  0
LAYER
  2
D43_B---DECK--------
 70
     0
 62
     7
  6
CONTINUOUS
  0
LAYER
  2
D43_B---MW-S--------
 70
     0
 62
     7
  6
CONTINUOUS
  0
LAYER
  2
D43_B---MW----------
 70
     0
 62
     7
  6
CONTINUOUS
  0
LAYER
  2
D43_B---FASS--------
 70
     0
 62
     7
  6
CONTINUOUS
  0
LAYER
  2
D43_E---RASG--------
 70
     0
 62
     7
  6
CONTINUOUS
  0
LAYER
  2
D40_ARCHICAD
 70
     0
 62
     7
  6
CONTINUOUS
  0
LAYER
  2
D40_E---MW--------
 70
     0
 62
     7
  6
CONTINUOUS
  0
LAYER
  2
D40_E---FASSKON-----
 70
     0
 62
     7
  6
CONTINUOUS
  0
LAYER
  2
D40_TÜREN_VON_B---MW-N----
 70
     0
 62
     7
  6
CONTINUOUS
  0
LAYER
  2
D40_E---MW-L------
 70
     0
 62
     7
  6
CONTINUOUS
  0
LAYER
  2
D40_TÜREN_VON_B---MW------
 70
     0
 62
     7
  6
CONTINUOUS
  0
LAYER
  2
D40_E---VERM--------
 70
     0
 62
     7
  6
CONTINUOUS
  0
LAYER
  2
D40_FENSTER_VON_E---MW-L--
 70
     0
 62
     7
  6
CONTINUOUS
  0
LAYER
  2
D40_FENSTER_VON_B---MW-N--
 70
     0
 62
     7
  6
CONTINUOUS
  0
LAYER
  2
D40_E---SCHN--------
 70
     0
 62
     7
  6
CONTINUOUS
  0
LAYER
  2
D40_E---AUFZ--------
 70
     0
 62
     7
  6
CONTINUOUS
  0
LAYER
  2
D40_E---DECK--------
 70
     0
 62
     7
  6
CONTINUOUS
  0
LAYER
  2
D40_E---RAUMINF-----
 70
     0
 62
     7
  6
CONTINUOUS
  0
LAYER
  2
D40_E---TEXT--------
 70
     0
 62
     7
  6
CONTINUOUS
  0
LAYER
  2
D40_B---TEXT--------
 70
     0
 62
     7
  6
CONTINUOUS
  0
LAYER
  2
D40_B---MW-N--------
 70
     0
 62
     7
  6
CONTINUOUS
  0
LAYER
  2
D40_B---DECK--------
 70
     0
 62
     7
  6
CONTINUOUS
  0
LAYER
  2
D40_B---AUFZ--------
 70
     0
 62
     7
  6
CONTINUOUS
  0
LAYER
  2
D40_B---MW-S--------
 70
     0
 62
     7
  6
CONTINUOUS
  0
LAYER
  2
D40_B---MW----------
 70
     0
 62
     7
  6
CONTINUOUS
  0
LAYER
  2
D40_E---MOEB--------
 70
     0
 62
     7
  6
CONTINUOUS
  0
LAYER
  2
D40_B---UMGB--------
 70
     0
 62
     7
  6
CONTINUOUS
  0
LAYER
  2
D40_B---FASS--------
 70
     0
 62
     7
  6
CONTINUOUS
  0
LAYER
  2
D40_E---DACH--------
 70
     0
 62
     7
  6
CONTINUOUS
  0
LAYER
  2
D40_E---BODE--------
 70
     0
 62
     7
  6
CONTINUOUS
  0
LAYER
  2
D40_E---TREP--------
 70
     0
 62
     7
  6
CONTINUOUS
  0
LAYER
  2
D40_E---RASG--------
 70
     0
 62
     7
  6
CONTINUOUS
  0
LAYER
  2
D40_B---MW-K--------
 70
     0
 62
     7
  6
CONTINUOUS
  0
LAYER
  2
D40_E---FASSGLA-----
 70
     0
 62
     7
  6
CONTINUOUS
  0
LAYER
  2
D40_B---VERM--------
 70
     0
 62
     7
  6
CONTINUOUS
  0
LAYER
  2
D40_E---UMGBGSG-----
 70
     0
 62
     7
  6
CONTINUOUS
  0
LAYER
  2
D40_E---RASF--------
 70
     0
 62
     7
  6
CONTINUOUS
  0
LAYER
  2
D40_E---PFLA--------
 70
     0
 62
     7
  6
CONTINUOUS
  0
LAYER
  2
D40_E---KONS-ST-----
 70
     0
 62
     7
  6
CONTINUOUS
  0
LAYER
  2
D40_E---WERB--------
 70
     0
 62
     7
  6
CONTINUOUS
  0
LAYER
  2
D40_E---TUERINF-----
 70
     0
 62
     7
  6
CONTINUOUS
  0
LAYER
  2
D40_E---WOLK--------
 70
     0
 62
     7
  6
CONTINUOUS
  0
LAYER
  2
D40_B---MW-L--------
 70
     0
 62
     7
  6
CONTINUOUS
  0
LAYER
  2
D40_B---SANI--------
 70
     0
 62
     7
  6
CONTINUOUS
  0
LAYER
  2
D40_E---SANI--------
 70
     0
 62
     7
  6
CONTINUOUS
  0
LAYER
  2
D40_E---MW-K------
 70
     0
 62
     7
  6
CONTINUOUS
  0
LAYER
  2
D40_E---OBJE--------
 70
     0
 62
     7
  6
CONTINUOUS
  0
LAYER
  2
D40_E---ASPR--------
 70
     0
 62
     7
  6
CONTINUOUS
  0
LAYER
  2
D40_E---VERMTGA-----
 70
     0
 62
     7
  6
CONTINUOUS
  0
LAYER
  2
D40_E---PARK--------
 70
     0
 62
     7
  6
CONTINUOUS
  0
LAYER
  2
D40_E---ISOL--------
 70
     0
 62
     7
  6
CONTINUOUS
  0
LAYER
  2
D40_E---TUER--------
 70
     0
 62
     7
  6
CONTINUOUS
  0
LAYER
  2
D40_E---MW--BRA---
 70
     0
 62
     7
  6
CONTINUOUS
  0
LAYER
  2
D41_ARCHICAD
 70
     0
 62
     7
  6
CONTINUOUS
  0
LAYER
  2
D41_E---MW--------
 70
     0
 62
     7
  6
CONTINUOUS
  0
LAYER
  2
D41_E---FASSKON-----
 70
     0
 62
     7
  6
CONTINUOUS
  0
LAYER
  2
D41_TÜREN_VON_B---MW-N----
 70
     0
 62
     7
  6
CONTINUOUS
  0
LAYER
  2
D41_E---MW-L------
 70
     0
 62
     7
  6
CONTINUOUS
  0
LAYER
  2
D41_TÜREN_VON_B---MW------
 70
     0
 62
     7
  6
CONTINUOUS
  0
LAYER
  2
D41_E---VERM--------
 70
     0
 62
     7
  6
CONTINUOUS
  0
LAYER
  2
D41_FENSTER_VON_E---MW-L--
 70
     0
 62
     7
  6
CONTINUOUS
  0
LAYER
  2
D41_FENSTER_VON_B---MW-N--
 70
     0
 62
     7
  6
CONTINUOUS
  0
LAYER
  2
D41_E---SCHN--------
 70
     0
 62
     7
  6
CONTINUOUS
  0
LAYER
  2
D41_E---AUFZ--------
 70
     0
 62
     7
  6
CONTINUOUS
  0
LAYER
  2
D41_E---DECK--------
 70
     0
 62
     7
  6
CONTINUOUS
  0
LAYER
  2
D41_E---RAUMINF-----
 70
     0
 62
     7
  6
CONTINUOUS
  0
LAYER
  2
D41_E---TEXT--------
 70
     0
 62
     7
  6
CONTINUOUS
  0
LAYER
  2
D41_B---TEXT--------
 70
     0
 62
     7
  6
CONTINUOUS
  0
LAYER
  2
D41_B---MW-N--------
 70
     0
 62
     7
  6
CONTINUOUS
  0
LAYER
  2
D41_B---DECK--------
 70
     0
 62
     7
  6
CONTINUOUS
  0
LAYER
  2
D41_B---AUFZ--------
 70
     0
 62
     7
  6
CONTINUOUS
  0
LAYER
  2
D41_B---MW-S--------
 70
     0
 62
     7
  6
CONTINUOUS
  0
LAYER
  2
D41_B---MW----------
 70
     0
 62
     7
  6
CONTINUOUS
  0
LAYER
  2
D41_E---MOEB--------
 70
     0
 62
     7
  6
CONTINUOUS
  0
LAYER
  2
D41_B---UMGB--------
 70
     0
 62
     7
  6
CONTINUOUS
  0
LAYER
  2
D41_B---FASS--------
 70
     0
 62
     7
  6
CONTINUOUS
  0
LAYER
  2
D41_E---DACH--------
 70
     0
 62
     7
  6
CONTINUOUS
  0
LAYER
  2
D41_E---BODE--------
 70
     0
 62
     7
  6
CONTINUOUS
  0
LAYER
  2
D41_E---TREP--------
 70
     0
 62
     7
  6
CONTINUOUS
  0
LAYER
  2
D41_E---RASG--------
 70
     0
 62
     7
  6
CONTINUOUS
  0
LAYER
  2
D41_B---MW-K--------
 70
     0
 62
     7
  6
CONTINUOUS
  0
LAYER
  2
D41_E---FASSGLA-----
 70
     0
 62
     7
  6
CONTINUOUS
  0
LAYER
  2
D41_B---VERM--------
 70
     0
 62
     7
  6
CONTINUOUS
  0
LAYER
  2
D41_E---UMGBGSG-----
 70
     0
 62
     7
  6
CONTINUOUS
  0
LAYER
  2
D41_E---RASF--------
 70
     0
 62
     7
  6
CONTINUOUS
  0
LAYER
  2
D41_E---PFLA--------
 70
     0
 62
     7
  6
CONTINUOUS
  0
LAYER
  2
D41_E---KONS-ST-----
 70
     0
 62
     7
  6
CONTINUOUS
  0
LAYER
  2
D41_E---WERB--------
 70
     0
 62
     7
  6
CONTINUOUS
  0
LAYER
  2
D41_E---TUERINF-----
 70
     0
 62
     7
  6
CONTINUOUS
  0
LAYER
  2
D41_E---WOLK--------
 70
     0
 62
     7
  6
CONTINUOUS
  0
LAYER
  2
D41_B---MW-L--------
 70
     0
 62
     7
  6
CONTINUOUS
  0
LAYER
  2
D41_B---SANI--------
 70
     0
 62
     7
  6
CONTINUOUS
  0
LAYER
  2
D41_E---SANI--------
 70
     0
 62
     7
  6
CONTINUOUS
  0
LAYER
  2
D41_E---MW-K------
 70
     0
 62
     7
  6
CONTINUOUS
  0
LAYER
  2
D41_E---OBJE--------
 70
     0
 62
     7
  6
CONTINUOUS
  0
LAYER
  2
D41_E---ASPR--------
 70
     0
 62
     7
  6
CONTINUOUS
  0
LAYER
  2
D41_E---VERMTGA-----
 70
     0
 62
     7
  6
CONTINUOUS
  0
LAYER
  2
D41_E---PARK--------
 70
     0
 62
     7
  6
CONTINUOUS
  0
LAYER
  2
D41_E---ISOL--------
 70
     0
 62
     7
  6
CONTINUOUS
  0
LAYER
  2
D41_E---TUER--------
 70
     0
 62
     7
  6
CONTINUOUS
  0
LAYER
  2
D41_E---MW--BRA---
 70
     0
 62
     7
  6
CONTINUOUS
  0
LAYER
  2
D42_ARCHICAD
 70
     0
 62
     7
  6
CONTINUOUS
  0
LAYER
  2
D42_FENSTER_VON_B---FASS--
 70
     0
 62
     7
  6
CONTINUOUS
  0
LAYER
  2
D42_E---SCHN--------
 70
     0
 62
     7
  6
CONTINUOUS
  0
LAYER
  2
D42_B---MW-N--------
 70
     0
 62
     7
  6
CONTINUOUS
  0
LAYER
  2
D42_B---DECK--------
 70
     0
 62
     7
  6
CONTINUOUS
  0
LAYER
  2
D42_B---MW-S--------
 70
     0
 62
     7
  6
CONTINUOUS
  0
LAYER
  2
D42_B---MW----------
 70
     0
 62
     7
  6
CONTINUOUS
  0
LAYER
  2
D42_B---FASS--------
 70
     0
 62
     7
  6
CONTINUOUS
  0
LAYER
  2
D42_E---RASG--------
 70
     0
 62
     7
  6
CONTINUOUS
  0
LAYER
  2
CONSTRUCTION_CLASS
 70
     0
 62
     7
  6
CONTINUOUS
  0
LAYER
  2
PATTERN_CLASS
 70
     0
 62
     7
  6
CONTINUOUS
  0
LAYER
  2
KONSTRUKTION
 70
     0
 62
     7
  6
CONTINUOUS
  0
LAYER
  2
BEMAßUNG
 70
     0
 62
     7
  6
CONTINUOUS
  0
LAYER
  2
HILFSGEOMETRIE
 70
     0
 62
     7
  6
CONTINUOUS
  0
LAYER
  2
UNSICHTBAR
 70
     0
 62
     7
  6
CONTINUOUS
  0
LAYER
  2
LOGO
 70
     0
 62
     7
  6
CONTINUOUS
  0
LAYER
  2
VERWALTUNG
 70
     0
 62
     7
  6
CONTINUOUS
  0
LAYER
  2
UNSICHTBARE_GEWINDE
 70
     0
 62
     7
  6
CONTINUOUS
  0
LAYER
  2
SICHTBARE_GEWINDE
 70
     0
 62
     7
  6
CONTINUOUS
  0
LAYER
  2
DEFPOINTS
 70
     0
 62
     7
  6
CONTINUOUS
  0
LAYER
  2
THICK
 70
     0
 62
     7
  6
CONTINUOUS
  0
LAYER
  2
HIDDEN
 70
     0
 62
     7
  6
CONTINUOUS
  0
LAYER
  2
SCHRAFFURGRUNDRISS
 70
     0
 62
     7
  6
CONTINUOUS
  0
LAYER
  2
BEMASSUNG_GRUNDRISS
 70
     0
 62
     7
  6
CONTINUOUS
  0
LAYER
  2
STATIK
 70
     0
 62
     7
  6
CONTINUOUS
  0
LAYER
  2
TÜREN
 70
     0
 62
     7
  6
CONTINUOUS
  0
LAYER
  2
SANITÄR
 70
     0
 62
     7
  6
CONTINUOUS
  0
LAYER
  2
BEMASSUNG_GIPSKARTON
 70
     0
 62
     7
  6
CONTINUOUS
  0
LAYER
  2
EINRICHTUNGEN
 70
     0
 62
     7
  6
CONTINUOUS
  0
LAYER
  2
BECKEN
 70
     0
 62
     7
  6
CONTINUOUS
  0
LAYER
  2
BELEUCHTUNG
 70
     0
 62
     7
  6
CONTINUOUS
  0
LAYER
  2
BESCHRIFTUNGEN
 70
     0
 62
     7
  6
CONTINUOUS
  0
LAYER
  2
ELEKTRO_1__DOSEN_SCHALTER
 70
     0
 62
     7
  6
CONTINUOUS
  0
LAYER
  2
DEFAULT_1
 70
     0
 62
     7
  6
CONTINUOUS
  0
LAYER
  2
AM_0
 70
     0
 62
     7
  6
CONTINUOUS
  0
LAYER
  2
FRAME0_7
 70
     0
 62
     7
  6
CONTINUOUS
  0
LAYER
  2
AM_BOR
 70
     0
 62
     7
  6
CONTINUOUS
  0
LAYER
  2
RAHM2
 70
     0
 62
     7
  6
CONTINUOUS
  0
LAYER
  2
RAHM3
 70
     0
 62
     7
  6
CONTINUOUS
  0
LAYER
  2
FRAME0_5
 70
     0
 62
     7
  6
CONTINUOUS
  0
LAYER
  2
8
 70
     0
 62
     7
  6
CONTINUOUS
  0
LAYER
  2
AM_5
 70
     0
 62
     7
  6
CONTINUOUS
  0
LAYER
  2
AM_7
 70
     0
 62
     7
  6
CONTINUOUS
  0
LAYER
  2
HILFSLINIEN
 70
     0
 62
     7
  6
CONTINUOUS
  0
LAYER
  2
DRAWING_TEMPLATE
 70
     0
 62
     7
  6
CONTINUOUS
  0
LAYER
  2
TECHNOBOX_EXTERNALREFSYMBO
 70
     0
 62
     7
  6
CONTINUOUS
  0
LAYER
  2
TECHNOBOX_POLYCLIPSYMBOL_L
 70
     0
 62
     7
  6
CONTINUOUS
  0
LAYER
  2
100
 70
     0
 62
     7
  6
CONTINUOUS
  0
LAYER
  2
101
 70
     0
 62
     7
  6
CONTINUOUS
  0
LAYER
  2
KONTUR
 70
     0
 62
     7
  6
CONTINUOUS
  0
LAYER
  2
MITTELLINIE
 70
     0
 62
     7
  6
CONTINUOUS
  0
LAYER
  2
GESTRICHELT
 70
     0
 62
     7
  6
CONTINUOUS
  0
LAYER
  2
HILFSLINIE
 70
     0
 62
     7
  6
CONTINUOUS
  0
LAYER
  2
TEXT-25
 70
     0
 62
     7
  6
CONTINUOUS
  0
LAYER
  2
TEXT35
 70
     0
 62
     7
  6
CONTINUOUS
  0
LAYER
  2
TEXT-50
 70
     0
 62
     7
  6
CONTINUOUS
  0
LAYER
  2
TEXT-70
 70
     0
 62
     7
  6
CONTINUOUS
  0
LAYER
  2
ANSICHTSFENSTER
 70
     0
 62
     7
  6
CONTINUOUS
  0
LAYER
  2
KERA0
 70
     0
 62
     7
  6
CONTINUOUS
  0
LAYER
  2
KERA1
 70
     0
 62
     7
  6
CONTINUOUS
  0
LAYER
  2
KERA2
 70
     0
 62
     7
  6
CONTINUOUS
  0
LAYER
  2
KERA3
 70
     0
 62
     7
  6
CONTINUOUS
  0
LAYER
  2
KERA4
 70
     0
 62
     7
  6
CONTINUOUS
  0
LAYER
  2
KERA5
 70
     0
 62
     7
  6
CONTINUOUS
  0
LAYER
  2
KERA6
 70
     0
 62
     7
  6
CONTINUOUS
  0
LAYER
  2
KERA7
 70
     0
 62
     7
  6
CONTINUOUS
  0
LAYER
  2
20
 70
     0
 62
     7
  6
CONTINUOUS
  0
LAYER
  2
50
 70
     0
 62
     7
  6
CONTINUOUS
  0
LAYER
  2
FORMAT
 70
     0
 62
     7
  6
CONTINUOUS
  0
LAYER
  2
BECKEN_FUTURA_EBENE_1
 70
     0
 62
     7
  6
CONTINUOUS
  0
LAYER
  2
EBENE_1
 70
     0
 62
     7
  6
CONTINUOUS
  0
LAYER
  2
EBENE_2
 70
     0
 62
     7
  6
CONTINUOUS
  0
LAYER
  2
EBENE_5
 70
     0
 62
     7
  6
CONTINUOUS
  0
LAYER
  2
3
 70
     0
 62
     7
  6
CONTINUOUS
  0
LAYER
  2
GEB-KONTUR-A
 70
     0
 62
     7
  6
CONTINUOUS
  0
LAYER
  2
GEB-SYMETRIE
 70
     0
 62
     7
  6
CONTINUOUS
  0
LAYER
  2
GEB-ART-NR
 70
     0
 62
     7
  6
CONTINUOUS
  0
LAYER
  2
PROJECTION
 70
     0
 62
     7
  6
CONTINUOUS
  0
ENDTAB
  0
TABLE
  2
STYLE
 70
     3
  0
STYLE
  2
STANDARD
 70
     0
 40
0.0
 41
1.0
 50
0.0
 71
     0
 42
0.0
  3
txt
  4

  0
STYLE
  2
ANNOTATIVE
 70
     0
 40
0.0
 41
1.0
 50
0.0
 71
     0
 42
0.2
  3
txt
  4

  0
STYLE
  2
SIMPLEX
 70
     0
 40
0.0
 41
1.0
 50
0.0
 71
     0
 42
0.0
  3
simplex
  4

  0
ENDTAB
  0
TABLE
  2
VIEW
 70
     0
  0
ENDTAB
  0
TABLE
  2
UCS
 70
     0
  0
ENDTAB
  0
TABLE
  2
APPID
 70
     3
  0
APPID
  2
ACAD
 70
     0
  0
APPID
  2
ACADANNOTATIVE
 70
     0
  0
APPID
  2
ACAD_MLEADERVER
 70
     0
  0
ENDTAB
  0
TABLE
  2
DIMSTYLE
 70
     2
  0
DIMSTYLE
  2
STANDARD
 70
     0
  3

  4

  5

  6

  7

 40
1.0
 41
0.18
 42
0.0625
 43
0.38
 44
0.18
 45
0.0
 46
0.0
 47
0.0
 48
0.0
140
0.18
141
0.09
142
0.0
143
25.399999999999999
144
1.0
145
0.0
146
1.0
147
0.09
 71
     0
 72
     0
 73
     1
 74
     1
 75
     0
 76
     0
 77
     0
 78
     0
170
     0
171
     2
172
     0
173
     0
174
     0
175
     0
176
     0
177
     0
178
     0
  0
DIMSTYLE
  2
ANNOTATIVE
 70
     0
  3

  4

  5

  6

  7

 40
1.0
 41
0.18
 42
0.0625
 43
0.38
 44
0.18
 45
0.0
 46
0.0
 47
0.0
 48
0.0
140
0.18
141
0.09
142
0.0
143
25.399999999999999
144
1.0
145
0.0
146
1.0
147
0.09
 71
     0
 72
     0
 73
     1
 74
     1
 75
     0
 76
     0
 77
     0
 78
     0
170
     0
171
     2
172
     0
173
     0
174
     0
175
     0
176
     0
177
     0
178
     0
  0
ENDTAB
  0
ENDSEC
  0
SECTION
  2
BLOCKS
  0
BLOCK
  8
0
  2
$MODEL_SPACE
 70
     0
 10
0.0
 20
0.0
 30
0.0
  3
$MODEL_SPACE
  1

  0
ENDBLK
  5
76
  8
0
  0
BLOCK
 67
     1
  8
0
  2
$PAPER_SPACE
 70
     0
 10
0.0
 20
0.0
 30
0.0
  3
$PAPER_SPACE
  1

  0
ENDBLK
  5
72
 67
     1
  8
0
  0
BLOCK
  8
0
  2
*D0
 70
     1
 10
0.0
 20
0.0
 30
0.0
  3
*D0
  1

  0
LINE
  5
187
  8
LAYER01
 62
     7
 10
181.47313600000001
 20
3152.7680420000002
 30
0.0
 11
181.47313600000001
 21
3104.7680420000002
 31
0.0
  0
LINE
  5
188
  8
LAYER01
 62
     7
 10
181.47313600000001
 20
3167.7680500000001
 30
0.0
 11
181.47313600000001
 21
3215.768050000001
 31
0.0
  0
LINE
  5
189
  8
LAYER01
 62
     7
 10
355.9378319999999
 20
3152.7680420000002
 30
0.0
 11
166.47313600000001
 21
3152.7680420000002
 31
0.0
  0
LINE
  5
18A
  8
LAYER01
 62
     7
 10
355.9378319999999
 20
3167.7680500000001
 30
0.0
 11
166.47313600000001
 21
3167.7680500000001
 31
0.0
  0
SOLID
  5
18B
  8
LAYER01
 62
     7
 10
185.47297599999999
 20
3128.7680420000002
 30
0.0
 11
181.47313600000001
 21
3152.7680420000002
 31
0.0
 12
177.473296
 22
3128.7680420000002
 32
0.0
 13
177.473296
 23
3128.7680420000002
 33
0.0
  0
SOLID
  5
18C
  8
LAYER01
 62
     7
 10
185.47297599999999
 20
3191.7680500000001
 30
0.0
 11
181.47313600000001
 21
3167.7680500000001
 31
0.0
 12
177.473296
 22
3191.7680500000001
 32
0.0
 13
177.473296
 23
3191.7680500000001
 33
0.0
  0
TEXT
  5
18D
  8
LAYER01
  6
VERDECKT
 62
     7
 10
166.47313600000001
 20
3230.7680500000001
 30
0.0
 40
30.0
  1
15
 50
90.0
  7
SIMPLEX
  0
POINT
  5
18E
  8
LAYER01
 62
     7
 10
367.93783200000001
 20
3152.7680420000002
 30
0.0
  0
POINT
  5
18F
  8
LAYER01
 62
     7
 10
367.93783200000001
 20
3167.7680500000001
 30
0.0
  0
POINT
  5
190
  8
LAYER01
 62
     7
 10
181.47313600000001
 20
3167.7680500000001
 30
0.0
  0
ENDBLK
  5
191
  8
0
  0
BLOCK
  8
0
  2
*D1
 70
     1
 10
0.0
 20
0.0
 30
0.0
  3
*D1
  1

  0
LINE
  5
194
  8
LAYER01
 62
     7
 10
294.062702
 20
3022.7680420000002
 30
0.0
 11
294.062702
 21
3152.7680420000002
 31
0.0
  0
LINE
  5
195
  8
LAYER01
 62
     7
 10
355.9378319999999
 20
3022.7680420000002
 30
0.0
 11
279.062702
 21
3022.7680420000002
 31
0.0
  0
LINE
  5
196
  8
LAYER01
 62
     7
 10
355.9378319999999
 20
3152.7680420000002
 30
0.0
 11
279.062702
 21
3152.7680420000002
 31
0.0
  0
SOLID
  5
197
  8
LAYER01
 62
     7
 10
298.06254200000001
 20
3046.7680420000002
 30
0.0
 11
294.062702
 21
3022.7680420000002
 31
0.0
 12
290.062862
 22
3046.7680420000002
 32
0.0
 13
290.062862
 23
3046.7680420000002
 33
0.0
  0
SOLID
  5
198
  8
LAYER01
 62
     7
 10
298.06254200000001
 20
3128.7680420000002
 30
0.0
 11
294.062702
 21
3152.7680420000002
 31
0.0
 12
290.062862
 22
3128.7680420000002
 32
0.0
 13
290.062862
 23
3128.7680420000002
 33
0.0
  0
TEXT
  5
199
  8
LAYER01
  6
VERDECKT
 62
     7
 10
279.062702
 20
3052.0537559999998
 30
0.0
 40
30.0
  1
130
 50
90.0
  7
SIMPLEX
  0
POINT
  5
19A
  8
LAYER01
 62
     7
 10
367.93783200000001
 20
3022.7680420000002
 30
0.0
  0
POINT
  5
19B
  8
LAYER01
 62
     7
 10
367.93783200000001
 20
3152.7680420000002
 30
0.0
  0
POINT
  5
19C
  8
LAYER01
 62
     7
 10
294.062702
 20
3152.7680420000002
 30
0.0
  0
ENDBLK
  5
19D
  8
0
  0
BLOCK
  8
0
  2
*D2
 70
     1
 10
0.0
 20
0.0
 30
0.0
  3
*D2
  1

  0
LINE
  5
1A0
  8
LAYER01
 62
     7
 10
367.93783200000001
 20
4218.6307229999993
 30
0.0
 11
1617.9378320000001
 21
4218.6307229999993
 31
0.0
  0
LINE
  5
1A1
  8
LAYER01
 62
     7
 10
367.93783200000001
 20
4008.5558529999998
 30
0.0
 11
367.93783200000001
 21
4233.6307230000002
 31
0.0
  0
LINE
  5
1A2
  8
LAYER01
 62
     7
 10
1617.9378320000001
 20
4008.5558529999998
 30
0.0
 11
1617.9378320000001
 21
4233.6307230000002
 31
0.0
  0
SOLID
  5
1A3
  8
LAYER01
 62
     7
 10
391.93783200000001
 20
4214.6308829999998
 30
0.0
 11
367.93783200000001
 21
4218.6307229999993
 31
0.0
 12
391.93783200000001
 22
4222.6305629999997
 32
0.0
 13
391.93783200000001
 23
4222.6305629999997
 33
0.0
  0
SOLID
  5
1A4
  8
LAYER01
 62
     7
 10
1593.9378320000001
 20
4214.6308829999998
 30
0.0
 11
1617.9378320000001
 21
4218.6307229999993
 31
0.0
 12
1593.9378320000001
 22
4222.6305629999997
 32
0.0
 13
1593.9378320000001
 23
4222.6305629999997
 33
0.0
  0
TEXT
  5
1A5
  8
LAYER01
  6
CONTINUOUS
 62
     7
 10
942.93783200000007
 20
4233.6307230000002
 30
0.0
 40
30.0
  1
700-1250
  7
SIMPLEX
  0
POINT
  5
1A6
  8
LAYER01
 62
     7
 10
367.93783200000001
 20
3996.5558529999998
 30
0.0
  0
POINT
  5
1A7
  8
LAYER01
 62
     7
 10
1617.9378320000001
 20
3996.5558529999998
 30
0.0
  0
POINT
  5
1A8
  8
LAYER01
 62
     7
 10
1617.9378320000001
 20
4218.6307229999993
 30
0.0
  0
ENDBLK
  5
1A9
  8
0
  0
BLOCK
  8
0
  2
*D3
 70
     1
 10
0.0
 20
0.0
 30
0.0
  3
*D3
  1

  0
LINE
  5
1AC
  8
LAYER01
 62
     7
 10
367.93783200000001
 20
4090.2031860000002
 30
0.0
 11
992.93783200000007
 21
4090.2031860000002
 31
0.0
  0
LINE
  5
1AD
  8
LAYER01
 62
     7
 10
367.93783200000001
 20
4008.5558529999998
 30
0.0
 11
367.93783200000001
 21
4105.2031859999988
 31
0.0
  0
LINE
  5
1AE
  8
LAYER01
 62
     7
 10
992.93783200000007
 20
4008.5558529999998
 30
0.0
 11
992.93783200000007
 21
4105.2031859999988
 31
0.0
  0
SOLID
  5
1AF
  8
LAYER01
 62
     7
 10
391.93783200000001
 20
4086.2033459999998
 30
0.0
 11
367.93783200000001
 21
4090.2031860000002
 31
0.0
 12
391.93783200000001
 22
4094.2030259999992
 32
0.0
 13
391.93783200000001
 23
4094.2030259999992
 33
0.0
  0
SOLID
  5
1B0
  8
LAYER01
 62
     7
 10
968.93783200000007
 20
4086.2033459999998
 30
0.0
 11
992.93783200000007
 21
4090.2031860000002
 31
0.0
 12
968.93783200000007
 22
4094.2030259999992
 32
0.0
 13
968.93783200000007
 23
4094.2030259999992
 33
0.0
  0
TEXT
  5
1B1
  8
LAYER01
  6
CONTINUOUS
 62
     7
 10
641.86640299999999
 20
4105.2031859999988
 30
0.0
 40
30.0
  1
350-625
  7
SIMPLEX
  0
POINT
  5
1B2
  8
LAYER01
 62
     7
 10
367.93783200000001
 20
3996.5558529999998
 30
0.0
  0
POINT
  5
1B3
  8
LAYER01
 62
     7
 10
992.93783200000007
 20
3996.5558529999998
 30
0.0
  0
POINT
  5
1B4
  8
LAYER01
 62
     7
 10
992.93783200000007
 20
4090.2031860000002
 30
0.0
  0
ENDBLK
  5
1B5
  8
0
  0
BLOCK
  8
0
  2
*D4
 70
     1
 10
0.0
 20
0.0
 30
0.0
  3
*D4
  1

  0
LINE
  5
1B8
  8
LAYER01
 62
     7
 10
1297.682642
 20
3303.098054
 30
0.0
 11
688.19302199999993
 21
3303.098054
 31
0.0
  0
LINE
  5
1B9
  8
LAYER01
 62
     7
 10
1297.682642
 20
3384.555844
 30
0.0
 11
1297.682642
 21
3288.098054000001
 31
0.0
  0
LINE
  5
1BA
  8
LAYER01
 62
     7
 10
688.19302199999993
 20
3384.555844
 30
0.0
 11
688.19302199999993
 21
3288.098054000001
 31
0.0
  0
SOLID
  5
1BB
  8
LAYER01
 62
     7
 10
1273.682642
 20
3307.097894
 30
0.0
 11
1297.682642
 21
3303.098054
 31
0.0
 12
1273.682642
 22
3299.0982140000001
 32
0.0
 13
1273.682642
 23
3299.0982140000001
 33
0.0
  0
SOLID
  5
1BC
  8
LAYER01
 62
     7
 10
712.19302199999993
 20
3307.097894
 30
0.0
 11
688.19302199999993
 21
3303.098054
 31
0.0
 12
712.19302199999993
 22
3299.0982140000001
 32
0.0
 13
712.19302199999993
 23
3299.0982140000001
 33
0.0
  0
TEXT
  5
1BD
  8
LAYER01
  6
CONTINUOUS
 62
     7
 10
955.08068900000001
 20
3318.098054
 30
0.0
 40
30.0
  1
900
  7
SIMPLEX
  0
POINT
  5
1BE
  8
LAYER01
 62
     7
 10
1297.682642
 20
3396.555844
 30
0.0
  0
POINT
  5
1BF
  8
LAYER01
 62
     7
 10
688.19302199999993
 20
3396.555844
 30
0.0
  0
POINT
  5
1C0
  8
LAYER01
 62
     7
 10
688.19302199999993
 20
3303.098054
 30
0.0
  0
ENDBLK
  5
1C1
  8
0
  0
BLOCK
  8
0
  2
*D5
 70
     1
 10
0.0
 20
0.0
 30
0.0
  3
*D5
  1

  0
LINE
  5
1C4
  8
LAYER01
 62
     7
 10
167.79198600000001
 20
3996.5558529999998
 30
0.0
 11
167.79198600000001
 21
3396.555844
 31
0.0
  0
LINE
  5
1C5
  8
LAYER01
 62
     7
 10
355.9378319999999
 20
3996.5558529999998
 30
0.0
 11
152.79198600000001
 21
3996.5558529999998
 31
0.0
  0
LINE
  5
1C6
  8
LAYER01
 62
     7
 10
355.9378319999999
 20
3396.555844
 30
0.0
 11
152.79198600000001
 21
3396.555844
 31
0.0
  0
SOLID
  5
1C7
  8
LAYER01
 62
     7
 10
163.792146
 20
3972.5558529999998
 30
0.0
 11
167.79198600000001
 21
3996.5558529999998
 31
0.0
 12
171.79182599999999
 22
3972.5558529999998
 32
0.0
 13
171.79182599999999
 23
3972.5558529999998
 33
0.0
  0
SOLID
  5
1C8
  8
LAYER01
 62
     7
 10
163.792146
 20
3420.555844
 30
0.0
 11
167.79198600000001
 21
3396.555844
 31
0.0
 12
171.79182599999999
 22
3420.555844
 32
0.0
 13
171.79182599999999
 23
3420.555844
 33
0.0
  0
TEXT
  5
1C9
  8
LAYER01
  6
CONTINUOUS
 62
     7
 10
152.79198600000001
 20
3657.9844199999998
 30
0.0
 40
30.0
  1
600
 50
90.0
  7
SIMPLEX
  0
POINT
  5
1CA
  8
LAYER01
 62
     7
 10
367.93783200000001
 20
3996.5558529999998
 30
0.0
  0
POINT
  5
1CB
  8
LAYER01
 62
     7
 10
367.93783200000001
 20
3396.555844
 30
0.0
  0
POINT
  5
1CC
  8
LAYER01
 62
     7
 10
167.79198600000001
 20
3396.555844
 30
0.0
  0
ENDBLK
  5
1CD
  8
0
  0
BLOCK
  8
0
  2
*D6
 70
     1
 10
0.0
 20
0.0
 30
0.0
  3
*D6
  1

  0
LINE
  5
1D0
  8
LAYER01
 62
     7
 10
287.4631
 20
3445.228044
 30
0.0
 11
287.4631
 21
3901.3006799999998
 31
0.0
  0
LINE
  5
1D1
  8
LAYER01
 62
     7
 10
355.9378319999999
 20
3445.228044
 30
0.0
 11
272.4631
 21
3445.228044
 31
0.0
  0
LINE
  5
1D2
  8
LAYER01
 62
     7
 10
355.9378319999999
 20
3901.3006799999998
 30
0.0
 11
272.4631
 21
3901.3006799999998
 31
0.0
  0
SOLID
  5
1D3
  8
LAYER01
 62
     7
 10
291.46294
 20
3469.228044
 30
0.0
 11
287.4631
 21
3445.228044
 31
0.0
 12
283.46325999999999
 22
3469.228044
 32
0.0
 13
283.46325999999999
 23
3469.228044
 33
0.0
  0
SOLID
  5
1D4
  8
LAYER01
 62
     7
 10
291.46294
 20
3877.3006799999998
 30
0.0
 11
287.4631
 21
3901.3006799999998
 31
0.0
 12
283.46325999999999
 22
3877.3006799999998
 32
0.0
 13
283.46325999999999
 23
3877.3006799999998
 33
0.0
  0
TEXT
  5
1D5
  8
LAYER01
  6
CONTINUOUS
 62
     7
 10
272.4631
 20
3635.4072190000002
 30
0.0
 40
30.0
  1
450
 50
90.0
  7
SIMPLEX
  0
POINT
  5
1D6
  8
LAYER01
 62
     7
 10
367.93783200000001
 20
3445.228044
 30
0.0
  0
POINT
  5
1D7
  8
LAYER01
 62
     7
 10
367.93783200000001
 20
3901.3006799999998
 30
0.0
  0
POINT
  5
1D8
  8
LAYER01
 62
     7
 10
287.4631
 20
3901.3006799999998
 30
0.0
  0
ENDBLK
  5
1D9
  8
0
  0
BLOCK
  8
0
  2
*D7
 70
     1
 10
0.0
 20
0.0
 30
0.0
  3
*D7
  1

  0
LINE
  5
1DC
  8
LAYER01
 62
     7
 10
287.4631
 20
3396.555844
 30
0.0
 11
287.4631
 21
3445.228044
 31
0.0
  0
LINE
  5
1DD
  8
LAYER01
 62
     7
 10
355.9378319999999
 20
3396.555844
 30
0.0
 11
272.4631
 21
3396.555844
 31
0.0
  0
LINE
  5
1DE
  8
LAYER01
 62
     7
 10
355.9378319999999
 20
3445.228044
 30
0.0
 11
272.4631
 21
3445.228044
 31
0.0
  0
SOLID
  5
1DF
  8
LAYER01
 62
     7
 10
291.46294
 20
3420.555844
 30
0.0
 11
287.4631
 21
3396.555844
 31
0.0
 12
283.46325999999999
 22
3420.555844
 32
0.0
 13
283.46325999999999
 23
3420.555844
 33
0.0
  0
SOLID
  5
1E0
  8
LAYER01
 62
     7
 10
291.46294
 20
3421.228044
 30
0.0
 11
287.4631
 21
3445.228044
 31
0.0
 12
283.46325999999999
 22
3421.228044
 32
0.0
 13
283.46325999999999
 23
3421.228044
 33
0.0
  0
TEXT
  5
1E1
  8
LAYER01
  6
CONTINUOUS
 62
     7
 10
272.4631
 20
3397.3205149999999
 30
0.0
 40
30.0
  1
50
 50
90.0
  7
SIMPLEX
  0
POINT
  5
1E2
  8
LAYER01
 62
     7
 10
367.93783200000001
 20
3396.555844
 30
0.0
  0
POINT
  5
1E3
  8
LAYER01
 62
     7
 10
367.93783200000001
 20
3445.228044
 30
0.0
  0
POINT
  5
1E4
  8
LAYER01
 62
     7
 10
287.4631
 20
3445.228044
 30
0.0
  0
ENDBLK
  5
1E5
  8
0
  0
BLOCK
  8
0
  2
NEWYORK-G9
 70
     0
 10
0.0
 20
0.0
 30
0.0
  3
NEWYORK-G9
  1

  0
LINE
  5
1E8
  8
LAYER01
  6
CONTINUOUS
 62
   255
 10
992.93783200000007
 20
3936.5558569999998
 30
0.0
 11
992.93783200000007
 21
3939.0558569999989
 31
0.0
  0
LINE
  5
1E9
  8
LAYER01
  6
CONTINUOUS
 62
   255
 10
992.93783200000007
 20
3936.5558569999998
 30
0.0
 11
990.43783200000007
 21
3936.5558569999998
 31
0.0
  0
LINE
  5
1EA
  8
LAYER01
  6
CONTINUOUS
 62
   255
 10
992.93783200000007
 20
3936.5558569999998
 30
0.0
 11
992.93783200000007
 21
3934.0558569999998
 31
0.0
  0
LINE
  5
1EB
  8
LAYER01
  6
CONTINUOUS
 62
   255
 10
992.93783200000007
 20
3936.5558569999998
 30
0.0
 11
995.43783200000007
 21
3936.5558569999998
 31
0.0
  0
LINE
  5
1EC
  8
LAYER01
  6
CONTINUOUS
 62
   255
 10
992.93783200000007
 20
3941.5558569999998
 30
0.0
 11
992.93783200000007
 21
3956.5558569999998
 31
0.0
  0
LINE
  5
1ED
  8
LAYER01
  6
CONTINUOUS
 62
   255
 10
987.93783199999996
 20
3936.5558569999998
 30
0.0
 11
972.93783199999996
 21
3936.5558569999998
 31
0.0
  0
LINE
  5
1EE
  8
LAYER01
  6
CONTINUOUS
 62
   255
 10
992.93783200000007
 20
3931.5558569999998
 30
0.0
 11
992.93783200000007
 21
3916.5558569999998
 31
0.0
  0
LINE
  5
1EF
  8
LAYER01
  6
CONTINUOUS
 62
   255
 10
997.93783199999996
 20
3936.5558569999998
 30
0.0
 11
1012.937832
 21
3936.5558569999998
 31
0.0
  0
ENDBLK
  5
1F0
  8
0
  0
BLOCK
  8
0
  2
NEWYORK-G10
 70
     0
 10
0.0
 20
0.0
 30
0.0
  3
NEWYORK-G10
  1

  0
LINE
  5
1F3
  8
LAYER01
  6
CONTINUOUS
 62
   255
 10
992.93783200000007
 20
3814.5558569999998
 30
0.0
 11
992.93783200000007
 21
3817.0558569999998
 31
0.0
  0
LINE
  5
1F4
  8
LAYER01
  6
CONTINUOUS
 62
   255
 10
992.93783200000007
 20
3814.5558569999998
 30
0.0
 11
990.43783200000007
 21
3814.5558569999998
 31
0.0
  0
LINE
  5
1F5
  8
LAYER01
  6
CONTINUOUS
 62
   255
 10
992.93783200000007
 20
3814.5558569999998
 30
0.0
 11
992.93783200000007
 21
3812.0558569999998
 31
0.0
  0
LINE
  5
1F6
  8
LAYER01
  6
CONTINUOUS
 62
   255
 10
992.93783200000007
 20
3814.5558569999998
 30
0.0
 11
995.43783200000007
 21
3814.5558569999998
 31
0.0
  0
LINE
  5
1F7
  8
LAYER01
  6
CONTINUOUS
 62
   255
 10
992.93783200000007
 20
3819.5558569999998
 30
0.0
 11
992.93783200000007
 21
3840.0558569999998
 31
0.0
  0
LINE
  5
1F8
  8
LAYER01
  6
CONTINUOUS
 62
   255
 10
987.93783199999996
 20
3814.5558569999998
 30
0.0
 11
967.43783199999996
 21
3814.5558569999998
 31
0.0
  0
LINE
  5
1F9
  8
LAYER01
  6
CONTINUOUS
 62
   255
 10
992.93783200000007
 20
3809.5558569999998
 30
0.0
 11
992.93783200000007
 21
3789.0558569999998
 31
0.0
  0
LINE
  5
1FA
  8
LAYER01
  6
CONTINUOUS
 62
   255
 10
997.93783199999996
 20
3814.5558569999998
 30
0.0
 11
1018.437832
 21
3814.5558569999998
 31
0.0
  0
ENDBLK
  5
1FB
  8
0
  0
BLOCK
  8
0
  2
*D10
 70
     1
 10
0.0
 20
0.0
 30
0.0
  3
*D10
  1

  0
LINE
  5
1FE
  8
LAYER01
 62
     7
 10
1360.6113829999999
 20
3814.5558569999998
 30
0.0
 11
1360.6113829999999
 21
3901.3006799999998
 31
0.0
  0
LINE
  5
1FF
  8
LAYER01
 62
     7
 10
1309.682642
 20
3814.5558569999998
 30
0.0
 11
1375.6113829999999
 21
3814.5558569999998
 31
0.0
  0
LINE
  5
200
  8
LAYER01
 62
     7
 10
1309.682642
 20
3901.3006799999998
 30
0.0
 11
1375.6113829999999
 21
3901.3006799999998
 31
0.0
  0
SOLID
  5
201
  8
LAYER01
 62
     7
 10
1364.6112230000001
 20
3838.5558569999998
 30
0.0
 11
1360.6113829999999
 21
3814.5558569999998
 31
0.0
 12
1356.611543
 22
3838.5558569999998
 32
0.0
 13
1356.611543
 23
3838.5558569999998
 33
0.0
  0
SOLID
  5
202
  8
LAYER01
 62
     7
 10
1364.6112230000001
 20
3877.3006799999998
 30
0.0
 11
1360.6113829999999
 21
3901.3006799999998
 31
0.0
 12
1356.611543
 22
3877.3006799999998
 32
0.0
 13
1356.611543
 23
3877.3006799999998
 33
0.0
  0
TEXT
  5
203
  8
LAYER01
  6
CONTINUOUS
 62
     7
 10
1345.6113829999999
 20
3833.642554
 30
0.0
 40
30.0
  1
90
 50
90.0
  7
SIMPLEX
  0
POINT
  5
204
  8
LAYER01
 62
     7
 10
1297.682642
 20
3814.5558569999998
 30
0.0
  0
POINT
  5
205
  8
LAYER01
 62
     7
 10
1297.682642
 20
3901.3006799999998
 30
0.0
  0
POINT
  5
206
  8
LAYER01
 62
     7
 10
1360.6113829999999
 20
3901.3006799999998
 30
0.0
  0
ENDBLK
  5
207
  8
0
  0
BLOCK
  8
0
  2
*D11
 70
     1
 10
0.0
 20
0.0
 30
0.0
  3
*D11
  1

  0
LINE
  5
20A
  8
LAYER01
 62
     7
 10
1617.9378320000001
 20
4090.2031860000002
 30
0.0
 11
992.93783200000007
 21
4090.2031860000002
 31
0.0
  0
LINE
  5
20B
  8
LAYER01
 62
     7
 10
1617.9378320000001
 20
4008.5558529999998
 30
0.0
 11
1617.9378320000001
 21
4105.2031859999988
 31
0.0
  0
LINE
  5
20C
  8
LAYER01
 62
     7
 10
992.93783200000007
 20
4008.5558529999998
 30
0.0
 11
992.93783200000007
 21
4105.2031859999988
 31
0.0
  0
SOLID
  5
20D
  8
LAYER01
 62
     7
 10
1593.9378320000001
 20
4094.2030259999992
 30
0.0
 11
1617.9378320000001
 21
4090.2031860000002
 31
0.0
 12
1593.9378320000001
 22
4086.2033459999998
 32
0.0
 13
1593.9378320000001
 23
4086.2033459999998
 33
0.0
  0
SOLID
  5
20E
  8
LAYER01
 62
     7
 10
1016.937832
 20
4094.2030259999992
 30
0.0
 11
992.93783200000007
 21
4090.2031860000002
 31
0.0
 12
1016.937832
 22
4086.2033459999998
 32
0.0
 13
1016.937832
 23
4086.2033459999998
 33
0.0
  0
TEXT
  5
20F
  8
LAYER01
  6
CONTINUOUS
 62
     7
 10
1266.866403
 20
4105.2031859999988
 30
0.0
 40
30.0
  1
350-625
  7
SIMPLEX
  0
POINT
  5
210
  8
LAYER01
 62
     7
 10
1617.9378320000001
 20
3996.5558529999998
 30
0.0
  0
POINT
  5
211
  8
LAYER01
 62
     7
 10
992.93783200000007
 20
3996.5558529999998
 30
0.0
  0
POINT
  5
212
  8
LAYER01
 62
     7
 10
992.93783200000007
 20
4090.2031860000002
 30
0.0
  0
ENDBLK
  5
213
  8
0
  0
BLOCK
  8
0
  2
*D12
 70
     1
 10
0.0
 20
0.0
 30
0.0
  3
*D12
  1

  0
LINE
  5
216
  8
LAYER01
 62
     7
 10
1008.736041
 20
3944.0835780000002
 30
0.0
 11
1044.632879
 21
3961.1881349999999
 31
0.0
  0
LINE
  5
217
  8
LAYER01
 62
     7
 10
1044.632879
 20
3961.1881349999999
 30
0.0
 11
1095.213516
 21
3961.1881349999999
 31
0.0
  0
SOLID
  5
218
  8
LAYER01
 62
     7
 10
1032.1227100000001
 20
3950.7964339999999
 30
0.0
 11
1008.736041
 21
3944.0835780000002
 31
0.0
 12
1028.6816040000001
 22
3958.0181840000009
 32
0.0
 13
1028.6816040000001
 23
3958.0181840000009
 33
0.0
  0
TEXT
  5
219
  8
LAYER01
  6
VERDECKT
 62
     7
 10
1110.213516
 20
3946.1881350000008
 30
0.0
 40
30.0
  1
%%c35
  7
SIMPLEX
  0
POINT
  5
21A
  8
LAYER01
 62
     7
 10
992.93783200000007
 20
3936.5558569999998
 30
0.0
  0
POINT
  5
21B
  8
LAYER01
 62
     7
 10
1044.632879
 20
3961.1881349999999
 30
0.0
  0
ENDBLK
  5
21C
  8
0
  0
BLOCK
  8
0
  2
*D13
 70
     1
 10
0.0
 20
0.0
 30
0.0
  3
*D13
  1

  0
LINE
  5
21F
  8
LAYER01
 62
     7
 10
2931.323664
 20
3152.7680420000002
 30
0.0
 11
2931.323664
 21
3104.7680420000002
 31
0.0
  0
LINE
  5
220
  8
LAYER01
 62
     7
 10
2931.323664
 20
3167.7680420000002
 30
0.0
 11
2931.323664
 21
3215.7680420000002
 31
0.0
  0
LINE
  5
221
  8
LAYER01
 62
     7
 10
2842.5457120000001
 20
3152.7680420000002
 30
0.0
 11
2946.323664
 21
3152.7680420000002
 31
0.0
  0
LINE
  5
222
  8
LAYER01
 62
     7
 10
2842.5457120000001
 20
3167.7680420000002
 30
0.0
 11
2946.323664
 21
3167.7680420000002
 31
0.0
  0
SOLID
  5
223
  8
LAYER01
 62
     7
 10
2935.323504
 20
3128.7680420000002
 30
0.0
 11
2931.323664
 21
3152.7680420000002
 31
0.0
 12
2927.3238240000001
 22
3128.7680420000002
 32
0.0
 13
2927.3238240000001
 23
3128.7680420000002
 33
0.0
  0
SOLID
  5
224
  8
LAYER01
 62
     7
 10
2935.323504
 20
3191.7680420000002
 30
0.0
 11
2931.323664
 21
3167.7680420000002
 31
0.0
 12
2927.3238240000001
 22
3191.7680420000002
 32
0.0
 13
2927.3238240000001
 23
3191.7680420000002
 33
0.0
  0
TEXT
  5
225
  8
LAYER01
  6
VERDECKT
 62
     7
 10
2916.323664
 20
3230.7680420000011
 30
0.0
 40
30.0
  1
15
 50
90.0
  7
SIMPLEX
  0
POINT
  5
226
  8
LAYER01
 62
     7
 10
2830.5457120000001
 20
3152.7680420000002
 30
0.0
  0
POINT
  5
227
  8
LAYER01
 62
     7
 10
2830.5457120000001
 20
3167.7680420000002
 30
0.0
  0
POINT
  5
228
  8
LAYER01
 62
     7
 10
2931.323664
 20
3167.7680420000002
 30
0.0
  0
ENDBLK
  5
229
  8
0
  0
BLOCK
  8
0
  2
NEWYORK-G16
 70
     0
 10
0.0
 20
0.0
 30
0.0
  3
NEWYORK-G16
  1

  0
TEXT
  5
22C
  8
LAYER01
  6
VERDECKT
 62
     1
 10
2645.1806969999998
 20
2137.296053
 30
0.0
 40
10.0
  1
A. Sprenger GmbH
  7
SIMPLEX
  0
TEXT
  5
22D
  8
LAYER01
  6
VERDECKT
 62
     1
 10
2645.1806969999998
 20
2120.1531960000002
 30
0.0
 40
10.0
  1
Berner Str. 10
  7
SIMPLEX
  0
TEXT
  5
22E
  8
LAYER01
  6
VERDECKT
 62
     1
 10
2645.1806969999998
 20
2103.0103389999999
 30
0.0
 40
10.0
  1
60437 Frankfurt
  7
SIMPLEX
  0
TEXT
  5
22F
  8
LAYER01
  6
VERDECKT
 62
     1
 10
2645.1806969999998
 20
2085.8674820000001
 30
0.0
 40
10.0
  1
Tel.: 069 - 507 27 41
  7
SIMPLEX
  0
TEXT
  5
230
  8
LAYER01
  6
VERDECKT
 62
     1
 10
2645.1806969999998
 20
2068.7246239999999
 30
0.0
 40
10.0
  1
Fax: 069 - 507 72 91
  7
SIMPLEX
  0
TEXT
  5
231
  8
LAYER01
  6
VERDECKT
 62
     1
 10
2645.1806969999998
 20
2051.5817670000001
 30
0.0
 40
10.0
  1
info@varicor.org
  7
SIMPLEX
  0
ENDBLK
  5
232
  8
0
  0
BLOCK
  8
0
  2
NEWYORK-G15
 70
     0
 10
0.0
 20
0.0
 30
0.0
  3
NEWYORK-G15
  1

  0
TEXT
  5
235
  8
LAYER01
  6
CONTINUOUS
 62
     1
 10
3695.9991520000008
 20
1902.215866
 30
0.0
 40
10.0
  1
Blatt
  7
SIMPLEX
  0
LINE
  5
236
  8
LAYER01
  6
CONTINUOUS
 62
     1
 10
2630.9991519999999
 20
1972.215866
 30
0.0
 11
3230.9991519999999
 21
1972.215866
 31
0.0
  0
LINE
  5
237
  8
LAYER01
  6
CONTINUOUS
 62
     1
 10
2630.9991519999999
 20
1947.215866
 30
0.0
 11
3230.9991519999999
 21
1947.215866
 31
0.0
  0
LINE
  5
238
  8
LAYER01
  6
CONTINUOUS
 62
     1
 10
2630.9991519999999
 20
1922.215866
 30
0.0
 11
3760.9991519999999
 21
1922.215866
 31
0.0
  0
LINE
  5
239
  8
LAYER01
  6
CONTINUOUS
 62
     1
 10
2630.9991519999999
 20
1847.215866
 30
0.0
 11
3760.9991519999999
 21
1847.215866
 31
0.0
  0
LINE
  5
23A
  8
LAYER01
  6
CONTINUOUS
 62
     1
 10
2630.9991519999999
 20
2047.215866
 30
0.0
 11
3760.9991519999999
 21
2047.215866
 31
0.0
  0
POLYLINE
  5
23B
  8
LAYER01
  6
CONTINUOUS
 62
     1
 66
     1
 10
0.0
 20
0.0
 30
0.0
 70
     1
  0
VERTEX
  5
785
  8
LAYER01
  6
CONTINUOUS
 62
     1
 10
2630.9991519999999
 20
1817.215866
 30
0.0
  0
VERTEX
  5
786
  8
LAYER01
  6
CONTINUOUS
 62
     1
 10
2630.9991519999999
 20
2152.215866
 30
0.0
  0
VERTEX
  5
787
  8
LAYER01
  6
CONTINUOUS
 62
     1
 10
3760.9991519999999
 20
2152.215866
 30
0.0
  0
VERTEX
  5
788
  8
LAYER01
  6
CONTINUOUS
 62
     1
 10
3760.9991519999999
 20
1817.215866
 30
0.0
  0
SEQEND
  5
789
  8
LAYER01
  6
CONTINUOUS
 62
     1
  0
LINE
  5
241
  8
LAYER01
  6
CONTINUOUS
 62
     1
 10
2630.9991519999999
 20
2022.215866
 30
0.0
 11
3230.9991519999999
 21
2022.215866
 31
0.0
  0
LINE
  5
242
  8
LAYER01
  6
CONTINUOUS
 62
     1
 10
2630.9991519999999
 20
1997.215866
 30
0.0
 11
3230.9991519999999
 21
1997.215866
 31
0.0
  0
LINE
  5
243
  8
LAYER01
  6
CONTINUOUS
 62
     1
 10
2955.9991519999999
 20
2152.215866
 30
0.0
 11
2955.9991519999999
 21
1817.215866
 31
0.0
  0
INSERT
  5
244
  8
LAYER01
  2
NEWYORK-G16
 10
0.0
 20
0.0
 30
0.0
  0
LINE
  5
245
  8
LAYER01
  6
CONTINUOUS
 62
     1
 10
2630.9991519999999
 20
1872.215866
 30
0.0
 11
2955.9991519999999
 21
1872.215866
 31
0.0
  0
LINE
  5
246
  8
LAYER01
  6
CONTINUOUS
 62
     1
 10
2630.9991519999999
 20
1897.215866
 30
0.0
 11
2955.9991519999999
 21
1897.215866
 31
0.0
  0
LINE
  5
247
  8
LAYER01
  6
CONTINUOUS
 62
     1
 10
2675.9991519999999
 20
2047.215866
 30
0.0
 11
2675.9991519999999
 21
1817.215866
 31
0.0
  0
TEXT
  5
248
  8
LAYER01
  6
CONTINUOUS
 62
     1
 10
2639.3984170000008
 20
1827.215866
 30
0.0
 40
9.5
  1
Zust
  7
SIMPLEX
  0
LINE
  5
249
  8
LAYER01
  6
CONTINUOUS
 62
     1
 10
2833.7837669999999
 20
1817.215866
 30
0.0
 11
2833.7837669999999
 21
2047.215866
 31
0.0
  0
LINE
  5
24A
  8
LAYER01
  6
CONTINUOUS
 62
     1
 10
2910.9991519999999
 20
2047.215866
 30
0.0
 11
2910.9991519999999
 21
1817.215866
 31
0.0
  0
TEXT
  5
24B
  8
LAYER01
  6
CONTINUOUS
 62
     1
 10
2720.1276939999998
 20
1827.215866
 30
0.0
 40
9.5
  1
Änderung
  7
SIMPLEX
  0
TEXT
  5
24C
  8
LAYER01
  6
CONTINUOUS
 62
     1
 10
2847.8532959999998
 20
1827.215866
 30
0.0
 40
9.5
  1
Datum
  7
SIMPLEX
  0
TEXT
  5
24D
  8
LAYER01
  6
CONTINUOUS
 62
     1
 10
2914.7630549999999
 20
1827.215866
 30
0.0
 40
9.5
  1
Name
  7
SIMPLEX
  0
LINE
  5
24E
  8
LAYER01
  6
CONTINUOUS
 62
     1
 10
3760.9991519999999
 20
2112.215866
 30
0.0
 11
3230.9991519999999
 21
2112.215866
 31
0.0
  0
LINE
  5
24F
  8
LAYER01
  6
CONTINUOUS
 62
     1
 10
3020.9991519999999
 20
1947.215866
 30
0.0
 11
3020.9991519999999
 21
2047.215866
 31
0.0
  0
TEXT
  5
250
  8
LAYER01
  6
CONTINUOUS
 62
     1
 10
2965.9991519999999
 20
2002.215866
 30
0.0
 40
10.0
  1
Bearb.
  7
SIMPLEX
  0
TEXT
  5
251
  8
LAYER01
  6
CONTINUOUS
 62
     1
 10
2965.9991519999999
 20
1952.215866
 30
0.0
 40
10.0
  1
Norm
  7
SIMPLEX
  0
TEXT
  5
252
  8
LAYER01
  6
CONTINUOUS
 62
     1
 10
2965.9991519999999
 20
1977.215866
 30
0.0
 40
10.0
  1
Gepr.
  7
SIMPLEX
  0
TEXT
  5
253
  8
LAYER01
  6
CONTINUOUS
 62
     1
 10
3045.9991519999999
 20
2027.215866
 30
0.0
 40
10.0
  1
Datum
  7
SIMPLEX
  0
TEXT
  5
254
  8
LAYER01
  6
CONTINUOUS
 62
     1
 10
3145.9991519999999
 20
2027.215866
 30
0.0
 40
10.0
  1
Name
  7
SIMPLEX
  0
TEXT
  5
255
  8
LAYER01
  6
CONTINUOUS
 62
     1
 10
3735.9991519999999
 20
1852.215866
 30
0.0
 40
10.0
  1
Bl.
  7
SIMPLEX
  0
LINE
  5
256
  8
LAYER01
  6
CONTINUOUS
 62
     1
 10
3230.9991519999999
 20
1817.215866
 30
0.0
 11
3230.9991519999999
 21
2152.215866
 31
0.0
  0
LINE
  5
257
  8
LAYER01
  6
CONTINUOUS
 62
     1
 10
3115.9991519999999
 20
1922.215866
 30
0.0
 11
3115.9991519999999
 21
2152.215866
 31
0.0
  0
LINE
  5
258
  8
LAYER01
  6
CONTINUOUS
 62
     1
 10
3545.9991519999999
 20
2152.215866
 30
0.0
 11
3545.9991519999999
 21
2112.215866
 31
0.0
  0
TEXT
  5
259
  8
LAYER01
  6
CONTINUOUS
 62
     1
 10
3241.8931510000002
 20
2126.685864
 30
0.0
 40
10.0
  1
Maßstab
  7
SIMPLEX
  0
LINE
  5
25A
  8
LAYER01
  6
CONTINUOUS
 62
     1
 10
3685.9991519999999
 20
1922.215866
 30
0.0
 11
3685.9991519999999
 21
1847.215866
 31
0.0
  0
LINE
  5
25B
  8
LAYER01
  6
CONTINUOUS
 62
     1
 10
3685.9991519999999
 20
1872.215866
 30
0.0
 11
3760.9991519999999
 21
1872.215866
 31
0.0
  0
ENDBLK
  5
25C
  8
0
  0
BLOCK
  8
0
  2
NEWYORK-G17
 70
     0
 10
0.0
 20
0.0
 30
0.0
  3
NEWYORK-G17
  1

  0
POLYLINE
  5
25F
  8
LAYER01
  6
CONTINUOUS
 62
     7
 66
     1
 10
0.0
 20
0.0
 30
0.0
 70
     1
  0
VERTEX
  5
78A
  8
LAYER01
  6
CONTINUOUS
 62
     7
 10
2564.1935899999999
 20
2643.4954050000001
 30
0.0
  0
VERTEX
  5
78B
  8
LAYER01
  6
CONTINUOUS
 62
     7
 10
2605.6232770000001
 20
2643.4954050000001
 30
0.0
  0
VERTEX
  5
78C
  8
LAYER01
  6
CONTINUOUS
 62
     7
 10
2657.6512560000001
 20
2524.9872310000001
 30
0.0
  0
VERTEX
  5
78D
  8
LAYER01
  6
CONTINUOUS
 62
     7
 10
2709.6792340000011
 20
2643.4954050000001
 30
0.0
  0
VERTEX
  5
78E
  8
LAYER01
  6
CONTINUOUS
 62
     7
 10
2753.035883
 20
2643.4954050000001
 30
0.0
  0
VERTEX
  5
78F
  8
LAYER01
  6
CONTINUOUS
 62
     7
 10
2657.6512560000001
 20
2431.5295649999998
 30
0.0
  0
VERTEX
  5
790
  8
LAYER01
  6
CONTINUOUS
 62
     7
 10
2564.1935899999999
 20
2643.4954050000001
 30
0.0
  0
VERTEX
  5
791
  8
LAYER01
  6
CONTINUOUS
 62
     7
 10
2564.1935899999999
 20
2643.4954050000001
 30
0.0
  0
SEQEND
  5
792
  8
LAYER01
  6
CONTINUOUS
 62
     7
  0
POLYLINE
  5
269
  8
LAYER01
  6
CONTINUOUS
 62
     7
 66
     1
 10
0.0
 20
0.0
 30
0.0
 70
     1
  0
VERTEX
  5
793
  8
LAYER01
  6
CONTINUOUS
 62
     7
 10
2705.8253100000002
 20
2498.973242
 30
0.0
  0
VERTEX
  5
794
  8
LAYER01
  6
CONTINUOUS
 62
     7
 10
2720.2775259999999
 20
2532.69508
 30
0.0
  0
VERTEX
  5
795
  8
LAYER01
  6
CONTINUOUS
 62
     7
 10
2782.9037969999999
 20
2532.69508
 30
0.0
  0
VERTEX
  5
796
  8
LAYER01
  6
CONTINUOUS
 62
     7
 10
2751.108921
 20
2602.0657179999998
 30
0.0
  0
VERTEX
  5
797
  8
LAYER01
  6
CONTINUOUS
 62
     7
 10
2769.415062
 20
2646.3858479999999
 30
0.0
  0
VERTEX
  5
798
  8
LAYER01
  6
CONTINUOUS
 62
     7
 10
2855.1648789999999
 20
2465.2514030000002
 30
0.0
  0
VERTEX
  5
799
  8
LAYER01
  6
CONTINUOUS
 62
     7
 10
2855.1648789999999
 20
2643.4954050000001
 30
0.0
  0
VERTEX
  5
79A
  8
LAYER01
  6
CONTINUOUS
 62
     7
 10
2969.819128000001
 20
2643.4954050000001
 30
0.0
  0
VERTEX
  5
79B
  8
LAYER01
  6
CONTINUOUS
 62
     7
 10
2969.819128000001
 20
2643.4954050000001
 30
0.0
  0
VERTEX
  5
79C
  8
LAYER01
  6
CONTINUOUS
 62
     7
 10
2980.4174200000002
 20
2641.568443000001
 30
0.0
  0
VERTEX
  5
79D
  8
LAYER01
  6
CONTINUOUS
 62
     7
 10
2990.0522310000001
 20
2637.7145180000002
 30
0.0
  0
VERTEX
  5
79E
  8
LAYER01
  6
CONTINUOUS
 62
     7
 10
2998.7235609999998
 20
2630.970151
 30
0.0
  0
VERTEX
  5
79F
  8
LAYER01
  6
CONTINUOUS
 62
     7
 10
3006.4314089999998
 20
2624.2257829999999
 30
0.0
  0
VERTEX
  5
7A0
  8
LAYER01
  6
CONTINUOUS
 62
     7
 10
3013.1757769999999
 20
2615.5544530000011
 30
0.0
  0
VERTEX
  5
7A1
  8
LAYER01
  6
CONTINUOUS
 62
     7
 10
3017.9931820000002
 20
2605.9196419999998
 30
0.0
  0
VERTEX
  5
7A2
  8
LAYER01
  6
CONTINUOUS
 62
     7
 10
3021.8471070000001
 20
2594.3578689999999
 30
0.0
  0
VERTEX
  5
7A3
  8
LAYER01
  6
CONTINUOUS
 62
     7
 10
3022.8105879999998
 20
2583.7595769999998
 30
0.0
  0
VERTEX
  5
7A4
  8
LAYER01
  6
CONTINUOUS
 62
     7
 10
3022.8105879999998
 20
2583.7595769999998
 30
0.0
  0
VERTEX
  5
7A5
  8
LAYER01
  6
CONTINUOUS
 62
     7
 10
3022.8105879999998
 20
2572.1978039999999
 30
0.0
  0
VERTEX
  5
7A6
  8
LAYER01
  6
CONTINUOUS
 62
     7
 10
3020.8836259999998
 20
2562.562993
 30
0.0
  0
VERTEX
  5
7A7
  8
LAYER01
  6
CONTINUOUS
 62
     7
 10
3017.0297010000008
 20
2552.9281820000001
 30
0.0
  0
VERTEX
  5
7A8
  8
LAYER01
  6
CONTINUOUS
 62
     7
 10
3012.2122960000002
 20
2544.2568529999999
 30
0.0
  0
VERTEX
  5
7A9
  8
LAYER01
  6
CONTINUOUS
 62
     7
 10
3005.467928
 20
2536.549004
 30
0.0
  0
VERTEX
  5
7AA
  8
LAYER01
  6
CONTINUOUS
 62
     7
 10
2997.76008
 20
2529.8046359999998
 30
0.0
  0
VERTEX
  5
7AB
  8
LAYER01
  6
CONTINUOUS
 62
     7
 10
2989.0887499999999
 20
2524.9872310000001
 30
0.0
  0
VERTEX
  5
7AC
  8
LAYER01
  6
CONTINUOUS
 62
     7
 10
2978.4904580000002
 20
2521.1333070000001
 30
0.0
  0
VERTEX
  5
7AD
  8
LAYER01
  6
CONTINUOUS
 62
     7
 10
3040.1532480000001
 20
2439.2374140000002
 30
0.0
  0
VERTEX
  5
7AE
  8
LAYER01
  6
CONTINUOUS
 62
     7
 10
3040.1532480000001
 20
2643.4954050000001
 30
0.0
  0
VERTEX
  5
7AF
  8
LAYER01
  6
CONTINUOUS
 62
     7
 10
3080.6194530000012
 20
2643.4954050000001
 30
0.0
  0
VERTEX
  5
7B0
  8
LAYER01
  6
CONTINUOUS
 62
     7
 10
3080.6194530000012
 20
2437.3104520000002
 30
0.0
  0
VERTEX
  5
7B1
  8
LAYER01
  6
CONTINUOUS
 62
     7
 10
2993.9061550000001
 20
2437.3104520000002
 30
0.0
  0
VERTEX
  5
7B2
  8
LAYER01
  6
CONTINUOUS
 62
     7
 10
2910.0833010000001
 20
2544.2568529999999
 30
0.0
  0
VERTEX
  5
7B3
  8
LAYER01
  6
CONTINUOUS
 62
     7
 10
2952.4764679999998
 20
2544.2568529999999
 30
0.0
  0
VERTEX
  5
7B4
  8
LAYER01
  6
CONTINUOUS
 62
     7
 10
2952.4764679999998
 20
2544.2568529999999
 30
0.0
  0
VERTEX
  5
7B5
  8
LAYER01
  6
CONTINUOUS
 62
     7
 10
2958.2573550000002
 20
2545.2203340000001
 30
0.0
  0
VERTEX
  5
7B6
  8
LAYER01
  6
CONTINUOUS
 62
     7
 10
2964.0382420000001
 20
2547.1472960000001
 30
0.0
  0
VERTEX
  5
7B7
  8
LAYER01
  6
CONTINUOUS
 62
     7
 10
2968.8556469999999
 20
2550.0377389999999
 30
0.0
  0
VERTEX
  5
7B8
  8
LAYER01
  6
CONTINUOUS
 62
     7
 10
2973.6730520000001
 20
2553.8916640000002
 30
0.0
  0
VERTEX
  5
7B9
  8
LAYER01
  6
CONTINUOUS
 62
     7
 10
2976.5634960000011
 20
2558.709069
 30
0.0
  0
VERTEX
  5
7BA
  8
LAYER01
  6
CONTINUOUS
 62
     7
 10
2979.453939
 20
2564.4899559999999
 30
0.0
  0
VERTEX
  5
7BB
  8
LAYER01
  6
CONTINUOUS
 62
     7
 10
2981.380901
 20
2570.2708420000008
 30
0.0
  0
VERTEX
  5
7BC
  8
LAYER01
  6
CONTINUOUS
 62
     7
 10
2981.380901
 20
2577.01521
 30
0.0
  0
VERTEX
  5
7BD
  8
LAYER01
  6
CONTINUOUS
 62
     7
 10
2981.380901
 20
2577.01521
 30
0.0
  0
VERTEX
  5
7BE
  8
LAYER01
  6
CONTINUOUS
 62
     7
 10
2981.380901
 20
2582.796096
 30
0.0
  0
VERTEX
  5
7BF
  8
LAYER01
  6
CONTINUOUS
 62
     7
 10
2979.453939
 20
2588.5769829999999
 30
0.0
  0
VERTEX
  5
7C0
  8
LAYER01
  6
CONTINUOUS
 62
     7
 10
2977.526977
 20
2594.3578689999999
 30
0.0
  0
VERTEX
  5
7C1
  8
LAYER01
  6
CONTINUOUS
 62
     7
 10
2973.6730520000001
 20
2599.1752750000001
 30
0.0
  0
VERTEX
  5
7C2
  8
LAYER01
  6
CONTINUOUS
 62
     7
 10
2969.819128000001
 20
2603.0291990000001
 30
0.0
  0
VERTEX
  5
7C3
  8
LAYER01
  6
CONTINUOUS
 62
     7
 10
2964.0382420000001
 20
2605.9196419999998
 30
0.0
  0
VERTEX
  5
7C4
  8
LAYER01
  6
CONTINUOUS
 62
     7
 10
2958.2573550000002
 20
2607.8466050000011
 30
0.0
  0
VERTEX
  5
7C5
  8
LAYER01
  6
CONTINUOUS
 62
     7
 10
2952.4764679999998
 20
2608.810086
 30
0.0
  0
VERTEX
  5
7C6
  8
LAYER01
  6
CONTINUOUS
 62
     7
 10
2898.5215280000002
 20
2608.810086
 30
0.0
  0
VERTEX
  5
7C7
  8
LAYER01
  6
CONTINUOUS
 62
     7
 10
2898.5215280000002
 20
2437.3104520000002
 30
0.0
  0
VERTEX
  5
7C8
  8
LAYER01
  6
CONTINUOUS
 62
     7
 10
2829.150889
 20
2437.3104520000002
 30
0.0
  0
VERTEX
  5
7C9
  8
LAYER01
  6
CONTINUOUS
 62
     7
 10
2800.2464570000002
 20
2498.973242
 30
0.0
  0
VERTEX
  5
7CA
  8
LAYER01
  6
CONTINUOUS
 62
     7
 10
2705.8253100000002
 20
2498.973242
 30
0.0
  0
VERTEX
  5
7CB
  8
LAYER01
  6
CONTINUOUS
 62
     7
 10
2705.8253100000002
 20
2498.973242
 30
0.0
  0
SEQEND
  5
7CC
  8
LAYER01
  6
CONTINUOUS
 62
     7
  0
POLYLINE
  5
2A4
  8
LAYER01
  6
CONTINUOUS
 62
     7
 66
     1
 10
0.0
 20
0.0
 30
0.0
 70
     1
  0
VERTEX
  5
7CD
  8
LAYER01
  6
CONTINUOUS
 62
     7
 10
3267.5347839999999
 20
2630.0066700000002
 30
0.0
  0
VERTEX
  5
7CE
  8
LAYER01
  6
CONTINUOUS
 62
     7
 10
3241.5207949999999
 20
2597.2483130000001
 30
0.0
  0
VERTEX
  5
7CF
  8
LAYER01
  6
CONTINUOUS
 62
     7
 10
3241.5207949999999
 20
2597.2483130000001
 30
0.0
  0
VERTEX
  5
7D0
  8
LAYER01
  6
CONTINUOUS
 62
     7
 10
3232.8494649999998
 20
2603.0291990000001
 30
0.0
  0
VERTEX
  5
7D1
  8
LAYER01
  6
CONTINUOUS
 62
     7
 10
3224.178135000001
 20
2607.8466050000011
 30
0.0
  0
VERTEX
  5
7D2
  8
LAYER01
  6
CONTINUOUS
 62
     7
 10
3214.5433240000002
 20
2610.737048
 30
0.0
  0
VERTEX
  5
7D3
  8
LAYER01
  6
CONTINUOUS
 62
     7
 10
3203.9450320000001
 20
2610.737048
 30
0.0
  0
VERTEX
  5
7D4
  8
LAYER01
  6
CONTINUOUS
 62
     7
 10
3203.9450320000001
 20
2610.737048
 30
0.0
  0
VERTEX
  5
7D5
  8
LAYER01
  6
CONTINUOUS
 62
     7
 10
3197.2006649999998
 20
2610.737048
 30
0.0
  0
VERTEX
  5
7D6
  8
LAYER01
  6
CONTINUOUS
 62
     7
 10
3190.4562970000002
 20
2609.7735670000002
 30
0.0
  0
VERTEX
  5
7D7
  8
LAYER01
  6
CONTINUOUS
 62
     7
 10
3183.7119299999999
 20
2607.8466050000011
 30
0.0
  0
VERTEX
  5
7D8
  8
LAYER01
  6
CONTINUOUS
 62
     7
 10
3176.9675620000012
 20
2604.9561610000001
 30
0.0
  0
VERTEX
  5
7D9
  8
LAYER01
  6
CONTINUOUS
 62
     7
 10
3171.1866759999998
 20
2602.0657179999998
 30
0.0
  0
VERTEX
  5
7DA
  8
LAYER01
  6
CONTINUOUS
 62
     7
 10
3166.3692700000011
 20
2598.2117939999998
 30
0.0
  0
VERTEX
  5
7DB
  8
LAYER01
  6
CONTINUOUS
 62
     7
 10
3160.5883840000001
 20
2594.3578689999999
 30
0.0
  0
VERTEX
  5
7DC
  8
LAYER01
  6
CONTINUOUS
 62
     7
 10
3156.7344589999998
 20
2589.5404640000011
 30
0.0
  0
VERTEX
  5
7DD
  8
LAYER01
  6
CONTINUOUS
 62
     7
 10
3151.917054
 20
2583.7595769999998
 30
0.0
  0
VERTEX
  5
7DE
  8
LAYER01
  6
CONTINUOUS
 62
     7
 10
3149.0266099999999
 20
2577.9786909999998
 30
0.0
  0
VERTEX
  5
7DF
  8
LAYER01
  6
CONTINUOUS
 62
     7
 10
3145.1726859999999
 20
2572.1978039999999
 30
0.0
  0
VERTEX
  5
7E0
  8
LAYER01
  6
CONTINUOUS
 62
     7
 10
3142.2822430000001
 20
2566.4169179999999
 30
0.0
  0
VERTEX
  5
7E1
  8
LAYER01
  6
CONTINUOUS
 62
     7
 10
3140.3552810000001
 20
2559.6725499999998
 30
0.0
  0
VERTEX
  5
7E2
  8
LAYER01
  6
CONTINUOUS
 62
     7
 10
3139.3917999999999
 20
2552.9281820000001
 30
0.0
  0
VERTEX
  5
7E3
  8
LAYER01
  6
CONTINUOUS
 62
     7
 10
3138.4283190000001
 20
2546.1838149999999
 30
0.0
  0
VERTEX
  5
7E4
  8
LAYER01
  6
CONTINUOUS
 62
     7
 10
3137.464837
 20
2538.475966
 30
0.0
  0
VERTEX
  5
7E5
  8
LAYER01
  6
CONTINUOUS
 62
     7
 10
3137.464837
 20
2538.475966
 30
0.0
  0
VERTEX
  5
7E6
  8
LAYER01
  6
CONTINUOUS
 62
     7
 10
3138.4283190000001
 20
2531.7315990000002
 30
0.0
  0
VERTEX
  5
7E7
  8
LAYER01
  6
CONTINUOUS
 62
     7
 10
3139.3917999999999
 20
2524.9872310000001
 30
0.0
  0
VERTEX
  5
7E8
  8
LAYER01
  6
CONTINUOUS
 62
     7
 10
3140.3552810000001
 20
2518.2428629999999
 30
0.0
  0
VERTEX
  5
7E9
  8
LAYER01
  6
CONTINUOUS
 62
     7
 10
3143.2457239999999
 20
2512.4619769999999
 30
0.0
  0
VERTEX
  5
7EA
  8
LAYER01
  6
CONTINUOUS
 62
     7
 10
3145.1726859999999
 20
2506.68109
 30
0.0
  0
VERTEX
  5
7EB
  8
LAYER01
  6
CONTINUOUS
 62
     7
 10
3149.0266099999999
 20
2500.9002040000009
 30
0.0
  0
VERTEX
  5
7EC
  8
LAYER01
  6
CONTINUOUS
 62
     7
 10
3152.8805349999998
 20
2495.1193170000001
 30
0.0
  0
VERTEX
  5
7ED
  8
LAYER01
  6
CONTINUOUS
 62
     7
 10
3156.7344589999998
 20
2490.3019119999999
 30
0.0
  0
VERTEX
  5
7EE
  8
LAYER01
  6
CONTINUOUS
 62
     7
 10
3161.5518649999999
 20
2485.4845059999998
 30
0.0
  0
VERTEX
  5
7EF
  8
LAYER01
  6
CONTINUOUS
 62
     7
 10
3166.3692700000011
 20
2481.6305820000011
 30
0.0
  0
VERTEX
  5
7F0
  8
LAYER01
  6
CONTINUOUS
 62
     7
 10
3172.150157
 20
2478.740139
 30
0.0
  0
VERTEX
  5
7F1
  8
LAYER01
  6
CONTINUOUS
 62
     7
 10
3177.931043
 20
2475.8496949999999
 30
0.0
  0
VERTEX
  5
7F2
  8
LAYER01
  6
CONTINUOUS
 62
     7
 10
3184.6754110000011
 20
2472.9592520000001
 30
0.0
  0
VERTEX
  5
7F3
  8
LAYER01
  6
CONTINUOUS
 62
     7
 10
3190.4562970000002
 20
2471.0322900000001
 30
0.0
  0
VERTEX
  5
7F4
  8
LAYER01
  6
CONTINUOUS
 62
     7
 10
3197.2006649999998
 20
2470.0688089999999
 30
0.0
  0
VERTEX
  5
7F5
  8
LAYER01
  6
CONTINUOUS
 62
     7
 10
3204.9085140000002
 20
2470.0688089999999
 30
0.0
  0
VERTEX
  5
7F6
  8
LAYER01
  6
CONTINUOUS
 62
     7
 10
3204.9085140000002
 20
2470.0688089999999
 30
0.0
  0
VERTEX
  5
7F7
  8
LAYER01
  6
CONTINUOUS
 62
     7
 10
3215.5068059999999
 20
2471.0322900000001
 30
0.0
  0
VERTEX
  5
7F8
  8
LAYER01
  6
CONTINUOUS
 62
     7
 10
3224.178135000001
 20
2472.9592520000001
 30
0.0
  0
VERTEX
  5
7F9
  8
LAYER01
  6
CONTINUOUS
 62
     7
 10
3232.8494649999998
 20
2477.7766580000002
 30
0.0
  0
VERTEX
  5
7FA
  8
LAYER01
  6
CONTINUOUS
 62
     7
 10
3241.5207949999999
 20
2483.5575439999998
 30
0.0
  0
VERTEX
  5
7FB
  8
LAYER01
  6
CONTINUOUS
 62
     7
 10
3266.5713030000002
 20
2449.8357059999998
 30
0.0
  0
VERTEX
  5
7FC
  8
LAYER01
  6
CONTINUOUS
 62
     7
 10
3266.5713030000002
 20
2449.8357059999998
 30
0.0
  0
VERTEX
  5
7FD
  8
LAYER01
  6
CONTINUOUS
 62
     7
 10
3252.119087
 20
2441.1643760000011
 30
0.0
  0
VERTEX
  5
7FE
  8
LAYER01
  6
CONTINUOUS
 62
     7
 10
3244.4112380000001
 20
2438.2739329999999
 30
0.0
  0
VERTEX
  5
7FF
  8
LAYER01
  6
CONTINUOUS
 62
     7
 10
3237.6668709999999
 20
2435.3834900000002
 30
0.0
  0
VERTEX
  5
800
  8
LAYER01
  6
CONTINUOUS
 62
     7
 10
3229.959022
 20
2433.4565280000011
 30
0.0
  0
VERTEX
  5
801
  8
LAYER01
  6
CONTINUOUS
 62
     7
 10
3222.2511730000001
 20
2432.493046
 30
0.0
  0
VERTEX
  5
802
  8
LAYER01
  6
CONTINUOUS
 62
     7
 10
3204.9085140000002
 20
2431.5295649999998
 30
0.0
  0
VERTEX
  5
803
  8
LAYER01
  6
CONTINUOUS
 62
     7
 10
3204.9085140000002
 20
2431.5295649999998
 30
0.0
  0
VERTEX
  5
804
  8
LAYER01
  6
CONTINUOUS
 62
     7
 10
3193.3467409999998
 20
2432.493046
 30
0.0
  0
VERTEX
  5
805
  8
LAYER01
  6
CONTINUOUS
 62
     7
 10
3182.7484490000002
 20
2434.4200089999999
 30
0.0
  0
VERTEX
  5
806
  8
LAYER01
  6
CONTINUOUS
 62
     7
 10
3172.150157
 20
2436.3469709999999
 30
0.0
  0
VERTEX
  5
807
  8
LAYER01
  6
CONTINUOUS
 62
     7
 10
3162.515346000001
 20
2440.2008949999999
 30
0.0
  0
VERTEX
  5
808
  8
LAYER01
  6
CONTINUOUS
 62
     7
 10
3152.8805349999998
 20
2445.0183010000001
 30
0.0
  0
VERTEX
  5
809
  8
LAYER01
  6
CONTINUOUS
 62
     7
 10
3144.209205000001
 20
2449.8357059999998
 30
0.0
  0
VERTEX
  5
80A
  8
LAYER01
  6
CONTINUOUS
 62
     7
 10
3135.537875
 20
2456.580074
 30
0.0
  0
VERTEX
  5
80B
  8
LAYER01
  6
CONTINUOUS
 62
     7
 10
3127.830027
 20
2463.3244410000011
 30
0.0
  0
VERTEX
  5
80C
  8
LAYER01
  6
CONTINUOUS
 62
     7
 10
3120.1221780000001
 20
2471.0322900000001
 30
0.0
  0
VERTEX
  5
80D
  8
LAYER01
  6
CONTINUOUS
 62
     7
 10
3114.3412910000011
 20
2479.7036199999998
 30
0.0
  0
VERTEX
  5
80E
  8
LAYER01
  6
CONTINUOUS
 62
     7
 10
3108.5604050000002
 20
2488.3749499999999
 30
0.0
  0
VERTEX
  5
80F
  8
LAYER01
  6
CONTINUOUS
 62
     7
 10
3103.7429990000001
 20
2498.0097599999999
 30
0.0
  0
VERTEX
  5
810
  8
LAYER01
  6
CONTINUOUS
 62
     7
 10
3100.8525559999998
 20
2507.6445709999998
 30
0.0
  0
VERTEX
  5
811
  8
LAYER01
  6
CONTINUOUS
 62
     7
 10
3097.962113
 20
2518.2428629999999
 30
0.0
  0
VERTEX
  5
812
  8
LAYER01
  6
CONTINUOUS
 62
     7
 10
3096.035151000001
 20
2528.8411550000001
 30
0.0
  0
VERTEX
  5
813
  8
LAYER01
  6
CONTINUOUS
 62
     7
 10
3095.0716699999998
 20
2540.402928
 30
0.0
  0
VERTEX
  5
814
  8
LAYER01
  6
CONTINUOUS
 62
     7
 10
3095.0716699999998
 20
2540.402928
 30
0.0
  0
VERTEX
  5
815
  8
LAYER01
  6
CONTINUOUS
 62
     7
 10
3096.035151000001
 20
2551.0012200000001
 30
0.0
  0
VERTEX
  5
816
  8
LAYER01
  6
CONTINUOUS
 62
     7
 10
3097.962113
 20
2562.562993
 30
0.0
  0
VERTEX
  5
817
  8
LAYER01
  6
CONTINUOUS
 62
     7
 10
3099.889075
 20
2572.1978039999999
 30
0.0
  0
VERTEX
  5
818
  8
LAYER01
  6
CONTINUOUS
 62
     7
 10
3103.7429990000001
 20
2582.796096
 30
0.0
  0
VERTEX
  5
819
  8
LAYER01
  6
CONTINUOUS
 62
     7
 10
3108.5604050000002
 20
2592.4309069999999
 30
0.0
  0
VERTEX
  5
81A
  8
LAYER01
  6
CONTINUOUS
 62
     7
 10
3113.37781
 20
2601.1022370000001
 30
0.0
  0
VERTEX
  5
81B
  8
LAYER01
  6
CONTINUOUS
 62
     7
 10
3120.1221780000001
 20
2609.7735670000002
 30
0.0
  0
VERTEX
  5
81C
  8
LAYER01
  6
CONTINUOUS
 62
     7
 10
3126.8665449999999
 20
2617.4814150000002
 30
0.0
  0
VERTEX
  5
81D
  8
LAYER01
  6
CONTINUOUS
 62
     7
 10
3134.5743940000002
 20
2624.2257829999999
 30
0.0
  0
VERTEX
  5
81E
  8
LAYER01
  6
CONTINUOUS
 62
     7
 10
3143.2457239999999
 20
2630.970151
 30
0.0
  0
VERTEX
  5
81F
  8
LAYER01
  6
CONTINUOUS
 62
     7
 10
3151.917054
 20
2635.7875560000002
 30
0.0
  0
VERTEX
  5
820
  8
LAYER01
  6
CONTINUOUS
 62
     7
 10
3161.5518649999999
 20
2640.6049619999999
 30
0.0
  0
VERTEX
  5
821
  8
LAYER01
  6
CONTINUOUS
 62
     7
 10
3171.1866759999998
 20
2644.4588859999999
 30
0.0
  0
VERTEX
  5
822
  8
LAYER01
  6
CONTINUOUS
 62
     7
 10
3181.7849670000001
 20
2647.3493290000001
 30
0.0
  0
VERTEX
  5
823
  8
LAYER01
  6
CONTINUOUS
 62
     7
 10
3193.3467409999998
 20
2648.3128100000008
 30
0.0
  0
VERTEX
  5
824
  8
LAYER01
  6
CONTINUOUS
 62
     7
 10
3203.9450320000001
 20
2649.2762910000001
 30
0.0
  0
VERTEX
  5
825
  8
LAYER01
  6
CONTINUOUS
 62
     7
 10
3203.9450320000001
 20
2649.2762910000001
 30
0.0
  0
VERTEX
  5
826
  8
LAYER01
  6
CONTINUOUS
 62
     7
 10
3221.2876920000008
 20
2648.3128100000008
 30
0.0
  0
VERTEX
  5
827
  8
LAYER01
  6
CONTINUOUS
 62
     7
 10
3229.959022
 20
2647.3493290000001
 30
0.0
  0
VERTEX
  5
828
  8
LAYER01
  6
CONTINUOUS
 62
     7
 10
3237.6668709999999
 20
2645.4223670000001
 30
0.0
  0
VERTEX
  5
829
  8
LAYER01
  6
CONTINUOUS
 62
     7
 10
3244.4112380000001
 20
2642.5319239999999
 30
0.0
  0
VERTEX
  5
82A
  8
LAYER01
  6
CONTINUOUS
 62
     7
 10
3252.119087
 20
2639.6414799999998
 30
0.0
  0
VERTEX
  5
82B
  8
LAYER01
  6
CONTINUOUS
 62
     7
 10
3259.8269359999999
 20
2634.824075
 30
0.0
  0
VERTEX
  5
82C
  8
LAYER01
  6
CONTINUOUS
 62
     7
 10
3267.5347839999999
 20
2630.0066700000002
 30
0.0
  0
VERTEX
  5
82D
  8
LAYER01
  6
CONTINUOUS
 62
     7
 10
3267.5347839999999
 20
2630.0066700000002
 30
0.0
  0
SEQEND
  5
82E
  8
LAYER01
  6
CONTINUOUS
 62
     7
  0
POLYLINE
  5
307
  8
LAYER01
  6
CONTINUOUS
 62
     7
 66
     1
 10
0.0
 20
0.0
 30
0.0
 70
     1
  0
VERTEX
  5
82F
  8
LAYER01
  6
CONTINUOUS
 62
     7
 10
3360.9924500000011
 20
2648.3128100000008
 30
0.0
  0
VERTEX
  5
830
  8
LAYER01
  6
CONTINUOUS
 62
     7
 10
3360.9924500000011
 20
2648.3128100000008
 30
0.0
  0
VERTEX
  5
831
  8
LAYER01
  6
CONTINUOUS
 62
     7
 10
3350.3941580000001
 20
2647.3493290000001
 30
0.0
  0
VERTEX
  5
832
  8
LAYER01
  6
CONTINUOUS
 62
     7
 10
3338.8323850000002
 20
2646.3858479999999
 30
0.0
  0
VERTEX
  5
833
  8
LAYER01
  6
CONTINUOUS
 62
     7
 10
3329.1975739999998
 20
2643.4954050000001
 30
0.0
  0
VERTEX
  5
834
  8
LAYER01
  6
CONTINUOUS
 62
     7
 10
3318.5992820000001
 20
2639.6414799999998
 30
0.0
  0
VERTEX
  5
835
  8
LAYER01
  6
CONTINUOUS
 62
     7
 10
3308.9644709999998
 20
2635.7875560000002
 30
0.0
  0
VERTEX
  5
836
  8
LAYER01
  6
CONTINUOUS
 62
     7
 10
3300.2931410000001
 20
2630.0066700000002
 30
0.0
  0
VERTEX
  5
837
  8
LAYER01
  6
CONTINUOUS
 62
     7
 10
3291.6218120000008
 20
2624.2257829999999
 30
0.0
  0
VERTEX
  5
838
  8
LAYER01
  6
CONTINUOUS
 62
     7
 10
3283.913963
 20
2616.517934
 30
0.0
  0
VERTEX
  5
839
  8
LAYER01
  6
CONTINUOUS
 62
     7
 10
3277.1695949999998
 20
2608.810086
 30
0.0
  0
VERTEX
  5
83A
  8
LAYER01
  6
CONTINUOUS
 62
     7
 10
3270.4252280000001
 20
2601.1022370000001
 30
0.0
  0
VERTEX
  5
83B
  8
LAYER01
  6
CONTINUOUS
 62
     7
 10
3264.6443410000002
 20
2592.4309069999999
 30
0.0
  0
VERTEX
  5
83C
  8
LAYER01
  6
CONTINUOUS
 62
     7
 10
3259.8269359999999
 20
2582.796096
 30
0.0
  0
VERTEX
  5
83D
  8
LAYER01
  6
CONTINUOUS
 62
     7
 10
3256.9364920000012
 20
2572.1978039999999
 30
0.0
  0
VERTEX
  5
83E
  8
LAYER01
  6
CONTINUOUS
 62
     7
 10
3254.046049
 20
2562.562993
 30
0.0
  0
VERTEX
  5
83F
  8
LAYER01
  6
CONTINUOUS
 62
     7
 10
3252.119087
 20
2551.0012200000001
 30
0.0
  0
VERTEX
  5
840
  8
LAYER01
  6
CONTINUOUS
 62
     7
 10
3251.1556059999998
 20
2540.402928
 30
0.0
  0
VERTEX
  5
841
  8
LAYER01
  6
CONTINUOUS
 62
     7
 10
3251.1556059999998
 20
2540.402928
 30
0.0
  0
VERTEX
  5
842
  8
LAYER01
  6
CONTINUOUS
 62
     7
 10
3252.119087
 20
2528.8411550000001
 30
0.0
  0
VERTEX
  5
843
  8
LAYER01
  6
CONTINUOUS
 62
     7
 10
3253.0825679999998
 20
2518.2428629999999
 30
0.0
  0
VERTEX
  5
844
  8
LAYER01
  6
CONTINUOUS
 62
     7
 10
3255.973011
 20
2507.6445709999998
 30
0.0
  0
VERTEX
  5
845
  8
LAYER01
  6
CONTINUOUS
 62
     7
 10
3259.8269359999999
 20
2498.0097599999999
 30
0.0
  0
VERTEX
  5
846
  8
LAYER01
  6
CONTINUOUS
 62
     7
 10
3263.6808599999999
 20
2488.3749499999999
 30
0.0
  0
VERTEX
  5
847
  8
LAYER01
  6
CONTINUOUS
 62
     7
 10
3269.4617460000009
 20
2479.7036199999998
 30
0.0
  0
VERTEX
  5
848
  8
LAYER01
  6
CONTINUOUS
 62
     7
 10
3275.2426329999998
 20
2471.0322900000001
 30
0.0
  0
VERTEX
  5
849
  8
LAYER01
  6
CONTINUOUS
 62
     7
 10
3281.987001
 20
2463.3244410000011
 30
0.0
  0
VERTEX
  5
84A
  8
LAYER01
  6
CONTINUOUS
 62
     7
 10
3289.694849
 20
2455.6165930000002
 30
0.0
  0
VERTEX
  5
84B
  8
LAYER01
  6
CONTINUOUS
 62
     7
 10
3298.3661790000001
 20
2449.8357059999998
 30
0.0
  0
VERTEX
  5
84C
  8
LAYER01
  6
CONTINUOUS
 62
     7
 10
3307.0375089999998
 20
2444.0548199999998
 30
0.0
  0
VERTEX
  5
84D
  8
LAYER01
  6
CONTINUOUS
 62
     7
 10
3316.6723200000001
 20
2439.2374140000002
 30
0.0
  0
VERTEX
  5
84E
  8
LAYER01
  6
CONTINUOUS
 62
     7
 10
3326.307131
 20
2435.3834900000002
 30
0.0
  0
VERTEX
  5
84F
  8
LAYER01
  6
CONTINUOUS
 62
     7
 10
3336.9054230000011
 20
2433.4565280000011
 30
0.0
  0
VERTEX
  5
850
  8
LAYER01
  6
CONTINUOUS
 62
     7
 10
3347.5037149999998
 20
2431.5295649999998
 30
0.0
  0
VERTEX
  5
851
  8
LAYER01
  6
CONTINUOUS
 62
     7
 10
3358.102007
 20
2430.566084
 30
0.0
  0
VERTEX
  5
852
  8
LAYER01
  6
CONTINUOUS
 62
     7
 10
3358.102007
 20
2430.566084
 30
0.0
  0
VERTEX
  5
853
  8
LAYER01
  6
CONTINUOUS
 62
     7
 10
3369.6637799999999
 20
2431.5295649999998
 30
0.0
  0
VERTEX
  5
854
  8
LAYER01
  6
CONTINUOUS
 62
     7
 10
3380.262072
 20
2433.4565280000011
 30
0.0
  0
VERTEX
  5
855
  8
LAYER01
  6
CONTINUOUS
 62
     7
 10
3390.8603640000001
 20
2436.3469709999999
 30
0.0
  0
VERTEX
  5
856
  8
LAYER01
  6
CONTINUOUS
 62
     7
 10
3400.4951740000001
 20
2440.2008949999999
 30
0.0
  0
VERTEX
  5
857
  8
LAYER01
  6
CONTINUOUS
 62
     7
 10
3410.1299850000009
 20
2445.0183010000001
 30
0.0
  0
VERTEX
  5
858
  8
LAYER01
  6
CONTINUOUS
 62
     7
 10
3418.8013150000002
 20
2450.7991870000001
 30
0.0
  0
VERTEX
  5
859
  8
LAYER01
  6
CONTINUOUS
 62
     7
 10
3427.4726449999998
 20
2456.580074
 30
0.0
  0
VERTEX
  5
85A
  8
LAYER01
  6
CONTINUOUS
 62
     7
 10
3435.1804940000002
 20
2464.287922
 30
0.0
  0
VERTEX
  5
85B
  8
LAYER01
  6
CONTINUOUS
 62
     7
 10
3441.924861
 20
2471.9957709999999
 30
0.0
  0
VERTEX
  5
85C
  8
LAYER01
  6
CONTINUOUS
 62
     7
 10
3447.7057479999999
 20
2480.667101
 30
0.0
  0
VERTEX
  5
85D
  8
LAYER01
  6
CONTINUOUS
 62
     7
 10
3452.5231530000001
 20
2489.3384310000001
 30
0.0
  0
VERTEX
  5
85E
  8
LAYER01
  6
CONTINUOUS
 62
     7
 10
3457.3405590000002
 20
2498.973242
 30
0.0
  0
VERTEX
  5
85F
  8
LAYER01
  6
CONTINUOUS
 62
     7
 10
3461.1944830000002
 20
2509.5715340000002
 30
0.0
  0
VERTEX
  5
860
  8
LAYER01
  6
CONTINUOUS
 62
     7
 10
3463.1214450000002
 20
2520.1698259999998
 30
0.0
  0
VERTEX
  5
861
  8
LAYER01
  6
CONTINUOUS
 62
     7
 10
3464.084926
 20
2530.7681170000001
 30
0.0
  0
VERTEX
  5
862
  8
LAYER01
  6
CONTINUOUS
 62
     7
 10
3465.0484070000011
 20
2542.3298909999999
 30
0.0
  0
VERTEX
  5
863
  8
LAYER01
  6
CONTINUOUS
 62
     7
 10
3465.0484070000011
 20
2542.3298909999999
 30
0.0
  0
VERTEX
  5
864
  8
LAYER01
  6
CONTINUOUS
 62
     7
 10
3464.084926
 20
2552.9281820000001
 30
0.0
  0
VERTEX
  5
865
  8
LAYER01
  6
CONTINUOUS
 62
     7
 10
3462.157964
 20
2563.5264739999998
 30
0.0
  0
VERTEX
  5
866
  8
LAYER01
  6
CONTINUOUS
 62
     7
 10
3459.2675210000011
 20
2573.1612850000001
 30
0.0
  0
VERTEX
  5
867
  8
LAYER01
  6
CONTINUOUS
 62
     7
 10
3456.377078
 20
2582.796096
 30
0.0
  0
VERTEX
  5
868
  8
LAYER01
  6
CONTINUOUS
 62
     7
 10
3451.5596719999999
 20
2591.4674260000002
 30
0.0
  0
VERTEX
  5
869
  8
LAYER01
  6
CONTINUOUS
 62
     7
 10
3446.742267000001
 20
2600.1387559999998
 30
0.0
  0
VERTEX
  5
86A
  8
LAYER01
  6
CONTINUOUS
 62
     7
 10
3440.9613800000002
 20
2608.810086
 30
0.0
  0
VERTEX
  5
86B
  8
LAYER01
  6
CONTINUOUS
 62
     7
 10
3434.2170130000009
 20
2615.5544530000011
 30
0.0
  0
VERTEX
  5
86C
  8
LAYER01
  6
CONTINUOUS
 62
     7
 10
3426.5091640000001
 20
2622.2988210000012
 30
0.0
  0
VERTEX
  5
86D
  8
LAYER01
  6
CONTINUOUS
 62
     7
 10
3418.8013150000002
 20
2629.0431880000001
 30
0.0
  0
VERTEX
  5
86E
  8
LAYER01
  6
CONTINUOUS
 62
     7
 10
3410.1299850000009
 20
2633.8605940000011
 30
0.0
  0
VERTEX
  5
86F
  8
LAYER01
  6
CONTINUOUS
 62
     7
 10
3401.4586560000012
 20
2638.677999
 30
0.0
  0
VERTEX
  5
870
  8
LAYER01
  6
CONTINUOUS
 62
     7
 10
3391.8238450000008
 20
2642.5319239999999
 30
0.0
  0
VERTEX
  5
871
  8
LAYER01
  6
CONTINUOUS
 62
     7
 10
3382.189034
 20
2645.4223670000001
 30
0.0
  0
VERTEX
  5
872
  8
LAYER01
  6
CONTINUOUS
 62
     7
 10
3371.5907419999999
 20
2647.3493290000001
 30
0.0
  0
VERTEX
  5
873
  8
LAYER01
  6
CONTINUOUS
 62
     7
 10
3360.9924500000011
 20
2648.3128100000008
 30
0.0
  0
VERTEX
  5
874
  8
LAYER01
  6
CONTINUOUS
 62
     7
 10
3360.9924500000011
 20
2648.3128100000008
 30
0.0
  0
SEQEND
  5
875
  8
LAYER01
  6
CONTINUOUS
 62
     7
  0
POLYLINE
  5
34F
  8
LAYER01
  6
CONTINUOUS
 62
     7
 66
     1
 10
0.0
 20
0.0
 30
0.0
 70
     1
  0
VERTEX
  5
876
  8
LAYER01
  6
CONTINUOUS
 62
     7
 10
3358.102007
 20
2470.0688089999999
 30
0.0
  0
VERTEX
  5
877
  8
LAYER01
  6
CONTINUOUS
 62
     7
 10
3358.102007
 20
2470.0688089999999
 30
0.0
  0
VERTEX
  5
878
  8
LAYER01
  6
CONTINUOUS
 62
     7
 10
3351.3576389999998
 20
2471.0322900000001
 30
0.0
  0
VERTEX
  5
879
  8
LAYER01
  6
CONTINUOUS
 62
     7
 10
3344.6132710000002
 20
2471.9957709999999
 30
0.0
  0
VERTEX
  5
87A
  8
LAYER01
  6
CONTINUOUS
 62
     7
 10
3337.8689039999999
 20
2472.9592520000001
 30
0.0
  0
VERTEX
  5
87B
  8
LAYER01
  6
CONTINUOUS
 62
     7
 10
3331.1245359999998
 20
2475.8496949999999
 30
0.0
  0
VERTEX
  5
87C
  8
LAYER01
  6
CONTINUOUS
 62
     7
 10
3325.3436499999998
 20
2478.740139
 30
0.0
  0
VERTEX
  5
87D
  8
LAYER01
  6
CONTINUOUS
 62
     7
 10
3319.5627629999999
 20
2482.594063
 30
0.0
  0
VERTEX
  5
87E
  8
LAYER01
  6
CONTINUOUS
 62
     7
 10
3314.7453580000001
 20
2486.447987
 30
0.0
  0
VERTEX
  5
87F
  8
LAYER01
  6
CONTINUOUS
 62
     7
 10
3309.9279520000009
 20
2491.2653930000001
 30
0.0
  0
VERTEX
  5
880
  8
LAYER01
  6
CONTINUOUS
 62
     7
 10
3305.1105470000002
 20
2496.0827979999999
 30
0.0
  0
VERTEX
  5
881
  8
LAYER01
  6
CONTINUOUS
 62
     7
 10
3301.2566219999999
 20
2500.9002040000009
 30
0.0
  0
VERTEX
  5
882
  8
LAYER01
  6
CONTINUOUS
 62
     7
 10
3298.3661790000001
 20
2506.68109
 30
0.0
  0
VERTEX
  5
883
  8
LAYER01
  6
CONTINUOUS
 62
     7
 10
3295.4757359999999
 20
2513.4254580000002
 30
0.0
  0
VERTEX
  5
884
  8
LAYER01
  6
CONTINUOUS
 62
     7
 10
3292.585293000001
 20
2519.2063440000002
 30
0.0
  0
VERTEX
  5
885
  8
LAYER01
  6
CONTINUOUS
 62
     7
 10
3291.6218120000008
 20
2525.9507119999998
 30
0.0
  0
VERTEX
  5
886
  8
LAYER01
  6
CONTINUOUS
 62
     7
 10
3289.694849
 20
2532.69508
 30
0.0
  0
VERTEX
  5
887
  8
LAYER01
  6
CONTINUOUS
 62
     7
 10
3289.694849
 20
2540.402928
 30
0.0
  0
VERTEX
  5
888
  8
LAYER01
  6
CONTINUOUS
 62
     7
 10
3289.694849
 20
2540.402928
 30
0.0
  0
VERTEX
  5
889
  8
LAYER01
  6
CONTINUOUS
 62
     7
 10
3290.6583300000002
 20
2547.1472960000001
 30
0.0
  0
VERTEX
  5
88A
  8
LAYER01
  6
CONTINUOUS
 62
     7
 10
3291.6218120000008
 20
2553.8916640000002
 30
0.0
  0
VERTEX
  5
88B
  8
LAYER01
  6
CONTINUOUS
 62
     7
 10
3293.5487739999999
 20
2560.636031
 30
0.0
  0
VERTEX
  5
88C
  8
LAYER01
  6
CONTINUOUS
 62
     7
 10
3295.4757359999999
 20
2567.3803990000001
 30
0.0
  0
VERTEX
  5
88D
  8
LAYER01
  6
CONTINUOUS
 62
     7
 10
3298.3661790000001
 20
2573.1612850000001
 30
0.0
  0
VERTEX
  5
88E
  8
LAYER01
  6
CONTINUOUS
 62
     7
 10
3302.220103000001
 20
2578.942172
 30
0.0
  0
VERTEX
  5
88F
  8
LAYER01
  6
CONTINUOUS
 62
     7
 10
3306.074028
 20
2583.7595769999998
 30
0.0
  0
VERTEX
  5
890
  8
LAYER01
  6
CONTINUOUS
 62
     7
 10
3310.8914329999998
 20
2588.5769829999999
 30
0.0
  0
VERTEX
  5
891
  8
LAYER01
  6
CONTINUOUS
 62
     7
 10
3315.7088389999999
 20
2593.3943880000002
 30
0.0
  0
VERTEX
  5
892
  8
LAYER01
  6
CONTINUOUS
 62
     7
 10
3320.5262440000001
 20
2597.2483130000001
 30
0.0
  0
VERTEX
  5
893
  8
LAYER01
  6
CONTINUOUS
 62
     7
 10
3326.307131
 20
2601.1022370000001
 30
0.0
  0
VERTEX
  5
894
  8
LAYER01
  6
CONTINUOUS
 62
     7
 10
3333.0514980000012
 20
2603.9926800000012
 30
0.0
  0
VERTEX
  5
895
  8
LAYER01
  6
CONTINUOUS
 62
     7
 10
3338.8323850000002
 20
2605.9196419999998
 30
0.0
  0
VERTEX
  5
896
  8
LAYER01
  6
CONTINUOUS
 62
     7
 10
3345.5767519999999
 20
2607.8466050000011
 30
0.0
  0
VERTEX
  5
897
  8
LAYER01
  6
CONTINUOUS
 62
     7
 10
3352.3211200000001
 20
2608.810086
 30
0.0
  0
VERTEX
  5
898
  8
LAYER01
  6
CONTINUOUS
 62
     7
 10
3360.028969
 20
2608.810086
 30
0.0
  0
VERTEX
  5
899
  8
LAYER01
  6
CONTINUOUS
 62
     7
 10
3360.028969
 20
2608.810086
 30
0.0
  0
VERTEX
  5
89A
  8
LAYER01
  6
CONTINUOUS
 62
     7
 10
3366.7733360000002
 20
2607.8466050000011
 30
0.0
  0
VERTEX
  5
89B
  8
LAYER01
  6
CONTINUOUS
 62
     7
 10
3373.5177039999999
 20
2606.8831230000001
 30
0.0
  0
VERTEX
  5
89C
  8
LAYER01
  6
CONTINUOUS
 62
     7
 10
3379.2985910000002
 20
2604.9561610000001
 30
0.0
  0
VERTEX
  5
89D
  8
LAYER01
  6
CONTINUOUS
 62
     7
 10
3386.042958
 20
2603.0291990000001
 30
0.0
  0
VERTEX
  5
89E
  8
LAYER01
  6
CONTINUOUS
 62
     7
 10
3390.8603640000001
 20
2600.1387559999998
 30
0.0
  0
VERTEX
  5
89F
  8
LAYER01
  6
CONTINUOUS
 62
     7
 10
3396.6412500000001
 20
2596.2848309999999
 30
0.0
  0
VERTEX
  5
8A0
  8
LAYER01
  6
CONTINUOUS
 62
     7
 10
3401.4586560000012
 20
2592.4309069999999
 30
0.0
  0
VERTEX
  5
8A1
  8
LAYER01
  6
CONTINUOUS
 62
     7
 10
3406.276061
 20
2588.5769829999999
 30
0.0
  0
VERTEX
  5
8A2
  8
LAYER01
  6
CONTINUOUS
 62
     7
 10
3410.1299850000009
 20
2583.7595769999998
 30
0.0
  0
VERTEX
  5
8A3
  8
LAYER01
  6
CONTINUOUS
 62
     7
 10
3413.9839100000008
 20
2577.9786909999998
 30
0.0
  0
VERTEX
  5
8A4
  8
LAYER01
  6
CONTINUOUS
 62
     7
 10
3417.8378339999999
 20
2573.1612850000001
 30
0.0
  0
VERTEX
  5
8A5
  8
LAYER01
  6
CONTINUOUS
 62
     7
 10
3420.7282770000002
 20
2567.3803990000001
 30
0.0
  0
VERTEX
  5
8A6
  8
LAYER01
  6
CONTINUOUS
 62
     7
 10
3422.65524
 20
2560.636031
 30
0.0
  0
VERTEX
  5
8A7
  8
LAYER01
  6
CONTINUOUS
 62
     7
 10
3424.582202000001
 20
2554.855145
 30
0.0
  0
VERTEX
  5
8A8
  8
LAYER01
  6
CONTINUOUS
 62
     7
 10
3425.5456829999998
 20
2548.1107769999999
 30
0.0
  0
VERTEX
  5
8A9
  8
LAYER01
  6
CONTINUOUS
 62
     7
 10
3425.5456829999998
 20
2541.3664090000002
 30
0.0
  0
VERTEX
  5
8AA
  8
LAYER01
  6
CONTINUOUS
 62
     7
 10
3425.5456829999998
 20
2541.3664090000002
 30
0.0
  0
VERTEX
  5
8AB
  8
LAYER01
  6
CONTINUOUS
 62
     7
 10
3425.5456829999998
 20
2533.6585610000002
 30
0.0
  0
VERTEX
  5
8AC
  8
LAYER01
  6
CONTINUOUS
 62
     7
 10
3424.582202000001
 20
2526.9141930000001
 30
0.0
  0
VERTEX
  5
8AD
  8
LAYER01
  6
CONTINUOUS
 62
     7
 10
3423.6187209999998
 20
2520.1698259999998
 30
0.0
  0
VERTEX
  5
8AE
  8
LAYER01
  6
CONTINUOUS
 62
     7
 10
3420.7282770000002
 20
2514.3889389999999
 30
0.0
  0
VERTEX
  5
8AF
  8
LAYER01
  6
CONTINUOUS
 62
     7
 10
3418.8013150000002
 20
2507.6445709999998
 30
0.0
  0
VERTEX
  5
8B0
  8
LAYER01
  6
CONTINUOUS
 62
     7
 10
3414.9473910000002
 20
2501.8636849999998
 30
0.0
  0
VERTEX
  5
8B1
  8
LAYER01
  6
CONTINUOUS
 62
     7
 10
3411.0934659999998
 20
2496.0827979999999
 30
0.0
  0
VERTEX
  5
8B2
  8
LAYER01
  6
CONTINUOUS
 62
     7
 10
3406.276061
 20
2491.2653930000001
 30
0.0
  0
VERTEX
  5
8B3
  8
LAYER01
  6
CONTINUOUS
 62
     7
 10
3401.4586560000012
 20
2486.447987
 30
0.0
  0
VERTEX
  5
8B4
  8
LAYER01
  6
CONTINUOUS
 62
     7
 10
3396.6412500000001
 20
2482.594063
 30
0.0
  0
VERTEX
  5
8B5
  8
LAYER01
  6
CONTINUOUS
 62
     7
 10
3390.8603640000001
 20
2478.740139
 30
0.0
  0
VERTEX
  5
8B6
  8
LAYER01
  6
CONTINUOUS
 62
     7
 10
3385.0794770000002
 20
2475.8496949999999
 30
0.0
  0
VERTEX
  5
8B7
  8
LAYER01
  6
CONTINUOUS
 62
     7
 10
3378.3351090000001
 20
2473.9227329999999
 30
0.0
  0
VERTEX
  5
8B8
  8
LAYER01
  6
CONTINUOUS
 62
     7
 10
3371.5907419999999
 20
2471.9957709999999
 30
0.0
  0
VERTEX
  5
8B9
  8
LAYER01
  6
CONTINUOUS
 62
     7
 10
3364.8463740000011
 20
2471.0322900000001
 30
0.0
  0
VERTEX
  5
8BA
  8
LAYER01
  6
CONTINUOUS
 62
     7
 10
3358.102007
 20
2470.0688089999999
 30
0.0
  0
VERTEX
  5
8BB
  8
LAYER01
  6
CONTINUOUS
 62
     7
 10
3358.102007
 20
2470.0688089999999
 30
0.0
  0
SEQEND
  5
8BC
  8
LAYER01
  6
CONTINUOUS
 62
     7
  0
POLYLINE
  5
397
  8
LAYER01
  6
CONTINUOUS
 62
     7
 66
     1
 10
0.0
 20
0.0
 30
0.0
 70
     1
  0
VERTEX
  5
8BD
  8
LAYER01
  6
CONTINUOUS
 62
     7
 10
3435.1804940000002
 20
2643.4954050000001
 30
0.0
  0
VERTEX
  5
8BE
  8
LAYER01
  6
CONTINUOUS
 62
     7
 10
3537.3094890000002
 20
2643.4954050000001
 30
0.0
  0
VERTEX
  5
8BF
  8
LAYER01
  6
CONTINUOUS
 62
     7
 10
3537.3094890000002
 20
2643.4954050000001
 30
0.0
  0
VERTEX
  5
8C0
  8
LAYER01
  6
CONTINUOUS
 62
     7
 10
3548.8712620000001
 20
2641.568443000001
 30
0.0
  0
VERTEX
  5
8C1
  8
LAYER01
  6
CONTINUOUS
 62
     7
 10
3559.4695539999998
 20
2636.751037
 30
0.0
  0
VERTEX
  5
8C2
  8
LAYER01
  6
CONTINUOUS
 62
     7
 10
3568.1408839999999
 20
2630.970151
 30
0.0
  0
VERTEX
  5
8C3
  8
LAYER01
  6
CONTINUOUS
 62
     7
 10
3575.8487329999998
 20
2623.2623020000001
 30
0.0
  0
VERTEX
  5
8C4
  8
LAYER01
  6
CONTINUOUS
 62
     7
 10
3582.5931
 20
2615.5544530000011
 30
0.0
  0
VERTEX
  5
8C5
  8
LAYER01
  6
CONTINUOUS
 62
     7
 10
3587.4105060000011
 20
2605.9196419999998
 30
0.0
  0
VERTEX
  5
8C6
  8
LAYER01
  6
CONTINUOUS
 62
     7
 10
3590.3009489999999
 20
2594.3578689999999
 30
0.0
  0
VERTEX
  5
8C7
  8
LAYER01
  6
CONTINUOUS
 62
     7
 10
3591.2644300000002
 20
2583.7595769999998
 30
0.0
  0
VERTEX
  5
8C8
  8
LAYER01
  6
CONTINUOUS
 62
     7
 10
3591.2644300000002
 20
2583.7595769999998
 30
0.0
  0
VERTEX
  5
8C9
  8
LAYER01
  6
CONTINUOUS
 62
     7
 10
3590.3009489999999
 20
2572.1978039999999
 30
0.0
  0
VERTEX
  5
8CA
  8
LAYER01
  6
CONTINUOUS
 62
     7
 10
3588.3739869999999
 20
2562.562993
 30
0.0
  0
VERTEX
  5
8CB
  8
LAYER01
  6
CONTINUOUS
 62
     7
 10
3584.5200620000001
 20
2552.9281820000001
 30
0.0
  0
VERTEX
  5
8CC
  8
LAYER01
  6
CONTINUOUS
 62
     7
 10
3579.7026569999998
 20
2544.2568529999999
 30
0.0
  0
VERTEX
  5
8CD
  8
LAYER01
  6
CONTINUOUS
 62
     7
 10
3572.9582890000011
 20
2536.549004
 30
0.0
  0
VERTEX
  5
8CE
  8
LAYER01
  6
CONTINUOUS
 62
     7
 10
3566.2139219999999
 20
2530.7681170000001
 30
0.0
  0
VERTEX
  5
8CF
  8
LAYER01
  6
CONTINUOUS
 62
     7
 10
3556.579111
 20
2524.9872310000001
 30
0.0
  0
VERTEX
  5
8D0
  8
LAYER01
  6
CONTINUOUS
 62
     7
 10
3546.944300000001
 20
2521.1333070000001
 30
0.0
  0
VERTEX
  5
8D1
  8
LAYER01
  6
CONTINUOUS
 62
     7
 10
3609.5705710000011
 20
2437.3104520000002
 30
0.0
  0
VERTEX
  5
8D2
  8
LAYER01
  6
CONTINUOUS
 62
     7
 10
3561.3965159999998
 20
2437.3104520000002
 30
0.0
  0
VERTEX
  5
8D3
  8
LAYER01
  6
CONTINUOUS
 62
     7
 10
3477.5736619999998
 20
2544.2568529999999
 30
0.0
  0
VERTEX
  5
8D4
  8
LAYER01
  6
CONTINUOUS
 62
     7
 10
3524.7842350000001
 20
2544.2568529999999
 30
0.0
  0
VERTEX
  5
8D5
  8
LAYER01
  6
CONTINUOUS
 62
     7
 10
3524.7842350000001
 20
2544.2568529999999
 30
0.0
  0
VERTEX
  5
8D6
  8
LAYER01
  6
CONTINUOUS
 62
     7
 10
3530.5651210000001
 20
2546.1838149999999
 30
0.0
  0
VERTEX
  5
8D7
  8
LAYER01
  6
CONTINUOUS
 62
     7
 10
3535.3825270000002
 20
2548.1107769999999
 30
0.0
  0
VERTEX
  5
8D8
  8
LAYER01
  6
CONTINUOUS
 62
     7
 10
3539.2364510000002
 20
2551.9647010000008
 30
0.0
  0
VERTEX
  5
8D9
  8
LAYER01
  6
CONTINUOUS
 62
     7
 10
3543.0903760000001
 20
2555.8186260000011
 30
0.0
  0
VERTEX
  5
8DA
  8
LAYER01
  6
CONTINUOUS
 62
     7
 10
3545.9808189999999
 20
2560.636031
 30
0.0
  0
VERTEX
  5
8DB
  8
LAYER01
  6
CONTINUOUS
 62
     7
 10
3548.8712620000001
 20
2565.4534370000001
 30
0.0
  0
VERTEX
  5
8DC
  8
LAYER01
  6
CONTINUOUS
 62
     7
 10
3549.8347429999999
 20
2571.2343230000001
 30
0.0
  0
VERTEX
  5
8DD
  8
LAYER01
  6
CONTINUOUS
 62
     7
 10
3549.8347429999999
 20
2577.01521
 30
0.0
  0
VERTEX
  5
8DE
  8
LAYER01
  6
CONTINUOUS
 62
     7
 10
3549.8347429999999
 20
2577.01521
 30
0.0
  0
VERTEX
  5
8DF
  8
LAYER01
  6
CONTINUOUS
 62
     7
 10
3549.8347429999999
 20
2582.796096
 30
0.0
  0
VERTEX
  5
8E0
  8
LAYER01
  6
CONTINUOUS
 62
     7
 10
3547.9077810000008
 20
2587.6135020000002
 30
0.0
  0
VERTEX
  5
8E1
  8
LAYER01
  6
CONTINUOUS
 62
     7
 10
3545.9808189999999
 20
2592.4309069999999
 30
0.0
  0
VERTEX
  5
8E2
  8
LAYER01
  6
CONTINUOUS
 62
     7
 10
3543.0903760000001
 20
2597.2483130000001
 30
0.0
  0
VERTEX
  5
8E3
  8
LAYER01
  6
CONTINUOUS
 62
     7
 10
3539.2364510000002
 20
2601.1022370000001
 30
0.0
  0
VERTEX
  5
8E4
  8
LAYER01
  6
CONTINUOUS
 62
     7
 10
3535.3825270000002
 20
2603.9926800000012
 30
0.0
  0
VERTEX
  5
8E5
  8
LAYER01
  6
CONTINUOUS
 62
     7
 10
3529.6016399999999
 20
2606.8831230000001
 30
0.0
  0
VERTEX
  5
8E6
  8
LAYER01
  6
CONTINUOUS
 62
     7
 10
3524.7842350000001
 20
2608.810086
 30
0.0
  0
VERTEX
  5
8E7
  8
LAYER01
  6
CONTINUOUS
 62
     7
 10
3469.8658130000008
 20
2608.810086
 30
0.0
  0
VERTEX
  5
8E8
  8
LAYER01
  6
CONTINUOUS
 62
     7
 10
3435.1804940000002
 20
2643.4954050000001
 30
0.0
  0
VERTEX
  5
8E9
  8
LAYER01
  6
CONTINUOUS
 62
     7
 10
3435.1804940000002
 20
2643.4954050000001
 30
0.0
  0
SEQEND
  5
8EA
  8
LAYER01
  6
CONTINUOUS
 62
     7
  0
POLYLINE
  5
3C6
  8
LAYER01
  6
CONTINUOUS
 62
     7
 66
     1
 10
0.0
 20
0.0
 30
0.0
 70
     1
  0
VERTEX
  5
8EB
  8
LAYER01
  6
CONTINUOUS
 62
     7
 10
3635.5845599999998
 20
2592.4309069999999
 30
0.0
  0
VERTEX
  5
8EC
  8
LAYER01
  6
CONTINUOUS
 62
     7
 10
3635.5845599999998
 20
2592.4309069999999
 30
0.0
  0
VERTEX
  5
8ED
  8
LAYER01
  6
CONTINUOUS
 62
     7
 10
3640.4019650000009
 20
2593.3943880000002
 30
0.0
  0
VERTEX
  5
8EE
  8
LAYER01
  6
CONTINUOUS
 62
     7
 10
3645.2193710000001
 20
2594.3578689999999
 30
0.0
  0
VERTEX
  5
8EF
  8
LAYER01
  6
CONTINUOUS
 62
     7
 10
3650.0367759999999
 20
2597.2483130000001
 30
0.0
  0
VERTEX
  5
8F0
  8
LAYER01
  6
CONTINUOUS
 62
     7
 10
3653.8907009999998
 20
2600.1387559999998
 30
0.0
  0
VERTEX
  5
8F1
  8
LAYER01
  6
CONTINUOUS
 62
     7
 10
3656.781144
 20
2603.9926800000012
 30
0.0
  0
VERTEX
  5
8F2
  8
LAYER01
  6
CONTINUOUS
 62
     7
 10
3658.708106000001
 20
2607.8466050000011
 30
0.0
  0
VERTEX
  5
8F3
  8
LAYER01
  6
CONTINUOUS
 62
     7
 10
3660.635068
 20
2612.66401
 30
0.0
  0
VERTEX
  5
8F4
  8
LAYER01
  6
CONTINUOUS
 62
     7
 10
3660.635068
 20
2618.444896
 30
0.0
  0
VERTEX
  5
8F5
  8
LAYER01
  6
CONTINUOUS
 62
     7
 10
3660.635068
 20
2618.444896
 30
0.0
  0
VERTEX
  5
8F6
  8
LAYER01
  6
CONTINUOUS
 62
     7
 10
3660.635068
 20
2623.2623020000001
 30
0.0
  0
VERTEX
  5
8F7
  8
LAYER01
  6
CONTINUOUS
 62
     7
 10
3658.708106000001
 20
2628.0797069999999
 30
0.0
  0
VERTEX
  5
8F8
  8
LAYER01
  6
CONTINUOUS
 62
     7
 10
3656.781144
 20
2631.9336320000002
 30
0.0
  0
VERTEX
  5
8F9
  8
LAYER01
  6
CONTINUOUS
 62
     7
 10
3653.8907009999998
 20
2635.7875560000002
 30
0.0
  0
VERTEX
  5
8FA
  8
LAYER01
  6
CONTINUOUS
 62
     7
 10
3650.0367759999999
 20
2638.677999
 30
0.0
  0
VERTEX
  5
8FB
  8
LAYER01
  6
CONTINUOUS
 62
     7
 10
3645.2193710000001
 20
2641.568443000001
 30
0.0
  0
VERTEX
  5
8FC
  8
LAYER01
  6
CONTINUOUS
 62
     7
 10
3640.4019650000009
 20
2642.5319239999999
 30
0.0
  0
VERTEX
  5
8FD
  8
LAYER01
  6
CONTINUOUS
 62
     7
 10
3635.5845599999998
 20
2643.4954050000001
 30
0.0
  0
VERTEX
  5
8FE
  8
LAYER01
  6
CONTINUOUS
 62
     7
 10
3635.5845599999998
 20
2643.4954050000001
 30
0.0
  0
VERTEX
  5
8FF
  8
LAYER01
  6
CONTINUOUS
 62
     7
 10
3630.767155
 20
2642.5319239999999
 30
0.0
  0
VERTEX
  5
900
  8
LAYER01
  6
CONTINUOUS
 62
     7
 10
3625.9497489999999
 20
2641.568443000001
 30
0.0
  0
VERTEX
  5
901
  8
LAYER01
  6
CONTINUOUS
 62
     7
 10
3621.1323439999992
 20
2638.677999
 30
0.0
  0
VERTEX
  5
902
  8
LAYER01
  6
CONTINUOUS
 62
     7
 10
3617.2784190000002
 20
2635.7875560000002
 30
0.0
  0
VERTEX
  5
903
  8
LAYER01
  6
CONTINUOUS
 62
     7
 10
3614.387976
 20
2631.9336320000002
 30
0.0
  0
VERTEX
  5
904
  8
LAYER01
  6
CONTINUOUS
 62
     7
 10
3612.461014
 20
2628.0797069999999
 30
0.0
  0
VERTEX
  5
905
  8
LAYER01
  6
CONTINUOUS
 62
     7
 10
3610.5340520000009
 20
2623.2623020000001
 30
0.0
  0
VERTEX
  5
906
  8
LAYER01
  6
CONTINUOUS
 62
     7
 10
3610.5340520000009
 20
2618.444896
 30
0.0
  0
VERTEX
  5
907
  8
LAYER01
  6
CONTINUOUS
 62
     7
 10
3610.5340520000009
 20
2618.444896
 30
0.0
  0
VERTEX
  5
908
  8
LAYER01
  6
CONTINUOUS
 62
     7
 10
3610.5340520000009
 20
2612.66401
 30
0.0
  0
VERTEX
  5
909
  8
LAYER01
  6
CONTINUOUS
 62
     7
 10
3612.461014
 20
2607.8466050000011
 30
0.0
  0
VERTEX
  5
90A
  8
LAYER01
  6
CONTINUOUS
 62
     7
 10
3614.387976
 20
2603.9926800000012
 30
0.0
  0
VERTEX
  5
90B
  8
LAYER01
  6
CONTINUOUS
 62
     7
 10
3617.2784190000002
 20
2600.1387559999998
 30
0.0
  0
VERTEX
  5
90C
  8
LAYER01
  6
CONTINUOUS
 62
     7
 10
3621.1323439999992
 20
2597.2483130000001
 30
0.0
  0
VERTEX
  5
90D
  8
LAYER01
  6
CONTINUOUS
 62
     7
 10
3625.9497489999999
 20
2594.3578689999999
 30
0.0
  0
VERTEX
  5
90E
  8
LAYER01
  6
CONTINUOUS
 62
     7
 10
3630.767155
 20
2593.3943880000002
 30
0.0
  0
VERTEX
  5
90F
  8
LAYER01
  6
CONTINUOUS
 62
     7
 10
3635.5845599999998
 20
2592.4309069999999
 30
0.0
  0
VERTEX
  5
910
  8
LAYER01
  6
CONTINUOUS
 62
     7
 10
3635.5845599999998
 20
2592.4309069999999
 30
0.0
  0
SEQEND
  5
911
  8
LAYER01
  6
CONTINUOUS
 62
     7
  0
POLYLINE
  5
3EE
  8
LAYER01
  6
CONTINUOUS
 62
     7
 66
     1
 10
0.0
 20
0.0
 30
0.0
 70
     1
  0
VERTEX
  5
912
  8
LAYER01
  6
CONTINUOUS
 62
     7
 10
3635.5845599999998
 20
2639.6414799999998
 30
0.0
  0
VERTEX
  5
913
  8
LAYER01
  6
CONTINUOUS
 62
     7
 10
3635.5845599999998
 20
2639.6414799999998
 30
0.0
  0
VERTEX
  5
914
  8
LAYER01
  6
CONTINUOUS
 62
     7
 10
3639.4384839999998
 20
2638.677999
 30
0.0
  0
VERTEX
  5
915
  8
LAYER01
  6
CONTINUOUS
 62
     7
 10
3643.2924090000001
 20
2637.7145180000002
 30
0.0
  0
VERTEX
  5
916
  8
LAYER01
  6
CONTINUOUS
 62
     7
 10
3647.1463330000001
 20
2635.7875560000002
 30
0.0
  0
VERTEX
  5
917
  8
LAYER01
  6
CONTINUOUS
 62
     7
 10
3650.0367759999999
 20
2632.897113
 30
0.0
  0
VERTEX
  5
918
  8
LAYER01
  6
CONTINUOUS
 62
     7
 10
3652.9272200000009
 20
2630.0066700000002
 30
0.0
  0
VERTEX
  5
919
  8
LAYER01
  6
CONTINUOUS
 62
     7
 10
3654.8541820000009
 20
2626.1527449999999
 30
0.0
  0
VERTEX
  5
91A
  8
LAYER01
  6
CONTINUOUS
 62
     7
 10
3656.781144
 20
2622.2988210000012
 30
0.0
  0
VERTEX
  5
91B
  8
LAYER01
  6
CONTINUOUS
 62
     7
 10
3656.781144
 20
2618.444896
 30
0.0
  0
VERTEX
  5
91C
  8
LAYER01
  6
CONTINUOUS
 62
     7
 10
3656.781144
 20
2618.444896
 30
0.0
  0
VERTEX
  5
91D
  8
LAYER01
  6
CONTINUOUS
 62
     7
 10
3656.781144
 20
2613.6274910000002
 30
0.0
  0
VERTEX
  5
91E
  8
LAYER01
  6
CONTINUOUS
 62
     7
 10
3654.8541820000009
 20
2609.7735670000002
 30
0.0
  0
VERTEX
  5
91F
  8
LAYER01
  6
CONTINUOUS
 62
     7
 10
3652.9272200000009
 20
2605.9196419999998
 30
0.0
  0
VERTEX
  5
920
  8
LAYER01
  6
CONTINUOUS
 62
     7
 10
3650.0367759999999
 20
2603.0291990000001
 30
0.0
  0
VERTEX
  5
921
  8
LAYER01
  6
CONTINUOUS
 62
     7
 10
3647.1463330000001
 20
2600.1387559999998
 30
0.0
  0
VERTEX
  5
922
  8
LAYER01
  6
CONTINUOUS
 62
     7
 10
3643.2924090000001
 20
2598.2117939999998
 30
0.0
  0
VERTEX
  5
923
  8
LAYER01
  6
CONTINUOUS
 62
     7
 10
3639.4384839999998
 20
2597.2483130000001
 30
0.0
  0
VERTEX
  5
924
  8
LAYER01
  6
CONTINUOUS
 62
     7
 10
3635.5845599999998
 20
2597.2483130000001
 30
0.0
  0
VERTEX
  5
925
  8
LAYER01
  6
CONTINUOUS
 62
     7
 10
3635.5845599999998
 20
2597.2483130000001
 30
0.0
  0
VERTEX
  5
926
  8
LAYER01
  6
CONTINUOUS
 62
     7
 10
3631.7306359999998
 20
2597.2483130000001
 30
0.0
  0
VERTEX
  5
927
  8
LAYER01
  6
CONTINUOUS
 62
     7
 10
3626.9132299999992
 20
2598.2117939999998
 30
0.0
  0
VERTEX
  5
928
  8
LAYER01
  6
CONTINUOUS
 62
     7
 10
3624.0227869999999
 20
2600.1387559999998
 30
0.0
  0
VERTEX
  5
929
  8
LAYER01
  6
CONTINUOUS
 62
     7
 10
3620.1688630000008
 20
2603.0291990000001
 30
0.0
  0
VERTEX
  5
92A
  8
LAYER01
  6
CONTINUOUS
 62
     7
 10
3618.2419000000009
 20
2605.9196419999998
 30
0.0
  0
VERTEX
  5
92B
  8
LAYER01
  6
CONTINUOUS
 62
     7
 10
3616.3149380000009
 20
2609.7735670000002
 30
0.0
  0
VERTEX
  5
92C
  8
LAYER01
  6
CONTINUOUS
 62
     7
 10
3614.387976
 20
2613.6274910000002
 30
0.0
  0
VERTEX
  5
92D
  8
LAYER01
  6
CONTINUOUS
 62
     7
 10
3614.387976
 20
2618.444896
 30
0.0
  0
VERTEX
  5
92E
  8
LAYER01
  6
CONTINUOUS
 62
     7
 10
3614.387976
 20
2618.444896
 30
0.0
  0
VERTEX
  5
92F
  8
LAYER01
  6
CONTINUOUS
 62
     7
 10
3614.387976
 20
2622.2988210000012
 30
0.0
  0
VERTEX
  5
930
  8
LAYER01
  6
CONTINUOUS
 62
     7
 10
3616.3149380000009
 20
2626.1527449999999
 30
0.0
  0
VERTEX
  5
931
  8
LAYER01
  6
CONTINUOUS
 62
     7
 10
3618.2419000000009
 20
2630.0066700000002
 30
0.0
  0
VERTEX
  5
932
  8
LAYER01
  6
CONTINUOUS
 62
     7
 10
3620.1688630000008
 20
2632.897113
 30
0.0
  0
VERTEX
  5
933
  8
LAYER01
  6
CONTINUOUS
 62
     7
 10
3624.0227869999999
 20
2635.7875560000002
 30
0.0
  0
VERTEX
  5
934
  8
LAYER01
  6
CONTINUOUS
 62
     7
 10
3626.9132299999992
 20
2637.7145180000002
 30
0.0
  0
VERTEX
  5
935
  8
LAYER01
  6
CONTINUOUS
 62
     7
 10
3631.7306359999998
 20
2638.677999
 30
0.0
  0
VERTEX
  5
936
  8
LAYER01
  6
CONTINUOUS
 62
     7
 10
3635.5845599999998
 20
2639.6414799999998
 30
0.0
  0
VERTEX
  5
937
  8
LAYER01
  6
CONTINUOUS
 62
     7
 10
3635.5845599999998
 20
2639.6414799999998
 30
0.0
  0
SEQEND
  5
938
  8
LAYER01
  6
CONTINUOUS
 62
     7
  0
POLYLINE
  5
416
  8
LAYER01
  6
CONTINUOUS
 62
     7
 66
     1
 10
0.0
 20
0.0
 30
0.0
 70
     1
  0
VERTEX
  5
939
  8
LAYER01
  6
CONTINUOUS
 62
     7
 10
3639.4384839999998
 20
2616.517934
 30
0.0
  0
VERTEX
  5
93A
  8
LAYER01
  6
CONTINUOUS
 62
     7
 10
3639.4384839999998
 20
2616.517934
 30
0.0
  0
VERTEX
  5
93B
  8
LAYER01
  6
CONTINUOUS
 62
     7
 10
3642.3289279999999
 20
2617.4814150000002
 30
0.0
  0
VERTEX
  5
93C
  8
LAYER01
  6
CONTINUOUS
 62
     7
 10
3645.2193710000001
 20
2618.444896
 30
0.0
  0
VERTEX
  5
93D
  8
LAYER01
  6
CONTINUOUS
 62
     7
 10
3647.1463330000001
 20
2621.3353400000001
 30
0.0
  0
VERTEX
  5
93E
  8
LAYER01
  6
CONTINUOUS
 62
     7
 10
3647.1463330000001
 20
2624.2257829999999
 30
0.0
  0
VERTEX
  5
93F
  8
LAYER01
  6
CONTINUOUS
 62
     7
 10
3647.1463330000001
 20
2624.2257829999999
 30
0.0
  0
VERTEX
  5
940
  8
LAYER01
  6
CONTINUOUS
 62
     7
 10
3647.1463330000001
 20
2628.0797069999999
 30
0.0
  0
VERTEX
  5
941
  8
LAYER01
  6
CONTINUOUS
 62
     7
 10
3644.2558899999999
 20
2630.970151
 30
0.0
  0
VERTEX
  5
942
  8
LAYER01
  6
CONTINUOUS
 62
     7
 10
3641.3654470000001
 20
2631.9336320000002
 30
0.0
  0
VERTEX
  5
943
  8
LAYER01
  6
CONTINUOUS
 62
     7
 10
3637.5115219999998
 20
2631.9336320000002
 30
0.0
  0
VERTEX
  5
944
  8
LAYER01
  6
CONTINUOUS
 62
     7
 10
3625.9497489999999
 20
2631.9336320000002
 30
0.0
  0
VERTEX
  5
945
  8
LAYER01
  6
CONTINUOUS
 62
     7
 10
3625.9497489999999
 20
2603.9926800000012
 30
0.0
  0
VERTEX
  5
946
  8
LAYER01
  6
CONTINUOUS
 62
     7
 10
3629.8036729999999
 20
2603.9926800000012
 30
0.0
  0
VERTEX
  5
947
  8
LAYER01
  6
CONTINUOUS
 62
     7
 10
3629.8036729999999
 20
2616.517934
 30
0.0
  0
VERTEX
  5
948
  8
LAYER01
  6
CONTINUOUS
 62
     7
 10
3635.5845599999998
 20
2616.517934
 30
0.0
  0
VERTEX
  5
949
  8
LAYER01
  6
CONTINUOUS
 62
     7
 10
3642.3289279999999
 20
2603.9926800000012
 30
0.0
  0
VERTEX
  5
94A
  8
LAYER01
  6
CONTINUOUS
 62
     7
 10
3647.1463330000001
 20
2603.9926800000012
 30
0.0
  0
VERTEX
  5
94B
  8
LAYER01
  6
CONTINUOUS
 62
     7
 10
3639.4384839999998
 20
2616.517934
 30
0.0
  0
VERTEX
  5
94C
  8
LAYER01
  6
CONTINUOUS
 62
     7
 10
3639.4384839999998
 20
2616.517934
 30
0.0
  0
SEQEND
  5
94D
  8
LAYER01
  6
CONTINUOUS
 62
     7
  0
POLYLINE
  5
42C
  8
LAYER01
  6
CONTINUOUS
 62
     7
 66
     1
 10
0.0
 20
0.0
 30
0.0
 70
     1
  0
VERTEX
  5
94E
  8
LAYER01
  6
CONTINUOUS
 62
     7
 10
3636.548041
 20
2628.0797069999999
 30
0.0
  0
VERTEX
  5
94F
  8
LAYER01
  6
CONTINUOUS
 62
     7
 10
3636.548041
 20
2628.0797069999999
 30
0.0
  0
VERTEX
  5
950
  8
LAYER01
  6
CONTINUOUS
 62
     7
 10
3641.3654470000001
 20
2627.1162260000001
 30
0.0
  0
VERTEX
  5
951
  8
LAYER01
  6
CONTINUOUS
 62
     7
 10
3643.2924090000001
 20
2626.1527449999999
 30
0.0
  0
VERTEX
  5
952
  8
LAYER01
  6
CONTINUOUS
 62
     7
 10
3643.2924090000001
 20
2624.2257829999999
 30
0.0
  0
VERTEX
  5
953
  8
LAYER01
  6
CONTINUOUS
 62
     7
 10
3643.2924090000001
 20
2624.2257829999999
 30
0.0
  0
VERTEX
  5
954
  8
LAYER01
  6
CONTINUOUS
 62
     7
 10
3642.3289279999999
 20
2622.2988210000012
 30
0.0
  0
VERTEX
  5
955
  8
LAYER01
  6
CONTINUOUS
 62
     7
 10
3640.4019650000009
 20
2621.3353400000001
 30
0.0
  0
VERTEX
  5
956
  8
LAYER01
  6
CONTINUOUS
 62
     7
 10
3634.621079
 20
2620.3718589999999
 30
0.0
  0
VERTEX
  5
957
  8
LAYER01
  6
CONTINUOUS
 62
     7
 10
3629.8036729999999
 20
2620.3718589999999
 30
0.0
  0
VERTEX
  5
958
  8
LAYER01
  6
CONTINUOUS
 62
     7
 10
3629.8036729999999
 20
2628.0797069999999
 30
0.0
  0
VERTEX
  5
959
  8
LAYER01
  6
CONTINUOUS
 62
     7
 10
3636.548041
 20
2628.0797069999999
 30
0.0
  0
VERTEX
  5
95A
  8
LAYER01
  6
CONTINUOUS
 62
     7
 10
3636.548041
 20
2628.0797069999999
 30
0.0
  0
SEQEND
  5
95B
  8
LAYER01
  6
CONTINUOUS
 62
     7
  0
ENDBLK
  5
43B
  8
0
  0
BLOCK
  8
0
  2
*D17
 70
     1
 10
0.0
 20
0.0
 30
0.0
  3
*D17
  1

  0
LINE
  5
43E
  8
LAYER01
 62
     7
 10
2931.323664
 20
3022.7680449999998
 30
0.0
 11
2931.323664
 21
3152.7680420000002
 31
0.0
  0
LINE
  5
43F
  8
LAYER01
 62
     7
 10
2842.5457120000001
 20
3022.7680449999998
 30
0.0
 11
2946.323664
 21
3022.7680449999998
 31
0.0
  0
LINE
  5
440
  8
LAYER01
 62
     7
 10
2842.5457120000001
 20
3152.7680420000002
 30
0.0
 11
2946.323664
 21
3152.7680420000002
 31
0.0
  0
SOLID
  5
441
  8
LAYER01
 62
     7
 10
2935.323504
 20
3046.7680449999998
 30
0.0
 11
2931.323664
 21
3022.7680449999998
 31
0.0
 12
2927.3238240000001
 22
3046.7680449999998
 32
0.0
 13
2927.3238240000001
 23
3046.7680449999998
 33
0.0
  0
SOLID
  5
442
  8
LAYER01
 62
     7
 10
2935.323504
 20
3128.7680420000002
 30
0.0
 11
2931.323664
 21
3152.7680420000002
 31
0.0
 12
2927.3238240000001
 22
3128.7680420000002
 32
0.0
 13
2927.3238240000001
 23
3128.7680420000002
 33
0.0
  0
TEXT
  5
443
  8
LAYER01
  6
VERDECKT
 62
     7
 10
2916.323664
 20
3052.053758
 30
0.0
 40
30.0
  1
130
 50
90.0
  7
SIMPLEX
  0
POINT
  5
444
  8
LAYER01
 62
     7
 10
2830.5457120000001
 20
3022.7680449999998
 30
0.0
  0
POINT
  5
445
  8
LAYER01
 62
     7
 10
2830.5457120000001
 20
3152.7680420000002
 30
0.0
  0
POINT
  5
446
  8
LAYER01
 62
     7
 10
2931.323664
 20
3152.7680420000002
 30
0.0
  0
ENDBLK
  5
447
  8
0
  0
BLOCK
  8
0
  2
NEWYORK-G19
 70
     0
 10
0.0
 20
0.0
 30
0.0
  3
NEWYORK-G19
  1

  0
LINE
  5
44A
  8
LAYER01
  6
CONTINUOUS
 62
     7
 10
2230.5456989999998
 20
3157.1171670000008
 30
0.0
 11
2241.1965770000002
 21
3167.7680449999998
 31
0.0
  0
LINE
  5
44B
  8
LAYER01
  6
CONTINUOUS
 62
     7
 10
2236.6472170000002
 20
3140.7680449999998
 30
0.0
 11
2249.2479309999999
 21
3153.368759
 31
0.0
  0
LINE
  5
44C
  8
LAYER01
  6
CONTINUOUS
 62
     7
 10
2259.0978570000002
 20
3140.7680449999998
 30
0.0
 11
2271.0978570000002
 21
3152.7680449999998
 31
0.0
  0
ENDBLK
  5
44D
  8
0
  0
BLOCK
  8
0
  2
*D19
 70
     1
 10
0.0
 20
0.0
 30
0.0
  3
*D19
  1

  0
LINE
  5
450
  8
LAYER01
 62
     7
 10
2169.8014349999999
 20
3152.7680420000002
 30
0.0
 11
2169.8014349999999
 21
3032.3588549999999
 31
0.0
  0
LINE
  5
451
  8
LAYER01
 62
     7
 10
2218.5457029999998
 20
3152.7680420000002
 30
0.0
 11
2154.8014349999999
 21
3152.7680420000002
 31
0.0
  0
LINE
  5
452
  8
LAYER01
 62
     7
 10
2218.5457029999998
 20
3032.3588549999999
 30
0.0
 11
2154.8014349999999
 21
3032.3588549999999
 31
0.0
  0
SOLID
  5
453
  8
LAYER01
 62
     7
 10
2165.8015949999999
 20
3128.7680420000002
 30
0.0
 11
2169.8014349999999
 21
3152.7680420000002
 31
0.0
 12
2173.8012749999998
 22
3128.7680420000002
 32
0.0
 13
2173.8012749999998
 23
3128.7680420000002
 33
0.0
  0
SOLID
  5
454
  8
LAYER01
 62
     7
 10
2165.8015949999999
 20
3056.3588549999999
 30
0.0
 11
2169.8014349999999
 21
3032.3588549999999
 31
0.0
 12
2173.8012749999998
 22
3056.3588549999999
 32
0.0
 13
2173.8012749999998
 23
3056.3588549999999
 33
0.0
  0
TEXT
  5
455
  8
LAYER01
  6
VERDECKT
 62
     7
 10
2154.8014349999999
 20
3056.8491629999999
 30
0.0
 40
30.0
  1
120
 50
90.0
  7
SIMPLEX
  0
POINT
  5
456
  8
LAYER01
 62
     7
 10
2230.5457029999998
 20
3152.7680420000002
 30
0.0
  0
POINT
  5
457
  8
LAYER01
 62
     7
 10
2230.5457029999998
 20
3032.3588549999999
 30
0.0
  0
POINT
  5
458
  8
LAYER01
 62
     7
 10
2169.8014349999999
 20
3032.3588549999999
 30
0.0
  0
ENDBLK
  5
459
  8
0
  0
BLOCK
  8
0
  2
*D20
 70
     1
 10
0.0
 20
0.0
 30
0.0
  3
*D20
  1

  0
LINE
  5
45C
  8
LAYER01
 62
     7
 10
2087.5183120000002
 20
3152.7680420000002
 30
0.0
 11
2087.5183120000002
 21
3010.7680449999998
 31
0.0
  0
LINE
  5
45D
  8
LAYER01
 62
     7
 10
2218.5457029999998
 20
3152.7680420000002
 30
0.0
 11
2072.5183120000002
 21
3152.7680420000002
 31
0.0
  0
LINE
  5
45E
  8
LAYER01
 62
     7
 10
2218.5457029999998
 20
3010.7680449999998
 30
0.0
 11
2072.5183120000002
 21
3010.7680449999998
 31
0.0
  0
SOLID
  5
45F
  8
LAYER01
 62
     7
 10
2083.5184720000002
 20
3128.7680420000002
 30
0.0
 11
2087.5183120000002
 21
3152.7680420000002
 31
0.0
 12
2091.5181520000001
 22
3128.7680420000002
 32
0.0
 13
2091.5181520000001
 23
3128.7680420000002
 33
0.0
  0
SOLID
  5
460
  8
LAYER01
 62
     7
 10
2083.5184720000002
 20
3034.7680449999998
 30
0.0
 11
2087.5183120000002
 21
3010.7680449999998
 31
0.0
 12
2091.5181520000001
 22
3034.7680449999998
 32
0.0
 13
2091.5181520000001
 23
3034.7680449999998
 33
0.0
  0
TEXT
  5
461
  8
LAYER01
  6
VERDECKT
 62
     7
 10
2072.5183120000002
 20
3046.053758
 30
0.0
 40
30.0
  1
142
 50
90.0
  7
SIMPLEX
  0
POINT
  5
462
  8
LAYER01
 62
     7
 10
2230.5457029999998
 20
3152.7680420000002
 30
0.0
  0
POINT
  5
463
  8
LAYER01
 62
     7
 10
2230.5457029999998
 20
3010.7680449999998
 30
0.0
  0
POINT
  5
464
  8
LAYER01
 62
     7
 10
2087.5183120000002
 20
3010.7680449999998
 30
0.0
  0
ENDBLK
  5
465
  8
0
  0
BLOCK
  8
0
  2
NEWYORK-G22
 70
     0
 10
0.0
 20
0.0
 30
0.0
  3
NEWYORK-G22
  1

  0
LINE
  5
468
  8
LAYER01
  6
CONTINUOUS
 62
     7
 10
2443.406821
 20
3010.7680449999998
 30
0.0
 11
2447.663333
 21
3015.0245559999998
 31
0.0
  0
LINE
  5
469
  8
LAYER01
  6
CONTINUOUS
 62
     7
 10
2454.2928270000002
 20
3021.6540500000001
 30
0.0
 11
2467.0583280000001
 21
3034.4195519999998
 31
0.0
  0
LINE
  5
46A
  8
LAYER01
  6
CONTINUOUS
 62
     7
 10
2478.069575
 20
3022.9801579999998
 30
0.0
 11
2490.7506290000001
 21
3035.6612129999999
 31
0.0
  0
LINE
  5
46B
  8
LAYER01
  6
CONTINUOUS
 62
     7
 10
2501.7618769999999
 20
3024.2218189999999
 30
0.0
 11
2514.442931
 21
3036.902873
 31
0.0
  0
LINE
  5
46C
  8
LAYER01
  6
CONTINUOUS
 62
     7
 10
2525.454178
 20
3025.4634799999999
 30
0.0
 11
2538.1352320000001
 21
3038.144534
 31
0.0
  0
LINE
  5
46D
  8
LAYER01
  6
CONTINUOUS
 62
     7
 10
2549.146479
 20
3026.7051409999999
 30
0.0
 11
2561.8275330000001
 21
3039.386195
 31
0.0
  0
LINE
  5
46E
  8
LAYER01
  6
CONTINUOUS
 62
     7
 10
2572.83878
 20
3027.9468019999999
 30
0.0
 11
2587.1457879999998
 21
3042.2538100000002
 31
0.0
  0
LINE
  5
46F
  8
LAYER01
  6
CONTINUOUS
 62
     7
 10
2607.2815839999998
 20
3039.9389660000002
 30
0.0
 11
2639.5306150000001
 21
3072.187997
 31
0.0
  0
LINE
  5
470
  8
LAYER01
  6
CONTINUOUS
 62
     7
 10
2659.666412
 20
3069.873153
 30
0.0
 11
2691.9154429999999
 21
3102.1221839999998
 31
0.0
  0
LINE
  5
471
  8
LAYER01
  6
CONTINUOUS
 62
     7
 10
2712.0512389999999
 20
3099.8073399999998
 30
0.0
 11
2744.3002700000002
 21
3132.0563710000001
 31
0.0
  0
LINE
  5
472
  8
LAYER01
  6
CONTINUOUS
 62
     7
 10
2764.4360660000002
 20
3129.7415270000001
 30
0.0
 11
2787.4625839999999
 21
3152.7680449999998
 31
0.0
  0
LINE
  5
473
  8
LAYER01
  6
CONTINUOUS
 62
     7
 10
2797.9132239999999
 20
3140.7680449999998
 30
0.0
 11
2809.9132239999999
 21
3152.7680449999998
 31
0.0
  0
LINE
  5
474
  8
LAYER01
  6
CONTINUOUS
 62
     7
 10
2812.603627
 20
3133.007807
 30
0.0
 11
2829.8708999999999
 21
3150.2750799999999
 31
0.0
  0
LINE
  5
475
  8
LAYER01
  6
CONTINUOUS
 62
     7
 10
2813.8780750000001
 20
3111.8316150000001
 30
0.0
 11
2830.5456989999998
 21
3128.4992390000002
 31
0.0
  0
LINE
  5
476
  8
LAYER01
  6
CONTINUOUS
 62
     7
 10
2814.9960719999999
 20
3090.498971
 30
0.0
 11
2830.5456989999998
 21
3106.0485990000002
 31
0.0
  0
LINE
  5
477
  8
LAYER01
  6
CONTINUOUS
 62
     7
 10
2816.1140679999999
 20
3069.1663269999999
 30
0.0
 11
2830.5456989999998
 21
3083.5979579999998
 31
0.0
  0
LINE
  5
478
  8
LAYER01
  6
CONTINUOUS
 62
     7
 10
2817.2320650000001
 20
3047.8336840000002
 30
0.0
 11
2830.5456989999998
 21
3061.1473179999998
 31
0.0
  0
LINE
  5
479
  8
LAYER01
  6
CONTINUOUS
 62
     7
 10
2818.3500610000001
 20
3026.5010400000001
 30
0.0
 11
2830.5456989999998
 21
3038.6966779999998
 31
0.0
  0
ENDBLK
  5
47A
  8
0
  0
BLOCK
  8
0
  2
NEWYORK-G23
 70
     0
 10
0.0
 20
0.0
 30
0.0
  3
NEWYORK-G23
  1

  0
LINE
  5
47D
  8
LAYER01
  6
CONTINUOUS
 62
     7
 10
2308.0456989999998
 20
3144.8146059999999
 30
0.0
 11
2315.9991380000001
 21
3152.7680449999998
 31
0.0
  0
LINE
  5
47E
  8
LAYER01
  6
CONTINUOUS
 62
     7
 10
2319.2394490000001
 20
3133.5577159999998
 30
0.0
 11
2330.9393060000002
 21
3145.2575729999999
 31
0.0
  0
LINE
  5
47F
  8
LAYER01
  6
CONTINUOUS
 62
     7
 10
2320.6392300000002
 20
3112.5068569999999
 30
0.0
 11
2332.057303
 21
3123.9249289999998
 31
0.0
  0
LINE
  5
480
  8
LAYER01
  6
CONTINUOUS
 62
     7
 10
2321.7572270000001
 20
3091.1742129999998
 30
0.0
 11
2333.175299
 21
3102.5922850000002
 31
0.0
  0
LINE
  5
481
  8
LAYER01
  6
CONTINUOUS
 62
     7
 10
2322.875223
 20
3069.8415690000002
 30
0.0
 11
2334.2932959999998
 21
3081.259642
 31
0.0
  0
LINE
  5
482
  8
LAYER01
  6
CONTINUOUS
 62
     7
 10
2323.9932199999998
 20
3048.5089250000001
 30
0.0
 11
2335.4112919999998
 21
3059.9269979999999
 31
0.0
  0
LINE
  5
483
  8
LAYER01
  6
CONTINUOUS
 62
     7
 10
2329.1877420000001
 20
3031.2528080000002
 30
0.0
 11
2337.7337929999999
 21
3039.7988580000001
 31
0.0
  0
LINE
  5
484
  8
LAYER01
  6
CONTINUOUS
 62
     7
 10
2343.6695220000001
 20
3023.2839469999999
 30
0.0
 11
2354.9658720000002
 21
3034.580297
 31
0.0
  0
LINE
  5
485
  8
LAYER01
  6
CONTINUOUS
 62
     7
 10
2364.880443
 20
3022.0442280000002
 30
0.0
 11
2376.1839180000002
 21
3033.3477029999999
 31
0.0
  0
LINE
  5
486
  8
LAYER01
  6
CONTINUOUS
 62
     7
 10
2377.5456989999998
 20
3012.2588430000001
 30
0.0
 11
2388.6071179999999
 21
3023.3202620000002
 31
0.0
  0
ENDBLK
  5
487
  8
0
  0
BLOCK
  8
0
  2
*D23
 70
     1
 10
0.0
 20
0.0
 30
0.0
  3
*D23
  1

  0
LINE
  5
48A
  8
LAYER01
 62
     7
 10
2435.5456989999998
 20
2919.3630039999998
 30
0.0
 11
2483.5456989999998
 21
2919.3630039999998
 31
0.0
  0
LINE
  5
48B
  8
LAYER01
 62
     7
 10
2389.5456989999998
 20
2919.3630039999998
 30
0.0
 11
2341.5456989999998
 21
2919.3630039999998
 31
0.0
  0
LINE
  5
48C
  8
LAYER01
 62
     7
 10
2435.5456989999998
 20
2998.7680449999998
 30
0.0
 11
2435.5456989999998
 21
2904.3630039999998
 31
0.0
  0
LINE
  5
48D
  8
LAYER01
 62
     7
 10
2389.5456989999998
 20
2998.7680449999998
 30
0.0
 11
2389.5456989999998
 21
2904.3630039999998
 31
0.0
  0
SOLID
  5
48E
  8
LAYER01
 62
     7
 10
2459.5456989999998
 20
2923.3628440000011
 30
0.0
 11
2435.5456989999998
 21
2919.3630039999998
 31
0.0
 12
2459.5456989999998
 22
2915.3631639999999
 32
0.0
 13
2459.5456989999998
 23
2915.3631639999999
 33
0.0
  0
SOLID
  5
48F
  8
LAYER01
 62
     7
 10
2365.5456989999998
 20
2923.3628440000011
 30
0.0
 11
2389.5456989999998
 21
2919.3630039999998
 31
0.0
 12
2365.5456989999998
 22
2915.3631639999999
 32
0.0
 13
2365.5456989999998
 23
2915.3631639999999
 33
0.0
  0
TEXT
  5
490
  8
LAYER01
  6
VERDECKT
 62
     7
 10
2498.5456989999998
 20
2934.3630039999998
 30
0.0
 40
30.0
  1
46
  7
SIMPLEX
  0
POINT
  5
491
  8
LAYER01
 62
     7
 10
2435.5456989999998
 20
3010.7680449999998
 30
0.0
  0
POINT
  5
492
  8
LAYER01
 62
     7
 10
2389.5456989999998
 20
3010.7680449999998
 30
0.0
  0
POINT
  5
493
  8
LAYER01
 62
     7
 10
2389.5456989999998
 20
2919.3630039999998
 30
0.0
  0
ENDBLK
  5
494
  8
0
  0
ENDSEC
  0
SECTION
  2
ENTITIES
  0
POLYLINE
  5
495
  8
LAYER01
  6
CONTINUOUS
 62
     7
 66
     1
 10
0.0
 20
0.0
 30
0.0
 70
     1
  0
VERTEX
  5
95C
  8
LAYER01
  6
CONTINUOUS
 62
     7
 10
-185.89603299999999
 20
1817.215866
 30
0.0
  0
VERTEX
  5
95D
  8
LAYER01
  6
CONTINUOUS
 62
     7
 10
-185.89603299999999
 20
4578.6227479999989
 30
0.0
  0
VERTEX
  5
95E
  8
LAYER01
  6
CONTINUOUS
 62
     7
 10
3760.9991519999999
 20
4578.6227479999989
 30
0.0
  0
VERTEX
  5
95F
  8
LAYER01
  6
CONTINUOUS
 62
     7
 10
3760.9991519999999
 20
1817.215866
 30
0.0
  0
SEQEND
  5
960
  8
LAYER01
  6
CONTINUOUS
 62
     7
  0
DIMENSION
  5
49B
  8
LAYER01
 62
     7
  2
*D0
 10
181.47313600000001
 20
3167.7680500000001
 30
0.0
 11
151.47313600000001
 21
3252.1966210000001
 31
0.0
 53
90.0
 13
367.93783200000001
 23
3152.7680420000002
 33
0.0
 14
367.93783200000001
 24
3167.7680500000001
 34
0.0
 50
90.0
  0
TEXT
  5
49C
  8
LAYER01
  6
VERDECKT
 62
     7
 10
211.97896299999999
 20
2350.4640089999998
 30
0.0
 40
70.0
  1
Waschtischmodell New York
  7
SIMPLEX
  0
TEXT
  5
49D
  8
LAYER01
  6
VERDECKT
 62
     7
 10
211.97896299999999
 20
2230.4640089999998
 30
0.0
 40
70.0
  1
ohne Überlauf
  7
SIMPLEX
  0
TEXT
  5
49E
  8
LAYER01
  6
VERDECKT
 62
     7
 10
211.97896299999999
 20
2110.4640089999998
 30
0.0
 40
70.0
  1
mit/ohne Hahnlochbohrung
  7
SIMPLEX
  0
LINE
  5
49F
  8
LAYER01
  6
CONTINUOUS
 62
     7
 10
367.93783200000001
 20
3022.7680420000002
 30
0.0
 11
1617.9378320000001
 21
3022.7680420000002
 31
0.0
  0
LINE
  5
4A0
  8
LAYER01
  6
CONTINUOUS
 62
     7
 10
367.93783200000001
 20
3167.7680500000001
 30
0.0
 11
1617.9378320000001
 21
3167.7680500000001
 31
0.0
  0
LINE
  5
4A1
  8
LAYER01
  6
CONTINUOUS
 62
     7
 10
703.17244400000004
 20
3152.7680420000002
 30
0.0
 11
1282.7032200000001
 21
3152.7680420000002
 31
0.0
  0
LINE
  5
4A2
  8
LAYER01
  6
VERDECKT
 62
     3
 10
955.55569099999991
 20
3033.5217809999999
 30
0.0
 11
707.47288900000001
 21
3046.5232500000002
 31
0.0
  0
LINE
  5
4A3
  8
LAYER01
  6
VERDECKT
 62
     3
 10
706.84486500000003
 20
3034.5396949999999
 30
0.0
 11
931.4613710000001
 21
3022.7680420000002
 31
0.0
  0
DIMENSION
  5
4A4
  8
LAYER01
 62
     7
  2
*D1
 10
294.062702
 20
3152.7680420000002
 30
0.0
 11
264.062702
 21
3087.7680420000002
 31
0.0
 53
90.0
 13
367.93783200000001
 23
3022.7680420000002
 33
0.0
 14
367.93783200000001
 24
3152.7680420000002
 34
0.0
 50
90.0
  0
LINE
  5
4A5
  8
LAYER01
  6
CONTINUOUS
 62
     7
 10
367.93783200000001
 20
3152.7680420000002
 30
0.0
 11
367.93783200000001
 21
3162.7680399999999
 31
0.0
  0
LINE
  5
4A6
  8
LAYER01
  6
CONTINUOUS
 62
     7
 10
367.93783200000001
 20
3167.7680500000001
 30
0.0
 11
367.93783200000001
 21
3162.7680399999999
 31
0.0
  0
LINE
  5
4A7
  8
LAYER01
  6
CONTINUOUS
 62
     7
 10
367.93783200000001
 20
3022.7680420000002
 30
0.0
 11
367.93783200000001
 21
3152.7680420000002
 31
0.0
  0
LINE
  5
4A8
  8
LAYER01
  6
VERDECKT
 62
     3
 10
698.00996699999985
 20
3055.9861850000002
 30
0.0
 11
693.18616299999996
 21
3148.0297260000011
 31
0.0
  0
LINE
  5
4A9
  8
LAYER01
  6
VERDECKT
 62
     3
 10
686.02639299999998
 20
3055.3581530000001
 30
0.0
 11
682.04691899999989
 21
3131.291401
 31
0.0
  0
ARC
  5
4AA
  8
LAYER01
  6
VERDECKT
 62
     3
 10
707.99625000000003
 20
3056.5095449999999
 30
0.0
 40
10.0
 50
183.0
 51
267.0
  0
ARC
  5
4AB
  8
LAYER01
  6
VERDECKT
 62
     3
 10
707.99625000000003
 20
3056.5095449999999
 30
0.0
 40
22.0
 50
183.0
 51
267.0
  0
ARC
  5
4AC
  8
LAYER01
  6
VERDECKT
 62
     3
 10
672.06061099999999
 20
3130.7680449999998
 30
0.0
 40
10.0
 50
3.0
 51
90.0
  0
ARC
  5
4AD
  8
LAYER01
  6
VERDECKT
 62
     3
 10
688.19300899999985
 20
3147.7680449999998
 30
0.0
 40
5.0
 50
3.0
 51
90.0
  0
LINE
  5
4AE
  8
LAYER01
  6
CONTINUOUS
 62
     7
 10
688.19302199999993
 20
3152.7680420000002
 30
0.0
 11
703.17244400000004
 21
3152.7680420000002
 31
0.0
  0
LINE
  5
4AF
  8
LAYER01
  6
VERDECKT
 62
     3
 10
367.93783200000001
 20
3140.7680420000002
 30
0.0
 11
672.06061099999999
 21
3140.7680420000002
 31
0.0
  0
LINE
  5
4B0
  8
LAYER01
  6
CONTINUOUS
 62
     7
 10
727.88034000000005
 20
3152.7680420000002
 30
0.0
 11
367.93783200000001
 21
3152.7680420000002
 31
0.0
  0
LINE
  5
4B1
  8
LAYER01
  6
CONTINUOUS
 62
     7
 10
1122.68263
 20
3152.7680420000002
 30
0.0
 11
1617.9378320000001
 21
3152.7680420000002
 31
0.0
  0
LINE
  5
4B2
  8
LAYER01
  6
VERDECKT
 62
     3
 10
1278.4027739999999
 20
3046.5232500000002
 30
0.0
 11
1030.3199729999999
 21
3033.5217809999999
 31
0.0
  0
LINE
  5
4B3
  8
LAYER01
  6
VERDECKT
 62
     3
 10
1279.0307989999999
 20
3034.5396949999999
 30
0.0
 11
1054.414293
 21
3022.7680420000002
 31
0.0
  0
LINE
  5
4B4
  8
LAYER01
  6
CONTINUOUS
 62
     7
 10
1015.937832
 20
3010.7680449999998
 30
0.0
 11
969.93783199999996
 21
3010.7680449999998
 31
0.0
  0
LINE
  5
4B5
  8
LAYER01
  6
VERDECKT
 62
     3
 10
1015.937832
 20
3020.4365069999999
 30
0.0
 11
969.93783199999996
 21
3020.4365069999999
 31
0.0
  0
LINE
  5
4B6
  8
LAYER01
  6
VERDECKT
 62
     3
 10
1027.367714
 20
3032.3588549999999
 30
0.0
 11
958.50795000000005
 21
3032.3588549999999
 31
0.0
  0
ARC
  5
4B7
  8
LAYER01
  6
CONTINUOUS
 62
     7
 10
949.93783200000007
 20
3013.7887529999998
 30
0.0
 40
8.0
 50
0.0
 51
87.0
  0
LINE
  5
4B8
  8
LAYER01
  6
CONTINUOUS
 62
     7
 10
957.93783200000007
 20
3010.7680449999998
 30
0.0
 11
957.93783200000007
 21
3013.7887540000002
 31
0.0
  0
LINE
  5
4B9
  8
LAYER01
  6
CONTINUOUS
 62
     7
 10
957.93783200000007
 20
3010.7680449999998
 30
0.0
 11
969.93783199999996
 21
3010.7680449999998
 31
0.0
  0
ARC
  5
4BA
  8
LAYER01
  6
VERDECKT
 62
     3
 10
955.29401099999995
 20
3028.5286329999999
 30
0.0
 40
5.0
 50
50.0
 51
87.0
  0
LINE
  5
4BB
  8
LAYER01
  6
VERDECKT
 62
     3
 10
958.50795000000005
 20
3032.3588549999999
 30
0.0
 11
968.15176899999994
 21
3024.266728000001
 31
0.0
  0
LINE
  5
4BC
  8
LAYER01
  6
CONTINUOUS
 62
     7
 10
950.35651999999982
 20
3021.7777900000001
 30
0.0
 11
931.46124399999985
 21
3022.7656029999998
 31
0.0
  0
LINE
  5
4BD
  8
LAYER01
  6
VERDECKT
 62
     3
 10
969.93783199999996
 20
3010.7680449999998
 30
0.0
 11
969.93783199999996
 21
3020.4365069999999
 31
0.0
  0
ARC
  5
4BE
  8
LAYER01
  6
VERDECKT
 62
     3
 10
964.93783199999996
 20
3020.436506
 30
0.0
 40
5.0
 50
27.79485
 51
50.0
  0
ARC
  5
4BF
  8
LAYER01
  6
VERDECKT
 62
     3
 10
964.93783199999996
 20
3020.436506
 30
0.0
 40
5.0
 50
0.0
 51
27.794848999999999
  0
ARC
  5
4C0
  8
LAYER01
  6
CONTINUOUS
 62
     7
 10
1035.9378320000001
 20
3013.7887529999998
 30
0.0
 40
8.0
 50
93.0
 51
180.0
  0
LINE
  5
4C1
  8
LAYER01
  6
CONTINUOUS
 62
     7
 10
1027.9378320000001
 20
3013.7887540000002
 30
0.0
 11
1027.9378320000001
 21
3010.7680449999998
 31
0.0
  0
LINE
  5
4C2
  8
LAYER01
  6
CONTINUOUS
 62
     7
 10
1015.937832
 20
3010.7680449999998
 30
0.0
 11
1027.9378320000001
 21
3010.7680449999998
 31
0.0
  0
ARC
  5
4C3
  8
LAYER01
  6
VERDECKT
 62
     3
 10
1030.581653
 20
3028.5286329999999
 30
0.0
 40
5.0
 50
93.0
 51
130.0
  0
LINE
  5
4C4
  8
LAYER01
  6
VERDECKT
 62
     3
 10
1017.723894
 20
3024.266728000001
 30
0.0
 11
1027.367714
 21
3032.3588549999999
 31
0.0
  0
ARC
  5
4C5
  8
LAYER01
  6
VERDECKT
 62
     3
 10
1020.937832
 20
3020.436506
 30
0.0
 40
5.0
 50
130.0
 51
180.0
  0
LINE
  5
4C6
  8
LAYER01
  6
VERDECKT
 62
     3
 10
1015.937832
 20
3020.4365069999999
 30
0.0
 11
1015.937832
 21
3010.7680449999998
 31
0.0
  0
LINE
  5
4C7
  8
LAYER01
  6
CONTINUOUS
 62
     7
 10
1054.414293
 20
3022.7680420000002
 30
0.0
 11
1035.5191440000001
 21
3021.7777890000011
 31
0.0
  0
ARC
  5
4C8
  8
LAYER01
  6
VERDECKT
 62
     3
 10
1277.879414
 20
3056.5095449999999
 30
0.0
 40
22.0
 50
273.0
 51
357.0
  0
ARC
  5
4C9
  8
LAYER01
  6
VERDECKT
 62
     3
 10
1297.6826550000001
 20
3147.7680449999998
 30
0.0
 40
5.0
 50
90.0
 51
177.0
  0
LINE
  5
4CA
  8
LAYER01
  6
CONTINUOUS
 62
     7
 10
1282.7032200000001
 20
3152.7680420000002
 30
0.0
 11
1297.682642
 21
3152.7680420000002
 31
0.0
  0
ARC
  5
4CB
  8
LAYER01
  6
VERDECKT
 62
     3
 10
1277.879414
 20
3056.5095449999999
 30
0.0
 40
10.0
 50
273.0
 51
357.0
  0
LINE
  5
4CC
  8
LAYER01
  6
VERDECKT
 62
     3
 10
1287.865697
 20
3055.9861850000002
 30
0.0
 11
1292.6895010000001
 21
3148.0297260000011
 31
0.0
  0
LINE
  5
4CD
  8
LAYER01
  6
CONTINUOUS
 62
     7
 10
1617.9378320000001
 20
3022.7680420000002
 30
0.0
 11
1617.9378320000001
 21
3167.7680500000001
 31
0.0
  0
LINE
  5
4CE
  8
LAYER01
  6
VERDECKT
 62
     3
 10
1299.849271
 20
3055.3581530000001
 30
0.0
 11
1303.828745
 21
3131.291401
 31
0.0
  0
ARC
  5
4CF
  8
LAYER01
  6
VERDECKT
 62
     3
 10
1313.8150519999999
 20
3130.7680449999998
 30
0.0
 40
10.0
 50
90.0
 51
177.0
  0
LINE
  5
4D0
  8
LAYER01
  6
VERDECKT
 62
     3
 10
1313.8150519999999
 20
3140.7680449999998
 30
0.0
 11
1617.9378320000001
 21
3140.7680449999998
 31
0.0
  0
LINE
  5
4D1
  8
LAYER01
  6
CONTINUOUS
 62
     7
 10
367.93783200000001
 20
3984.5558590000001
 30
0.0
 11
1617.9378320000001
 21
3984.5558590000001
 31
0.0
  0
LINE
  5
4D2
  8
LAYER01
  6
CONTINUOUS
 62
     7
 10
367.93783200000001
 20
3996.5558529999998
 30
0.0
 11
1617.9378320000001
 21
3996.5558529999998
 31
0.0
  0
LINE
  5
4D3
  8
LAYER01
  6
CONTINUOUS
 62
     7
 10
367.93783200000001
 20
3396.555844
 30
0.0
 11
1617.9378320000001
 21
3396.555844
 31
0.0
  0
LINE
  5
4D4
  8
LAYER01
  6
CONTINUOUS
 62
     7
 10
703.17244400000004
 20
3901.3006799999998
 30
0.0
 11
1282.7032200000001
 21
3901.3006799999998
 31
0.0
  0
LINE
  5
4D5
  8
LAYER01
  6
CONTINUOUS
 62
     7
 10
1283.344595
 20
3445.228044
 30
0.0
 11
702.531068
 21
3445.228044
 31
0.0
  0
DIMENSION
  5
4D6
  8
LAYER01
 62
     7
  2
*D2
 10
1617.9378320000001
 20
4218.6307229999993
 30
0.0
 11
1054.366403
 21
4248.6307229999993
 31
0.0
 13
367.93783200000001
 23
3996.5558529999998
 33
0.0
 14
1617.9378320000001
 24
3996.5558529999998
 34
0.0
  0
DIMENSION
  5
4D7
  8
LAYER01
 62
     7
  2
*D3
 10
992.93783200000007
 20
4090.2031860000002
 30
0.0
 11
741.86640299999999
 21
4120.2031859999997
 31
0.0
 13
367.93783200000001
 23
3996.5558529999998
 33
0.0
 14
992.93783200000007
 24
3996.5558529999998
 34
0.0
  0
DIMENSION
  5
4D8
  8
LAYER01
 62
     7
  2
*D4
 10
688.19302199999993
 20
3303.098054
 30
0.0
 11
993.65211799999986
 21
3333.098054
 31
0.0
 13
1297.682642
 23
3396.555844
 33
0.0
 14
688.19302199999993
 24
3396.555844
 34
0.0
  0
LINE
  5
4D9
  8
LAYER01
  6
VERDECKT
 62
     7
 10
367.93783200000001
 20
3408.555844
 30
0.0
 11
1617.9378320000001
 21
3408.555844
 31
0.0
  0
LINE
  5
4DA
  8
LAYER01
  6
CONTINUOUS
 62
     7
 10
367.93783200000001
 20
3974.5558529999998
 30
0.0
 11
367.93783200000001
 21
3401.5558689999998
 31
0.0
  0
DIMENSION
  5
4DB
  8
LAYER01
 62
     7
  2
*D5
 10
167.79198600000001
 20
3396.555844
 30
0.0
 11
137.79198600000001
 21
3696.5558490000012
 31
0.0
 53
90.0
 13
367.93783200000001
 23
3996.5558529999998
 33
0.0
 14
367.93783200000001
 24
3396.555844
 34
0.0
 50
90.0
  0
DIMENSION
  5
4DC
  8
LAYER01
 62
     7
  2
*D6
 10
287.4631
 20
3901.3006799999998
 30
0.0
 11
257.4631
 21
3673.9786469999999
 31
0.0
 53
90.0
 13
367.93783200000001
 23
3445.228044
 33
0.0
 14
367.93783200000001
 24
3901.3006799999998
 34
0.0
 50
90.0
  0
LINE
  5
4DD
  8
LAYER01
  6
CONTINUOUS
 62
     7
 10
688.19302199999993
 20
3474.087689
 30
0.0
 11
688.19302199999993
 21
3886.3212349999999
 31
0.0
  0
DIMENSION
  5
4DE
  8
LAYER01
 62
     7
  2
*D7
 10
287.4631
 20
3445.228044
 30
0.0
 11
257.4631
 21
3421.6062299999999
 31
0.0
 53
90.0
 13
367.93783200000001
 23
3396.555844
 33
0.0
 14
367.93783200000001
 24
3445.228044
 34
0.0
 50
90.0
  0
LINE
  5
4DF
  8
LAYER01
  6
CONTINUOUS
 62
     7
 10
367.93783200000001
 20
3396.555844
 30
0.0
 11
367.93783200000001
 21
3401.5558689999998
 31
0.0
  0
POLYLINE
  5
4E0
  8
LAYER01
  6
CONTINUOUS
 62
     7
 66
     1
 10
0.0
 20
0.0
 30
0.0
  0
VERTEX
  5
961
  8
LAYER01
  6
CONTINUOUS
 62
     7
 10
688.19300899999985
 20
3474.0876819999999
 30
0.0
  0
VERTEX
  5
962
  8
LAYER01
  6
CONTINUOUS
 62
     7
 10
688.46521299999995
 20
3468.388821
 30
0.0
  0
VERTEX
  5
963
  8
LAYER01
  6
CONTINUOUS
 62
     7
 10
689.27195900000004
 20
3462.9463020000012
 30
0.0
  0
VERTEX
  5
964
  8
LAYER01
  6
CONTINUOUS
 62
     7
 10
690.58400700000004
 20
3457.9573850000002
 30
0.0
  0
VERTEX
  5
965
  8
LAYER01
  6
CONTINUOUS
 62
     7
 10
692.35380299999986
 20
3453.6028900000001
 30
0.0
  0
VERTEX
  5
966
  8
LAYER01
  6
CONTINUOUS
 62
     7
 10
694.51720299999999
 20
3450.0406400000002
 30
0.0
  0
VERTEX
  5
967
  8
LAYER01
  6
CONTINUOUS
 62
     7
 10
696.99579500000004
 20
3447.3997469999999
 30
0.0
  0
VERTEX
  5
968
  8
LAYER01
  6
CONTINUOUS
 62
     7
 10
699.699746
 20
3445.775927000001
 30
0.0
  0
VERTEX
  5
969
  8
LAYER01
  6
CONTINUOUS
 62
     7
 10
702.53105400000004
 20
3445.2280350000001
 30
0.0
  0
SEQEND
  5
96A
  8
LAYER01
  6
CONTINUOUS
 62
     7
  0
POLYLINE
  5
4EB
  8
LAYER01
  6
CONTINUOUS
 62
     7
 66
     1
 10
0.0
 20
0.0
 30
0.0
  0
VERTEX
  5
96B
  8
LAYER01
  6
CONTINUOUS
 62
     7
 10
703.17245199999991
 20
3901.3006799999998
 30
0.0
  0
VERTEX
  5
96C
  8
LAYER01
  6
CONTINUOUS
 62
     7
 10
700.24792400000001
 20
3901.0130659999991
 30
0.0
  0
VERTEX
  5
96D
  8
LAYER01
  6
CONTINUOUS
 62
     7
 10
697.43696900000009
 20
3900.161239
 30
0.0
  0
VERTEX
  5
96E
  8
LAYER01
  6
CONTINUOUS
 62
     7
 10
694.84723600000007
 20
3898.7778199999998
 30
0.0
  0
VERTEX
  5
96F
  8
LAYER01
  6
CONTINUOUS
 62
     7
 10
692.577901
 20
3896.9157880000012
 30
0.0
  0
VERTEX
  5
970
  8
LAYER01
  6
CONTINUOUS
 62
     7
 10
690.715869
 20
3894.6464530000012
 30
0.0
  0
VERTEX
  5
971
  8
LAYER01
  6
CONTINUOUS
 62
     7
 10
689.33244999999999
 20
3892.0567190000002
 30
0.0
  0
VERTEX
  5
972
  8
LAYER01
  6
CONTINUOUS
 62
     7
 10
688.48062300000004
 20
3889.2457650000001
 30
0.0
  0
VERTEX
  5
973
  8
LAYER01
  6
CONTINUOUS
 62
     7
 10
688.19300899999985
 20
3886.3212370000001
 30
0.0
  0
SEQEND
  5
974
  8
LAYER01
  6
CONTINUOUS
 62
     7
  0
LINE
  5
4F6
  8
LAYER01
  6
CONTINUOUS
 62
     7
 10
367.93783200000001
 20
3996.5558529999998
 30
0.0
 11
367.93783200000001
 21
3984.5558590000001
 31
0.0
  0
LINE
  5
4F7
  8
LAYER01
  6
CONTINUOUS
 62
     7
 10
367.93783200000001
 20
3974.5558529999998
 30
0.0
 11
367.93783200000001
 21
3984.5558590000001
 31
0.0
  0
LINE
  5
4F8
  8
LAYER01
  6
CONTINUOUS
 62
     7
 10
1617.9378320000001
 20
3401.5558689999998
 30
0.0
 11
1617.9378320000001
 21
3996.5558529999998
 31
0.0
  0
CIRCLE
  5
4F9
  8
LAYER01
  6
CONTINUOUS
 62
     7
 10
992.93783200000007
 20
3936.5558569999998
 30
0.0
 40
17.5
  0
INSERT
  5
4FA
  8
LAYER01
  2
NEWYORK-G9
 10
0.0
 20
0.0
 30
0.0
  0
CIRCLE
  5
4FB
  8
LAYER01
  6
CONTINUOUS
 62
     7
 10
992.93783200000007
 20
3814.5558569999998
 30
0.0
 40
24.786062000000001
  0
CIRCLE
  5
4FC
  8
LAYER01
  6
CONTINUOUS
 62
     7
 10
992.93783200000007
 20
3814.5558569999998
 30
0.0
 40
34.429883000000011
  0
INSERT
  5
4FD
  8
LAYER01
  2
NEWYORK-G10
 10
0.0
 20
0.0
 30
0.0
  0
LINE
  5
4FE
  8
LAYER01
  6
CONTINUOUS
 62
     7
 10
1297.682642
 20
3886.3212349999999
 30
0.0
 11
1297.682642
 21
3474.087689
 31
0.0
  0
POLYLINE
  5
4FF
  8
LAYER01
  6
CONTINUOUS
 62
     7
 66
     1
 10
0.0
 20
0.0
 30
0.0
  0
VERTEX
  5
975
  8
LAYER01
  6
CONTINUOUS
 62
     7
 10
1283.3446100000001
 20
3445.2280350000001
 30
0.0
  0
VERTEX
  5
976
  8
LAYER01
  6
CONTINUOUS
 62
     7
 10
1286.175917
 20
3445.775927000001
 30
0.0
  0
VERTEX
  5
977
  8
LAYER01
  6
CONTINUOUS
 62
     7
 10
1288.8798690000001
 20
3447.3997469999999
 30
0.0
  0
VERTEX
  5
978
  8
LAYER01
  6
CONTINUOUS
 62
     7
 10
1291.358461
 20
3450.0406400000002
 30
0.0
  0
VERTEX
  5
979
  8
LAYER01
  6
CONTINUOUS
 62
     7
 10
1293.5218609999999
 20
3453.6028900000001
 30
0.0
  0
VERTEX
  5
97A
  8
LAYER01
  6
CONTINUOUS
 62
     7
 10
1295.291657
 20
3457.9573850000002
 30
0.0
  0
VERTEX
  5
97B
  8
LAYER01
  6
CONTINUOUS
 62
     7
 10
1296.603705
 20
3462.9463020000012
 30
0.0
  0
VERTEX
  5
97C
  8
LAYER01
  6
CONTINUOUS
 62
     7
 10
1297.410451
 20
3468.388821
 30
0.0
  0
VERTEX
  5
97D
  8
LAYER01
  6
CONTINUOUS
 62
     7
 10
1297.6826550000001
 20
3474.0876819999999
 30
0.0
  0
SEQEND
  5
97E
  8
LAYER01
  6
CONTINUOUS
 62
     7
  0
POLYLINE
  5
50A
  8
LAYER01
  6
CONTINUOUS
 62
     7
 66
     1
 10
0.0
 20
0.0
 30
0.0
  0
VERTEX
  5
97F
  8
LAYER01
  6
CONTINUOUS
 62
     7
 10
1297.6826550000001
 20
3886.3212370000001
 30
0.0
  0
VERTEX
  5
980
  8
LAYER01
  6
CONTINUOUS
 62
     7
 10
1297.395041
 20
3889.2457650000001
 30
0.0
  0
VERTEX
  5
981
  8
LAYER01
  6
CONTINUOUS
 62
     7
 10
1296.543214
 20
3892.0567190000002
 30
0.0
  0
VERTEX
  5
982
  8
LAYER01
  6
CONTINUOUS
 62
     7
 10
1295.159795
 20
3894.6464530000012
 30
0.0
  0
VERTEX
  5
983
  8
LAYER01
  6
CONTINUOUS
 62
     7
 10
1293.297763
 20
3896.9157880000012
 30
0.0
  0
VERTEX
  5
984
  8
LAYER01
  6
CONTINUOUS
 62
     7
 10
1291.0284280000001
 20
3898.7778199999998
 30
0.0
  0
VERTEX
  5
985
  8
LAYER01
  6
CONTINUOUS
 62
     7
 10
1288.4386939999999
 20
3900.161239
 30
0.0
  0
VERTEX
  5
986
  8
LAYER01
  6
CONTINUOUS
 62
     7
 10
1285.6277399999999
 20
3901.0130659999991
 30
0.0
  0
VERTEX
  5
987
  8
LAYER01
  6
CONTINUOUS
 62
     7
 10
1282.7032119999999
 20
3901.3006799999998
 30
0.0
  0
SEQEND
  5
988
  8
LAYER01
  6
CONTINUOUS
 62
     7
  0
DIMENSION
  5
515
  8
LAYER01
 62
     7
  2
*D10
 10
1360.6113829999999
 20
3901.3006799999998
 30
0.0
 11
1330.6113829999999
 21
3857.9282680000001
 31
0.0
 53
90.0
 13
1297.682642
 23
3814.5558569999998
 33
0.0
 14
1297.682642
 24
3901.3006799999998
 34
0.0
 50
90.0
  0
DIMENSION
  5
516
  8
LAYER01
 62
     7
  2
*D11
 10
992.93783200000007
 20
4090.2031860000002
 30
0.0
 11
1366.866403
 21
4120.2031859999997
 31
0.0
 13
1617.9378320000001
 23
3996.5558529999998
 33
0.0
 14
992.93783200000007
 24
3996.5558529999998
 34
0.0
  0
DIMENSION
  5
517
  8
LAYER01
 62
     7
  2
*D12
 10
1044.632879
 20
3961.1881349999999
 30
0.0
 11
1148.070659
 21
3961.1881349999999
 31
0.0
 70
     3
 15
1008.736041
 25
3944.0835780000002
 35
0.0
 40
39.763661999999997
  0
DIMENSION
  5
518
  8
LAYER01
 62
     7
  2
*D13
 10
2931.323664
 20
3167.7680420000002
 30
0.0
 11
2901.323664
 21
3252.196613000001
 31
0.0
 53
90.0
 13
2830.5457120000001
 23
3152.7680420000002
 33
0.0
 14
2830.5457120000001
 24
3167.7680420000002
 34
0.0
 50
90.0
  0
INSERT
  5
519
  8
LAYER01
  2
NEWYORK-G15
 10
0.0
 20
0.0
 30
0.0
  0
INSERT
  5
51A
  8
LAYER01
  2
NEWYORK-G17
 10
0.0
 20
0.0
 30
0.0
  0
TEXT
  5
51B
  8
LAYER01
  6
STRICHPUNKTIERT
 62
     7
 10
2584.450554
 20
2297.4714020000001
 30
0.0
 40
43.651061999999989
  1
http://www.mineralwerkstoff.de
  0
DIMENSION
  5
51C
  8
LAYER01
 62
     7
  2
*D17
 10
2931.323664
 20
3152.7680420000002
 30
0.0
 11
2901.323664
 21
3087.768043
 31
0.0
 53
90.0
 13
2830.5457120000001
 23
3022.7680449999998
 33
0.0
 14
2830.5457120000001
 24
3152.7680420000002
 34
0.0
 50
90.0
  0
LINE
  5
51D
  8
LAYER01
  6
CONTINUOUS
 62
     7
 10
2273.0456920000001
 20
3140.7680479999999
 30
0.0
 11
2308.0456960000001
 21
3140.7680479999999
 31
0.0
  0
LINE
  5
51E
  8
LAYER01
  6
CONTINUOUS
 62
     7
 10
2308.0456960000001
 20
3152.7680420000002
 30
0.0
 11
2273.0456920000001
 21
3152.7680420000002
 31
0.0
  0
LINE
  5
51F
  8
LAYER01
  6
CONTINUOUS
 62
     7
 10
2273.0456920000001
 20
3152.7680420000002
 30
0.0
 11
2273.0456920000001
 21
3140.7680479999999
 31
0.0
  0
ARC
  5
520
  8
LAYER01
  6
CONTINUOUS
 62
     7
 10
2252.5456989999998
 20
3162.7680449999998
 30
0.0
 40
10.0
 50
180.0
 51
270.0
  0
LINE
  5
521
  8
LAYER01
  6
CONTINUOUS
 62
     7
 10
2252.5457029999998
 20
3152.7680420000002
 30
0.0
 11
2273.0456920000001
 21
3152.7680420000002
 31
0.0
  0
LINE
  5
522
  8
LAYER01
  6
CONTINUOUS
 62
     7
 10
2230.5457029999998
 20
3140.7680479999999
 30
0.0
 11
2273.0456920000001
 21
3140.7680479999999
 31
0.0
  0
LINE
  5
523
  8
LAYER01
  6
CONTINUOUS
 62
     7
 10
2242.545697
 20
3167.7680500000001
 30
0.0
 11
2230.5457029999998
 21
3167.7680500000001
 31
0.0
  0
LINE
  5
524
  8
LAYER01
  6
CONTINUOUS
 62
     7
 10
2242.545697
 20
3167.7680500000001
 30
0.0
 11
2242.545697
 21
3162.7680399999999
 31
0.0
  0
LINE
  5
525
  8
LAYER01
  6
CONTINUOUS
 62
     7
 10
2230.5457029999998
 20
3167.7680500000001
 30
0.0
 11
2230.5457029999998
 21
3140.7680479999999
 31
0.0
  0
INSERT
  5
526
  8
LAYER01
  2
NEWYORK-G19
 10
0.0
 20
0.0
 30
0.0
  0
DIMENSION
  5
527
  8
LAYER01
 62
     7
  2
*D19
 10
2169.8014349999999
 20
3032.3588549999999
 30
0.0
 11
2139.8014349999999
 21
3092.5634490000002
 31
0.0
 53
90.0
 13
2230.5457029999998
 23
3152.7680420000002
 33
0.0
 14
2230.5457029999998
 24
3032.3588549999999
 34
0.0
 50
90.0
  0
DIMENSION
  5
528
  8
LAYER01
 62
     7
  2
*D20
 10
2087.5183120000002
 20
3010.7680449999998
 30
0.0
 11
2057.5183120000002
 21
3081.768043
 31
0.0
 53
90.0
 13
2230.5457029999998
 23
3152.7680420000002
 33
0.0
 14
2230.5457029999998
 24
3010.7680449999998
 34
0.0
 50
90.0
  0
INSERT
  5
529
  8
LAYER01
  2
NEWYORK-G22
 10
0.0
 20
0.0
 30
0.0
  0
LINE
  5
52A
  8
LAYER01
  6
CONTINUOUS
 62
     7
 10
2586.2412629999999
 20
3041.736942
 30
0.0
 11
2779.392827000001
 21
3152.1092619999999
 31
0.0
  0
LINE
  5
52B
  8
LAYER01
  6
CONTINUOUS
 62
     7
 10
2592.1949330000002
 20
3031.3180240000002
 30
0.0
 11
2781.4267159999999
 21
3139.450479000001
 31
0.0
  0
LINE
  5
52C
  8
LAYER01
  6
CONTINUOUS
 62
     7
 10
2753.0138670000001
 20
3152.7680420000002
 30
0.0
 11
2781.873513
 21
3152.7680420000002
 31
0.0
  0
LINE
  5
52D
  8
LAYER01
  6
CONTINUOUS
 62
     7
 10
2340.7803210000002
 20
3152.7680420000002
 30
0.0
 11
2753.0138670000001
 21
3152.7680420000002
 31
0.0
  0
LINE
  5
52E
  8
LAYER01
  6
CONTINUOUS
 62
     7
 10
2455.1270119999999
 20
3021.7777890000011
 30
0.0
 11
2582.4312749999999
 21
3028.4495230000011
 31
0.0
  0
LINE
  5
52F
  8
LAYER01
  6
CONTINUOUS
 62
     7
 10
2449.9278399999998
 20
3033.5217809999999
 30
0.0
 11
2581.8032360000002
 21
3040.433078
 31
0.0
  0
ARC
  5
530
  8
LAYER01
  6
CONTINUOUS
 62
     7
 10
2346.2045189999999
 20
3045.053183
 30
0.0
 40
10.0
 50
183.0
 51
267.0
  0
LINE
  5
531
  8
LAYER01
  6
CONTINUOUS
 62
     7
 10
2435.5456989999998
 20
3010.7680449999998
 30
0.0
 11
2435.5456989999998
 21
3020.4365069999999
 31
0.0
  0
LINE
  5
532
  8
LAYER01
  6
CONTINUOUS
 62
     7
 10
2389.5456989999998
 20
3020.4365069999999
 30
0.0
 11
2389.5456989999998
 21
3010.7680449999998
 31
0.0
  0
LINE
  5
533
  8
LAYER01
  6
CONTINUOUS
 62
     7
 10
2435.5456989999998
 20
3010.7680449999998
 30
0.0
 11
2389.5456989999998
 21
3010.7680449999998
 31
0.0
  0
ARC
  5
534
  8
LAYER01
  6
CONTINUOUS
 62
     7
 10
2455.5456989999998
 20
3013.7887529999998
 30
0.0
 40
8.0
 50
93.0
 51
180.0
  0
LINE
  5
535
  8
LAYER01
  6
CONTINUOUS
 62
     7
 10
2447.5456989999998
 20
3010.7680449999998
 30
0.0
 11
2447.5456989999998
 21
3013.7887540000002
 31
0.0
  0
ARC
  5
536
  8
LAYER01
  6
CONTINUOUS
 62
     7
 10
2440.5456989999998
 20
3020.436506
 30
0.0
 40
5.0
 50
130.0
 51
180.0
  0
LINE
  5
537
  8
LAYER01
  6
CONTINUOUS
 62
     7
 10
2446.9755810000001
 20
3032.3588549999999
 30
0.0
 11
2437.3317619999998
 21
3024.266728000001
 31
0.0
  0
ARC
  5
538
  8
LAYER01
  6
CONTINUOUS
 62
     7
 10
2450.1895199999999
 20
3028.5286329999999
 30
0.0
 40
5.0
 50
93.0
 51
130.0
  0
LINE
  5
539
  8
LAYER01
  6
CONTINUOUS
 62
     7
 10
2447.5456989999998
 20
3010.7680449999998
 30
0.0
 11
2435.5456989999998
 21
3010.7680449999998
 31
0.0
  0
LINE
  5
53A
  8
LAYER01
  6
CONTINUOUS
 62
     7
 10
2377.5456989999998
 20
3013.7887540000002
 30
0.0
 11
2377.5456989999998
 21
3010.7680449999998
 31
0.0
  0
ARC
  5
53B
  8
LAYER01
  6
CONTINUOUS
 62
     7
 10
2369.5456989999998
 20
3013.7887529999998
 30
0.0
 40
8.0
 50
0.0
 51
87.0
  0
LINE
  5
53C
  8
LAYER01
  6
CONTINUOUS
 62
     7
 10
2345.0531249999999
 20
3023.083333
 30
0.0
 11
2369.964387
 21
3021.7777890000011
 31
0.0
  0
ARC
  5
53D
  8
LAYER01
  6
CONTINUOUS
 62
     7
 10
2346.2045189999999
 20
3045.053183
 30
0.0
 40
22.0
 50
183.0
 51
267.0
  0
LINE
  5
53E
  8
LAYER01
  6
CONTINUOUS
 62
     7
 10
2319.6547730000002
 20
3131.291401
 30
0.0
 11
2324.2346680000001
 21
3043.9017920000001
 31
0.0
  0
ARC
  5
53F
  8
LAYER01
  6
CONTINUOUS
 62
     7
 10
2309.6684789999999
 20
3130.7680449999998
 30
0.0
 40
10.0
 50
3.0
 51
90.0
  0
LINE
  5
540
  8
LAYER01
  6
CONTINUOUS
 62
     7
 10
2308.0456960000001
 20
3140.7680479999999
 30
0.0
 11
2309.6684770000002
 21
3140.7680479999999
 31
0.0
  0
LINE
  5
541
  8
LAYER01
  6
CONTINUOUS
 62
     7
 10
2308.0456960000001
 20
3140.7680479999999
 30
0.0
 11
2308.0456960000001
 21
3152.7680420000002
 31
0.0
  0
LINE
  5
542
  8
LAYER01
  6
CONTINUOUS
 62
     7
 10
2308.0456960000001
 20
3152.7680420000002
 30
0.0
 11
2325.8008770000001
 21
3152.7680420000002
 31
0.0
  0
ARC
  5
543
  8
LAYER01
  6
CONTINUOUS
 62
     7
 10
2325.8008759999998
 20
3147.7680449999998
 30
0.0
 40
5.0
 50
3.0
 51
90.0
  0
LINE
  5
544
  8
LAYER01
  6
CONTINUOUS
 62
     7
 10
2345.681157
 20
3035.0668879999998
 30
0.0
 11
2375.1635580000002
 21
3033.5217809999999
 31
0.0
  0
ARC
  5
545
  8
LAYER01
  6
CONTINUOUS
 62
     7
 10
2374.9018780000001
 20
3028.5286329999999
 30
0.0
 40
5.0
 50
50.0
 51
87.0
  0
LINE
  5
546
  8
LAYER01
  6
CONTINUOUS
 62
     7
 10
2387.7596370000001
 20
3024.266728000001
 30
0.0
 11
2378.1158170000008
 21
3032.3588549999999
 31
0.0
  0
ARC
  5
547
  8
LAYER01
  6
CONTINUOUS
 62
     7
 10
2384.5456989999998
 20
3020.436506
 30
0.0
 40
5.0
 50
0.0
 51
50.0
  0
LINE
  5
548
  8
LAYER01
  6
CONTINUOUS
 62
     7
 10
2389.5456989999998
 20
3010.7680449999998
 30
0.0
 11
2377.5456989999998
 21
3010.7680449999998
 31
0.0
  0
LINE
  5
549
  8
LAYER01
  6
CONTINUOUS
 62
     7
 10
2330.7940250000001
 20
3148.0297260000011
 30
0.0
 11
2336.218226
 21
3044.5298240000002
 31
0.0
  0
LINE
  5
54A
  8
LAYER01
  6
CONTINUOUS
 62
     7
 10
2325.8008770000001
 20
3152.7680420000002
 30
0.0
 11
2340.7803210000002
 21
3152.7680420000002
 31
0.0
  0
LINE
  5
54B
  8
LAYER01
  6
CONTINUOUS
 62
     7
 10
2435.5456989999998
 20
3020.4365069999999
 30
0.0
 11
2389.5456989999998
 21
3020.4365069999999
 31
0.0
  0
LINE
  5
54C
  8
LAYER01
  6
CONTINUOUS
 62
     7
 10
2446.9755810000001
 20
3032.3588549999999
 30
0.0
 11
2378.1158170000008
 21
3032.3588549999999
 31
0.0
  0
LINE
  5
54D
  8
LAYER01
  6
CONTINUOUS
 62
     7
 10
2387.7596370000001
 20
3024.266728000001
 30
0.0
 11
2437.3317619999998
 21
3024.266728000001
 31
0.0
  0
INSERT
  5
54E
  8
LAYER01
  2
NEWYORK-G23
 10
0.0
 20
0.0
 30
0.0
  0
ARC
  5
54F
  8
LAYER01
  6
CONTINUOUS
 62
     7
 10
2581.2798790000002
 20
3050.4193730000002
 30
0.0
 40
22.0
 50
273.0
 51
299.74488100000002
  0
ARC
  5
550
  8
LAYER01
  6
CONTINUOUS
 62
     7
 10
2581.2798790000002
 20
3050.4193730000002
 30
0.0
 40
10.0
 50
273.0
 51
299.74488100000002
  0
DIMENSION
  5
551
  8
LAYER01
 62
     7
  2
*D23
 10
2389.5456989999998
 20
2919.3630039999998
 30
0.0
 11
2522.1171279999999
 21
2949.3630039999998
 31
0.0
 13
2435.5456989999998
 23
3010.7680449999998
 33
0.0
 14
2389.5456989999998
 24
3010.7680449999998
 34
0.0
  0
ARC
  5
552
  8
LAYER01
  6
CONTINUOUS
 62
     7
 10
2825.5456989999998
 20
3147.7680449999998
 30
0.0
 40
5.0
 50
0.0
 51
90.0
  0
LINE
  5
553
  8
LAYER01
  6
CONTINUOUS
 62
     7
 10
2830.5457120000001
 20
3022.7680449999998
 30
0.0
 11
2830.5457120000001
 21
3147.768047
 31
0.0
  0
LINE
  5
554
  8
LAYER01
  6
CONTINUOUS
 62
     7
 10
2818.5456880000002
 20
3022.7680449999998
 30
0.0
 11
2830.5457120000001
 21
3022.7680449999998
 31
0.0
  0
LINE
  5
555
  8
LAYER01
  6
CONTINUOUS
 62
     7
 10
2818.5456880000002
 20
3022.7680449999998
 30
0.0
 11
2812.8582420000012
 21
3131.291401
 31
0.0
  0
ARC
  5
556
  8
LAYER01
  6
CONTINUOUS
 62
     7
 10
2802.871936
 20
3130.7680449999998
 30
0.0
 40
10.0
 50
3.0
 51
90.0
  0
LINE
  5
557
  8
LAYER01
  6
CONTINUOUS
 62
     7
 10
2786.388117
 20
3140.7680479999999
 30
0.0
 11
2802.8719310000001
 21
3140.7680479999999
 31
0.0
  0
ARC
  5
558
  8
LAYER01
  6
CONTINUOUS
 62
     7
 10
2786.388117
 20
3130.7680449999998
 30
0.0
 40
10.0
 50
90.0
 51
119.74488100000001
  0
ARC
  5
559
  8
LAYER01
  6
CONTINUOUS
 62
     7
 10
2781.873521
 20
3147.7680449999998
 30
0.0
 40
5.0
 50
90.0
 51
119.74488100000001
  0
LINE
  5
55A
  8
LAYER01
  6
CONTINUOUS
 62
     7
 10
2781.873513
 20
3152.7680420000002
 30
0.0
 11
2825.5456869999998
 21
3152.7680420000002
 31
0.0
  0
TEXT
  5
55B
  8
LAYER01
  6
VERDECKT
 62
     1
 10
3261.468085
 20
2061.7352089999999
 30
0.0
 40
25.0
  1
A. Sprenger GmbH
  7
SIMPLEX
  0
TEXT
  5
55C
  8
LAYER01
  6
CONTINUOUS
 62
     7
 10
3253.3579289999998
 20
2216.5568779999999
 30
0.0
 40
7.5
  1
Diese Zeichnung ist geistiges Eigentum der A. Sprenger GmbH
  7
SIMPLEX
  0
TEXT
  5
55D
  8
LAYER01
  6
CONTINUOUS
 62
     7
 10
3253.3579289999998
 20
2203.6997350000001
 30
0.0
 40
7.5
  1
und urheberrechtlich geschützt. Ohne unsere Zustimmung darf 
  7
SIMPLEX
  0
TEXT
  5
55E
  8
LAYER01
  6
CONTINUOUS
 62
     7
 10
3253.3579289999998
 20
2190.842592
 30
0.0
 40
7.5
  1
sie in keiner Form verwendet oder Dritten zugänglich gemacht
  7
SIMPLEX
  0
TEXT
  5
55F
  8
LAYER01
  6
CONTINUOUS
 62
     7
 10
3253.3579289999998
 20
2177.9854489999998
 30
0.0
 40
7.5
  1
werden. (§106 Urheberrecht)
  7
SIMPLEX
  0
TEXT
  5
560
  8
LAYER01
  6
VERDECKT
 62
     1
 10
3261.468085
 20
1963.5523250000001
 30
0.0
 40
35.0
  1
NewYork
  7
SIMPLEX
  0
TEXT
  5
561
  8
LAYER01
  6
VERDECKT
 62
     1
 10
3327.4118130000002
 20
2126.2135210000001
 30
0.0
 40
10.0
  1
1 : 10 (DIN A3)
  7
SIMPLEX
  0
TEXT
  5
562
  8
LAYER01
  6
VERDECKT
 62
     1
 10
3125.9591780000001
 20
2003.8138739999999
 30
0.0
 40
10.0
  1
b.s.
  7
SIMPLEX
  0
TEXT
  5
563
  8
LAYER01
  6
VERDECKT
 62
     1
 10
3029.8020219999999
 20
2003.8504109999999
 30
0.0
 40
10.0
  1
15.4.2021
  7
SIMPLEX
  0
TEXT
  5
564
  8
LAYER01
  6
VERDECKT
 62
     1
 10
3585.1404069999999
 20
2126.2135210000001
 30
0.0
 40
10.0
  1
xxx.skd
  7
SIMPLEX
  0
ENDSEC
  0
EOF