  0
SECTION
  2
HEADER
  9
$ACADVER
  1
AC1009
  9
$INSBASE
 10
0.0
 20
0.0
 30
0.0
  9
$EXTMIN
 10
-6603.0809959999997
 20
2473.5598799999998
 30
0.0
  9
$EXTMAX
 10
4440.6355509999958
 20
5234.9667630000004
 30
0.0
  9
$LIMMIN
 10
-6770.9533200000014
 20
2353.4088860000002
  9
$LIMMAX
 10
-2570.9533200000001
 20
5323.4088860000002
  9
$ORTHOMODE
 70
     1
  9
$REGENMODE
 70
     1
  9
$FILLMODE
 70
     1
  9
$QTEXTMODE
 70
     0
  9
$MIRRTEXT
 70
     0
  9
$DRAGMODE
 70
     2
  9
$LTSCALE
 40
5.0
  9
$OSMODE
 70
    37
  9
$ATTMODE
 70
     1
  9
$TEXTSIZE
 40
0.0
  9
$TRACEWID
 40
0.05
  9
$TEXTSTYLE
  7
STANDARD
  9
$CLAYER
  8
LAYER01
  9
$CELTYPE
  6
CONTINUOUS
  9
$CECOLOR
 62
     7
  9
$DIMSCALE
 40
1.0
  9
$DIMASZ
 40
0.18
  9
$DIMEXO
 40
0.0625
  9
$DIMDLI
 40
0.38
  9
$DIMRND
 40
0.0
  9
$DIMDLE
 40
0.0
  9
$DIMEXE
 40
0.18
  9
$DIMTP
 40
0.0
  9
$DIMTM
 40
0.0
  9
$DIMTXT
 40
0.18
  9
$DIMCEN
 40
0.09
  9
$DIMTSZ
 40
0.0
  9
$DIMTOL
 70
     0
  9
$DIMLIM
 70
     0
  9
$DIMTIH
 70
     1
  9
$DIMTOH
 70
     1
  9
$DIMSE1
 70
     0
  9
$DIMSE2
 70
     0
  9
$DIMTAD
 70
     0
  9
$DIMZIN
 70
     0
  9
$DIMBLK
  1

  9
$DIMASO
 70
     1
  9
$DIMSHO
 70
     1
  9
$DIMPOST
  1

  9
$DIMAPOST
  1

  9
$DIMALT
 70
     0
  9
$DIMALTD
 70
     2
  9
$DIMALTF
 40
25.399999999999999
  9
$DIMLFAC
 40
1.0
  9
$DIMTOFL
 70
     0
  9
$DIMTVP
 40
0.0
  9
$DIMTIX
 70
     0
  9
$DIMSOXD
 70
     0
  9
$DIMSAH
 70
     0
  9
$DIMBLK1
  1

  9
$DIMBLK2
  1

  9
$DIMSTYLE
  2
STANDARD
  9
$DIMCLRD
 70
     0
  9
$DIMCLRE
 70
     0
  9
$DIMCLRT
 70
     0
  9
$DIMTFAC
 40
1.0
  9
$DIMGAP
 40
0.09
  9
$LUNITS
 70
     2
  9
$LUPREC
 70
     4
  9
$SKETCHINC
 40
0.1
  9
$FILLETRAD
 40
5.0
  9
$AUNITS
 70
     0
  9
$AUPREC
 70
     0
  9
$MENU
  1
acad
  9
$ELEVATION
 40
0.0
  9
$PELEVATION
 40
0.0
  9
$THICKNESS
 40
0.0
  9
$LIMCHECK
 70
     0
  9
$BLIPMODE
 70
     0
  9
$CHAMFERA
 40
0.0
  9
$CHAMFERB
 40
0.0
  9
$SKPOLY
 70
     0
  9
$TDCREATE
 40
2305814.0419038199
  9
$TDUPDATE
 40
2459635.3967146301
  9
$TDINDWG
 40
0.0010068403
  9
$TDUSRTIMER
 40
0.0010062153
  9
$USRTIMER
 70
     1
  9
$ANGBASE
 50
0.0
  9
$ANGDIR
 70
     0
  9
$PDMODE
 70
     0
  9
$PDSIZE
 40
0.0
  9
$PLINEWID
 40
2.0
  9
$COORDS
 70
     0
  9
$SPLFRAME
 70
     0
  9
$SPLINETYPE
 70
     6
  9
$SPLINESEGS
 70
    10
  9
$ATTDIA
 70
     0
  9
$ATTREQ
 70
     1
  9
$HANDLING
 70
     1
  9
$HANDSEED
  5
120C
  9
$SURFTAB1
 70
     6
  9
$SURFTAB2
 70
     6
  9
$SURFTYPE
 70
     6
  9
$SURFU
 70
     6
  9
$SURFV
 70
     6
  9
$UCSNAME
  2

  9
$UCSORG
 10
0.0
 20
0.0
 30
0.0
  9
$UCSXDIR
 10
1.0
 20
0.0
 30
0.0
  9
$UCSYDIR
 10
0.0
 20
1.0
 30
0.0
  9
$PUCSNAME
  2

  9
$PUCSORG
 10
0.0
 20
0.0
 30
0.0
  9
$PUCSXDIR
 10
1.0
 20
0.0
 30
0.0
  9
$PUCSYDIR
 10
0.0
 20
1.0
 30
0.0
  9
$USERI1
 70
     0
  9
$USERI2
 70
     0
  9
$USERI3
 70
     0
  9
$USERI4
 70
     0
  9
$USERI5
 70
     0
  9
$USERR1
 40
0.0
  9
$USERR2
 40
0.0
  9
$USERR3
 40
0.0
  9
$USERR4
 40
0.0
  9
$USERR5
 40
0.0
  9
$WORLDVIEW
 70
     1
  9
$SHADEDGE
 70
     3
  9
$SHADEDIF
 70
    70
  9
$TILEMODE
 70
     1
  9
$MAXACTVP
 70
    64
  9
$PLIMCHECK
 70
     0
  9
$PEXTMIN
 10
1.0000000000000000E+020
 20
1.0000000000000000E+020
 30
1.0000000000000000E+020
  9
$PEXTMAX
 10
-1.0000000000000000E+020
 20
-1.0000000000000000E+020
 30
-1.0000000000000000E+020
  9
$PLIMMIN
 10
0.0
 20
0.0
  9
$PLIMMAX
 10
12.0
 20
9.0
  9
$UNITMODE
 70
     0
  9
$VISRETAIN
 70
     1
  9
$PLINEGEN
 70
     0
  9
$PSLTSCALE
 70
     1
  0
ENDSEC
  0
SECTION
  2
TABLES
  0
TABLE
  2
VPORT
 70
     1
  0
VPORT
  2
*ACTIVE
 70
     0
 10
0.0
 20
0.0
 11
1.0
 21
1.0
 12
-1165.0796193334879
 22
3838.4088859999988
 13
0.0
 23
0.0
 14
1.0
 24
1.0
 15
0.0
 25
0.0
 16
0.0
 26
0.0
 36
1.0
 17
0.0
 27
0.0
 37
0.0
 40
5869.6048877176054
 41
1.9193798449612389
 42
50.0
 43
0.0
 44
0.0
 50
0.0
 51
0.0
 71
     0
 72
   100
 73
     1
 74
     1
 75
     0
 76
     0
 77
     0
 78
     0
  0
ENDTAB
  0
TABLE
  2
LTYPE
 70
    11
  0
LTYPE
  2
CONTINUOUS
 70
     0
  3
Solid line
 72
    65
 73
     0
 40
0.0
  0
LTYPE
  2
GESTRICHELT
 70
     0
  3
__ __ __ __ __ __ __ __ __ __ __ __ __ __ __
 72
    65
 73
     2
 40
0.75
 49
0.5
 49
-0.25
  0
LTYPE
  2
VERDECKT
 70
     0
  3
_ _ _ _ _ _ _ _ _ _ _ _ _ _ _ _ _ _ _ _ _ _ 
 72
    65
 73
     2
 40
0.25
 49
0.125
 49
-0.125
  0
LTYPE
  2
MITTELLINIE
 70
     0
  3
____ _ ____ _ ____ _ ____ _ ____ _ ____ _ __
 72
    65
 73
     4
 40
2.0
 49
1.25
 49
-0.25
 49
0.25
 49
-0.25
  0
LTYPE
  2
PHANTOM
 70
     0
  3
_____ _ _ _____ _ _ _____ _ _ _____ _ _ ____
 72
    65
 73
     6
 40
2.5
 49
1.25
 49
-0.25
 49
0.25
 49
-0.25
 49
0.25
 49
-0.25
  0
LTYPE
  2
PUNKTIERT
 70
     0
  3
............................................
 72
    65
 73
     2
 40
0.25
 49
0.0
 49
-0.25
  0
LTYPE
  2
STRICHPUNKTIERT
 70
     0
  3
__ . __ . __ . __ . __ . __ . __ . __ . __ .
 72
    65
 73
     4
 40
1.0
 49
0.5
 49
-0.25
 49
0.0
 49
-0.25
  0
LTYPE
  2
RAND
 70
     0
  3
__ __ . __ __ . __ __ . __ __ . __ __ . __ _
 72
    65
 73
     6
 40
1.75
 49
0.5
 49
-0.25
 49
0.5
 49
-0.25
 49
0.0
 49
-0.25
  0
LTYPE
  2
TRENNLINIE
 70
     0
  3
__ . . __ . . __ . . __ . . __ . . __ . . __
 72
    65
 73
     6
 40
1.25
 49
0.5
 49
-0.25
 49
0.0
 49
-0.25
 49
0.0
 49
-0.25
  0
LTYPE
  2
ENG_PUNKTIERT
 70
     0
  3
Schließen                                   
 72
    65
 73
     2
 40
0.1
 49
0.05
 49
-0.05
  0
LTYPE
  2
CLOSE
 70
     0
  3
                                            
 72
    65
 73
     0
 40
0.0
  0
ENDTAB
  0
TABLE
  2
LAYER
 70
   256
  0
LAYER
  2
0
 70
     0
 62
     7
  6
CONTINUOUS
  0
LAYER
  2
LAYER01
 70
     0
 62
     7
  6
CONTINUOUS
  0
LAYER
  2
LAYER02
 70
     0
 62
     7
  6
CONTINUOUS
  0
LAYER
  2
LAYER03
 70
     0
 62
     7
  6
CONTINUOUS
  0
LAYER
  2
LAYER04
 70
     0
 62
     7
  6
CONTINUOUS
  0
LAYER
  2
LAYER05
 70
     0
 62
     7
  6
CONTINUOUS
  0
LAYER
  2
LAYER06
 70
     0
 62
     7
  6
CONTINUOUS
  0
LAYER
  2
LAYER07
 70
     0
 62
     7
  6
CONTINUOUS
  0
LAYER
  2
LAYER08
 70
     0
 62
     7
  6
CONTINUOUS
  0
LAYER
  2
LAYER09
 70
     0
 62
     7
  6
CONTINUOUS
  0
LAYER
  2
LAYER10
 70
     0
 62
     7
  6
CONTINUOUS
  0
LAYER
  2
2
 70
     0
 62
     7
  6
CONTINUOUS
  0
LAYER
  2
5
 70
     0
 62
     7
  6
CONTINUOUS
  0
LAYER
  2
RAUMAUFM
 70
     0
 62
     7
  6
CONTINUOUS
  0
LAYER
  2
EINRICHT
 70
     0
 62
     7
  6
CONTINUOUS
  0
LAYER
  2
HILFE
 70
     0
 62
     7
  6
CONTINUOUS
  0
LAYER
  2
SCHNITTE
 70
     0
 62
     7
  6
CONTINUOUS
  0
LAYER
  2
SCHRAFF1
 70
     0
 62
     7
  6
CONTINUOUS
  0
LAYER
  2
SCHRAFF2
 70
     0
 62
     7
  6
CONTINUOUS
  0
LAYER
  2
BEMASS-1
 70
     0
 62
     7
  6
CONTINUOUS
  0
LAYER
  2
BEMASS-2
 70
     0
 62
     7
  6
CONTINUOUS
  0
LAYER
  2
TEXT
 70
     0
 62
     7
  6
CONTINUOUS
  0
LAYER
  2
SYMBOLE
 70
     0
 62
     7
  6
CONTINUOUS
  0
LAYER
  2
RAHMEN
 70
     0
 62
     7
  6
CONTINUOUS
  0
LAYER
  2
SCHRIFTF
 70
     0
 62
     7
  6
CONTINUOUS
  0
LAYER
  2
ACHSEN
 70
     0
 62
     7
  6
CONTINUOUS
  0
LAYER
  2
ZEICHN
 70
     0
 62
     7
  6
CONTINUOUS
  0
LAYER
  2
7
 70
     0
 62
     7
  6
CONTINUOUS
  0
LAYER
  2
1
 70
     0
 62
     7
  6
CONTINUOUS
  0
LAYER
  2
6
 70
     0
 62
     7
  6
CONTINUOUS
  0
LAYER
  2
4
 70
     0
 62
     7
  6
CONTINUOUS
  0
LAYER
  2
GRUNDEBENE
 70
     0
 62
     7
  6
CONTINUOUS
  0
LAYER
  2
GRUNDRISS
 70
     0
 62
     7
  6
CONTINUOUS
  0
LAYER
  2
BEMASSUNGGRUNDRISS
 70
     0
 62
     7
  6
CONTINUOUS
  0
LAYER
  2
WANDELEMENTE
 70
     0
 62
     7
  6
CONTINUOUS
  0
LAYER
  2
KUECHE
 70
     0
 62
     7
  6
CONTINUOUS
  0
LAYER
  2
THEKEBROETCHEN
 70
     0
 62
     7
  6
CONTINUOUS
  0
LAYER
  2
CENTERLINIE
 70
     0
 62
     7
  6
CONTINUOUS
  0
LAYER
  2
UMRISSE
 70
     0
 62
     7
  6
CONTINUOUS
  0
LAYER
  2
MAUER
 70
     0
 62
     7
  6
CONTINUOUS
  0
LAYER
  2
SCHRAFFUR
 70
     0
 62
     7
  6
CONTINUOUS
  0
LAYER
  2
MASSLINIE
 70
     0
 62
     7
  6
CONTINUOUS
  0
LAYER
  2
PV
 70
     0
 62
     7
  6
CONTINUOUS
  0
LAYER
  2
BESCHRIFTUNG
 70
     0
 62
     7
  6
CONTINUOUS
  0
LAYER
  2
AS
 70
     0
 62
     7
  6
CONTINUOUS
  0
LAYER
  2
PL
 70
     0
 62
     7
  6
CONTINUOUS
  0
LAYER
  2
UK
 70
     0
 62
     7
  6
CONTINUOUS
  0
LAYER
  2
TEXT3
 70
     0
 62
     7
  6
CONTINUOUS
  0
LAYER
  2
TEXT7
 70
     0
 62
     7
  6
CONTINUOUS
  0
LAYER
  2
BEPL1
 70
     0
 62
     7
  6
CONTINUOUS
  0
LAYER
  2
BEPL2
 70
     0
 62
     7
  6
CONTINUOUS
  0
LAYER
  2
BEPL2V
 70
     0
 62
     7
  6
CONTINUOUS
  0
LAYER
  2
BEPL4
 70
     0
 62
     7
  6
CONTINUOUS
  0
LAYER
  2
BEPL
 70
     0
 62
     7
  6
CONTINUOUS
  0
LAYER
  2
UK1
 70
     0
 62
     7
  6
CONTINUOUS
  0
LAYER
  2
UK2
 70
     0
 62
     7
  6
CONTINUOUS
  0
LAYER
  2
UK2V
 70
     0
 62
     7
  6
CONTINUOUS
  0
LAYER
  2
UK3
 70
     0
 62
     7
  6
CONTINUOUS
  0
LAYER
  2
TEXT2
 70
     0
 62
     7
  6
CONTINUOUS
  0
LAYER
  2
HILF2S
 70
     0
 62
     7
  6
CONTINUOUS
  0
LAYER
  2
UK1V
 70
     0
 62
     7
  6
CONTINUOUS
  0
LAYER
  2
GAIN_ZRA
 70
     0
 62
     7
  6
CONTINUOUS
  0
LAYER
  2
GAIN_ZSF
 70
     0
 62
     7
  6
CONTINUOUS
  0
LAYER
  2
RAHM4
 70
     0
 62
     7
  6
CONTINUOUS
  0
LAYER
  2
KORPUSBAND
 70
     0
 62
     7
  6
CONTINUOUS
  0
LAYER
  2
E---LGPL--------
 70
     0
 62
     7
  6
CONTINUOUS
  0
LAYER
  2
E---NPFL--------
 70
     0
 62
     7
  6
CONTINUOUS
  0
LAYER
  2
E---PLNKTXT-----
 70
     0
 62
     7
  6
CONTINUOUS
  0
LAYER
  2
E---PLNK--------
 70
     0
 62
     7
  6
CONTINUOUS
  0
LAYER
  2
E---PLNR--------
 70
     0
 62
     7
  6
CONTINUOUS
  0
LAYER
  2
D547_ARCHICAD
 70
     0
 62
     7
  6
CONTINUOUS
  0
LAYER
  2
D547_E---TEXT--------
 70
     0
 62
     7
  6
CONTINUOUS
  0
LAYER
  2
E---LEGD--------
 70
     0
 62
     7
  6
CONTINUOUS
  0
LAYER
  2
D43_ARCHICAD
 70
     0
 62
     7
  6
CONTINUOUS
  0
LAYER
  2
D43_FENSTER_VON_B---FASS--
 70
     0
 62
     7
  6
CONTINUOUS
  0
LAYER
  2
D43_E---SCHN--------
 70
     0
 62
     7
  6
CONTINUOUS
  0
LAYER
  2
D43_B---MW-N--------
 70
     0
 62
     7
  6
CONTINUOUS
  0
LAYER
  2
D43_B---DECK--------
 70
     0
 62
     7
  6
CONTINUOUS
  0
LAYER
  2
D43_B---MW-S--------
 70
     0
 62
     7
  6
CONTINUOUS
  0
LAYER
  2
D43_B---MW----------
 70
     0
 62
     7
  6
CONTINUOUS
  0
LAYER
  2
D43_B---FASS--------
 70
     0
 62
     7
  6
CONTINUOUS
  0
LAYER
  2
D43_E---RASG--------
 70
     0
 62
     7
  6
CONTINUOUS
  0
LAYER
  2
D40_ARCHICAD
 70
     0
 62
     7
  6
CONTINUOUS
  0
LAYER
  2
D40_E---MW--------
 70
     0
 62
     7
  6
CONTINUOUS
  0
LAYER
  2
D40_E---FASSKON-----
 70
     0
 62
     7
  6
CONTINUOUS
  0
LAYER
  2
D40_TÜREN_VON_B---MW-N----
 70
     0
 62
     7
  6
CONTINUOUS
  0
LAYER
  2
D40_E---MW-L------
 70
     0
 62
     7
  6
CONTINUOUS
  0
LAYER
  2
D40_TÜREN_VON_B---MW------
 70
     0
 62
     7
  6
CONTINUOUS
  0
LAYER
  2
D40_E---VERM--------
 70
     0
 62
     7
  6
CONTINUOUS
  0
LAYER
  2
D40_FENSTER_VON_E---MW-L--
 70
     0
 62
     7
  6
CONTINUOUS
  0
LAYER
  2
D40_FENSTER_VON_B---MW-N--
 70
     0
 62
     7
  6
CONTINUOUS
  0
LAYER
  2
D40_E---SCHN--------
 70
     0
 62
     7
  6
CONTINUOUS
  0
LAYER
  2
D40_E---AUFZ--------
 70
     0
 62
     7
  6
CONTINUOUS
  0
LAYER
  2
D40_E---DECK--------
 70
     0
 62
     7
  6
CONTINUOUS
  0
LAYER
  2
D40_E---RAUMINF-----
 70
     0
 62
     7
  6
CONTINUOUS
  0
LAYER
  2
D40_E---TEXT--------
 70
     0
 62
     7
  6
CONTINUOUS
  0
LAYER
  2
D40_B---TEXT--------
 70
     0
 62
     7
  6
CONTINUOUS
  0
LAYER
  2
D40_B---MW-N--------
 70
     0
 62
     7
  6
CONTINUOUS
  0
LAYER
  2
D40_B---DECK--------
 70
     0
 62
     7
  6
CONTINUOUS
  0
LAYER
  2
D40_B---AUFZ--------
 70
     0
 62
     7
  6
CONTINUOUS
  0
LAYER
  2
D40_B---MW-S--------
 70
     0
 62
     7
  6
CONTINUOUS
  0
LAYER
  2
D40_B---MW----------
 70
     0
 62
     7
  6
CONTINUOUS
  0
LAYER
  2
D40_E---MOEB--------
 70
     0
 62
     7
  6
CONTINUOUS
  0
LAYER
  2
D40_B---UMGB--------
 70
     0
 62
     7
  6
CONTINUOUS
  0
LAYER
  2
D40_B---FASS--------
 70
     0
 62
     7
  6
CONTINUOUS
  0
LAYER
  2
D40_E---DACH--------
 70
     0
 62
     7
  6
CONTINUOUS
  0
LAYER
  2
D40_E---BODE--------
 70
     0
 62
     7
  6
CONTINUOUS
  0
LAYER
  2
D40_E---TREP--------
 70
     0
 62
     7
  6
CONTINUOUS
  0
LAYER
  2
D40_E---RASG--------
 70
     0
 62
     7
  6
CONTINUOUS
  0
LAYER
  2
D40_B---MW-K--------
 70
     0
 62
     7
  6
CONTINUOUS
  0
LAYER
  2
D40_E---FASSGLA-----
 70
     0
 62
     7
  6
CONTINUOUS
  0
LAYER
  2
D40_B---VERM--------
 70
     0
 62
     7
  6
CONTINUOUS
  0
LAYER
  2
D40_E---UMGBGSG-----
 70
     0
 62
     7
  6
CONTINUOUS
  0
LAYER
  2
D40_E---RASF--------
 70
     0
 62
     7
  6
CONTINUOUS
  0
LAYER
  2
D40_E---PFLA--------
 70
     0
 62
     7
  6
CONTINUOUS
  0
LAYER
  2
D40_E---KONS-ST-----
 70
     0
 62
     7
  6
CONTINUOUS
  0
LAYER
  2
D40_E---WERB--------
 70
     0
 62
     7
  6
CONTINUOUS
  0
LAYER
  2
D40_E---TUERINF-----
 70
     0
 62
     7
  6
CONTINUOUS
  0
LAYER
  2
D40_E---WOLK--------
 70
     0
 62
     7
  6
CONTINUOUS
  0
LAYER
  2
D40_B---MW-L--------
 70
     0
 62
     7
  6
CONTINUOUS
  0
LAYER
  2
D40_B---SANI--------
 70
     0
 62
     7
  6
CONTINUOUS
  0
LAYER
  2
D40_E---SANI--------
 70
     0
 62
     7
  6
CONTINUOUS
  0
LAYER
  2
D40_E---MW-K------
 70
     0
 62
     7
  6
CONTINUOUS
  0
LAYER
  2
D40_E---OBJE--------
 70
     0
 62
     7
  6
CONTINUOUS
  0
LAYER
  2
D40_E---ASPR--------
 70
     0
 62
     7
  6
CONTINUOUS
  0
LAYER
  2
D40_E---VERMTGA-----
 70
     0
 62
     7
  6
CONTINUOUS
  0
LAYER
  2
D40_E---PARK--------
 70
     0
 62
     7
  6
CONTINUOUS
  0
LAYER
  2
D40_E---ISOL--------
 70
     0
 62
     7
  6
CONTINUOUS
  0
LAYER
  2
D40_E---TUER--------
 70
     0
 62
     7
  6
CONTINUOUS
  0
LAYER
  2
D40_E---MW--BRA---
 70
     0
 62
     7
  6
CONTINUOUS
  0
LAYER
  2
D41_ARCHICAD
 70
     0
 62
     7
  6
CONTINUOUS
  0
LAYER
  2
D41_E---MW--------
 70
     0
 62
     7
  6
CONTINUOUS
  0
LAYER
  2
D41_E---FASSKON-----
 70
     0
 62
     7
  6
CONTINUOUS
  0
LAYER
  2
D41_TÜREN_VON_B---MW-N----
 70
     0
 62
     7
  6
CONTINUOUS
  0
LAYER
  2
D41_E---MW-L------
 70
     0
 62
     7
  6
CONTINUOUS
  0
LAYER
  2
D41_TÜREN_VON_B---MW------
 70
     0
 62
     7
  6
CONTINUOUS
  0
LAYER
  2
D41_E---VERM--------
 70
     0
 62
     7
  6
CONTINUOUS
  0
LAYER
  2
D41_FENSTER_VON_E---MW-L--
 70
     0
 62
     7
  6
CONTINUOUS
  0
LAYER
  2
D41_FENSTER_VON_B---MW-N--
 70
     0
 62
     7
  6
CONTINUOUS
  0
LAYER
  2
D41_E---SCHN--------
 70
     0
 62
     7
  6
CONTINUOUS
  0
LAYER
  2
D41_E---AUFZ--------
 70
     0
 62
     7
  6
CONTINUOUS
  0
LAYER
  2
D41_E---DECK--------
 70
     0
 62
     7
  6
CONTINUOUS
  0
LAYER
  2
D41_E---RAUMINF-----
 70
     0
 62
     7
  6
CONTINUOUS
  0
LAYER
  2
D41_E---TEXT--------
 70
     0
 62
     7
  6
CONTINUOUS
  0
LAYER
  2
D41_B---TEXT--------
 70
     0
 62
     7
  6
CONTINUOUS
  0
LAYER
  2
D41_B---MW-N--------
 70
     0
 62
     7
  6
CONTINUOUS
  0
LAYER
  2
D41_B---DECK--------
 70
     0
 62
     7
  6
CONTINUOUS
  0
LAYER
  2
D41_B---AUFZ--------
 70
     0
 62
     7
  6
CONTINUOUS
  0
LAYER
  2
D41_B---MW-S--------
 70
     0
 62
     7
  6
CONTINUOUS
  0
LAYER
  2
D41_B---MW----------
 70
     0
 62
     7
  6
CONTINUOUS
  0
LAYER
  2
D41_E---MOEB--------
 70
     0
 62
     7
  6
CONTINUOUS
  0
LAYER
  2
D41_B---UMGB--------
 70
     0
 62
     7
  6
CONTINUOUS
  0
LAYER
  2
D41_B---FASS--------
 70
     0
 62
     7
  6
CONTINUOUS
  0
LAYER
  2
D41_E---DACH--------
 70
     0
 62
     7
  6
CONTINUOUS
  0
LAYER
  2
D41_E---BODE--------
 70
     0
 62
     7
  6
CONTINUOUS
  0
LAYER
  2
D41_E---TREP--------
 70
     0
 62
     7
  6
CONTINUOUS
  0
LAYER
  2
D41_E---RASG--------
 70
     0
 62
     7
  6
CONTINUOUS
  0
LAYER
  2
D41_B---MW-K--------
 70
     0
 62
     7
  6
CONTINUOUS
  0
LAYER
  2
D41_E---FASSGLA-----
 70
     0
 62
     7
  6
CONTINUOUS
  0
LAYER
  2
D41_B---VERM--------
 70
     0
 62
     7
  6
CONTINUOUS
  0
LAYER
  2
D41_E---UMGBGSG-----
 70
     0
 62
     7
  6
CONTINUOUS
  0
LAYER
  2
D41_E---RASF--------
 70
     0
 62
     7
  6
CONTINUOUS
  0
LAYER
  2
D41_E---PFLA--------
 70
     0
 62
     7
  6
CONTINUOUS
  0
LAYER
  2
D41_E---KONS-ST-----
 70
     0
 62
     7
  6
CONTINUOUS
  0
LAYER
  2
D41_E---WERB--------
 70
     0
 62
     7
  6
CONTINUOUS
  0
LAYER
  2
D41_E---TUERINF-----
 70
     0
 62
     7
  6
CONTINUOUS
  0
LAYER
  2
D41_E---WOLK--------
 70
     0
 62
     7
  6
CONTINUOUS
  0
LAYER
  2
D41_B---MW-L--------
 70
     0
 62
     7
  6
CONTINUOUS
  0
LAYER
  2
D41_B---SANI--------
 70
     0
 62
     7
  6
CONTINUOUS
  0
LAYER
  2
D41_E---SANI--------
 70
     0
 62
     7
  6
CONTINUOUS
  0
LAYER
  2
D41_E---MW-K------
 70
     0
 62
     7
  6
CONTINUOUS
  0
LAYER
  2
D41_E---OBJE--------
 70
     0
 62
     7
  6
CONTINUOUS
  0
LAYER
  2
D41_E---ASPR--------
 70
     0
 62
     7
  6
CONTINUOUS
  0
LAYER
  2
D41_E---VERMTGA-----
 70
     0
 62
     7
  6
CONTINUOUS
  0
LAYER
  2
D41_E---PARK--------
 70
     0
 62
     7
  6
CONTINUOUS
  0
LAYER
  2
D41_E---ISOL--------
 70
     0
 62
     7
  6
CONTINUOUS
  0
LAYER
  2
D41_E---TUER--------
 70
     0
 62
     7
  6
CONTINUOUS
  0
LAYER
  2
D41_E---MW--BRA---
 70
     0
 62
     7
  6
CONTINUOUS
  0
LAYER
  2
D42_ARCHICAD
 70
     0
 62
     7
  6
CONTINUOUS
  0
LAYER
  2
D42_FENSTER_VON_B---FASS--
 70
     0
 62
     7
  6
CONTINUOUS
  0
LAYER
  2
D42_E---SCHN--------
 70
     0
 62
     7
  6
CONTINUOUS
  0
LAYER
  2
D42_B---MW-N--------
 70
     0
 62
     7
  6
CONTINUOUS
  0
LAYER
  2
D42_B---DECK--------
 70
     0
 62
     7
  6
CONTINUOUS
  0
LAYER
  2
D42_B---MW-S--------
 70
     0
 62
     7
  6
CONTINUOUS
  0
LAYER
  2
D42_B---MW----------
 70
     0
 62
     7
  6
CONTINUOUS
  0
LAYER
  2
D42_B---FASS--------
 70
     0
 62
     7
  6
CONTINUOUS
  0
LAYER
  2
D42_E---RASG--------
 70
     0
 62
     7
  6
CONTINUOUS
  0
LAYER
  2
CONSTRUCTION_CLASS
 70
     0
 62
     7
  6
CONTINUOUS
  0
LAYER
  2
PATTERN_CLASS
 70
     0
 62
     7
  6
CONTINUOUS
  0
LAYER
  2
KONSTRUKTION
 70
     0
 62
     7
  6
CONTINUOUS
  0
LAYER
  2
BEMAßUNG
 70
     0
 62
     7
  6
CONTINUOUS
  0
LAYER
  2
HILFSGEOMETRIE
 70
     0
 62
     7
  6
CONTINUOUS
  0
LAYER
  2
UNSICHTBAR
 70
     0
 62
     7
  6
CONTINUOUS
  0
LAYER
  2
LOGO
 70
     0
 62
     7
  6
CONTINUOUS
  0
LAYER
  2
VERWALTUNG
 70
     0
 62
     7
  6
CONTINUOUS
  0
LAYER
  2
UNSICHTBARE_GEWINDE
 70
     0
 62
     7
  6
CONTINUOUS
  0
LAYER
  2
SICHTBARE_GEWINDE
 70
     0
 62
     7
  6
CONTINUOUS
  0
LAYER
  2
DEFPOINTS
 70
     0
 62
     7
  6
CONTINUOUS
  0
LAYER
  2
THICK
 70
     0
 62
     7
  6
CONTINUOUS
  0
LAYER
  2
HIDDEN
 70
     0
 62
     7
  6
CONTINUOUS
  0
LAYER
  2
SCHRAFFURGRUNDRISS
 70
     0
 62
     7
  6
CONTINUOUS
  0
LAYER
  2
BEMASSUNG_GRUNDRISS
 70
     0
 62
     7
  6
CONTINUOUS
  0
LAYER
  2
STATIK
 70
     0
 62
     7
  6
CONTINUOUS
  0
LAYER
  2
TÜREN
 70
     0
 62
     7
  6
CONTINUOUS
  0
LAYER
  2
SANITÄR
 70
     0
 62
     7
  6
CONTINUOUS
  0
LAYER
  2
BEMASSUNG_GIPSKARTON
 70
     0
 62
     7
  6
CONTINUOUS
  0
LAYER
  2
EINRICHTUNGEN
 70
     0
 62
     7
  6
CONTINUOUS
  0
LAYER
  2
BECKEN
 70
     0
 62
     7
  6
CONTINUOUS
  0
LAYER
  2
BELEUCHTUNG
 70
     0
 62
     7
  6
CONTINUOUS
  0
LAYER
  2
BESCHRIFTUNGEN
 70
     0
 62
     7
  6
CONTINUOUS
  0
LAYER
  2
ELEKTRO_1__DOSEN_SCHALTER
 70
     0
 62
     7
  6
CONTINUOUS
  0
LAYER
  2
DEFAULT_1
 70
     0
 62
     7
  6
CONTINUOUS
  0
LAYER
  2
AM_0
 70
     0
 62
     7
  6
CONTINUOUS
  0
LAYER
  2
FRAME0_7
 70
     0
 62
     7
  6
CONTINUOUS
  0
LAYER
  2
AM_BOR
 70
     0
 62
     7
  6
CONTINUOUS
  0
LAYER
  2
RAHM2
 70
     0
 62
     7
  6
CONTINUOUS
  0
LAYER
  2
RAHM3
 70
     0
 62
     7
  6
CONTINUOUS
  0
LAYER
  2
FRAME0_5
 70
     0
 62
     7
  6
CONTINUOUS
  0
LAYER
  2
8
 70
     0
 62
     7
  6
CONTINUOUS
  0
LAYER
  2
AM_5
 70
     0
 62
     7
  6
CONTINUOUS
  0
LAYER
  2
AM_7
 70
     0
 62
     7
  6
CONTINUOUS
  0
LAYER
  2
HILFSLINIEN
 70
     0
 62
     7
  6
CONTINUOUS
  0
LAYER
  2
DRAWING_TEMPLATE
 70
     0
 62
     7
  6
CONTINUOUS
  0
LAYER
  2
TECHNOBOX_EXTERNALREFSYMBO
 70
     0
 62
     7
  6
CONTINUOUS
  0
LAYER
  2
TECHNOBOX_POLYCLIPSYMBOL_L
 70
     0
 62
     7
  6
CONTINUOUS
  0
LAYER
  2
100
 70
     0
 62
     7
  6
CONTINUOUS
  0
LAYER
  2
101
 70
     0
 62
     7
  6
CONTINUOUS
  0
LAYER
  2
KONTUR
 70
     0
 62
     7
  6
CONTINUOUS
  0
LAYER
  2
MITTELLINIE
 70
     0
 62
     7
  6
CONTINUOUS
  0
LAYER
  2
GESTRICHELT
 70
     0
 62
     7
  6
CONTINUOUS
  0
LAYER
  2
HILFSLINIE
 70
     0
 62
     7
  6
CONTINUOUS
  0
LAYER
  2
TEXT-25
 70
     0
 62
     7
  6
CONTINUOUS
  0
LAYER
  2
TEXT35
 70
     0
 62
     7
  6
CONTINUOUS
  0
LAYER
  2
TEXT-50
 70
     0
 62
     7
  6
CONTINUOUS
  0
LAYER
  2
TEXT-70
 70
     0
 62
     7
  6
CONTINUOUS
  0
LAYER
  2
ANSICHTSFENSTER
 70
     0
 62
     7
  6
CONTINUOUS
  0
LAYER
  2
KERA0
 70
     0
 62
     7
  6
CONTINUOUS
  0
LAYER
  2
KERA1
 70
     0
 62
     7
  6
CONTINUOUS
  0
LAYER
  2
KERA2
 70
     0
 62
     7
  6
CONTINUOUS
  0
LAYER
  2
KERA3
 70
     0
 62
     7
  6
CONTINUOUS
  0
LAYER
  2
KERA4
 70
     0
 62
     7
  6
CONTINUOUS
  0
LAYER
  2
KERA5
 70
     0
 62
     7
  6
CONTINUOUS
  0
LAYER
  2
KERA6
 70
     0
 62
     7
  6
CONTINUOUS
  0
LAYER
  2
KERA7
 70
     0
 62
     7
  6
CONTINUOUS
  0
LAYER
  2
20
 70
     0
 62
     7
  6
CONTINUOUS
  0
LAYER
  2
50
 70
     0
 62
     7
  6
CONTINUOUS
  0
LAYER
  2
FORMAT
 70
     0
 62
     7
  6
CONTINUOUS
  0
LAYER
  2
BECKEN_FUTURA_EBENE_1
 70
     0
 62
     7
  6
CONTINUOUS
  0
LAYER
  2
EBENE_1
 70
     0
 62
     7
  6
CONTINUOUS
  0
LAYER
  2
EBENE_2
 70
     0
 62
     7
  6
CONTINUOUS
  0
LAYER
  2
EBENE_5
 70
     0
 62
     7
  6
CONTINUOUS
  0
LAYER
  2
3
 70
     0
 62
     7
  6
CONTINUOUS
  0
LAYER
  2
GEB-KONTUR-A
 70
     0
 62
     7
  6
CONTINUOUS
  0
LAYER
  2
GEB-SYMETRIE
 70
     0
 62
     7
  6
CONTINUOUS
  0
LAYER
  2
GEB-ART-NR
 70
     0
 62
     7
  6
CONTINUOUS
  0
LAYER
  2
PROJECTION
 70
     0
 62
     7
  6
CONTINUOUS
  0
ENDTAB
  0
TABLE
  2
STYLE
 70
     3
  0
STYLE
  2
STANDARD
 70
     0
 40
0.0
 41
1.0
 50
0.0
 71
     0
 42
0.0
  3
txt
  4

  0
STYLE
  2
ANNOTATIVE
 70
     0
 40
0.0
 41
1.0
 50
0.0
 71
     0
 42
0.2
  3
txt
  4

  0
STYLE
  2
SIMPLEX
 70
     0
 40
0.0
 41
1.0
 50
0.0
 71
     0
 42
0.0
  3
SIMPLEX
  4

  0
ENDTAB
  0
TABLE
  2
VIEW
 70
     0
  0
ENDTAB
  0
TABLE
  2
UCS
 70
     0
  0
ENDTAB
  0
TABLE
  2
APPID
 70
     3
  0
APPID
  2
ACAD
 70
     0
  0
APPID
  2
ACADANNOTATIVE
 70
     0
  0
APPID
  2
ACAD_MLEADERVER
 70
     0
  0
ENDTAB
  0
TABLE
  2
DIMSTYLE
 70
     2
  0
DIMSTYLE
  2
STANDARD
 70
     0
  3

  4

  5

  6

  7

 40
1.0
 41
0.18
 42
0.0625
 43
0.38
 44
0.18
 45
0.0
 46
0.0
 47
0.0
 48
0.0
140
0.18
141
0.09
142
0.0
143
25.399999999999999
144
1.0
145
0.0
146
1.0
147
0.09
 71
     0
 72
     0
 73
     1
 74
     1
 75
     0
 76
     0
 77
     0
 78
     0
170
     0
171
     2
172
     0
173
     0
174
     0
175
     0
176
     0
177
     0
178
     0
  0
DIMSTYLE
  2
ANNOTATIVE
 70
     0
  3

  4

  5

  6

  7

 40
1.0
 41
0.18
 42
0.0625
 43
0.38
 44
0.18
 45
0.0
 46
0.0
 47
0.0
 48
0.0
140
0.18
141
0.09
142
0.0
143
25.399999999999999
144
1.0
145
0.0
146
1.0
147
0.09
 71
     0
 72
     0
 73
     1
 74
     1
 75
     0
 76
     0
 77
     0
 78
     0
170
     0
171
     2
172
     0
173
     0
174
     0
175
     0
176
     0
177
     0
178
     0
  0
ENDTAB
  0
ENDSEC
  0
SECTION
  2
BLOCKS
  0
BLOCK
  8
0
  2
$MODEL_SPACE
 70
     0
 10
0.0
 20
0.0
 30
0.0
  3
$MODEL_SPACE
  1

  0
ENDBLK
  5
76
  8
0
  0
BLOCK
 67
     1
  8
0
  2
$PAPER_SPACE
 70
     0
 10
0.0
 20
0.0
 30
0.0
  3
$PAPER_SPACE
  1

  0
ENDBLK
  5
72
 67
     1
  8
0
  0
BLOCK
  8
0
  2
NIZ_WEB-G1
 70
     0
 10
0.0
 20
0.0
 30
0.0
  3
NIZ_WEB-G1
  1

  0
POLYLINE
  5
187
  8
LAYER01
  6
CONTINUOUS
 62
     7
 66
     1
 10
0.0
 20
0.0
 30
0.0
 70
     1
  0
VERTEX
  5
CC6
  8
LAYER01
  6
CONTINUOUS
 62
     7
 10
-3852.9913729999998
 20
3299.8394189999999
 30
0.0
  0
VERTEX
  5
CC7
  8
LAYER01
  6
CONTINUOUS
 62
     7
 10
-3811.5616860000009
 20
3299.8394189999999
 30
0.0
  0
VERTEX
  5
CC8
  8
LAYER01
  6
CONTINUOUS
 62
     7
 10
-3759.533707
 20
3181.3312449999999
 30
0.0
  0
VERTEX
  5
CC9
  8
LAYER01
  6
CONTINUOUS
 62
     7
 10
-3707.5057290000009
 20
3299.8394189999999
 30
0.0
  0
VERTEX
  5
CCA
  8
LAYER01
  6
CONTINUOUS
 62
     7
 10
-3664.1490800000001
 20
3299.8394189999999
 30
0.0
  0
VERTEX
  5
CCB
  8
LAYER01
  6
CONTINUOUS
 62
     7
 10
-3759.533707
 20
3087.8735799999999
 30
0.0
  0
VERTEX
  5
CCC
  8
LAYER01
  6
CONTINUOUS
 62
     7
 10
-3852.9913729999998
 20
3299.8394189999999
 30
0.0
  0
VERTEX
  5
CCD
  8
LAYER01
  6
CONTINUOUS
 62
     7
 10
-3852.9913729999998
 20
3299.8394189999999
 30
0.0
  0
SEQEND
  5
CCE
  8
LAYER01
  6
CONTINUOUS
 62
     7
  0
POLYLINE
  5
191
  8
LAYER01
  6
CONTINUOUS
 62
     7
 66
     1
 10
0.0
 20
0.0
 30
0.0
 70
     1
  0
VERTEX
  5
CCF
  8
LAYER01
  6
CONTINUOUS
 62
     7
 10
-3711.3596530000009
 20
3155.3172559999998
 30
0.0
  0
VERTEX
  5
CD0
  8
LAYER01
  6
CONTINUOUS
 62
     7
 10
-3696.9074369999998
 20
3189.0390940000002
 30
0.0
  0
VERTEX
  5
CD1
  8
LAYER01
  6
CONTINUOUS
 62
     7
 10
-3634.2811660000002
 20
3189.0390940000002
 30
0.0
  0
VERTEX
  5
CD2
  8
LAYER01
  6
CONTINUOUS
 62
     7
 10
-3666.0760420000001
 20
3258.4097320000001
 30
0.0
  0
VERTEX
  5
CD3
  8
LAYER01
  6
CONTINUOUS
 62
     7
 10
-3647.7699010000001
 20
3302.7298620000001
 30
0.0
  0
VERTEX
  5
CD4
  8
LAYER01
  6
CONTINUOUS
 62
     7
 10
-3562.0200840000002
 20
3121.5954179999999
 30
0.0
  0
VERTEX
  5
CD5
  8
LAYER01
  6
CONTINUOUS
 62
     7
 10
-3562.0200840000002
 20
3299.8394189999999
 30
0.0
  0
VERTEX
  5
CD6
  8
LAYER01
  6
CONTINUOUS
 62
     7
 10
-3447.3658350000001
 20
3299.8394189999999
 30
0.0
  0
VERTEX
  5
CD7
  8
LAYER01
  6
CONTINUOUS
 62
     7
 10
-3447.3658350000001
 20
3299.8394189999999
 30
0.0
  0
VERTEX
  5
CD8
  8
LAYER01
  6
CONTINUOUS
 62
     7
 10
-3436.7675429999999
 20
3297.9124569999999
 30
0.0
  0
VERTEX
  5
CD9
  8
LAYER01
  6
CONTINUOUS
 62
     7
 10
-3427.132732
 20
3294.0585329999999
 30
0.0
  0
VERTEX
  5
CDA
  8
LAYER01
  6
CONTINUOUS
 62
     7
 10
-3418.4614020000008
 20
3287.3141649999998
 30
0.0
  0
VERTEX
  5
CDB
  8
LAYER01
  6
CONTINUOUS
 62
     7
 10
-3410.753553
 20
3280.5697970000001
 30
0.0
  0
VERTEX
  5
CDC
  8
LAYER01
  6
CONTINUOUS
 62
     7
 10
-3404.0091860000002
 20
3271.8984679999999
 30
0.0
  0
VERTEX
  5
CDD
  8
LAYER01
  6
CONTINUOUS
 62
     7
 10
-3399.1917800000001
 20
3262.263657
 30
0.0
  0
VERTEX
  5
CDE
  8
LAYER01
  6
CONTINUOUS
 62
     7
 10
-3395.337856000001
 20
3250.7018840000001
 30
0.0
  0
VERTEX
  5
CDF
  8
LAYER01
  6
CONTINUOUS
 62
     7
 10
-3394.3743749999999
 20
3240.1035919999999
 30
0.0
  0
VERTEX
  5
CE0
  8
LAYER01
  6
CONTINUOUS
 62
     7
 10
-3394.3743749999999
 20
3240.1035919999999
 30
0.0
  0
VERTEX
  5
CE1
  8
LAYER01
  6
CONTINUOUS
 62
     7
 10
-3394.3743749999999
 20
3228.541819
 30
0.0
  0
VERTEX
  5
CE2
  8
LAYER01
  6
CONTINUOUS
 62
     7
 10
-3396.3013369999999
 20
3218.9070080000001
 30
0.0
  0
VERTEX
  5
CE3
  8
LAYER01
  6
CONTINUOUS
 62
     7
 10
-3400.1552620000002
 20
3209.2721969999998
 30
0.0
  0
VERTEX
  5
CE4
  8
LAYER01
  6
CONTINUOUS
 62
     7
 10
-3404.972667
 20
3200.6008670000001
 30
0.0
  0
VERTEX
  5
CE5
  8
LAYER01
  6
CONTINUOUS
 62
     7
 10
-3411.717035000001
 20
3192.8930180000002
 30
0.0
  0
VERTEX
  5
CE6
  8
LAYER01
  6
CONTINUOUS
 62
     7
 10
-3419.4248830000001
 20
3186.148651
 30
0.0
  0
VERTEX
  5
CE7
  8
LAYER01
  6
CONTINUOUS
 62
     7
 10
-3428.0962130000012
 20
3181.3312449999999
 30
0.0
  0
VERTEX
  5
CE8
  8
LAYER01
  6
CONTINUOUS
 62
     7
 10
-3438.694504999999
 20
3177.4773209999998
 30
0.0
  0
VERTEX
  5
CE9
  8
LAYER01
  6
CONTINUOUS
 62
     7
 10
-3377.031715000001
 20
3095.5814289999998
 30
0.0
  0
VERTEX
  5
CEA
  8
LAYER01
  6
CONTINUOUS
 62
     7
 10
-3377.031715000001
 20
3299.8394189999999
 30
0.0
  0
VERTEX
  5
CEB
  8
LAYER01
  6
CONTINUOUS
 62
     7
 10
-3336.5655100000008
 20
3299.8394189999999
 30
0.0
  0
VERTEX
  5
CEC
  8
LAYER01
  6
CONTINUOUS
 62
     7
 10
-3336.5655100000008
 20
3093.654466
 30
0.0
  0
VERTEX
  5
CED
  8
LAYER01
  6
CONTINUOUS
 62
     7
 10
-3423.278808
 20
3093.654466
 30
0.0
  0
VERTEX
  5
CEE
  8
LAYER01
  6
CONTINUOUS
 62
     7
 10
-3507.101662
 20
3200.6008670000001
 30
0.0
  0
VERTEX
  5
CEF
  8
LAYER01
  6
CONTINUOUS
 62
     7
 10
-3464.708494
 20
3200.6008670000001
 30
0.0
  0
VERTEX
  5
CF0
  8
LAYER01
  6
CONTINUOUS
 62
     7
 10
-3464.708494
 20
3200.6008670000001
 30
0.0
  0
VERTEX
  5
CF1
  8
LAYER01
  6
CONTINUOUS
 62
     7
 10
-3458.927608
 20
3201.5643479999999
 30
0.0
  0
VERTEX
  5
CF2
  8
LAYER01
  6
CONTINUOUS
 62
     7
 10
-3453.1467210000001
 20
3203.4913099999999
 30
0.0
  0
VERTEX
  5
CF3
  8
LAYER01
  6
CONTINUOUS
 62
     7
 10
-3448.3293160000012
 20
3206.3817540000009
 30
0.0
  0
VERTEX
  5
CF4
  8
LAYER01
  6
CONTINUOUS
 62
     7
 10
-3443.5119100000002
 20
3210.235678
 30
0.0
  0
VERTEX
  5
CF5
  8
LAYER01
  6
CONTINUOUS
 62
     7
 10
-3440.6214670000008
 20
3215.0530829999998
 30
0.0
  0
VERTEX
  5
CF6
  8
LAYER01
  6
CONTINUOUS
 62
     7
 10
-3437.7310240000002
 20
3220.833970000001
 30
0.0
  0
VERTEX
  5
CF7
  8
LAYER01
  6
CONTINUOUS
 62
     7
 10
-3435.8040620000002
 20
3226.614857
 30
0.0
  0
VERTEX
  5
CF8
  8
LAYER01
  6
CONTINUOUS
 62
     7
 10
-3435.8040620000002
 20
3233.3592239999998
 30
0.0
  0
VERTEX
  5
CF9
  8
LAYER01
  6
CONTINUOUS
 62
     7
 10
-3435.8040620000002
 20
3233.3592239999998
 30
0.0
  0
VERTEX
  5
CFA
  8
LAYER01
  6
CONTINUOUS
 62
     7
 10
-3435.8040620000002
 20
3239.1401110000011
 30
0.0
  0
VERTEX
  5
CFB
  8
LAYER01
  6
CONTINUOUS
 62
     7
 10
-3437.7310240000002
 20
3244.9209970000002
 30
0.0
  0
VERTEX
  5
CFC
  8
LAYER01
  6
CONTINUOUS
 62
     7
 10
-3439.6579860000002
 20
3250.7018840000001
 30
0.0
  0
VERTEX
  5
CFD
  8
LAYER01
  6
CONTINUOUS
 62
     7
 10
-3443.5119100000002
 20
3255.5192889999998
 30
0.0
  0
VERTEX
  5
CFE
  8
LAYER01
  6
CONTINUOUS
 62
     7
 10
-3447.3658350000001
 20
3259.3732140000002
 30
0.0
  0
VERTEX
  5
CFF
  8
LAYER01
  6
CONTINUOUS
 62
     7
 10
-3453.1467210000001
 20
3262.263657
 30
0.0
  0
VERTEX
  5
D00
  8
LAYER01
  6
CONTINUOUS
 62
     7
 10
-3458.927608
 20
3264.190619
 30
0.0
  0
VERTEX
  5
D01
  8
LAYER01
  6
CONTINUOUS
 62
     7
 10
-3464.708494
 20
3265.1541000000002
 30
0.0
  0
VERTEX
  5
D02
  8
LAYER01
  6
CONTINUOUS
 62
     7
 10
-3518.6634349999999
 20
3265.1541000000002
 30
0.0
  0
VERTEX
  5
D03
  8
LAYER01
  6
CONTINUOUS
 62
     7
 10
-3518.6634349999999
 20
3093.654466
 30
0.0
  0
VERTEX
  5
D04
  8
LAYER01
  6
CONTINUOUS
 62
     7
 10
-3588.0340740000001
 20
3093.654466
 30
0.0
  0
VERTEX
  5
D05
  8
LAYER01
  6
CONTINUOUS
 62
     7
 10
-3616.938506
 20
3155.3172559999998
 30
0.0
  0
VERTEX
  5
D06
  8
LAYER01
  6
CONTINUOUS
 62
     7
 10
-3711.3596530000009
 20
3155.3172559999998
 30
0.0
  0
VERTEX
  5
D07
  8
LAYER01
  6
CONTINUOUS
 62
     7
 10
-3711.3596530000009
 20
3155.3172559999998
 30
0.0
  0
SEQEND
  5
D08
  8
LAYER01
  6
CONTINUOUS
 62
     7
  0
POLYLINE
  5
1CC
  8
LAYER01
  6
CONTINUOUS
 62
     7
 66
     1
 10
0.0
 20
0.0
 30
0.0
 70
     1
  0
VERTEX
  5
D09
  8
LAYER01
  6
CONTINUOUS
 62
     7
 10
-3149.6501790000002
 20
3286.350684
 30
0.0
  0
VERTEX
  5
D0A
  8
LAYER01
  6
CONTINUOUS
 62
     7
 10
-3175.6641679999998
 20
3253.5923269999998
 30
0.0
  0
VERTEX
  5
D0B
  8
LAYER01
  6
CONTINUOUS
 62
     7
 10
-3175.6641679999998
 20
3253.5923269999998
 30
0.0
  0
VERTEX
  5
D0C
  8
LAYER01
  6
CONTINUOUS
 62
     7
 10
-3184.3354979999999
 20
3259.3732140000002
 30
0.0
  0
VERTEX
  5
D0D
  8
LAYER01
  6
CONTINUOUS
 62
     7
 10
-3193.006828
 20
3264.190619
 30
0.0
  0
VERTEX
  5
D0E
  8
LAYER01
  6
CONTINUOUS
 62
     7
 10
-3202.6416380000001
 20
3267.0810620000011
 30
0.0
  0
VERTEX
  5
D0F
  8
LAYER01
  6
CONTINUOUS
 62
     7
 10
-3213.2399300000002
 20
3267.0810620000011
 30
0.0
  0
VERTEX
  5
D10
  8
LAYER01
  6
CONTINUOUS
 62
     7
 10
-3213.2399300000002
 20
3267.0810620000011
 30
0.0
  0
VERTEX
  5
D11
  8
LAYER01
  6
CONTINUOUS
 62
     7
 10
-3219.9842979999999
 20
3267.0810620000011
 30
0.0
  0
VERTEX
  5
D12
  8
LAYER01
  6
CONTINUOUS
 62
     7
 10
-3226.728666
 20
3266.117581
 30
0.0
  0
VERTEX
  5
D13
  8
LAYER01
  6
CONTINUOUS
 62
     7
 10
-3233.4730330000002
 20
3264.190619
 30
0.0
  0
VERTEX
  5
D14
  8
LAYER01
  6
CONTINUOUS
 62
     7
 10
-3240.2174010000008
 20
3261.3001760000011
 30
0.0
  0
VERTEX
  5
D15
  8
LAYER01
  6
CONTINUOUS
 62
     7
 10
-3245.9982869999999
 20
3258.4097320000001
 30
0.0
  0
VERTEX
  5
D16
  8
LAYER01
  6
CONTINUOUS
 62
     7
 10
-3250.815693
 20
3254.5558080000001
 30
0.0
  0
VERTEX
  5
D17
  8
LAYER01
  6
CONTINUOUS
 62
     7
 10
-3256.596579
 20
3250.7018840000001
 30
0.0
  0
VERTEX
  5
D18
  8
LAYER01
  6
CONTINUOUS
 62
     7
 10
-3260.4505039999999
 20
3245.8844779999999
 30
0.0
  0
VERTEX
  5
D19
  8
LAYER01
  6
CONTINUOUS
 62
     7
 10
-3265.2679090000001
 20
3240.1035919999999
 30
0.0
  0
VERTEX
  5
D1A
  8
LAYER01
  6
CONTINUOUS
 62
     7
 10
-3268.1583519999999
 20
3234.322705
 30
0.0
  0
VERTEX
  5
D1B
  8
LAYER01
  6
CONTINUOUS
 62
     7
 10
-3272.0122769999998
 20
3228.541819
 30
0.0
  0
VERTEX
  5
D1C
  8
LAYER01
  6
CONTINUOUS
 62
     7
 10
-3274.90272
 20
3222.7609320000001
 30
0.0
  0
VERTEX
  5
D1D
  8
LAYER01
  6
CONTINUOUS
 62
     7
 10
-3276.829682000001
 20
3216.0165649999999
 30
0.0
  0
VERTEX
  5
D1E
  8
LAYER01
  6
CONTINUOUS
 62
     7
 10
-3277.7931629999998
 20
3209.2721969999998
 30
0.0
  0
VERTEX
  5
D1F
  8
LAYER01
  6
CONTINUOUS
 62
     7
 10
-3278.7566440000001
 20
3202.5278290000001
 30
0.0
  0
VERTEX
  5
D20
  8
LAYER01
  6
CONTINUOUS
 62
     7
 10
-3279.7201249999998
 20
3194.8199810000001
 30
0.0
  0
VERTEX
  5
D21
  8
LAYER01
  6
CONTINUOUS
 62
     7
 10
-3279.7201249999998
 20
3194.8199810000001
 30
0.0
  0
VERTEX
  5
D22
  8
LAYER01
  6
CONTINUOUS
 62
     7
 10
-3278.7566440000001
 20
3188.075613
 30
0.0
  0
VERTEX
  5
D23
  8
LAYER01
  6
CONTINUOUS
 62
     7
 10
-3277.7931629999998
 20
3181.3312449999999
 30
0.0
  0
VERTEX
  5
D24
  8
LAYER01
  6
CONTINUOUS
 62
     7
 10
-3276.829682000001
 20
3174.5868780000001
 30
0.0
  0
VERTEX
  5
D25
  8
LAYER01
  6
CONTINUOUS
 62
     7
 10
-3273.9392390000012
 20
3168.8059910000011
 30
0.0
  0
VERTEX
  5
D26
  8
LAYER01
  6
CONTINUOUS
 62
     7
 10
-3272.0122769999998
 20
3163.0251050000002
 30
0.0
  0
VERTEX
  5
D27
  8
LAYER01
  6
CONTINUOUS
 62
     7
 10
-3268.1583519999999
 20
3157.2442179999998
 30
0.0
  0
VERTEX
  5
D28
  8
LAYER01
  6
CONTINUOUS
 62
     7
 10
-3264.3044279999999
 20
3151.4633319999998
 30
0.0
  0
VERTEX
  5
D29
  8
LAYER01
  6
CONTINUOUS
 62
     7
 10
-3260.4505039999999
 20
3146.6459260000001
 30
0.0
  0
VERTEX
  5
D2A
  8
LAYER01
  6
CONTINUOUS
 62
     7
 10
-3255.6330980000012
 20
3141.8285209999999
 30
0.0
  0
VERTEX
  5
D2B
  8
LAYER01
  6
CONTINUOUS
 62
     7
 10
-3250.815693
 20
3137.974596
 30
0.0
  0
VERTEX
  5
D2C
  8
LAYER01
  6
CONTINUOUS
 62
     7
 10
-3245.0348060000001
 20
3135.0841530000012
 30
0.0
  0
VERTEX
  5
D2D
  8
LAYER01
  6
CONTINUOUS
 62
     7
 10
-3239.2539200000001
 20
3132.19371
 30
0.0
  0
VERTEX
  5
D2E
  8
LAYER01
  6
CONTINUOUS
 62
     7
 10
-3232.509552
 20
3129.3032669999998
 30
0.0
  0
VERTEX
  5
D2F
  8
LAYER01
  6
CONTINUOUS
 62
     7
 10
-3226.728666
 20
3127.3763039999999
 30
0.0
  0
VERTEX
  5
D30
  8
LAYER01
  6
CONTINUOUS
 62
     7
 10
-3219.9842979999999
 20
3126.4128230000001
 30
0.0
  0
VERTEX
  5
D31
  8
LAYER01
  6
CONTINUOUS
 62
     7
 10
-3212.276449
 20
3126.4128230000001
 30
0.0
  0
VERTEX
  5
D32
  8
LAYER01
  6
CONTINUOUS
 62
     7
 10
-3212.276449
 20
3126.4128230000001
 30
0.0
  0
VERTEX
  5
D33
  8
LAYER01
  6
CONTINUOUS
 62
     7
 10
-3201.6781569999998
 20
3127.3763039999999
 30
0.0
  0
VERTEX
  5
D34
  8
LAYER01
  6
CONTINUOUS
 62
     7
 10
-3193.006828
 20
3129.3032669999998
 30
0.0
  0
VERTEX
  5
D35
  8
LAYER01
  6
CONTINUOUS
 62
     7
 10
-3184.3354979999999
 20
3134.120672
 30
0.0
  0
VERTEX
  5
D36
  8
LAYER01
  6
CONTINUOUS
 62
     7
 10
-3175.6641679999998
 20
3139.9015589999999
 30
0.0
  0
VERTEX
  5
D37
  8
LAYER01
  6
CONTINUOUS
 62
     7
 10
-3150.61366
 20
3106.1797200000001
 30
0.0
  0
VERTEX
  5
D38
  8
LAYER01
  6
CONTINUOUS
 62
     7
 10
-3150.61366
 20
3106.1797200000001
 30
0.0
  0
VERTEX
  5
D39
  8
LAYER01
  6
CONTINUOUS
 62
     7
 10
-3165.0658760000001
 20
3097.5083909999998
 30
0.0
  0
VERTEX
  5
D3A
  8
LAYER01
  6
CONTINUOUS
 62
     7
 10
-3172.773725
 20
3094.6179470000002
 30
0.0
  0
VERTEX
  5
D3B
  8
LAYER01
  6
CONTINUOUS
 62
     7
 10
-3179.5180919999998
 20
3091.727504
 30
0.0
  0
VERTEX
  5
D3C
  8
LAYER01
  6
CONTINUOUS
 62
     7
 10
-3187.2259410000001
 20
3089.8005420000009
 30
0.0
  0
VERTEX
  5
D3D
  8
LAYER01
  6
CONTINUOUS
 62
     7
 10
-3194.93379
 20
3088.8370610000002
 30
0.0
  0
VERTEX
  5
D3E
  8
LAYER01
  6
CONTINUOUS
 62
     7
 10
-3212.276449
 20
3087.8735799999999
 30
0.0
  0
VERTEX
  5
D3F
  8
LAYER01
  6
CONTINUOUS
 62
     7
 10
-3212.276449
 20
3087.8735799999999
 30
0.0
  0
VERTEX
  5
D40
  8
LAYER01
  6
CONTINUOUS
 62
     7
 10
-3223.8382219999999
 20
3088.8370610000002
 30
0.0
  0
VERTEX
  5
D41
  8
LAYER01
  6
CONTINUOUS
 62
     7
 10
-3234.436514
 20
3090.7640230000002
 30
0.0
  0
VERTEX
  5
D42
  8
LAYER01
  6
CONTINUOUS
 62
     7
 10
-3245.0348060000001
 20
3092.6909850000002
 30
0.0
  0
VERTEX
  5
D43
  8
LAYER01
  6
CONTINUOUS
 62
     7
 10
-3254.6696170000009
 20
3096.5449100000001
 30
0.0
  0
VERTEX
  5
D44
  8
LAYER01
  6
CONTINUOUS
 62
     7
 10
-3264.3044279999999
 20
3101.3623149999999
 30
0.0
  0
VERTEX
  5
D45
  8
LAYER01
  6
CONTINUOUS
 62
     7
 10
-3272.975758
 20
3106.1797200000001
 30
0.0
  0
VERTEX
  5
D46
  8
LAYER01
  6
CONTINUOUS
 62
     7
 10
-3281.6470880000002
 20
3112.9240880000002
 30
0.0
  0
VERTEX
  5
D47
  8
LAYER01
  6
CONTINUOUS
 62
     7
 10
-3289.3549360000002
 20
3119.6684559999999
 30
0.0
  0
VERTEX
  5
D48
  8
LAYER01
  6
CONTINUOUS
 62
     7
 10
-3297.0627850000001
 20
3127.3763039999999
 30
0.0
  0
VERTEX
  5
D49
  8
LAYER01
  6
CONTINUOUS
 62
     7
 10
-3302.843672
 20
3136.047634
 30
0.0
  0
VERTEX
  5
D4A
  8
LAYER01
  6
CONTINUOUS
 62
     7
 10
-3308.624558
 20
3144.7189640000001
 30
0.0
  0
VERTEX
  5
D4B
  8
LAYER01
  6
CONTINUOUS
 62
     7
 10
-3313.441964000001
 20
3154.353775000001
 30
0.0
  0
VERTEX
  5
D4C
  8
LAYER01
  6
CONTINUOUS
 62
     7
 10
-3316.3324069999999
 20
3163.9885859999999
 30
0.0
  0
VERTEX
  5
D4D
  8
LAYER01
  6
CONTINUOUS
 62
     7
 10
-3319.2228500000001
 20
3174.5868780000001
 30
0.0
  0
VERTEX
  5
D4E
  8
LAYER01
  6
CONTINUOUS
 62
     7
 10
-3321.1498120000001
 20
3185.1851700000002
 30
0.0
  0
VERTEX
  5
D4F
  8
LAYER01
  6
CONTINUOUS
 62
     7
 10
-3322.1132929999999
 20
3196.7469430000001
 30
0.0
  0
VERTEX
  5
D50
  8
LAYER01
  6
CONTINUOUS
 62
     7
 10
-3322.1132929999999
 20
3196.7469430000001
 30
0.0
  0
VERTEX
  5
D51
  8
LAYER01
  6
CONTINUOUS
 62
     7
 10
-3321.1498120000001
 20
3207.3452349999998
 30
0.0
  0
VERTEX
  5
D52
  8
LAYER01
  6
CONTINUOUS
 62
     7
 10
-3319.2228500000001
 20
3218.9070080000001
 30
0.0
  0
VERTEX
  5
D53
  8
LAYER01
  6
CONTINUOUS
 62
     7
 10
-3317.2958880000001
 20
3228.541819
 30
0.0
  0
VERTEX
  5
D54
  8
LAYER01
  6
CONTINUOUS
 62
     7
 10
-3313.441964000001
 20
3239.1401110000011
 30
0.0
  0
VERTEX
  5
D55
  8
LAYER01
  6
CONTINUOUS
 62
     7
 10
-3308.624558
 20
3248.7749220000001
 30
0.0
  0
VERTEX
  5
D56
  8
LAYER01
  6
CONTINUOUS
 62
     7
 10
-3303.8071530000011
 20
3257.4462510000012
 30
0.0
  0
VERTEX
  5
D57
  8
LAYER01
  6
CONTINUOUS
 62
     7
 10
-3297.0627850000001
 20
3266.117581
 30
0.0
  0
VERTEX
  5
D58
  8
LAYER01
  6
CONTINUOUS
 62
     7
 10
-3290.318417
 20
3273.8254299999999
 30
0.0
  0
VERTEX
  5
D59
  8
LAYER01
  6
CONTINUOUS
 62
     7
 10
-3282.6105689999999
 20
3280.5697970000001
 30
0.0
  0
VERTEX
  5
D5A
  8
LAYER01
  6
CONTINUOUS
 62
     7
 10
-3273.9392390000012
 20
3287.3141649999998
 30
0.0
  0
VERTEX
  5
D5B
  8
LAYER01
  6
CONTINUOUS
 62
     7
 10
-3265.2679090000001
 20
3292.1315709999999
 30
0.0
  0
VERTEX
  5
D5C
  8
LAYER01
  6
CONTINUOUS
 62
     7
 10
-3255.6330980000012
 20
3296.9489760000001
 30
0.0
  0
VERTEX
  5
D5D
  8
LAYER01
  6
CONTINUOUS
 62
     7
 10
-3245.9982869999999
 20
3300.8029000000001
 30
0.0
  0
VERTEX
  5
D5E
  8
LAYER01
  6
CONTINUOUS
 62
     7
 10
-3235.3999950000002
 20
3303.6933440000012
 30
0.0
  0
VERTEX
  5
D5F
  8
LAYER01
  6
CONTINUOUS
 62
     7
 10
-3223.8382219999999
 20
3304.656825
 30
0.0
  0
VERTEX
  5
D60
  8
LAYER01
  6
CONTINUOUS
 62
     7
 10
-3213.2399300000002
 20
3305.6203059999998
 30
0.0
  0
VERTEX
  5
D61
  8
LAYER01
  6
CONTINUOUS
 62
     7
 10
-3213.2399300000002
 20
3305.6203059999998
 30
0.0
  0
VERTEX
  5
D62
  8
LAYER01
  6
CONTINUOUS
 62
     7
 10
-3195.8972710000012
 20
3304.656825
 30
0.0
  0
VERTEX
  5
D63
  8
LAYER01
  6
CONTINUOUS
 62
     7
 10
-3187.2259410000001
 20
3303.6933440000012
 30
0.0
  0
VERTEX
  5
D64
  8
LAYER01
  6
CONTINUOUS
 62
     7
 10
-3179.5180919999998
 20
3301.7663809999999
 30
0.0
  0
VERTEX
  5
D65
  8
LAYER01
  6
CONTINUOUS
 62
     7
 10
-3172.773725
 20
3298.8759380000001
 30
0.0
  0
VERTEX
  5
D66
  8
LAYER01
  6
CONTINUOUS
 62
     7
 10
-3165.0658760000001
 20
3295.9854949999999
 30
0.0
  0
VERTEX
  5
D67
  8
LAYER01
  6
CONTINUOUS
 62
     7
 10
-3157.3580270000002
 20
3291.1680889999998
 30
0.0
  0
VERTEX
  5
D68
  8
LAYER01
  6
CONTINUOUS
 62
     7
 10
-3149.6501790000002
 20
3286.350684
 30
0.0
  0
VERTEX
  5
D69
  8
LAYER01
  6
CONTINUOUS
 62
     7
 10
-3149.6501790000002
 20
3286.350684
 30
0.0
  0
SEQEND
  5
D6A
  8
LAYER01
  6
CONTINUOUS
 62
     7
  0
POLYLINE
  5
22F
  8
LAYER01
  6
CONTINUOUS
 62
     7
 66
     1
 10
0.0
 20
0.0
 30
0.0
 70
     1
  0
VERTEX
  5
D6B
  8
LAYER01
  6
CONTINUOUS
 62
     7
 10
-3056.192513
 20
3304.656825
 30
0.0
  0
VERTEX
  5
D6C
  8
LAYER01
  6
CONTINUOUS
 62
     7
 10
-3056.192513
 20
3304.656825
 30
0.0
  0
VERTEX
  5
D6D
  8
LAYER01
  6
CONTINUOUS
 62
     7
 10
-3066.7908050000001
 20
3303.6933440000012
 30
0.0
  0
VERTEX
  5
D6E
  8
LAYER01
  6
CONTINUOUS
 62
     7
 10
-3078.352578
 20
3302.7298620000001
 30
0.0
  0
VERTEX
  5
D6F
  8
LAYER01
  6
CONTINUOUS
 62
     7
 10
-3087.9873889999999
 20
3299.8394189999999
 30
0.0
  0
VERTEX
  5
D70
  8
LAYER01
  6
CONTINUOUS
 62
     7
 10
-3098.585681
 20
3295.9854949999999
 30
0.0
  0
VERTEX
  5
D71
  8
LAYER01
  6
CONTINUOUS
 62
     7
 10
-3108.2204920000008
 20
3292.1315709999999
 30
0.0
  0
VERTEX
  5
D72
  8
LAYER01
  6
CONTINUOUS
 62
     7
 10
-3116.891822
 20
3286.350684
 30
0.0
  0
VERTEX
  5
D73
  8
LAYER01
  6
CONTINUOUS
 62
     7
 10
-3125.5631510000012
 20
3280.5697970000001
 30
0.0
  0
VERTEX
  5
D74
  8
LAYER01
  6
CONTINUOUS
 62
     7
 10
-3133.2710000000002
 20
3272.8619490000001
 30
0.0
  0
VERTEX
  5
D75
  8
LAYER01
  6
CONTINUOUS
 62
     7
 10
-3140.0153679999999
 20
3265.1541000000002
 30
0.0
  0
VERTEX
  5
D76
  8
LAYER01
  6
CONTINUOUS
 62
     7
 10
-3146.7597350000001
 20
3257.4462510000012
 30
0.0
  0
VERTEX
  5
D77
  8
LAYER01
  6
CONTINUOUS
 62
     7
 10
-3152.540622
 20
3248.7749220000001
 30
0.0
  0
VERTEX
  5
D78
  8
LAYER01
  6
CONTINUOUS
 62
     7
 10
-3157.3580270000002
 20
3239.1401110000011
 30
0.0
  0
VERTEX
  5
D79
  8
LAYER01
  6
CONTINUOUS
 62
     7
 10
-3160.2484709999999
 20
3228.541819
 30
0.0
  0
VERTEX
  5
D7A
  8
LAYER01
  6
CONTINUOUS
 62
     7
 10
-3163.138914000001
 20
3218.9070080000001
 30
0.0
  0
VERTEX
  5
D7B
  8
LAYER01
  6
CONTINUOUS
 62
     7
 10
-3165.0658760000001
 20
3207.3452349999998
 30
0.0
  0
VERTEX
  5
D7C
  8
LAYER01
  6
CONTINUOUS
 62
     7
 10
-3166.0293569999999
 20
3196.7469430000001
 30
0.0
  0
VERTEX
  5
D7D
  8
LAYER01
  6
CONTINUOUS
 62
     7
 10
-3166.0293569999999
 20
3196.7469430000001
 30
0.0
  0
VERTEX
  5
D7E
  8
LAYER01
  6
CONTINUOUS
 62
     7
 10
-3165.0658760000001
 20
3185.1851700000002
 30
0.0
  0
VERTEX
  5
D7F
  8
LAYER01
  6
CONTINUOUS
 62
     7
 10
-3164.1023949999999
 20
3174.5868780000001
 30
0.0
  0
VERTEX
  5
D80
  8
LAYER01
  6
CONTINUOUS
 62
     7
 10
-3161.2119520000001
 20
3163.9885859999999
 30
0.0
  0
VERTEX
  5
D81
  8
LAYER01
  6
CONTINUOUS
 62
     7
 10
-3157.3580270000002
 20
3154.353775000001
 30
0.0
  0
VERTEX
  5
D82
  8
LAYER01
  6
CONTINUOUS
 62
     7
 10
-3153.5041030000002
 20
3144.7189640000001
 30
0.0
  0
VERTEX
  5
D83
  8
LAYER01
  6
CONTINUOUS
 62
     7
 10
-3147.7232159999999
 20
3136.047634
 30
0.0
  0
VERTEX
  5
D84
  8
LAYER01
  6
CONTINUOUS
 62
     7
 10
-3141.9423299999999
 20
3127.3763039999999
 30
0.0
  0
VERTEX
  5
D85
  8
LAYER01
  6
CONTINUOUS
 62
     7
 10
-3135.1979620000002
 20
3119.6684559999999
 30
0.0
  0
VERTEX
  5
D86
  8
LAYER01
  6
CONTINUOUS
 62
     7
 10
-3127.4901140000002
 20
3111.960607
 30
0.0
  0
VERTEX
  5
D87
  8
LAYER01
  6
CONTINUOUS
 62
     7
 10
-3118.8187840000001
 20
3106.1797200000001
 30
0.0
  0
VERTEX
  5
D88
  8
LAYER01
  6
CONTINUOUS
 62
     7
 10
-3110.1474539999999
 20
3100.3988340000001
 30
0.0
  0
VERTEX
  5
D89
  8
LAYER01
  6
CONTINUOUS
 62
     7
 10
-3100.512643
 20
3095.5814289999998
 30
0.0
  0
VERTEX
  5
D8A
  8
LAYER01
  6
CONTINUOUS
 62
     7
 10
-3090.8778320000001
 20
3091.727504
 30
0.0
  0
VERTEX
  5
D8B
  8
LAYER01
  6
CONTINUOUS
 62
     7
 10
-3080.27954
 20
3089.8005420000009
 30
0.0
  0
VERTEX
  5
D8C
  8
LAYER01
  6
CONTINUOUS
 62
     7
 10
-3069.6812479999999
 20
3087.8735799999999
 30
0.0
  0
VERTEX
  5
D8D
  8
LAYER01
  6
CONTINUOUS
 62
     7
 10
-3059.0829560000002
 20
3086.9100990000002
 30
0.0
  0
VERTEX
  5
D8E
  8
LAYER01
  6
CONTINUOUS
 62
     7
 10
-3059.0829560000002
 20
3086.9100990000002
 30
0.0
  0
VERTEX
  5
D8F
  8
LAYER01
  6
CONTINUOUS
 62
     7
 10
-3047.5211829999998
 20
3087.8735799999999
 30
0.0
  0
VERTEX
  5
D90
  8
LAYER01
  6
CONTINUOUS
 62
     7
 10
-3036.9228910000011
 20
3089.8005420000009
 30
0.0
  0
VERTEX
  5
D91
  8
LAYER01
  6
CONTINUOUS
 62
     7
 10
-3026.324599
 20
3092.6909850000002
 30
0.0
  0
VERTEX
  5
D92
  8
LAYER01
  6
CONTINUOUS
 62
     7
 10
-3016.6897880000001
 20
3096.5449100000001
 30
0.0
  0
VERTEX
  5
D93
  8
LAYER01
  6
CONTINUOUS
 62
     7
 10
-3007.0549780000001
 20
3101.3623149999999
 30
0.0
  0
VERTEX
  5
D94
  8
LAYER01
  6
CONTINUOUS
 62
     7
 10
-2998.383648
 20
3107.1432020000002
 30
0.0
  0
VERTEX
  5
D95
  8
LAYER01
  6
CONTINUOUS
 62
     7
 10
-2989.7123179999999
 20
3112.9240880000002
 30
0.0
  0
VERTEX
  5
D96
  8
LAYER01
  6
CONTINUOUS
 62
     7
 10
-2982.004469
 20
3120.631937000001
 30
0.0
  0
VERTEX
  5
D97
  8
LAYER01
  6
CONTINUOUS
 62
     7
 10
-2975.2601020000002
 20
3128.339786
 30
0.0
  0
VERTEX
  5
D98
  8
LAYER01
  6
CONTINUOUS
 62
     7
 10
-2969.4792149999998
 20
3137.0111149999998
 30
0.0
  0
VERTEX
  5
D99
  8
LAYER01
  6
CONTINUOUS
 62
     7
 10
-2964.6618100000001
 20
3145.6824449999999
 30
0.0
  0
VERTEX
  5
D9A
  8
LAYER01
  6
CONTINUOUS
 62
     7
 10
-2959.8444039999999
 20
3155.3172559999998
 30
0.0
  0
VERTEX
  5
D9B
  8
LAYER01
  6
CONTINUOUS
 62
     7
 10
-2955.9904799999999
 20
3165.9155479999999
 30
0.0
  0
VERTEX
  5
D9C
  8
LAYER01
  6
CONTINUOUS
 62
     7
 10
-2954.0635179999999
 20
3176.5138400000001
 30
0.0
  0
VERTEX
  5
D9D
  8
LAYER01
  6
CONTINUOUS
 62
     7
 10
-2953.1000370000002
 20
3187.1121320000011
 30
0.0
  0
VERTEX
  5
D9E
  8
LAYER01
  6
CONTINUOUS
 62
     7
 10
-2952.1365559999999
 20
3198.6739050000001
 30
0.0
  0
VERTEX
  5
D9F
  8
LAYER01
  6
CONTINUOUS
 62
     7
 10
-2952.1365559999999
 20
3198.6739050000001
 30
0.0
  0
VERTEX
  5
DA0
  8
LAYER01
  6
CONTINUOUS
 62
     7
 10
-2953.1000370000002
 20
3209.2721969999998
 30
0.0
  0
VERTEX
  5
DA1
  8
LAYER01
  6
CONTINUOUS
 62
     7
 10
-2955.0269990000002
 20
3219.8704889999999
 30
0.0
  0
VERTEX
  5
DA2
  8
LAYER01
  6
CONTINUOUS
 62
     7
 10
-2957.9174420000008
 20
3229.5052999999998
 30
0.0
  0
VERTEX
  5
DA3
  8
LAYER01
  6
CONTINUOUS
 62
     7
 10
-2960.8078850000002
 20
3239.1401110000011
 30
0.0
  0
VERTEX
  5
DA4
  8
LAYER01
  6
CONTINUOUS
 62
     7
 10
-2965.6252909999998
 20
3247.8114399999999
 30
0.0
  0
VERTEX
  5
DA5
  8
LAYER01
  6
CONTINUOUS
 62
     7
 10
-2970.4426960000001
 20
3256.4827700000001
 30
0.0
  0
VERTEX
  5
DA6
  8
LAYER01
  6
CONTINUOUS
 62
     7
 10
-2976.223583
 20
3265.1541000000002
 30
0.0
  0
VERTEX
  5
DA7
  8
LAYER01
  6
CONTINUOUS
 62
     7
 10
-2982.9679500000002
 20
3271.8984679999999
 30
0.0
  0
VERTEX
  5
DA8
  8
LAYER01
  6
CONTINUOUS
 62
     7
 10
-2990.6757990000001
 20
3278.6428350000001
 30
0.0
  0
VERTEX
  5
DA9
  8
LAYER01
  6
CONTINUOUS
 62
     7
 10
-2998.383648
 20
3285.3872030000011
 30
0.0
  0
VERTEX
  5
DAA
  8
LAYER01
  6
CONTINUOUS
 62
     7
 10
-3007.0549780000001
 20
3290.204608
 30
0.0
  0
VERTEX
  5
DAB
  8
LAYER01
  6
CONTINUOUS
 62
     7
 10
-3015.7263069999999
 20
3295.0220140000001
 30
0.0
  0
VERTEX
  5
DAC
  8
LAYER01
  6
CONTINUOUS
 62
     7
 10
-3025.3611179999998
 20
3298.8759380000001
 30
0.0
  0
VERTEX
  5
DAD
  8
LAYER01
  6
CONTINUOUS
 62
     7
 10
-3034.9959290000002
 20
3301.7663809999999
 30
0.0
  0
VERTEX
  5
DAE
  8
LAYER01
  6
CONTINUOUS
 62
     7
 10
-3045.5942209999998
 20
3303.6933440000012
 30
0.0
  0
VERTEX
  5
DAF
  8
LAYER01
  6
CONTINUOUS
 62
     7
 10
-3056.192513
 20
3304.656825
 30
0.0
  0
VERTEX
  5
DB0
  8
LAYER01
  6
CONTINUOUS
 62
     7
 10
-3056.192513
 20
3304.656825
 30
0.0
  0
SEQEND
  5
DB1
  8
LAYER01
  6
CONTINUOUS
 62
     7
  0
POLYLINE
  5
277
  8
LAYER01
  6
CONTINUOUS
 62
     7
 66
     1
 10
0.0
 20
0.0
 30
0.0
 70
     1
  0
VERTEX
  5
DB2
  8
LAYER01
  6
CONTINUOUS
 62
     7
 10
-3059.0829560000002
 20
3126.4128230000001
 30
0.0
  0
VERTEX
  5
DB3
  8
LAYER01
  6
CONTINUOUS
 62
     7
 10
-3059.0829560000002
 20
3126.4128230000001
 30
0.0
  0
VERTEX
  5
DB4
  8
LAYER01
  6
CONTINUOUS
 62
     7
 10
-3065.8273239999999
 20
3127.3763039999999
 30
0.0
  0
VERTEX
  5
DB5
  8
LAYER01
  6
CONTINUOUS
 62
     7
 10
-3072.571692
 20
3128.339786
 30
0.0
  0
VERTEX
  5
DB6
  8
LAYER01
  6
CONTINUOUS
 62
     7
 10
-3079.3160590000002
 20
3129.3032669999998
 30
0.0
  0
VERTEX
  5
DB7
  8
LAYER01
  6
CONTINUOUS
 62
     7
 10
-3086.0604269999999
 20
3132.19371
 30
0.0
  0
VERTEX
  5
DB8
  8
LAYER01
  6
CONTINUOUS
 62
     7
 10
-3091.8413129999999
 20
3135.0841530000012
 30
0.0
  0
VERTEX
  5
DB9
  8
LAYER01
  6
CONTINUOUS
 62
     7
 10
-3097.6221999999998
 20
3138.9380769999998
 30
0.0
  0
VERTEX
  5
DBA
  8
LAYER01
  6
CONTINUOUS
 62
     7
 10
-3102.439605
 20
3142.7920020000001
 30
0.0
  0
VERTEX
  5
DBB
  8
LAYER01
  6
CONTINUOUS
 62
     7
 10
-3107.2570110000001
 20
3147.6094069999999
 30
0.0
  0
VERTEX
  5
DBC
  8
LAYER01
  6
CONTINUOUS
 62
     7
 10
-3112.0744159999999
 20
3152.426813
 30
0.0
  0
VERTEX
  5
DBD
  8
LAYER01
  6
CONTINUOUS
 62
     7
 10
-3115.9283409999998
 20
3157.2442179999998
 30
0.0
  0
VERTEX
  5
DBE
  8
LAYER01
  6
CONTINUOUS
 62
     7
 10
-3118.8187840000001
 20
3163.0251050000002
 30
0.0
  0
VERTEX
  5
DBF
  8
LAYER01
  6
CONTINUOUS
 62
     7
 10
-3121.7092269999998
 20
3169.769472
 30
0.0
  0
VERTEX
  5
DC0
  8
LAYER01
  6
CONTINUOUS
 62
     7
 10
-3124.5996700000001
 20
3175.5503589999998
 30
0.0
  0
VERTEX
  5
DC1
  8
LAYER01
  6
CONTINUOUS
 62
     7
 10
-3125.5631510000012
 20
3182.2947260000001
 30
0.0
  0
VERTEX
  5
DC2
  8
LAYER01
  6
CONTINUOUS
 62
     7
 10
-3127.4901140000002
 20
3189.0390940000002
 30
0.0
  0
VERTEX
  5
DC3
  8
LAYER01
  6
CONTINUOUS
 62
     7
 10
-3127.4901140000002
 20
3196.7469430000001
 30
0.0
  0
VERTEX
  5
DC4
  8
LAYER01
  6
CONTINUOUS
 62
     7
 10
-3127.4901140000002
 20
3196.7469430000001
 30
0.0
  0
VERTEX
  5
DC5
  8
LAYER01
  6
CONTINUOUS
 62
     7
 10
-3126.5266320000001
 20
3203.4913099999999
 30
0.0
  0
VERTEX
  5
DC6
  8
LAYER01
  6
CONTINUOUS
 62
     7
 10
-3125.5631510000012
 20
3210.235678
 30
0.0
  0
VERTEX
  5
DC7
  8
LAYER01
  6
CONTINUOUS
 62
     7
 10
-3123.6361890000012
 20
3216.980046000001
 30
0.0
  0
VERTEX
  5
DC8
  8
LAYER01
  6
CONTINUOUS
 62
     7
 10
-3121.7092269999998
 20
3223.7244129999999
 30
0.0
  0
VERTEX
  5
DC9
  8
LAYER01
  6
CONTINUOUS
 62
     7
 10
-3118.8187840000001
 20
3229.5052999999998
 30
0.0
  0
VERTEX
  5
DCA
  8
LAYER01
  6
CONTINUOUS
 62
     7
 10
-3114.9648590000002
 20
3235.2861859999998
 30
0.0
  0
VERTEX
  5
DCB
  8
LAYER01
  6
CONTINUOUS
 62
     7
 10
-3111.1109350000011
 20
3240.1035919999999
 30
0.0
  0
VERTEX
  5
DCC
  8
LAYER01
  6
CONTINUOUS
 62
     7
 10
-3106.2935299999999
 20
3244.9209970000002
 30
0.0
  0
VERTEX
  5
DCD
  8
LAYER01
  6
CONTINUOUS
 62
     7
 10
-3101.4761239999998
 20
3249.7384030000012
 30
0.0
  0
VERTEX
  5
DCE
  8
LAYER01
  6
CONTINUOUS
 62
     7
 10
-3096.6587190000009
 20
3253.5923269999998
 30
0.0
  0
VERTEX
  5
DCF
  8
LAYER01
  6
CONTINUOUS
 62
     7
 10
-3090.8778320000001
 20
3257.4462510000012
 30
0.0
  0
VERTEX
  5
DD0
  8
LAYER01
  6
CONTINUOUS
 62
     7
 10
-3084.1334649999999
 20
3260.336695
 30
0.0
  0
VERTEX
  5
DD1
  8
LAYER01
  6
CONTINUOUS
 62
     7
 10
-3078.352578
 20
3262.263657
 30
0.0
  0
VERTEX
  5
DD2
  8
LAYER01
  6
CONTINUOUS
 62
     7
 10
-3071.6082100000008
 20
3264.190619
 30
0.0
  0
VERTEX
  5
DD3
  8
LAYER01
  6
CONTINUOUS
 62
     7
 10
-3064.8638430000001
 20
3265.1541000000002
 30
0.0
  0
VERTEX
  5
DD4
  8
LAYER01
  6
CONTINUOUS
 62
     7
 10
-3057.1559940000002
 20
3265.1541000000002
 30
0.0
  0
VERTEX
  5
DD5
  8
LAYER01
  6
CONTINUOUS
 62
     7
 10
-3057.1559940000002
 20
3265.1541000000002
 30
0.0
  0
VERTEX
  5
DD6
  8
LAYER01
  6
CONTINUOUS
 62
     7
 10
-3050.411627
 20
3264.190619
 30
0.0
  0
VERTEX
  5
DD7
  8
LAYER01
  6
CONTINUOUS
 62
     7
 10
-3043.6672589999998
 20
3263.2271380000002
 30
0.0
  0
VERTEX
  5
DD8
  8
LAYER01
  6
CONTINUOUS
 62
     7
 10
-3037.8863719999999
 20
3261.3001760000011
 30
0.0
  0
VERTEX
  5
DD9
  8
LAYER01
  6
CONTINUOUS
 62
     7
 10
-3031.1420050000002
 20
3259.3732140000002
 30
0.0
  0
VERTEX
  5
DDA
  8
LAYER01
  6
CONTINUOUS
 62
     7
 10
-3026.324599
 20
3256.4827700000001
 30
0.0
  0
VERTEX
  5
DDB
  8
LAYER01
  6
CONTINUOUS
 62
     7
 10
-3020.543713
 20
3252.6288460000001
 30
0.0
  0
VERTEX
  5
DDC
  8
LAYER01
  6
CONTINUOUS
 62
     7
 10
-3015.7263069999999
 20
3248.7749220000001
 30
0.0
  0
VERTEX
  5
DDD
  8
LAYER01
  6
CONTINUOUS
 62
     7
 10
-3010.908902000001
 20
3244.9209970000002
 30
0.0
  0
VERTEX
  5
DDE
  8
LAYER01
  6
CONTINUOUS
 62
     7
 10
-3007.0549780000001
 20
3240.1035919999999
 30
0.0
  0
VERTEX
  5
DDF
  8
LAYER01
  6
CONTINUOUS
 62
     7
 10
-3003.2010530000011
 20
3234.322705
 30
0.0
  0
VERTEX
  5
DE0
  8
LAYER01
  6
CONTINUOUS
 62
     7
 10
-2999.3471290000002
 20
3229.5052999999998
 30
0.0
  0
VERTEX
  5
DE1
  8
LAYER01
  6
CONTINUOUS
 62
     7
 10
-2996.456686
 20
3223.7244129999999
 30
0.0
  0
VERTEX
  5
DE2
  8
LAYER01
  6
CONTINUOUS
 62
     7
 10
-2994.5297230000001
 20
3216.980046000001
 30
0.0
  0
VERTEX
  5
DE3
  8
LAYER01
  6
CONTINUOUS
 62
     7
 10
-2992.6027610000001
 20
3211.1991589999989
 30
0.0
  0
VERTEX
  5
DE4
  8
LAYER01
  6
CONTINUOUS
 62
     7
 10
-2991.6392799999999
 20
3204.4547910000001
 30
0.0
  0
VERTEX
  5
DE5
  8
LAYER01
  6
CONTINUOUS
 62
     7
 10
-2991.6392799999999
 20
3197.7104239999999
 30
0.0
  0
VERTEX
  5
DE6
  8
LAYER01
  6
CONTINUOUS
 62
     7
 10
-2991.6392799999999
 20
3197.7104239999999
 30
0.0
  0
VERTEX
  5
DE7
  8
LAYER01
  6
CONTINUOUS
 62
     7
 10
-2991.6392799999999
 20
3190.002575
 30
0.0
  0
VERTEX
  5
DE8
  8
LAYER01
  6
CONTINUOUS
 62
     7
 10
-2992.6027610000001
 20
3183.2582080000002
 30
0.0
  0
VERTEX
  5
DE9
  8
LAYER01
  6
CONTINUOUS
 62
     7
 10
-2993.5662419999999
 20
3176.5138400000001
 30
0.0
  0
VERTEX
  5
DEA
  8
LAYER01
  6
CONTINUOUS
 62
     7
 10
-2996.456686
 20
3170.7329530000002
 30
0.0
  0
VERTEX
  5
DEB
  8
LAYER01
  6
CONTINUOUS
 62
     7
 10
-2998.383648
 20
3163.9885859999999
 30
0.0
  0
VERTEX
  5
DEC
  8
LAYER01
  6
CONTINUOUS
 62
     7
 10
-3002.237572
 20
3158.207699
 30
0.0
  0
VERTEX
  5
DED
  8
LAYER01
  6
CONTINUOUS
 62
     7
 10
-3006.091496
 20
3152.426813
 30
0.0
  0
VERTEX
  5
DEE
  8
LAYER01
  6
CONTINUOUS
 62
     7
 10
-3010.908902000001
 20
3147.6094069999999
 30
0.0
  0
VERTEX
  5
DEF
  8
LAYER01
  6
CONTINUOUS
 62
     7
 10
-3015.7263069999999
 20
3142.7920020000001
 30
0.0
  0
VERTEX
  5
DF0
  8
LAYER01
  6
CONTINUOUS
 62
     7
 10
-3020.543713
 20
3138.9380769999998
 30
0.0
  0
VERTEX
  5
DF1
  8
LAYER01
  6
CONTINUOUS
 62
     7
 10
-3026.324599
 20
3135.0841530000012
 30
0.0
  0
VERTEX
  5
DF2
  8
LAYER01
  6
CONTINUOUS
 62
     7
 10
-3032.1054859999999
 20
3132.19371
 30
0.0
  0
VERTEX
  5
DF3
  8
LAYER01
  6
CONTINUOUS
 62
     7
 10
-3038.8498530000002
 20
3130.266748
 30
0.0
  0
VERTEX
  5
DF4
  8
LAYER01
  6
CONTINUOUS
 62
     7
 10
-3045.5942209999998
 20
3128.339786
 30
0.0
  0
VERTEX
  5
DF5
  8
LAYER01
  6
CONTINUOUS
 62
     7
 10
-3052.338589
 20
3127.3763039999999
 30
0.0
  0
VERTEX
  5
DF6
  8
LAYER01
  6
CONTINUOUS
 62
     7
 10
-3059.0829560000002
 20
3126.4128230000001
 30
0.0
  0
VERTEX
  5
DF7
  8
LAYER01
  6
CONTINUOUS
 62
     7
 10
-3059.0829560000002
 20
3126.4128230000001
 30
0.0
  0
SEQEND
  5
DF8
  8
LAYER01
  6
CONTINUOUS
 62
     7
  0
POLYLINE
  5
2BF
  8
LAYER01
  6
CONTINUOUS
 62
     7
 66
     1
 10
0.0
 20
0.0
 30
0.0
 70
     1
  0
VERTEX
  5
DF9
  8
LAYER01
  6
CONTINUOUS
 62
     7
 10
-2982.004469
 20
3299.8394189999999
 30
0.0
  0
VERTEX
  5
DFA
  8
LAYER01
  6
CONTINUOUS
 62
     7
 10
-2879.8754739999999
 20
3299.8394189999999
 30
0.0
  0
VERTEX
  5
DFB
  8
LAYER01
  6
CONTINUOUS
 62
     7
 10
-2879.8754739999999
 20
3299.8394189999999
 30
0.0
  0
VERTEX
  5
DFC
  8
LAYER01
  6
CONTINUOUS
 62
     7
 10
-2868.313701
 20
3297.9124569999999
 30
0.0
  0
VERTEX
  5
DFD
  8
LAYER01
  6
CONTINUOUS
 62
     7
 10
-2857.7154089999999
 20
3293.0950520000001
 30
0.0
  0
VERTEX
  5
DFE
  8
LAYER01
  6
CONTINUOUS
 62
     7
 10
-2849.0440789999998
 20
3287.3141649999998
 30
0.0
  0
VERTEX
  5
DFF
  8
LAYER01
  6
CONTINUOUS
 62
     7
 10
-2841.3362299999999
 20
3279.6063160000008
 30
0.0
  0
VERTEX
  5
E00
  8
LAYER01
  6
CONTINUOUS
 62
     7
 10
-2834.5918630000001
 20
3271.8984679999999
 30
0.0
  0
VERTEX
  5
E01
  8
LAYER01
  6
CONTINUOUS
 62
     7
 10
-2829.774457
 20
3262.263657
 30
0.0
  0
VERTEX
  5
E02
  8
LAYER01
  6
CONTINUOUS
 62
     7
 10
-2826.8840140000002
 20
3250.7018840000001
 30
0.0
  0
VERTEX
  5
E03
  8
LAYER01
  6
CONTINUOUS
 62
     7
 10
-2825.920533
 20
3240.1035919999999
 30
0.0
  0
VERTEX
  5
E04
  8
LAYER01
  6
CONTINUOUS
 62
     7
 10
-2825.920533
 20
3240.1035919999999
 30
0.0
  0
VERTEX
  5
E05
  8
LAYER01
  6
CONTINUOUS
 62
     7
 10
-2826.8840140000002
 20
3228.541819
 30
0.0
  0
VERTEX
  5
E06
  8
LAYER01
  6
CONTINUOUS
 62
     7
 10
-2828.8109760000002
 20
3218.9070080000001
 30
0.0
  0
VERTEX
  5
E07
  8
LAYER01
  6
CONTINUOUS
 62
     7
 10
-2832.6649010000001
 20
3209.2721969999998
 30
0.0
  0
VERTEX
  5
E08
  8
LAYER01
  6
CONTINUOUS
 62
     7
 10
-2837.4823059999999
 20
3200.6008670000001
 30
0.0
  0
VERTEX
  5
E09
  8
LAYER01
  6
CONTINUOUS
 62
     7
 10
-2844.226674
 20
3192.8930180000002
 30
0.0
  0
VERTEX
  5
E0A
  8
LAYER01
  6
CONTINUOUS
 62
     7
 10
-2850.9710410000012
 20
3187.1121320000011
 30
0.0
  0
VERTEX
  5
E0B
  8
LAYER01
  6
CONTINUOUS
 62
     7
 10
-2860.6058520000001
 20
3181.3312449999999
 30
0.0
  0
VERTEX
  5
E0C
  8
LAYER01
  6
CONTINUOUS
 62
     7
 10
-2870.240663
 20
3177.4773209999998
 30
0.0
  0
VERTEX
  5
E0D
  8
LAYER01
  6
CONTINUOUS
 62
     7
 10
-2807.614392
 20
3093.654466
 30
0.0
  0
VERTEX
  5
E0E
  8
LAYER01
  6
CONTINUOUS
 62
     7
 10
-2855.7884469999999
 20
3093.654466
 30
0.0
  0
VERTEX
  5
E0F
  8
LAYER01
  6
CONTINUOUS
 62
     7
 10
-2939.6113010000008
 20
3200.6008670000001
 30
0.0
  0
VERTEX
  5
E10
  8
LAYER01
  6
CONTINUOUS
 62
     7
 10
-2892.4007280000001
 20
3200.6008670000001
 30
0.0
  0
VERTEX
  5
E11
  8
LAYER01
  6
CONTINUOUS
 62
     7
 10
-2892.4007280000001
 20
3200.6008670000001
 30
0.0
  0
VERTEX
  5
E12
  8
LAYER01
  6
CONTINUOUS
 62
     7
 10
-2886.6198420000001
 20
3202.5278290000001
 30
0.0
  0
VERTEX
  5
E13
  8
LAYER01
  6
CONTINUOUS
 62
     7
 10
-2881.8024359999999
 20
3204.4547910000001
 30
0.0
  0
VERTEX
  5
E14
  8
LAYER01
  6
CONTINUOUS
 62
     7
 10
-2877.9485119999999
 20
3208.308716
 30
0.0
  0
VERTEX
  5
E15
  8
LAYER01
  6
CONTINUOUS
 62
     7
 10
-2874.094587
 20
3212.1626400000009
 30
0.0
  0
VERTEX
  5
E16
  8
LAYER01
  6
CONTINUOUS
 62
     7
 10
-2871.2041439999998
 20
3216.980046000001
 30
0.0
  0
VERTEX
  5
E17
  8
LAYER01
  6
CONTINUOUS
 62
     7
 10
-2868.313701
 20
3221.7974509999999
 30
0.0
  0
VERTEX
  5
E18
  8
LAYER01
  6
CONTINUOUS
 62
     7
 10
-2867.3502199999998
 20
3227.5783379999998
 30
0.0
  0
VERTEX
  5
E19
  8
LAYER01
  6
CONTINUOUS
 62
     7
 10
-2867.3502199999998
 20
3233.3592239999998
 30
0.0
  0
VERTEX
  5
E1A
  8
LAYER01
  6
CONTINUOUS
 62
     7
 10
-2867.3502199999998
 20
3233.3592239999998
 30
0.0
  0
VERTEX
  5
E1B
  8
LAYER01
  6
CONTINUOUS
 62
     7
 10
-2867.3502199999998
 20
3239.1401110000011
 30
0.0
  0
VERTEX
  5
E1C
  8
LAYER01
  6
CONTINUOUS
 62
     7
 10
-2869.2771819999998
 20
3243.9575159999999
 30
0.0
  0
VERTEX
  5
E1D
  8
LAYER01
  6
CONTINUOUS
 62
     7
 10
-2871.2041439999998
 20
3248.7749220000001
 30
0.0
  0
VERTEX
  5
E1E
  8
LAYER01
  6
CONTINUOUS
 62
     7
 10
-2874.094587
 20
3253.5923269999998
 30
0.0
  0
VERTEX
  5
E1F
  8
LAYER01
  6
CONTINUOUS
 62
     7
 10
-2877.9485119999999
 20
3257.4462510000012
 30
0.0
  0
VERTEX
  5
E20
  8
LAYER01
  6
CONTINUOUS
 62
     7
 10
-2881.8024359999999
 20
3260.336695
 30
0.0
  0
VERTEX
  5
E21
  8
LAYER01
  6
CONTINUOUS
 62
     7
 10
-2887.5833229999998
 20
3263.2271380000002
 30
0.0
  0
VERTEX
  5
E22
  8
LAYER01
  6
CONTINUOUS
 62
     7
 10
-2892.4007280000001
 20
3265.1541000000002
 30
0.0
  0
VERTEX
  5
E23
  8
LAYER01
  6
CONTINUOUS
 62
     7
 10
-2947.3191499999998
 20
3265.1541000000002
 30
0.0
  0
VERTEX
  5
E24
  8
LAYER01
  6
CONTINUOUS
 62
     7
 10
-2982.004469
 20
3299.8394189999999
 30
0.0
  0
VERTEX
  5
E25
  8
LAYER01
  6
CONTINUOUS
 62
     7
 10
-2982.004469
 20
3299.8394189999999
 30
0.0
  0
SEQEND
  5
E26
  8
LAYER01
  6
CONTINUOUS
 62
     7
  0
POLYLINE
  5
2EE
  8
LAYER01
  6
CONTINUOUS
 62
     7
 66
     1
 10
0.0
 20
0.0
 30
0.0
 70
     1
  0
VERTEX
  5
E27
  8
LAYER01
  6
CONTINUOUS
 62
     7
 10
-2781.6004029999999
 20
3248.7749220000001
 30
0.0
  0
VERTEX
  5
E28
  8
LAYER01
  6
CONTINUOUS
 62
     7
 10
-2781.6004029999999
 20
3248.7749220000001
 30
0.0
  0
VERTEX
  5
E29
  8
LAYER01
  6
CONTINUOUS
 62
     7
 10
-2776.7829969999998
 20
3249.7384030000012
 30
0.0
  0
VERTEX
  5
E2A
  8
LAYER01
  6
CONTINUOUS
 62
     7
 10
-2771.965592
 20
3250.7018840000001
 30
0.0
  0
VERTEX
  5
E2B
  8
LAYER01
  6
CONTINUOUS
 62
     7
 10
-2767.1481869999998
 20
3253.5923269999998
 30
0.0
  0
VERTEX
  5
E2C
  8
LAYER01
  6
CONTINUOUS
 62
     7
 10
-2763.2942619999999
 20
3256.4827700000001
 30
0.0
  0
VERTEX
  5
E2D
  8
LAYER01
  6
CONTINUOUS
 62
     7
 10
-2760.4038190000001
 20
3260.336695
 30
0.0
  0
VERTEX
  5
E2E
  8
LAYER01
  6
CONTINUOUS
 62
     7
 10
-2758.4768570000001
 20
3264.190619
 30
0.0
  0
VERTEX
  5
E2F
  8
LAYER01
  6
CONTINUOUS
 62
     7
 10
-2756.5498950000001
 20
3269.0080240000002
 30
0.0
  0
VERTEX
  5
E30
  8
LAYER01
  6
CONTINUOUS
 62
     7
 10
-2756.5498950000001
 20
3274.7889110000001
 30
0.0
  0
VERTEX
  5
E31
  8
LAYER01
  6
CONTINUOUS
 62
     7
 10
-2756.5498950000001
 20
3274.7889110000001
 30
0.0
  0
VERTEX
  5
E32
  8
LAYER01
  6
CONTINUOUS
 62
     7
 10
-2756.5498950000001
 20
3279.6063160000008
 30
0.0
  0
VERTEX
  5
E33
  8
LAYER01
  6
CONTINUOUS
 62
     7
 10
-2758.4768570000001
 20
3284.423722
 30
0.0
  0
VERTEX
  5
E34
  8
LAYER01
  6
CONTINUOUS
 62
     7
 10
-2760.4038190000001
 20
3288.277646
 30
0.0
  0
VERTEX
  5
E35
  8
LAYER01
  6
CONTINUOUS
 62
     7
 10
-2763.2942619999999
 20
3292.1315709999999
 30
0.0
  0
VERTEX
  5
E36
  8
LAYER01
  6
CONTINUOUS
 62
     7
 10
-2767.1481869999998
 20
3295.0220140000001
 30
0.0
  0
VERTEX
  5
E37
  8
LAYER01
  6
CONTINUOUS
 62
     7
 10
-2771.965592
 20
3297.9124569999999
 30
0.0
  0
VERTEX
  5
E38
  8
LAYER01
  6
CONTINUOUS
 62
     7
 10
-2776.7829969999998
 20
3298.8759380000001
 30
0.0
  0
VERTEX
  5
E39
  8
LAYER01
  6
CONTINUOUS
 62
     7
 10
-2781.6004029999999
 20
3299.8394189999999
 30
0.0
  0
VERTEX
  5
E3A
  8
LAYER01
  6
CONTINUOUS
 62
     7
 10
-2781.6004029999999
 20
3299.8394189999999
 30
0.0
  0
VERTEX
  5
E3B
  8
LAYER01
  6
CONTINUOUS
 62
     7
 10
-2786.4178080000002
 20
3298.8759380000001
 30
0.0
  0
VERTEX
  5
E3C
  8
LAYER01
  6
CONTINUOUS
 62
     7
 10
-2791.2352139999998
 20
3297.9124569999999
 30
0.0
  0
VERTEX
  5
E3D
  8
LAYER01
  6
CONTINUOUS
 62
     7
 10
-2796.052619
 20
3295.0220140000001
 30
0.0
  0
VERTEX
  5
E3E
  8
LAYER01
  6
CONTINUOUS
 62
     7
 10
-2799.9065439999999
 20
3292.1315709999999
 30
0.0
  0
VERTEX
  5
E3F
  8
LAYER01
  6
CONTINUOUS
 62
     7
 10
-2802.7969870000011
 20
3288.277646
 30
0.0
  0
VERTEX
  5
E40
  8
LAYER01
  6
CONTINUOUS
 62
     7
 10
-2804.7239490000002
 20
3284.423722
 30
0.0
  0
VERTEX
  5
E41
  8
LAYER01
  6
CONTINUOUS
 62
     7
 10
-2806.6509110000002
 20
3279.6063160000008
 30
0.0
  0
VERTEX
  5
E42
  8
LAYER01
  6
CONTINUOUS
 62
     7
 10
-2806.6509110000002
 20
3274.7889110000001
 30
0.0
  0
VERTEX
  5
E43
  8
LAYER01
  6
CONTINUOUS
 62
     7
 10
-2806.6509110000002
 20
3274.7889110000001
 30
0.0
  0
VERTEX
  5
E44
  8
LAYER01
  6
CONTINUOUS
 62
     7
 10
-2806.6509110000002
 20
3269.0080240000002
 30
0.0
  0
VERTEX
  5
E45
  8
LAYER01
  6
CONTINUOUS
 62
     7
 10
-2804.7239490000002
 20
3264.190619
 30
0.0
  0
VERTEX
  5
E46
  8
LAYER01
  6
CONTINUOUS
 62
     7
 10
-2802.7969870000011
 20
3260.336695
 30
0.0
  0
VERTEX
  5
E47
  8
LAYER01
  6
CONTINUOUS
 62
     7
 10
-2799.9065439999999
 20
3256.4827700000001
 30
0.0
  0
VERTEX
  5
E48
  8
LAYER01
  6
CONTINUOUS
 62
     7
 10
-2796.052619
 20
3253.5923269999998
 30
0.0
  0
VERTEX
  5
E49
  8
LAYER01
  6
CONTINUOUS
 62
     7
 10
-2791.2352139999998
 20
3250.7018840000001
 30
0.0
  0
VERTEX
  5
E4A
  8
LAYER01
  6
CONTINUOUS
 62
     7
 10
-2786.4178080000002
 20
3249.7384030000012
 30
0.0
  0
VERTEX
  5
E4B
  8
LAYER01
  6
CONTINUOUS
 62
     7
 10
-2781.6004029999999
 20
3248.7749220000001
 30
0.0
  0
VERTEX
  5
E4C
  8
LAYER01
  6
CONTINUOUS
 62
     7
 10
-2781.6004029999999
 20
3248.7749220000001
 30
0.0
  0
SEQEND
  5
E4D
  8
LAYER01
  6
CONTINUOUS
 62
     7
  0
POLYLINE
  5
316
  8
LAYER01
  6
CONTINUOUS
 62
     7
 66
     1
 10
0.0
 20
0.0
 30
0.0
 70
     1
  0
VERTEX
  5
E4E
  8
LAYER01
  6
CONTINUOUS
 62
     7
 10
-2781.6004029999999
 20
3295.9854949999999
 30
0.0
  0
VERTEX
  5
E4F
  8
LAYER01
  6
CONTINUOUS
 62
     7
 10
-2781.6004029999999
 20
3295.9854949999999
 30
0.0
  0
VERTEX
  5
E50
  8
LAYER01
  6
CONTINUOUS
 62
     7
 10
-2777.7464789999999
 20
3295.0220140000001
 30
0.0
  0
VERTEX
  5
E51
  8
LAYER01
  6
CONTINUOUS
 62
     7
 10
-2773.892554
 20
3294.0585329999999
 30
0.0
  0
VERTEX
  5
E52
  8
LAYER01
  6
CONTINUOUS
 62
     7
 10
-2770.03863
 20
3292.1315709999999
 30
0.0
  0
VERTEX
  5
E53
  8
LAYER01
  6
CONTINUOUS
 62
     7
 10
-2767.1481869999998
 20
3289.2411269999998
 30
0.0
  0
VERTEX
  5
E54
  8
LAYER01
  6
CONTINUOUS
 62
     7
 10
-2764.2577430000001
 20
3286.350684
 30
0.0
  0
VERTEX
  5
E55
  8
LAYER01
  6
CONTINUOUS
 62
     7
 10
-2762.3307810000001
 20
3282.49676
 30
0.0
  0
VERTEX
  5
E56
  8
LAYER01
  6
CONTINUOUS
 62
     7
 10
-2760.4038190000001
 20
3278.6428350000001
 30
0.0
  0
VERTEX
  5
E57
  8
LAYER01
  6
CONTINUOUS
 62
     7
 10
-2760.4038190000001
 20
3274.7889110000001
 30
0.0
  0
VERTEX
  5
E58
  8
LAYER01
  6
CONTINUOUS
 62
     7
 10
-2760.4038190000001
 20
3274.7889110000001
 30
0.0
  0
VERTEX
  5
E59
  8
LAYER01
  6
CONTINUOUS
 62
     7
 10
-2760.4038190000001
 20
3269.971505
 30
0.0
  0
VERTEX
  5
E5A
  8
LAYER01
  6
CONTINUOUS
 62
     7
 10
-2762.3307810000001
 20
3266.117581
 30
0.0
  0
VERTEX
  5
E5B
  8
LAYER01
  6
CONTINUOUS
 62
     7
 10
-2764.2577430000001
 20
3262.263657
 30
0.0
  0
VERTEX
  5
E5C
  8
LAYER01
  6
CONTINUOUS
 62
     7
 10
-2767.1481869999998
 20
3259.3732140000002
 30
0.0
  0
VERTEX
  5
E5D
  8
LAYER01
  6
CONTINUOUS
 62
     7
 10
-2770.03863
 20
3256.4827700000001
 30
0.0
  0
VERTEX
  5
E5E
  8
LAYER01
  6
CONTINUOUS
 62
     7
 10
-2773.892554
 20
3254.5558080000001
 30
0.0
  0
VERTEX
  5
E5F
  8
LAYER01
  6
CONTINUOUS
 62
     7
 10
-2777.7464789999999
 20
3253.5923269999998
 30
0.0
  0
VERTEX
  5
E60
  8
LAYER01
  6
CONTINUOUS
 62
     7
 10
-2781.6004029999999
 20
3253.5923269999998
 30
0.0
  0
VERTEX
  5
E61
  8
LAYER01
  6
CONTINUOUS
 62
     7
 10
-2781.6004029999999
 20
3253.5923269999998
 30
0.0
  0
VERTEX
  5
E62
  8
LAYER01
  6
CONTINUOUS
 62
     7
 10
-2785.4543269999999
 20
3253.5923269999998
 30
0.0
  0
VERTEX
  5
E63
  8
LAYER01
  6
CONTINUOUS
 62
     7
 10
-2790.271733
 20
3254.5558080000001
 30
0.0
  0
VERTEX
  5
E64
  8
LAYER01
  6
CONTINUOUS
 62
     7
 10
-2793.1621759999998
 20
3256.4827700000001
 30
0.0
  0
VERTEX
  5
E65
  8
LAYER01
  6
CONTINUOUS
 62
     7
 10
-2797.0160999999998
 20
3259.3732140000002
 30
0.0
  0
VERTEX
  5
E66
  8
LAYER01
  6
CONTINUOUS
 62
     7
 10
-2798.9430630000002
 20
3262.263657
 30
0.0
  0
VERTEX
  5
E67
  8
LAYER01
  6
CONTINUOUS
 62
     7
 10
-2800.8700250000002
 20
3266.117581
 30
0.0
  0
VERTEX
  5
E68
  8
LAYER01
  6
CONTINUOUS
 62
     7
 10
-2802.7969870000011
 20
3269.971505
 30
0.0
  0
VERTEX
  5
E69
  8
LAYER01
  6
CONTINUOUS
 62
     7
 10
-2802.7969870000011
 20
3274.7889110000001
 30
0.0
  0
VERTEX
  5
E6A
  8
LAYER01
  6
CONTINUOUS
 62
     7
 10
-2802.7969870000011
 20
3274.7889110000001
 30
0.0
  0
VERTEX
  5
E6B
  8
LAYER01
  6
CONTINUOUS
 62
     7
 10
-2802.7969870000011
 20
3278.6428350000001
 30
0.0
  0
VERTEX
  5
E6C
  8
LAYER01
  6
CONTINUOUS
 62
     7
 10
-2800.8700250000002
 20
3282.49676
 30
0.0
  0
VERTEX
  5
E6D
  8
LAYER01
  6
CONTINUOUS
 62
     7
 10
-2798.9430630000002
 20
3286.350684
 30
0.0
  0
VERTEX
  5
E6E
  8
LAYER01
  6
CONTINUOUS
 62
     7
 10
-2797.0160999999998
 20
3289.2411269999998
 30
0.0
  0
VERTEX
  5
E6F
  8
LAYER01
  6
CONTINUOUS
 62
     7
 10
-2793.1621759999998
 20
3292.1315709999999
 30
0.0
  0
VERTEX
  5
E70
  8
LAYER01
  6
CONTINUOUS
 62
     7
 10
-2790.271733
 20
3294.0585329999999
 30
0.0
  0
VERTEX
  5
E71
  8
LAYER01
  6
CONTINUOUS
 62
     7
 10
-2785.4543269999999
 20
3295.0220140000001
 30
0.0
  0
VERTEX
  5
E72
  8
LAYER01
  6
CONTINUOUS
 62
     7
 10
-2781.6004029999999
 20
3295.9854949999999
 30
0.0
  0
VERTEX
  5
E73
  8
LAYER01
  6
CONTINUOUS
 62
     7
 10
-2781.6004029999999
 20
3295.9854949999999
 30
0.0
  0
SEQEND
  5
E74
  8
LAYER01
  6
CONTINUOUS
 62
     7
  0
POLYLINE
  5
33E
  8
LAYER01
  6
CONTINUOUS
 62
     7
 66
     1
 10
0.0
 20
0.0
 30
0.0
 70
     1
  0
VERTEX
  5
E75
  8
LAYER01
  6
CONTINUOUS
 62
     7
 10
-2777.7464789999999
 20
3272.8619490000001
 30
0.0
  0
VERTEX
  5
E76
  8
LAYER01
  6
CONTINUOUS
 62
     7
 10
-2777.7464789999999
 20
3272.8619490000001
 30
0.0
  0
VERTEX
  5
E77
  8
LAYER01
  6
CONTINUOUS
 62
     7
 10
-2774.8560349999998
 20
3273.8254299999999
 30
0.0
  0
VERTEX
  5
E78
  8
LAYER01
  6
CONTINUOUS
 62
     7
 10
-2771.965592
 20
3274.7889110000001
 30
0.0
  0
VERTEX
  5
E79
  8
LAYER01
  6
CONTINUOUS
 62
     7
 10
-2770.03863
 20
3277.6793539999999
 30
0.0
  0
VERTEX
  5
E7A
  8
LAYER01
  6
CONTINUOUS
 62
     7
 10
-2770.03863
 20
3280.5697970000001
 30
0.0
  0
VERTEX
  5
E7B
  8
LAYER01
  6
CONTINUOUS
 62
     7
 10
-2770.03863
 20
3280.5697970000001
 30
0.0
  0
VERTEX
  5
E7C
  8
LAYER01
  6
CONTINUOUS
 62
     7
 10
-2770.03863
 20
3284.423722
 30
0.0
  0
VERTEX
  5
E7D
  8
LAYER01
  6
CONTINUOUS
 62
     7
 10
-2772.9290729999998
 20
3287.3141649999998
 30
0.0
  0
VERTEX
  5
E7E
  8
LAYER01
  6
CONTINUOUS
 62
     7
 10
-2775.819516
 20
3288.277646
 30
0.0
  0
VERTEX
  5
E7F
  8
LAYER01
  6
CONTINUOUS
 62
     7
 10
-2779.6734409999999
 20
3288.277646
 30
0.0
  0
VERTEX
  5
E80
  8
LAYER01
  6
CONTINUOUS
 62
     7
 10
-2791.2352139999998
 20
3288.277646
 30
0.0
  0
VERTEX
  5
E81
  8
LAYER01
  6
CONTINUOUS
 62
     7
 10
-2791.2352139999998
 20
3260.336695
 30
0.0
  0
VERTEX
  5
E82
  8
LAYER01
  6
CONTINUOUS
 62
     7
 10
-2787.3812889999999
 20
3260.336695
 30
0.0
  0
VERTEX
  5
E83
  8
LAYER01
  6
CONTINUOUS
 62
     7
 10
-2787.3812889999999
 20
3272.8619490000001
 30
0.0
  0
VERTEX
  5
E84
  8
LAYER01
  6
CONTINUOUS
 62
     7
 10
-2781.6004029999999
 20
3272.8619490000001
 30
0.0
  0
VERTEX
  5
E85
  8
LAYER01
  6
CONTINUOUS
 62
     7
 10
-2774.8560349999998
 20
3260.336695
 30
0.0
  0
VERTEX
  5
E86
  8
LAYER01
  6
CONTINUOUS
 62
     7
 10
-2770.03863
 20
3260.336695
 30
0.0
  0
VERTEX
  5
E87
  8
LAYER01
  6
CONTINUOUS
 62
     7
 10
-2777.7464789999999
 20
3272.8619490000001
 30
0.0
  0
VERTEX
  5
E88
  8
LAYER01
  6
CONTINUOUS
 62
     7
 10
-2777.7464789999999
 20
3272.8619490000001
 30
0.0
  0
SEQEND
  5
E89
  8
LAYER01
  6
CONTINUOUS
 62
     7
  0
POLYLINE
  5
354
  8
LAYER01
  6
CONTINUOUS
 62
     7
 66
     1
 10
0.0
 20
0.0
 30
0.0
 70
     1
  0
VERTEX
  5
E8A
  8
LAYER01
  6
CONTINUOUS
 62
     7
 10
-2780.6369220000001
 20
3284.423722
 30
0.0
  0
VERTEX
  5
E8B
  8
LAYER01
  6
CONTINUOUS
 62
     7
 10
-2780.6369220000001
 20
3284.423722
 30
0.0
  0
VERTEX
  5
E8C
  8
LAYER01
  6
CONTINUOUS
 62
     7
 10
-2775.819516
 20
3283.4602410000002
 30
0.0
  0
VERTEX
  5
E8D
  8
LAYER01
  6
CONTINUOUS
 62
     7
 10
-2773.892554
 20
3282.49676
 30
0.0
  0
VERTEX
  5
E8E
  8
LAYER01
  6
CONTINUOUS
 62
     7
 10
-2773.892554
 20
3280.5697970000001
 30
0.0
  0
VERTEX
  5
E8F
  8
LAYER01
  6
CONTINUOUS
 62
     7
 10
-2773.892554
 20
3280.5697970000001
 30
0.0
  0
VERTEX
  5
E90
  8
LAYER01
  6
CONTINUOUS
 62
     7
 10
-2774.8560349999998
 20
3278.6428350000001
 30
0.0
  0
VERTEX
  5
E91
  8
LAYER01
  6
CONTINUOUS
 62
     7
 10
-2776.7829969999998
 20
3277.6793539999999
 30
0.0
  0
VERTEX
  5
E92
  8
LAYER01
  6
CONTINUOUS
 62
     7
 10
-2782.5638840000001
 20
3276.7158730000001
 30
0.0
  0
VERTEX
  5
E93
  8
LAYER01
  6
CONTINUOUS
 62
     7
 10
-2787.3812889999999
 20
3276.7158730000001
 30
0.0
  0
VERTEX
  5
E94
  8
LAYER01
  6
CONTINUOUS
 62
     7
 10
-2787.3812889999999
 20
3284.423722
 30
0.0
  0
VERTEX
  5
E95
  8
LAYER01
  6
CONTINUOUS
 62
     7
 10
-2780.6369220000001
 20
3284.423722
 30
0.0
  0
VERTEX
  5
E96
  8
LAYER01
  6
CONTINUOUS
 62
     7
 10
-2780.6369220000001
 20
3284.423722
 30
0.0
  0
SEQEND
  5
E97
  8
LAYER01
  6
CONTINUOUS
 62
     7
  0
ENDBLK
  5
363
  8
0
  0
BLOCK
  8
0
  2
NIZ_WEB-G3
 70
     0
 10
0.0
 20
0.0
 30
0.0
  3
NIZ_WEB-G3
  1

  0
TEXT
  5
366
  8
LAYER01
  6
VERDECKT
 62
     1
 10
-3772.0042659999999
 20
2793.6400670000012
 30
0.0
 40
10.0
  1
A. Sprenger GmbH
  7
SIMPLEX
  0
TEXT
  5
367
  8
LAYER01
  6
VERDECKT
 62
     1
 10
-3772.0042659999999
 20
2776.49721
 30
0.0
 40
10.0
  1
Berner Str. 10
  7
SIMPLEX
  0
TEXT
  5
368
  8
LAYER01
  6
VERDECKT
 62
     1
 10
-3772.0042659999999
 20
2759.3543530000002
 30
0.0
 40
10.0
  1
60437 Frankfurt
  7
SIMPLEX
  0
TEXT
  5
369
  8
LAYER01
  6
VERDECKT
 62
     1
 10
-3772.0042659999999
 20
2742.2114959999999
 30
0.0
 40
10.0
  1
Tel.: 069 - 507 27 41
  7
SIMPLEX
  0
TEXT
  5
36A
  8
LAYER01
  6
VERDECKT
 62
     1
 10
-3772.0042659999999
 20
2725.0686390000001
 30
0.0
 40
10.0
  1
Fax: 069 - 507 72 91
  7
SIMPLEX
  0
TEXT
  5
36B
  8
LAYER01
  6
VERDECKT
 62
     1
 10
-3772.0042659999999
 20
2707.9257819999998
 30
0.0
 40
10.0
  1
info@varicor.org
  7
SIMPLEX
  0
ENDBLK
  5
36C
  8
0
  0
BLOCK
  8
0
  2
NIZ_WEB-G2
 70
     0
 10
0.0
 20
0.0
 30
0.0
  3
NIZ_WEB-G2
  1

  0
TEXT
  5
36F
  8
LAYER01
  6
CONTINUOUS
 62
     1
 10
-2721.1858109999998
 20
2558.5598800000012
 30
0.0
 40
10.0
  1
Blatt
  7
SIMPLEX
  0
LINE
  5
370
  8
LAYER01
  6
CONTINUOUS
 62
     1
 10
-3786.1858109999998
 20
2628.5598799999998
 30
0.0
 11
-3186.1858109999998
 21
2628.5598799999998
 31
0.0
  0
LINE
  5
371
  8
LAYER01
  6
CONTINUOUS
 62
     1
 10
-3786.1858109999998
 20
2603.5598800000012
 30
0.0
 11
-3186.1858109999998
 21
2603.5598800000012
 31
0.0
  0
LINE
  5
372
  8
LAYER01
  6
CONTINUOUS
 62
     1
 10
-3786.1858109999998
 20
2578.5598799999998
 30
0.0
 11
-2656.1858109999998
 21
2578.5598799999998
 31
0.0
  0
LINE
  5
373
  8
LAYER01
  6
CONTINUOUS
 62
     1
 10
-3786.1858109999998
 20
2503.5598799999998
 30
0.0
 11
-2656.1858109999998
 21
2503.5598799999998
 31
0.0
  0
LINE
  5
374
  8
LAYER01
  6
CONTINUOUS
 62
     1
 10
-3786.1858109999998
 20
2703.5598799999998
 30
0.0
 11
-2656.1858109999998
 21
2703.5598799999998
 31
0.0
  0
POLYLINE
  5
375
  8
LAYER01
  6
CONTINUOUS
 62
     1
 66
     1
 10
0.0
 20
0.0
 30
0.0
 70
     1
  0
VERTEX
  5
E98
  8
LAYER01
  6
CONTINUOUS
 62
     1
 10
-3786.1858109999998
 20
2473.5598799999998
 30
0.0
  0
VERTEX
  5
E99
  8
LAYER01
  6
CONTINUOUS
 62
     1
 10
-3786.1858109999998
 20
2808.5598800000012
 30
0.0
  0
VERTEX
  5
E9A
  8
LAYER01
  6
CONTINUOUS
 62
     1
 10
-2656.1858109999998
 20
2808.5598800000012
 30
0.0
  0
VERTEX
  5
E9B
  8
LAYER01
  6
CONTINUOUS
 62
     1
 10
-2656.1858109999998
 20
2473.5598799999998
 30
0.0
  0
SEQEND
  5
E9C
  8
LAYER01
  6
CONTINUOUS
 62
     1
  0
LINE
  5
37B
  8
LAYER01
  6
CONTINUOUS
 62
     1
 10
-3786.1858109999998
 20
2678.5598799999998
 30
0.0
 11
-3186.1858109999998
 21
2678.5598799999998
 31
0.0
  0
LINE
  5
37C
  8
LAYER01
  6
CONTINUOUS
 62
     1
 10
-3786.1858109999998
 20
2653.5598799999998
 30
0.0
 11
-3186.1858109999998
 21
2653.5598799999998
 31
0.0
  0
LINE
  5
37D
  8
LAYER01
  6
CONTINUOUS
 62
     1
 10
-3461.1858109999998
 20
2808.5598800000012
 30
0.0
 11
-3461.1858109999998
 21
2473.5598799999998
 31
0.0
  0
INSERT
  5
37E
  8
LAYER01
  2
NIZ_WEB-G3
 10
0.0
 20
0.0
 30
0.0
  0
LINE
  5
37F
  8
LAYER01
  6
CONTINUOUS
 62
     1
 10
-3786.1858109999998
 20
2528.5598799999998
 30
0.0
 11
-3461.1858109999998
 21
2528.5598799999998
 31
0.0
  0
LINE
  5
380
  8
LAYER01
  6
CONTINUOUS
 62
     1
 10
-3786.1858109999998
 20
2553.5598799999998
 30
0.0
 11
-3461.1858109999998
 21
2553.5598799999998
 31
0.0
  0
LINE
  5
381
  8
LAYER01
  6
CONTINUOUS
 62
     1
 10
-3741.1858109999998
 20
2703.5598799999998
 30
0.0
 11
-3741.1858109999998
 21
2473.5598799999998
 31
0.0
  0
TEXT
  5
382
  8
LAYER01
  6
CONTINUOUS
 62
     1
 10
-3777.7865459999998
 20
2483.5598799999998
 30
0.0
 40
9.5
  1
Zust
  7
SIMPLEX
  0
LINE
  5
383
  8
LAYER01
  6
CONTINUOUS
 62
     1
 10
-3583.4011959999998
 20
2473.5598799999998
 30
0.0
 11
-3583.4011959999998
 21
2703.5598799999998
 31
0.0
  0
LINE
  5
384
  8
LAYER01
  6
CONTINUOUS
 62
     1
 10
-3506.1858109999998
 20
2703.5598799999998
 30
0.0
 11
-3506.1858109999998
 21
2473.5598799999998
 31
0.0
  0
TEXT
  5
385
  8
LAYER01
  6
CONTINUOUS
 62
     1
 10
-3697.0572689999999
 20
2483.5598799999998
 30
0.0
 40
9.5
  1
Änderung
  7
SIMPLEX
  0
TEXT
  5
386
  8
LAYER01
  6
CONTINUOUS
 62
     1
 10
-3569.3316669999999
 20
2483.5598799999998
 30
0.0
 40
9.5
  1
Datum
  7
SIMPLEX
  0
TEXT
  5
387
  8
LAYER01
  6
CONTINUOUS
 62
     1
 10
-3502.4219079999998
 20
2483.5598799999998
 30
0.0
 40
9.5
  1
Name
  7
SIMPLEX
  0
LINE
  5
388
  8
LAYER01
  6
CONTINUOUS
 62
     1
 10
-2656.1858109999998
 20
2768.5598800000012
 30
0.0
 11
-3186.1858109999998
 21
2768.5598800000012
 31
0.0
  0
LINE
  5
389
  8
LAYER01
  6
CONTINUOUS
 62
     1
 10
-3396.1858109999998
 20
2603.5598800000012
 30
0.0
 11
-3396.1858109999998
 21
2703.5598799999998
 31
0.0
  0
TEXT
  5
38A
  8
LAYER01
  6
CONTINUOUS
 62
     1
 10
-3451.1858109999998
 20
2658.5598799999998
 30
0.0
 40
10.0
  1
Bearb.
  7
SIMPLEX
  0
TEXT
  5
38B
  8
LAYER01
  6
CONTINUOUS
 62
     1
 10
-3451.1858109999998
 20
2608.5598799999998
 30
0.0
 40
10.0
  1
Norm
  7
SIMPLEX
  0
TEXT
  5
38C
  8
LAYER01
  6
CONTINUOUS
 62
     1
 10
-3451.1858109999998
 20
2633.5598799999998
 30
0.0
 40
10.0
  1
Gepr.
  7
SIMPLEX
  0
TEXT
  5
38D
  8
LAYER01
  6
CONTINUOUS
 62
     1
 10
-3371.1858109999998
 20
2683.5598800000012
 30
0.0
 40
10.0
  1
Datum
  7
SIMPLEX
  0
TEXT
  5
38E
  8
LAYER01
  6
CONTINUOUS
 62
     1
 10
-3271.1858109999998
 20
2683.5598800000012
 30
0.0
 40
10.0
  1
Name
  7
SIMPLEX
  0
TEXT
  5
38F
  8
LAYER01
  6
CONTINUOUS
 62
     1
 10
-2681.1858109999998
 20
2508.5598799999998
 30
0.0
 40
10.0
  1
Bl.
  7
SIMPLEX
  0
LINE
  5
390
  8
LAYER01
  6
CONTINUOUS
 62
     1
 10
-3186.1858109999998
 20
2473.5598799999998
 30
0.0
 11
-3186.1858109999998
 21
2808.5598800000012
 31
0.0
  0
LINE
  5
391
  8
LAYER01
  6
CONTINUOUS
 62
     1
 10
-3301.1858109999998
 20
2578.5598799999998
 30
0.0
 11
-3301.1858109999998
 21
2808.5598800000012
 31
0.0
  0
LINE
  5
392
  8
LAYER01
  6
CONTINUOUS
 62
     1
 10
-2871.1858109999998
 20
2808.5598800000012
 30
0.0
 11
-2871.1858109999998
 21
2768.5598800000012
 31
0.0
  0
TEXT
  5
393
  8
LAYER01
  6
CONTINUOUS
 62
     1
 10
-3175.2918119999999
 20
2783.0298780000012
 30
0.0
 40
10.0
  1
Maßstab
  7
SIMPLEX
  0
LINE
  5
394
  8
LAYER01
  6
CONTINUOUS
 62
     1
 10
-2731.1858109999998
 20
2578.5598799999998
 30
0.0
 11
-2731.1858109999998
 21
2503.5598799999998
 31
0.0
  0
LINE
  5
395
  8
LAYER01
  6
CONTINUOUS
 62
     1
 10
-2731.1858109999998
 20
2528.5598799999998
 30
0.0
 11
-2656.1858109999998
 21
2528.5598799999998
 31
0.0
  0
ENDBLK
  5
396
  8
0
  0
BLOCK
  8
0
  2
*D3
 70
     1
 10
0.0
 20
0.0
 30
0.0
  3
*D3
  1

  0
LINE
  5
399
  8
LAYER01
 62
     7
 10
-6095.8903019999998
 20
4503.6664639999999
 30
0.0
 11
-6095.8903019999998
 21
4406.666463999999
 31
0.0
  0
LINE
  5
39A
  8
LAYER01
 62
     7
 10
-6036.7910199999997
 20
4503.6664639999999
 30
0.0
 11
-6125.8903020000007
 21
4503.6664639999999
 31
0.0
  0
LINE
  5
39B
  8
LAYER01
 62
     7
 10
-6036.7910199999997
 20
4406.666463999999
 30
0.0
 11
-6125.8903020000007
 21
4406.666463999999
 31
0.0
  0
SOLID
  5
39C
  8
LAYER01
 62
     7
 10
-6103.8899819999997
 20
4455.6664639999999
 30
0.0
 11
-6095.8903019999998
 21
4503.6664639999999
 31
0.0
 12
-6087.890621999999
 22
4455.6664639999999
 32
0.0
 13
-6087.890621999999
 23
4455.6664639999999
 33
0.0
  0
SOLID
  5
39D
  8
LAYER01
 62
     7
 10
-6103.8899819999997
 20
4454.6664639999999
 30
0.0
 11
-6095.8903019999998
 21
4406.666463999999
 31
0.0
 12
-6087.890621999999
 22
4454.6664639999999
 32
0.0
 13
-6087.890621999999
 23
4454.6664639999999
 33
0.0
  0
TEXT
  5
39E
  8
LAYER01
  6
CONTINUOUS
 62
     7
 10
-6125.8903020000007
 20
4423.0637999999999
 30
0.0
 40
60.0
  1
97
 50
90.0
  0
POINT
  5
39F
  8
LAYER01
 62
     7
 10
-6012.7910200000006
 20
4503.6664639999999
 30
0.0
  0
POINT
  5
3A0
  8
LAYER01
 62
     7
 10
-6012.7910200000006
 20
4406.666463999999
 30
0.0
  0
POINT
  5
3A1
  8
LAYER01
 62
     7
 10
-6095.8903019999998
 20
4406.666463999999
 30
0.0
  0
ENDBLK
  5
3A2
  8
0
  0
BLOCK
  8
0
  2
*D4
 70
     1
 10
0.0
 20
0.0
 30
0.0
  3
*D4
  1

  0
LINE
  5
3A5
  8
LAYER01
 62
     7
 10
-6185.1203329999998
 20
4503.6664639999999
 30
0.0
 11
-6185.1203329999998
 21
4328.6664639999999
 31
0.0
  0
LINE
  5
3A6
  8
LAYER01
 62
     7
 10
-6036.7910199999997
 20
4503.6664639999999
 30
0.0
 11
-6215.1203329999998
 21
4503.6664639999999
 31
0.0
  0
LINE
  5
3A7
  8
LAYER01
 62
     7
 10
-6036.7910199999997
 20
4328.6664639999999
 30
0.0
 11
-6215.1203329999998
 21
4328.6664639999999
 31
0.0
  0
SOLID
  5
3A8
  8
LAYER01
 62
     7
 10
-6193.1200130000007
 20
4455.6664639999999
 30
0.0
 11
-6185.1203329999998
 21
4503.6664639999999
 31
0.0
 12
-6177.1206529999999
 22
4455.6664639999999
 32
0.0
 13
-6177.1206529999999
 23
4455.6664639999999
 33
0.0
  0
SOLID
  5
3A9
  8
LAYER01
 62
     7
 10
-6193.1200130000007
 20
4376.6664639999999
 30
0.0
 11
-6185.1203329999998
 21
4328.6664639999999
 31
0.0
 12
-6177.1206529999999
 22
4376.6664639999999
 32
0.0
 13
-6177.1206529999999
 23
4376.6664639999999
 33
0.0
  0
TEXT
  5
3AA
  8
LAYER01
  6
CONTINUOUS
 62
     7
 10
-6215.1203329999998
 20
4368.012467999999
 30
0.0
 40
60.0
  1
175
 50
90.0
  0
POINT
  5
3AB
  8
LAYER01
 62
     7
 10
-6012.7910200000006
 20
4503.6664639999999
 30
0.0
  0
POINT
  5
3AC
  8
LAYER01
 62
     7
 10
-6012.7910200000006
 20
4328.6664639999999
 30
0.0
  0
POINT
  5
3AD
  8
LAYER01
 62
     7
 10
-6185.1203329999998
 20
4328.6664639999999
 30
0.0
  0
ENDBLK
  5
3AE
  8
0
  0
BLOCK
  8
0
  2
*D5
 70
     1
 10
0.0
 20
0.0
 30
0.0
  3
*D5
  1

  0
LINE
  5
3B1
  8
LAYER01
 62
     7
 10
-6384.5661790000004
 20
4503.6664639999999
 30
0.0
 11
-6384.5661790000004
 21
4153.666463999999
 31
0.0
  0
LINE
  5
3B2
  8
LAYER01
 62
     7
 10
-6036.7910199999997
 20
4503.6664639999999
 30
0.0
 11
-6414.5661789999986
 21
4503.6664639999999
 31
0.0
  0
LINE
  5
3B3
  8
LAYER01
 62
     7
 10
-6036.7910199999997
 20
4153.666463999999
 30
0.0
 11
-6414.5661789999986
 21
4153.666463999999
 31
0.0
  0
SOLID
  5
3B4
  8
LAYER01
 62
     7
 10
-6392.5658590000012
 20
4455.6664639999999
 30
0.0
 11
-6384.5661790000004
 21
4503.6664639999999
 31
0.0
 12
-6376.5664989999996
 22
4455.6664639999999
 32
0.0
 13
-6376.5664989999996
 23
4455.6664639999999
 33
0.0
  0
SOLID
  5
3B5
  8
LAYER01
 62
     7
 10
-6392.5658590000012
 20
4201.6664639999999
 30
0.0
 11
-6384.5661790000004
 21
4153.666463999999
 31
0.0
 12
-6376.5664989999996
 22
4201.6664639999999
 32
0.0
 13
-6376.5664989999996
 23
4201.6664639999999
 33
0.0
  0
TEXT
  5
3B6
  8
LAYER01
  6
CONTINUOUS
 62
     7
 10
-6414.5661789999986
 20
4280.5124679999999
 30
0.0
 40
60.0
  1
350
 50
90.0
  0
POINT
  5
3B7
  8
LAYER01
 62
     7
 10
-6012.7910200000006
 20
4503.6664639999999
 30
0.0
  0
POINT
  5
3B8
  8
LAYER01
 62
     7
 10
-6012.7910200000006
 20
4153.666463999999
 30
0.0
  0
POINT
  5
3B9
  8
LAYER01
 62
     7
 10
-6384.5661790000004
 20
4153.666463999999
 30
0.0
  0
ENDBLK
  5
3BA
  8
0
  0
BLOCK
  8
0
  2
*D6
 70
     1
 10
0.0
 20
0.0
 30
0.0
  3
*D6
  1

  0
LINE
  5
3BD
  8
LAYER01
 62
     7
 10
-5712.7668320000002
 20
4067.1938479999999
 30
0.0
 11
-6012.7910200000006
 21
4067.1938479999999
 31
0.0
  0
LINE
  5
3BE
  8
LAYER01
 62
     7
 10
-5712.7668320000002
 20
4129.6664639999999
 30
0.0
 11
-5712.7668320000002
 21
4037.1938479999999
 31
0.0
  0
LINE
  5
3BF
  8
LAYER01
 62
     7
 10
-6012.7910200000006
 20
4129.6664639999999
 30
0.0
 11
-6012.7910200000006
 21
4037.1938479999999
 31
0.0
  0
SOLID
  5
3C0
  8
LAYER01
 62
     7
 10
-5760.7668320000002
 20
4075.1935279999998
 30
0.0
 11
-5712.7668320000002
 21
4067.1938479999999
 31
0.0
 12
-5760.7668320000002
 22
4059.194168
 32
0.0
 13
-5760.7668320000002
 23
4059.194168
 33
0.0
  0
SOLID
  5
3C1
  8
LAYER01
 62
     7
 10
-5964.7910199999997
 20
4075.1935279999998
 30
0.0
 11
-6012.7910200000006
 21
4067.1938479999999
 31
0.0
 12
-5964.7910199999997
 22
4059.194168
 32
0.0
 13
-5964.7910199999997
 23
4059.194168
 33
0.0
  0
TEXT
  5
3C2
  8
LAYER01
  6
CONTINUOUS
 62
     7
 10
-5910.932922
 20
4097.193847999999
 30
0.0
 40
60.0
  1
300
  0
POINT
  5
3C3
  8
LAYER01
 62
     7
 10
-5712.7668320000002
 20
4153.666463999999
 30
0.0
  0
POINT
  5
3C4
  8
LAYER01
 62
     7
 10
-6012.7910200000006
 20
4153.666463999999
 30
0.0
  0
POINT
  5
3C5
  8
LAYER01
 62
     7
 10
-6012.7910200000006
 20
4067.1938479999999
 30
0.0
  0
ENDBLK
  5
3C6
  8
0
  0
BLOCK
  8
0
  2
*D7
 70
     1
 10
0.0
 20
0.0
 30
0.0
  3
*D7
  1

  0
LINE
  5
3C9
  8
LAYER01
 62
     7
 10
-5207.7668320000002
 20
4068.6100579999988
 30
0.0
 11
-5712.7668320000002
 21
4068.6100579999988
 31
0.0
  0
LINE
  5
3CA
  8
LAYER01
 62
     7
 10
-5207.7668320000002
 20
4129.6664639999999
 30
0.0
 11
-5207.7668320000002
 21
4038.6100579999988
 31
0.0
  0
LINE
  5
3CB
  8
LAYER01
 62
     7
 10
-5712.7668320000002
 20
4129.6664639999999
 30
0.0
 11
-5712.7668320000002
 21
4038.6100579999988
 31
0.0
  0
SOLID
  5
3CC
  8
LAYER01
 62
     7
 10
-5255.7668320000002
 20
4076.609738000001
 30
0.0
 11
-5207.7668320000002
 21
4068.6100579999988
 31
0.0
 12
-5255.7668320000002
 22
4060.6103779999999
 32
0.0
 13
-5255.7668320000002
 23
4060.6103779999999
 33
0.0
  0
SOLID
  5
3CD
  8
LAYER01
 62
     7
 10
-5664.7668320000002
 20
4076.609738000001
 30
0.0
 11
-5712.7668320000002
 21
4068.6100579999988
 31
0.0
 12
-5664.7668320000002
 22
4060.6103779999999
 32
0.0
 13
-5664.7668320000002
 23
4060.6103779999999
 33
0.0
  0
TEXT
  5
3CE
  8
LAYER01
  6
CONTINUOUS
 62
     7
 10
-5508.4208280000012
 20
4098.6100580000011
 30
0.0
 40
60.0
  1
505
  0
POINT
  5
3CF
  8
LAYER01
 62
     7
 10
-5207.7668320000002
 20
4153.666463999999
 30
0.0
  0
POINT
  5
3D0
  8
LAYER01
 62
     7
 10
-5712.7668320000002
 20
4153.666463999999
 30
0.0
  0
POINT
  5
3D1
  8
LAYER01
 62
     7
 10
-5712.7668320000002
 20
4068.6100579999988
 30
0.0
  0
ENDBLK
  5
3D2
  8
0
  0
BLOCK
  8
0
  2
*D8
 70
     1
 10
0.0
 20
0.0
 30
0.0
  3
*D8
  1

  0
LINE
  5
3D5
  8
LAYER01
 62
     7
 10
-5207.7668320000002
 20
4067.1938479999999
 30
0.0
 11
-4897.7910199999997
 21
4067.1938479999999
 31
0.0
  0
LINE
  5
3D6
  8
LAYER01
 62
     7
 10
-5207.7668320000002
 20
4129.6664639999999
 30
0.0
 11
-5207.7668320000002
 21
4037.1938479999999
 31
0.0
  0
LINE
  5
3D7
  8
LAYER01
 62
     7
 10
-4897.7910199999997
 20
4129.6664639999999
 30
0.0
 11
-4897.7910199999997
 21
4037.1938479999999
 31
0.0
  0
SOLID
  5
3D8
  8
LAYER01
 62
     7
 10
-5159.7668320000002
 20
4059.194168
 30
0.0
 11
-5207.7668320000002
 21
4067.1938479999999
 31
0.0
 12
-5159.7668320000002
 22
4075.1935279999998
 32
0.0
 13
-5159.7668320000002
 23
4075.1935279999998
 33
0.0
  0
SOLID
  5
3D9
  8
LAYER01
 62
     7
 10
-4945.7910200000006
 20
4059.194168
 30
0.0
 11
-4897.7910199999997
 21
4067.1938479999999
 31
0.0
 12
-4945.7910200000006
 22
4075.1935279999998
 32
0.0
 13
-4945.7910200000006
 23
4075.1935279999998
 33
0.0
  0
TEXT
  5
3DA
  8
LAYER01
  6
CONTINUOUS
 62
     7
 10
-5100.932922
 20
4097.193847999999
 30
0.0
 40
60.0
  1
310
  0
POINT
  5
3DB
  8
LAYER01
 62
     7
 10
-5207.7668320000002
 20
4153.666463999999
 30
0.0
  0
POINT
  5
3DC
  8
LAYER01
 62
     7
 10
-4897.7910199999997
 20
4153.666463999999
 30
0.0
  0
POINT
  5
3DD
  8
LAYER01
 62
     7
 10
-4897.7910199999997
 20
4067.1938479999999
 30
0.0
  0
ENDBLK
  5
3DE
  8
0
  0
BLOCK
  8
0
  2
*D9
 70
     1
 10
0.0
 20
0.0
 30
0.0
  3
*D9
  1

  0
LINE
  5
3E1
  8
LAYER01
 62
     7
 10
-5455.2910199999997
 20
4537.151742
 30
0.0
 11
-5647.7910199999997
 21
4537.151742
 31
0.0
  0
LINE
  5
3E2
  8
LAYER01
 62
     7
 10
-5455.2910199999997
 20
4527.6664639999999
 30
0.0
 11
-5455.2910199999997
 21
4567.151742
 31
0.0
  0
LINE
  5
3E3
  8
LAYER01
 62
     7
 10
-5647.7910199999997
 20
4527.6664639999999
 30
0.0
 11
-5647.7910199999997
 21
4567.151742
 31
0.0
  0
SOLID
  5
3E4
  8
LAYER01
 62
     7
 10
-5503.2910199999997
 20
4545.151421999999
 30
0.0
 11
-5455.2910199999997
 21
4537.151742
 31
0.0
 12
-5503.2910199999997
 22
4529.1520620000001
 32
0.0
 13
-5503.2910199999997
 23
4529.1520620000001
 33
0.0
  0
SOLID
  5
3E5
  8
LAYER01
 62
     7
 10
-5599.7910200000006
 20
4545.151421999999
 30
0.0
 11
-5647.7910199999997
 21
4537.151742
 31
0.0
 12
-5599.7910200000006
 22
4529.1520620000001
 32
0.0
 13
-5599.7910200000006
 23
4529.1520620000001
 33
0.0
  0
TEXT
  5
3E6
  8
LAYER01
  6
CONTINUOUS
 62
     7
 10
-5599.6950159999997
 20
4567.151742
 30
0.0
 40
60.0
  1
193
  0
POINT
  5
3E7
  8
LAYER01
 62
     7
 10
-5455.2910199999997
 20
4503.6664639999999
 30
0.0
  0
POINT
  5
3E8
  8
LAYER01
 62
     7
 10
-5647.7910199999997
 20
4503.6664639999999
 30
0.0
  0
POINT
  5
3E9
  8
LAYER01
 62
     7
 10
-5647.7910199999997
 20
4537.151742
 30
0.0
  0
ENDBLK
  5
3EA
  8
0
  0
BLOCK
  8
0
  2
*D10
 70
     1
 10
0.0
 20
0.0
 30
0.0
  3
*D10
  1

  0
LINE
  5
3ED
  8
LAYER01
 62
     7
 10
-5647.7910199999997
 20
4537.4684100000004
 30
0.0
 11
-5782.7679680000001
 21
4537.4684100000004
 31
0.0
  0
LINE
  5
3EE
  8
LAYER01
 62
     7
 10
-5647.7910199999997
 20
4527.6664639999999
 30
0.0
 11
-5647.7910199999997
 21
4567.4684100000004
 31
0.0
  0
LINE
  5
3EF
  8
LAYER01
 62
     7
 10
-5782.7679680000001
 20
4527.6664639999999
 30
0.0
 11
-5782.7679680000001
 21
4567.4684100000004
 31
0.0
  0
SOLID
  5
3F0
  8
LAYER01
 62
     7
 10
-5695.7910200000006
 20
4545.4680900000003
 30
0.0
 11
-5647.7910199999997
 21
4537.4684100000004
 31
0.0
 12
-5695.7910200000006
 22
4529.4687299999996
 32
0.0
 13
-5695.7910200000006
 23
4529.4687299999996
 33
0.0
  0
SOLID
  5
3F1
  8
LAYER01
 62
     7
 10
-5734.7679679999992
 20
4545.4680900000003
 30
0.0
 11
-5782.7679680000001
 21
4537.4684100000004
 31
0.0
 12
-5734.7679679999992
 22
4529.4687299999996
 32
0.0
 13
-5734.7679679999992
 23
4529.4687299999996
 33
0.0
  0
TEXT
  5
3F2
  8
LAYER01
  6
CONTINUOUS
 62
     7
 10
-5763.4334900000003
 20
4567.4684100000004
 30
0.0
 40
60.0
  1
135
  0
POINT
  5
3F3
  8
LAYER01
 62
     7
 10
-5647.7910199999997
 20
4503.6664639999999
 30
0.0
  0
POINT
  5
3F4
  8
LAYER01
 62
     7
 10
-5782.7679680000001
 20
4503.6664639999999
 30
0.0
  0
POINT
  5
3F5
  8
LAYER01
 62
     7
 10
-5782.7679680000001
 20
4537.4684100000004
 30
0.0
  0
ENDBLK
  5
3F6
  8
0
  0
BLOCK
  8
0
  2
*D11
 70
     1
 10
0.0
 20
0.0
 30
0.0
  3
*D11
  1

  0
LINE
  5
3F9
  8
LAYER01
 62
     7
 10
-6091.1160039999986
 20
3845.8229139999999
 30
0.0
 11
-6091.1160039999986
 21
3749.8229139999999
 31
0.0
  0
LINE
  5
3FA
  8
LAYER01
 62
     7
 10
-6091.1160039999986
 20
3885.8229139999999
 30
0.0
 11
-6091.1160039999986
 21
3981.8229139999999
 31
0.0
  0
LINE
  5
3FB
  8
LAYER01
 62
     7
 10
-6036.7910199999997
 20
3845.8229139999999
 30
0.0
 11
-6121.1160040000004
 21
3845.8229139999999
 31
0.0
  0
LINE
  5
3FC
  8
LAYER01
 62
     7
 10
-6036.7910199999997
 20
3885.8229139999999
 30
0.0
 11
-6121.1160040000004
 21
3885.8229139999999
 31
0.0
  0
SOLID
  5
3FD
  8
LAYER01
 62
     7
 10
-6083.1163240000014
 20
3797.8229139999999
 30
0.0
 11
-6091.1160039999986
 21
3845.8229139999999
 31
0.0
 12
-6099.1156840000003
 22
3797.8229139999999
 32
0.0
 13
-6099.1156840000003
 23
3797.8229139999999
 33
0.0
  0
SOLID
  5
3FE
  8
LAYER01
 62
     7
 10
-6083.1163240000014
 20
3933.8229139999999
 30
0.0
 11
-6091.1160039999986
 21
3885.8229139999999
 31
0.0
 12
-6099.1156840000003
 22
3933.8229139999999
 32
0.0
 13
-6099.1156840000003
 23
3933.8229139999999
 33
0.0
  0
TEXT
  5
3FF
  8
LAYER01
  6
CONTINUOUS
 62
     7
 10
-6121.1160040000004
 20
4011.8229139999989
 30
0.0
 40
60.0
  1
40
 50
90.0
  0
POINT
  5
400
  8
LAYER01
 62
     7
 10
-6012.7910200000006
 20
3845.8229139999999
 30
0.0
  0
POINT
  5
401
  8
LAYER01
 62
     7
 10
-6012.7910200000006
 20
3885.8229139999999
 30
0.0
  0
POINT
  5
402
  8
LAYER01
 62
     7
 10
-6091.1160039999986
 20
3885.8229139999999
 30
0.0
  0
ENDBLK
  5
403
  8
0
  0
BLOCK
  8
0
  2
*D12
 70
     1
 10
0.0
 20
0.0
 30
0.0
  3
*D12
  1

  0
LINE
  5
406
  8
LAYER01
 62
     7
 10
-6012.7910200000006
 20
4656.0733939999991
 30
0.0
 11
-5455.2910199999997
 21
4656.0733939999991
 31
0.0
  0
LINE
  5
407
  8
LAYER01
 62
     7
 10
-6012.7910200000006
 20
4527.6664639999999
 30
0.0
 11
-6012.7910200000006
 21
4686.073394
 31
0.0
  0
LINE
  5
408
  8
LAYER01
 62
     7
 10
-5455.2910199999997
 20
4527.6664639999999
 30
0.0
 11
-5455.2910199999997
 21
4686.073394
 31
0.0
  0
SOLID
  5
409
  8
LAYER01
 62
     7
 10
-5964.7910199999997
 20
4648.0737140000001
 30
0.0
 11
-6012.7910200000006
 21
4656.0733939999991
 31
0.0
 12
-5964.7910199999997
 22
4664.0730739999999
 32
0.0
 13
-5964.7910199999997
 23
4664.0730739999999
 33
0.0
  0
SOLID
  5
40A
  8
LAYER01
 62
     7
 10
-5503.2910199999997
 20
4648.0737140000001
 30
0.0
 11
-5455.2910199999997
 21
4656.0733939999991
 31
0.0
 12
-5503.2910199999997
 22
4664.0730739999999
 32
0.0
 13
-5503.2910199999997
 23
4664.0730739999999
 33
0.0
  0
TEXT
  5
40B
  8
LAYER01
  6
CONTINUOUS
 62
     7
 10
-5778.9250739999989
 20
4686.073394
 30
0.0
 40
60.0
  1
558
  0
POINT
  5
40C
  8
LAYER01
 62
     7
 10
-6012.7910200000006
 20
4503.6664639999999
 30
0.0
  0
POINT
  5
40D
  8
LAYER01
 62
     7
 10
-5455.2910199999997
 20
4503.6664639999999
 30
0.0
  0
POINT
  5
40E
  8
LAYER01
 62
     7
 10
-5455.2910199999997
 20
4656.0733939999991
 30
0.0
  0
ENDBLK
  5
40F
  8
0
  0
BLOCK
  8
0
  2
*D13
 70
     1
 10
0.0
 20
0.0
 30
0.0
  3
*D13
  1

  0
LINE
  5
412
  8
LAYER01
 62
     7
 10
-6012.7910200000006
 20
4772.0814119999986
 30
0.0
 11
-4897.7910199999997
 21
4772.0814119999986
 31
0.0
  0
LINE
  5
413
  8
LAYER01
 62
     7
 10
-6012.7910200000006
 20
4527.6664639999999
 30
0.0
 11
-6012.7910200000006
 21
4802.0814119999986
 31
0.0
  0
LINE
  5
414
  8
LAYER01
 62
     7
 10
-4897.7910199999997
 20
4527.6664639999999
 30
0.0
 11
-4897.7910199999997
 21
4802.0814119999986
 31
0.0
  0
SOLID
  5
415
  8
LAYER01
 62
     7
 10
-5964.7910199999997
 20
4764.0817319999996
 30
0.0
 11
-6012.7910200000006
 21
4772.0814119999986
 31
0.0
 12
-5964.7910199999997
 22
4780.0810920000004
 32
0.0
 13
-5964.7910199999997
 23
4780.0810920000004
 33
0.0
  0
SOLID
  5
416
  8
LAYER01
 62
     7
 10
-4945.7910200000006
 20
4764.0817319999996
 30
0.0
 11
-4897.7910199999997
 21
4772.0814119999986
 31
0.0
 12
-4945.7910200000006
 22
4780.0810920000004
 32
0.0
 13
-4945.7910200000006
 23
4780.0810920000004
 33
0.0
  0
TEXT
  5
417
  8
LAYER01
  6
CONTINUOUS
 62
     7
 10
-5515.136426
 20
4802.0814119999986
 30
0.0
 40
60.0
  1
1115
  0
POINT
  5
418
  8
LAYER01
 62
     7
 10
-6012.7910200000006
 20
4503.6664639999999
 30
0.0
  0
POINT
  5
419
  8
LAYER01
 62
     7
 10
-4897.7910199999997
 20
4503.6664639999999
 30
0.0
  0
POINT
  5
41A
  8
LAYER01
 62
     7
 10
-4897.7910199999997
 20
4772.0814119999986
 30
0.0
  0
ENDBLK
  5
41B
  8
0
  0
BLOCK
  8
0
  2
*D14
 70
     1
 10
0.0
 20
0.0
 30
0.0
  3
*D14
  1

  0
LINE
  5
41E
  8
LAYER01
 62
     7
 10
-4897.7910199999997
 20
4656.0733939999991
 30
0.0
 11
-5455.2910199999997
 21
4656.0733939999991
 31
0.0
  0
LINE
  5
41F
  8
LAYER01
 62
     7
 10
-4897.7910199999997
 20
4527.6664639999999
 30
0.0
 11
-4897.7910199999997
 21
4686.073394
 31
0.0
  0
LINE
  5
420
  8
LAYER01
 62
     7
 10
-5455.2910199999997
 20
4527.6664639999999
 30
0.0
 11
-5455.2910199999997
 21
4686.073394
 31
0.0
  0
SOLID
  5
421
  8
LAYER01
 62
     7
 10
-4945.7910200000006
 20
4664.0730739999999
 30
0.0
 11
-4897.7910199999997
 21
4656.0733939999991
 31
0.0
 12
-4945.7910200000006
 22
4648.0737140000001
 32
0.0
 13
-4945.7910200000006
 23
4648.0737140000001
 33
0.0
  0
SOLID
  5
422
  8
LAYER01
 62
     7
 10
-5407.2910200000006
 20
4664.0730739999999
 30
0.0
 11
-5455.2910199999997
 21
4656.0733939999991
 31
0.0
 12
-5407.2910200000006
 22
4648.0737140000001
 32
0.0
 13
-5407.2910200000006
 23
4648.0737140000001
 33
0.0
  0
TEXT
  5
423
  8
LAYER01
  6
CONTINUOUS
 62
     7
 10
-5221.4250739999989
 20
4686.073394
 30
0.0
 40
60.0
  1
557
  0
POINT
  5
424
  8
LAYER01
 62
     7
 10
-4897.7910199999997
 20
4503.6664639999999
 30
0.0
  0
POINT
  5
425
  8
LAYER01
 62
     7
 10
-5455.2910199999997
 20
4503.6664639999999
 30
0.0
  0
POINT
  5
426
  8
LAYER01
 62
     7
 10
-5455.2910199999997
 20
4656.0733939999991
 30
0.0
  0
ENDBLK
  5
427
  8
0
  0
BLOCK
  8
0
  2
*D15
 70
     1
 10
0.0
 20
0.0
 30
0.0
  3
*D15
  1

  0
LINE
  5
42A
  8
LAYER01
 62
     7
 10
-4766.3752869999989
 20
4179.0427140000002
 30
0.0
 11
-4766.3752869999989
 21
4479.0427140000011
 31
0.0
  0
LINE
  5
42B
  8
LAYER01
 62
     7
 10
-4873.7910200000006
 20
4179.0427140000002
 30
0.0
 11
-4736.3752869999998
 21
4179.0427140000002
 31
0.0
  0
LINE
  5
42C
  8
LAYER01
 62
     7
 10
-4873.7910200000006
 20
4479.0427140000011
 30
0.0
 11
-4736.3752869999998
 21
4479.0427140000011
 31
0.0
  0
SOLID
  5
42D
  8
LAYER01
 62
     7
 10
-4758.3756069999999
 20
4227.0427140000002
 30
0.0
 11
-4766.3752869999989
 21
4179.0427140000002
 31
0.0
 12
-4774.3749669999988
 22
4227.0427140000002
 32
0.0
 13
-4774.3749669999988
 23
4227.0427140000002
 33
0.0
  0
SOLID
  5
42E
  8
LAYER01
 62
     7
 10
-4758.3756069999999
 20
4431.0427140000002
 30
0.0
 11
-4766.3752869999989
 21
4479.0427140000011
 31
0.0
 12
-4774.3749669999988
 22
4431.0427140000002
 32
0.0
 13
-4774.3749669999988
 23
4431.0427140000002
 33
0.0
  0
TEXT
  5
42F
  8
LAYER01
  6
CONTINUOUS
 62
     7
 10
-4796.3752869999998
 20
4284.1586600000001
 30
0.0
 40
60.0
  1
300
 50
90.0
  0
POINT
  5
430
  8
LAYER01
 62
     7
 10
-4897.7910199999997
 20
4179.0427140000002
 30
0.0
  0
POINT
  5
431
  8
LAYER01
 62
     7
 10
-4897.7910199999997
 20
4479.0427140000011
 30
0.0
  0
POINT
  5
432
  8
LAYER01
 62
     7
 10
-4766.3752869999989
 20
4479.0427140000011
 30
0.0
  0
ENDBLK
  5
433
  8
0
  0
BLOCK
  8
0
  2
*D16
 70
     1
 10
0.0
 20
0.0
 30
0.0
  3
*D16
  1

  0
LINE
  5
436
  8
LAYER01
 62
     7
 10
-6197.8817040000004
 20
3845.8229139999999
 30
0.0
 11
-6197.8817040000004
 21
3941.8229139999999
 31
0.0
  0
LINE
  5
437
  8
LAYER01
 62
     7
 10
-6197.8817040000004
 20
3765.8229139999999
 30
0.0
 11
-6197.8817040000004
 21
3669.8229139999999
 31
0.0
  0
LINE
  5
438
  8
LAYER01
 62
     7
 10
-6036.7910199999997
 20
3845.8229139999999
 30
0.0
 11
-6227.8817040000013
 21
3845.8229139999999
 31
0.0
  0
LINE
  5
439
  8
LAYER01
 62
     7
 10
-6036.7910199999997
 20
3765.8229139999999
 30
0.0
 11
-6227.8817040000013
 21
3765.8229139999999
 31
0.0
  0
SOLID
  5
43A
  8
LAYER01
 62
     7
 10
-6205.8813840000012
 20
3893.8229139999999
 30
0.0
 11
-6197.8817040000004
 21
3845.8229139999999
 31
0.0
 12
-6189.8820239999995
 22
3893.8229139999999
 32
0.0
 13
-6189.8820239999995
 23
3893.8229139999999
 33
0.0
  0
SOLID
  5
43B
  8
LAYER01
 62
     7
 10
-6205.8813840000012
 20
3717.8229139999999
 30
0.0
 11
-6197.8817040000004
 21
3765.8229139999999
 31
0.0
 12
-6189.8820239999995
 22
3717.8229139999999
 32
0.0
 13
-6189.8820239999995
 23
3717.8229139999999
 33
0.0
  0
TEXT
  5
43C
  8
LAYER01
  6
CONTINUOUS
 62
     7
 10
-6227.8817040000013
 20
3971.8229139999999
 30
0.0
 40
60.0
  1
80
 50
90.0
  0
POINT
  5
43D
  8
LAYER01
 62
     7
 10
-6012.7910200000006
 20
3845.8229139999999
 30
0.0
  0
POINT
  5
43E
  8
LAYER01
 62
     7
 10
-6012.7910200000006
 20
3765.8229139999999
 30
0.0
  0
POINT
  5
43F
  8
LAYER01
 62
     7
 10
-6197.8817040000004
 20
3765.8229139999999
 30
0.0
  0
ENDBLK
  5
440
  8
0
  0
BLOCK
  8
0
  2
*D17
 70
     1
 10
0.0
 20
0.0
 30
0.0
  3
*D17
  1

  0
LINE
  5
443
  8
LAYER01
 62
     7
 10
-3925.379782
 20
3885.8229139999999
 30
0.0
 11
-3925.379782
 21
3708.6484140000011
 31
0.0
  0
LINE
  5
444
  8
LAYER01
 62
     7
 10
-3992.9891210000001
 20
3885.8229139999999
 30
0.0
 11
-3895.379782
 21
3885.8229139999999
 31
0.0
  0
LINE
  5
445
  8
LAYER01
 62
     7
 10
-3992.9891210000001
 20
3708.6484140000011
 30
0.0
 11
-3895.379782
 21
3708.6484140000011
 31
0.0
  0
SOLID
  5
446
  8
LAYER01
 62
     7
 10
-3933.3794619999999
 20
3837.8229139999999
 30
0.0
 11
-3925.379782
 21
3885.8229139999999
 31
0.0
 12
-3917.380102000001
 22
3837.8229139999999
 32
0.0
 13
-3917.380102000001
 23
3837.8229139999999
 33
0.0
  0
SOLID
  5
447
  8
LAYER01
 62
     7
 10
-3933.3794619999999
 20
3756.6484139999998
 30
0.0
 11
-3925.379782
 21
3708.6484140000011
 31
0.0
 12
-3917.380102000001
 22
3756.6484139999998
 32
0.0
 13
-3917.380102000001
 23
3756.6484139999998
 33
0.0
  0
TEXT
  5
448
  8
LAYER01
  6
CONTINUOUS
 62
     7
 10
-3955.379782
 20
3752.072720000001
 30
0.0
 40
60.0
  1
177
 50
90.0
  0
POINT
  5
449
  8
LAYER01
 62
     7
 10
-4016.9891210000001
 20
3885.8229139999999
 30
0.0
  0
POINT
  5
44A
  8
LAYER01
 62
     7
 10
-4016.9891210000001
 20
3708.6484140000011
 30
0.0
  0
POINT
  5
44B
  8
LAYER01
 62
     7
 10
-3925.379782
 20
3708.6484140000011
 30
0.0
  0
ENDBLK
  5
44C
  8
0
  0
BLOCK
  8
0
  2
*D18
 70
     1
 10
0.0
 20
0.0
 30
0.0
  3
*D18
  1

  0
LINE
  5
44F
  8
LAYER01
 62
     7
 10
-4431.0714039999993
 20
3845.8229139999999
 30
0.0
 11
-4431.0714039999993
 21
3941.8229139999999
 31
0.0
  0
LINE
  5
450
  8
LAYER01
 62
     7
 10
-4431.0714039999993
 20
3765.8229139999999
 30
0.0
 11
-4431.0714039999993
 21
3669.8229139999999
 31
0.0
  0
LINE
  5
451
  8
LAYER01
 62
     7
 10
-4391.240096999999
 20
3845.8229139999999
 30
0.0
 11
-4461.0714040000012
 21
3845.8229139999999
 31
0.0
  0
LINE
  5
452
  8
LAYER01
 62
     7
 10
-4391.240096999999
 20
3765.8229139999999
 30
0.0
 11
-4461.0714040000012
 21
3765.8229139999999
 31
0.0
  0
SOLID
  5
453
  8
LAYER01
 62
     7
 10
-4439.0710840000002
 20
3893.8229139999999
 30
0.0
 11
-4431.0714039999993
 21
3845.8229139999999
 31
0.0
 12
-4423.0717240000004
 22
3893.8229139999999
 32
0.0
 13
-4423.0717240000004
 23
3893.8229139999999
 33
0.0
  0
SOLID
  5
454
  8
LAYER01
 62
     7
 10
-4439.0710840000002
 20
3717.8229139999999
 30
0.0
 11
-4431.0714039999993
 21
3765.8229139999999
 31
0.0
 12
-4423.0717240000004
 22
3717.8229139999999
 32
0.0
 13
-4423.0717240000004
 23
3717.8229139999999
 33
0.0
  0
TEXT
  5
455
  8
LAYER01
  6
CONTINUOUS
 62
     7
 10
-4461.0714040000012
 20
3971.8229139999999
 30
0.0
 40
60.0
  1
80
 50
90.0
  0
POINT
  5
456
  8
LAYER01
 62
     7
 10
-4367.240096999999
 20
3845.8229139999999
 30
0.0
  0
POINT
  5
457
  8
LAYER01
 62
     7
 10
-4367.240096999999
 20
3765.8229139999999
 30
0.0
  0
POINT
  5
458
  8
LAYER01
 62
     7
 10
-4431.0714039999993
 20
3765.8229139999999
 30
0.0
  0
ENDBLK
  5
459
  8
0
  0
BLOCK
  8
0
  2
*D19
 70
     1
 10
0.0
 20
0.0
 30
0.0
  3
*D19
  1

  0
LINE
  5
45C
  8
LAYER01
 62
     7
 10
-4091.1145999999999
 20
3634.0093219999999
 30
0.0
 11
-3995.1145999999999
 21
3634.0093219999999
 31
0.0
  0
LINE
  5
45D
  8
LAYER01
 62
     7
 10
-4137.1145999999999
 20
3634.0093219999999
 30
0.0
 11
-4233.114599999999
 21
3634.0093219999999
 31
0.0
  0
LINE
  5
45E
  8
LAYER01
 62
     7
 10
-4091.1145999999999
 20
3684.6484139999998
 30
0.0
 11
-4091.1145999999999
 21
3604.0093219999999
 31
0.0
  0
LINE
  5
45F
  8
LAYER01
 62
     7
 10
-4137.1145999999999
 20
3684.6484139999998
 30
0.0
 11
-4137.1145999999999
 21
3604.0093219999999
 31
0.0
  0
SOLID
  5
460
  8
LAYER01
 62
     7
 10
-4043.1145999999999
 20
3642.0090019999998
 30
0.0
 11
-4091.1145999999999
 21
3634.0093219999999
 31
0.0
 12
-4043.1145999999999
 22
3626.009642
 32
0.0
 13
-4043.1145999999999
 23
3626.009642
 33
0.0
  0
SOLID
  5
461
  8
LAYER01
 62
     7
 10
-4185.1145999999999
 20
3642.0090019999998
 30
0.0
 11
-4137.1145999999999
 21
3634.0093219999999
 31
0.0
 12
-4185.1145999999999
 22
3626.009642
 32
0.0
 13
-4185.1145999999999
 23
3626.009642
 33
0.0
  0
TEXT
  5
462
  8
LAYER01
  6
CONTINUOUS
 62
     7
 10
-4023.2696230000001
 20
3638.4376090000001
 30
0.0
 40
60.0
  1
46
  0
POINT
  5
463
  8
LAYER01
 62
     7
 10
-4091.1145999999999
 20
3708.6484140000011
 30
0.0
  0
POINT
  5
464
  8
LAYER01
 62
     7
 10
-4137.1145999999999
 20
3708.6484140000011
 30
0.0
  0
POINT
  5
465
  8
LAYER01
 62
     7
 10
-4137.1145999999999
 20
3634.0093219999999
 30
0.0
  0
ENDBLK
  5
466
  8
0
  0
BLOCK
  8
0
  2
*D20
 70
     1
 10
0.0
 20
0.0
 30
0.0
  3
*D20
  1

  0
LINE
  5
469
  8
LAYER01
 62
     7
 10
1404.1343529999999
 20
4503.6664639999999
 30
0.0
 11
1404.1343529999999
 21
4328.6664639999999
 31
0.0
  0
LINE
  5
46A
  8
LAYER01
 62
     7
 10
1186.959875
 20
4503.6664639999999
 30
0.0
 11
1434.1343529999999
 21
4503.6664639999999
 31
0.0
  0
LINE
  5
46B
  8
LAYER01
 62
     7
 10
1186.959875
 20
4328.6664639999999
 30
0.0
 11
1434.1343529999999
 21
4328.6664639999999
 31
0.0
  0
SOLID
  5
46C
  8
LAYER01
 62
     7
 10
1396.134673
 20
4455.6664639999999
 30
0.0
 11
1404.1343529999999
 21
4503.6664639999999
 31
0.0
 12
1412.134033
 22
4455.6664639999999
 32
0.0
 13
1412.134033
 23
4455.6664639999999
 33
0.0
  0
SOLID
  5
46D
  8
LAYER01
 62
     7
 10
1396.134673
 20
4376.6664639999999
 30
0.0
 11
1404.1343529999999
 21
4328.6664639999999
 31
0.0
 12
1412.134033
 22
4376.6664639999999
 32
0.0
 13
1412.134033
 23
4376.6664639999999
 33
0.0
  0
TEXT
  5
46E
  8
LAYER01
  6
CONTINUOUS
 62
     7
 10
1374.1343529999999
 20
4369.8656920000003
 30
0.0
 40
60.0
  1
175
 50
90.0
  0
POINT
  5
46F
  8
LAYER01
 62
     7
 10
1162.959875
 20
4503.6664639999999
 30
0.0
  0
POINT
  5
470
  8
LAYER01
 62
     7
 10
1162.959875
 20
4328.6664639999999
 30
0.0
  0
POINT
  5
471
  8
LAYER01
 62
     7
 10
1404.1343529999999
 20
4328.6664639999999
 30
0.0
  0
ENDBLK
  5
472
  8
0
  0
BLOCK
  8
0
  2
*D21
 70
     1
 10
0.0
 20
0.0
 30
0.0
  3
*D21
  1

  0
LINE
  5
475
  8
LAYER01
 62
     7
 10
-5795.5935149999996
 20
4340.5725700000003
 30
0.0
 11
-5845.0828190000002
 21
4386.5140709999996
 31
0.0
  0
LINE
  5
476
  8
LAYER01
 62
     7
 10
-5845.0828190000002
 20
4386.5140709999996
 30
0.0
 11
-5851.9496490000001
 21
4386.5140709999996
 31
0.0
  0
SOLID
  5
477
  8
LAYER01
 62
     7
 10
-5825.3295840000001
 20
4379.092189
 30
0.0
 11
-5795.5935149999996
 21
4340.5725700000003
 31
0.0
 12
-5836.214731
 22
4367.3664439999993
 32
0.0
 13
-5836.214731
 23
4367.3664439999993
 33
0.0
  0
TEXT
  5
478
  8
LAYER01
  6
CONTINUOUS
 62
     7
 10
-5977.525071
 20
4356.5140710000014
 30
0.0
 40
60.0
  1
%%c35
  0
POINT
  5
479
  8
LAYER01
 62
     7
 10
-5782.7679680000001
 20
4328.6664639999999
 30
0.0
  0
POINT
  5
47A
  8
LAYER01
 62
     7
 10
-5845.0828190000002
 20
4386.5140709999996
 30
0.0
  0
ENDBLK
  5
47B
  8
0
  0
BLOCK
  8
0
  2
*D22
 70
     1
 10
0.0
 20
0.0
 30
0.0
  3
*D22
  1

  0
LINE
  5
47E
  8
LAYER01
 62
     7
 10
-4079.3316700000009
 20
3730.8229139999999
 30
0.0
 11
-4079.3316700000009
 21
3845.8711659999999
 31
0.0
  0
LINE
  5
47F
  8
LAYER01
 62
     7
 10
-4102.9891029999999
 20
3730.8229139999999
 30
0.0
 11
-4109.3316699999996
 21
3730.8229139999999
 31
0.0
  0
LINE
  5
480
  8
LAYER01
 62
     7
 10
-4102.9891029999999
 20
3845.8711659999999
 30
0.0
 11
-4109.3316699999996
 21
3845.8711659999999
 31
0.0
  0
SOLID
  5
481
  8
LAYER01
 62
     7
 10
-4071.3319900000001
 20
3778.8229139999999
 30
0.0
 11
-4079.3316700000009
 21
3730.8229139999999
 31
0.0
 12
-4087.3313499999999
 22
3778.8229139999999
 32
0.0
 13
-4087.3313499999999
 23
3778.8229139999999
 33
0.0
  0
SOLID
  5
482
  8
LAYER01
 62
     7
 10
-4071.3319900000001
 20
3797.8711659999999
 30
0.0
 11
-4079.3316700000009
 21
3845.8711659999999
 31
0.0
 12
-4087.3313499999999
 22
3797.8711659999999
 32
0.0
 13
-4087.3313499999999
 23
3797.8711659999999
 33
0.0
  0
TEXT
  5
483
  8
LAYER01
  6
CONTINUOUS
 62
     7
 10
-4109.3316699999996
 20
3742.1390879999999
 30
0.0
 40
60.0
  1
115
 50
90.0
  0
POINT
  5
484
  8
LAYER01
 62
     7
 10
-4078.9891029999999
 20
3730.8229139999999
 30
0.0
  0
POINT
  5
485
  8
LAYER01
 62
     7
 10
-4078.9891029999999
 20
3845.8711659999999
 30
0.0
  0
POINT
  5
486
  8
LAYER01
 62
     7
 10
-4079.3316700000009
 20
3845.8711659999999
 30
0.0
  0
ENDBLK
  5
487
  8
0
  0
BLOCK
  8
0
  2
*D23
 70
     1
 10
0.0
 20
0.0
 30
0.0
  3
*D23
  1

  0
LINE
  5
48A
  8
LAYER01
 62
     7
 10
605.45987500000001
 20
4652.3002589999996
 30
0.0
 11
47.95987499999999
 21
4652.3002589999996
 31
0.0
  0
LINE
  5
48B
  8
LAYER01
 62
     7
 10
605.45987500000001
 20
4527.6664639999999
 30
0.0
 11
605.45987500000001
 21
4682.3002589999996
 31
0.0
  0
LINE
  5
48C
  8
LAYER01
 62
     7
 10
47.95987499999999
 20
4527.6664639999999
 30
0.0
 11
47.95987499999999
 21
4682.3002589999996
 31
0.0
  0
SOLID
  5
48D
  8
LAYER01
 62
     7
 10
557.4598749999999
 20
4660.2999390000004
 30
0.0
 11
605.45987500000001
 21
4652.3002589999996
 31
0.0
 12
557.4598749999999
 22
4644.3005789999997
 32
0.0
 13
557.4598749999999
 23
4644.3005789999997
 33
0.0
  0
SOLID
  5
48E
  8
LAYER01
 62
     7
 10
95.959874999999997
 20
4660.2999390000004
 30
0.0
 11
47.95987499999999
 21
4652.3002589999996
 31
0.0
 12
95.959874999999997
 22
4644.3005789999997
 32
0.0
 13
95.959874999999997
 23
4644.3005789999997
 33
0.0
  0
TEXT
  5
48F
  8
LAYER01
  6
CONTINUOUS
 62
     7
 10
280.40910300000002
 20
4682.3002589999996
 30
0.0
 40
60.0
  1
557
  0
POINT
  5
490
  8
LAYER01
 62
     7
 10
605.45987500000001
 20
4503.6664639999999
 30
0.0
  0
POINT
  5
491
  8
LAYER01
 62
     7
 10
47.95987499999999
 20
4503.6664639999999
 30
0.0
  0
POINT
  5
492
  8
LAYER01
 62
     7
 10
47.95987499999999
 20
4652.3002589999996
 30
0.0
  0
ENDBLK
  5
493
  8
0
  0
BLOCK
  8
0
  2
*D24
 70
     1
 10
0.0
 20
0.0
 30
0.0
  3
*D24
  1

  0
LINE
  5
496
  8
LAYER01
 62
     7
 10
1162.959875
 20
4762.3737929999998
 30
0.0
 11
47.95987499999999
 21
4762.3737929999998
 31
0.0
  0
LINE
  5
497
  8
LAYER01
 62
     7
 10
1162.959875
 20
4527.6664639999999
 30
0.0
 11
1162.959875
 21
4792.3737929999998
 31
0.0
  0
LINE
  5
498
  8
LAYER01
 62
     7
 10
47.95987499999999
 20
4527.6664639999999
 30
0.0
 11
47.95987499999999
 21
4792.3737929999998
 31
0.0
  0
SOLID
  5
499
  8
LAYER01
 62
     7
 10
1114.959875
 20
4770.3734729999996
 30
0.0
 11
1162.959875
 21
4762.3737929999998
 31
0.0
 12
1114.959875
 22
4754.3741129999989
 32
0.0
 13
1114.959875
 23
4754.3741129999989
 33
0.0
  0
SOLID
  5
49A
  8
LAYER01
 62
     7
 10
95.959874999999997
 20
4770.3734729999996
 30
0.0
 11
47.95987499999999
 21
4762.3737929999998
 31
0.0
 12
95.959874999999997
 22
4754.3741129999989
 32
0.0
 13
95.959874999999997
 23
4754.3741129999989
 33
0.0
  0
TEXT
  5
49B
  8
LAYER01
  6
CONTINUOUS
 62
     7
 10
543.72551199999987
 20
4792.3737929999998
 30
0.0
 40
60.0
  1
1115
  0
POINT
  5
49C
  8
LAYER01
 62
     7
 10
1162.959875
 20
4503.6664639999999
 30
0.0
  0
POINT
  5
49D
  8
LAYER01
 62
     7
 10
47.95987499999999
 20
4503.6664639999999
 30
0.0
  0
POINT
  5
49E
  8
LAYER01
 62
     7
 10
47.95987499999999
 20
4762.3737929999998
 30
0.0
  0
ENDBLK
  5
49F
  8
0
  0
BLOCK
  8
0
  2
*D25
 70
     1
 10
0.0
 20
0.0
 30
0.0
  3
*D25
  1

  0
LINE
  5
4A2
  8
LAYER01
 62
     7
 10
357.93568699999997
 20
4068.7358100000001
 30
0.0
 11
47.95987499999999
 21
4068.7358100000001
 31
0.0
  0
LINE
  5
4A3
  8
LAYER01
 62
     7
 10
357.93568699999997
 20
4129.6664639999999
 30
0.0
 11
357.93568699999997
 21
4038.7358100000001
 31
0.0
  0
LINE
  5
4A4
  8
LAYER01
 62
     7
 10
47.95987499999999
 20
4129.6664639999999
 30
0.0
 11
47.95987499999999
 21
4038.7358100000001
 31
0.0
  0
SOLID
  5
4A5
  8
LAYER01
 62
     7
 10
309.93568699999997
 20
4076.7354899999991
 30
0.0
 11
357.93568699999997
 21
4068.7358100000001
 31
0.0
 12
309.93568699999997
 22
4060.7361299999998
 32
0.0
 13
309.93568699999997
 23
4060.7361299999998
 33
0.0
  0
SOLID
  5
4A6
  8
LAYER01
 62
     7
 10
95.959874999999997
 20
4076.7354899999991
 30
0.0
 11
47.95987499999999
 21
4068.7358100000001
 31
0.0
 12
95.959874999999997
 22
4060.7361299999998
 32
0.0
 13
95.959874999999997
 23
4060.7361299999998
 33
0.0
  0
TEXT
  5
4A7
  8
LAYER01
  6
VERDECKT
 62
     7
 10
157.664535
 20
4098.7358099999992
 30
0.0
 40
60.0
  1
310
  0
POINT
  5
4A8
  8
LAYER01
 62
     7
 10
357.93568699999997
 20
4153.666463999999
 30
0.0
  0
POINT
  5
4A9
  8
LAYER01
 62
     7
 10
47.95987499999999
 20
4153.666463999999
 30
0.0
  0
POINT
  5
4AA
  8
LAYER01
 62
     7
 10
47.95987499999999
 20
4068.7358100000001
 30
0.0
  0
ENDBLK
  5
4AB
  8
0
  0
BLOCK
  8
0
  2
*D26
 70
     1
 10
0.0
 20
0.0
 30
0.0
  3
*D26
  1

  0
LINE
  5
4AE
  8
LAYER01
 62
     7
 10
-27.431857000000001
 20
4479.0427140000011
 30
0.0
 11
-27.431857000000001
 21
4179.0427140000002
 31
0.0
  0
LINE
  5
4AF
  8
LAYER01
 62
     7
 10
23.959875
 20
4479.0427140000011
 30
0.0
 11
-57.431856999999987
 21
4479.0427140000011
 31
0.0
  0
LINE
  5
4B0
  8
LAYER01
 62
     7
 10
23.959875
 20
4179.0427140000002
 30
0.0
 11
-57.431856999999987
 21
4179.0427140000002
 31
0.0
  0
SOLID
  5
4B1
  8
LAYER01
 62
     7
 10
-35.431536999999999
 20
4431.0427140000002
 30
0.0
 11
-27.431857000000001
 21
4479.0427140000011
 31
0.0
 12
-19.432176999999999
 22
4431.0427140000002
 32
0.0
 13
-19.432176999999999
 23
4431.0427140000002
 33
0.0
  0
SOLID
  5
4B2
  8
LAYER01
 62
     7
 10
-35.431536999999999
 20
4227.0427140000002
 30
0.0
 11
-27.431857000000001
 21
4179.0427140000002
 31
0.0
 12
-19.432176999999999
 22
4227.0427140000002
 32
0.0
 13
-19.432176999999999
 23
4227.0427140000002
 33
0.0
  0
TEXT
  5
4B3
  8
LAYER01
  6
CONTINUOUS
 62
     7
 10
-57.431856999999987
 20
4275.0706469999986
 30
0.0
 40
60.0
  1
300
 50
90.0
  0
POINT
  5
4B4
  8
LAYER01
 62
     7
 10
47.95987499999999
 20
4479.0427140000011
 30
0.0
  0
POINT
  5
4B5
  8
LAYER01
 62
     7
 10
47.95987499999999
 20
4179.0427140000002
 30
0.0
  0
POINT
  5
4B6
  8
LAYER01
 62
     7
 10
-27.431857000000001
 20
4179.0427140000002
 30
0.0
  0
ENDBLK
  5
4B7
  8
0
  0
BLOCK
  8
0
  2
*D27
 70
     1
 10
0.0
 20
0.0
 30
0.0
  3
*D27
  1

  0
LINE
  5
4BA
  8
LAYER01
 62
     7
 10
-153.78471099999999
 20
4503.6664639999999
 30
0.0
 11
-153.78471099999999
 21
4153.666463999999
 31
0.0
  0
LINE
  5
4BB
  8
LAYER01
 62
     7
 10
23.959875
 20
4503.6664639999999
 30
0.0
 11
-183.78471099999999
 21
4503.6664639999999
 31
0.0
  0
LINE
  5
4BC
  8
LAYER01
 62
     7
 10
23.959875
 20
4153.666463999999
 30
0.0
 11
-183.78471099999999
 21
4153.666463999999
 31
0.0
  0
SOLID
  5
4BD
  8
LAYER01
 62
     7
 10
-161.784391
 20
4455.6664639999999
 30
0.0
 11
-153.78471099999999
 21
4503.6664639999999
 31
0.0
 12
-145.785031
 22
4455.6664639999999
 32
0.0
 13
-145.785031
 23
4455.6664639999999
 33
0.0
  0
SOLID
  5
4BE
  8
LAYER01
 62
     7
 10
-161.784391
 20
4201.6664639999999
 30
0.0
 11
-153.78471099999999
 21
4153.666463999999
 31
0.0
 12
-145.785031
 22
4201.6664639999999
 32
0.0
 13
-145.785031
 23
4201.6664639999999
 33
0.0
  0
TEXT
  5
4BF
  8
LAYER01
  6
CONTINUOUS
 62
     7
 10
-183.78471099999999
 20
4282.3656920000003
 30
0.0
 40
60.0
  1
350
 50
90.0
  0
POINT
  5
4C0
  8
LAYER01
 62
     7
 10
47.95987499999999
 20
4503.6664639999999
 30
0.0
  0
POINT
  5
4C1
  8
LAYER01
 62
     7
 10
47.95987499999999
 20
4153.666463999999
 30
0.0
  0
POINT
  5
4C2
  8
LAYER01
 62
     7
 10
-153.78471099999999
 20
4153.666463999999
 30
0.0
  0
ENDBLK
  5
4C3
  8
0
  0
BLOCK
  8
0
  2
*D28
 70
     1
 10
0.0
 20
0.0
 30
0.0
  3
*D28
  1

  0
LINE
  5
4C6
  8
LAYER01
 62
     7
 10
8.9113990000000012
 20
3845.8229139999999
 30
0.0
 11
8.9113990000000012
 21
3749.8229139999999
 31
0.0
  0
LINE
  5
4C7
  8
LAYER01
 62
     7
 10
8.9113990000000012
 20
3885.8229139999999
 30
0.0
 11
8.9113990000000012
 21
3981.8229139999999
 31
0.0
  0
LINE
  5
4C8
  8
LAYER01
 62
     7
 10
23.959875
 20
3845.8229139999999
 30
0.0
 11
-21.088601000000001
 21
3845.8229139999999
 31
0.0
  0
LINE
  5
4C9
  8
LAYER01
 62
     7
 10
23.959875
 20
3885.8229139999999
 30
0.0
 11
-21.088601000000001
 21
3885.8229139999999
 31
0.0
  0
SOLID
  5
4CA
  8
LAYER01
 62
     7
 10
16.911079000000001
 20
3797.8229139999999
 30
0.0
 11
8.9113990000000012
 21
3845.8229139999999
 31
0.0
 12
0.911719
 22
3797.8229139999999
 32
0.0
 13
0.911719
 23
3797.8229139999999
 33
0.0
  0
SOLID
  5
4CB
  8
LAYER01
 62
     7
 10
16.911079000000001
 20
3933.8229139999999
 30
0.0
 11
8.9113990000000012
 21
3885.8229139999999
 31
0.0
 12
0.911719
 22
3933.8229139999999
 32
0.0
 13
0.911719
 23
3933.8229139999999
 33
0.0
  0
TEXT
  5
4CC
  8
LAYER01
  6
CONTINUOUS
 62
     7
 10
-21.088601000000001
 20
4011.8229139999989
 30
0.0
 40
60.0
  1
40
 50
90.0
  0
POINT
  5
4CD
  8
LAYER01
 62
     7
 10
47.95987499999999
 20
3845.8229139999999
 30
0.0
  0
POINT
  5
4CE
  8
LAYER01
 62
     7
 10
47.95987499999999
 20
3885.8229139999999
 30
0.0
  0
POINT
  5
4CF
  8
LAYER01
 62
     7
 10
8.9113990000000012
 20
3885.8229139999999
 30
0.0
  0
ENDBLK
  5
4D0
  8
0
  0
BLOCK
  8
0
  2
*D29
 70
     1
 10
0.0
 20
0.0
 30
0.0
  3
*D29
  1

  0
LINE
  5
4D3
  8
LAYER01
 62
     7
 10
-97.214997999999994
 20
3845.8229139999999
 30
0.0
 11
-97.214997999999994
 21
3941.8229139999999
 31
0.0
  0
LINE
  5
4D4
  8
LAYER01
 62
     7
 10
-97.214997999999994
 20
3765.8229139999999
 30
0.0
 11
-97.214997999999994
 21
3669.8229139999999
 31
0.0
  0
LINE
  5
4D5
  8
LAYER01
 62
     7
 10
23.959875
 20
3845.8229139999999
 30
0.0
 11
-127.21499799999999
 21
3845.8229139999999
 31
0.0
  0
LINE
  5
4D6
  8
LAYER01
 62
     7
 10
23.959875
 20
3765.8229139999999
 30
0.0
 11
-127.21499799999999
 21
3765.8229139999999
 31
0.0
  0
SOLID
  5
4D7
  8
LAYER01
 62
     7
 10
-105.21467800000001
 20
3893.8229139999999
 30
0.0
 11
-97.214997999999994
 21
3845.8229139999999
 31
0.0
 12
-89.215318000000025
 22
3893.8229139999999
 32
0.0
 13
-89.215318000000025
 23
3893.8229139999999
 33
0.0
  0
SOLID
  5
4D8
  8
LAYER01
 62
     7
 10
-105.21467800000001
 20
3717.8229139999999
 30
0.0
 11
-97.214997999999994
 21
3765.8229139999999
 31
0.0
 12
-89.215318000000025
 22
3717.8229139999999
 32
0.0
 13
-89.215318000000025
 23
3717.8229139999999
 33
0.0
  0
TEXT
  5
4D9
  8
LAYER01
  6
CONTINUOUS
 62
     7
 10
-127.21499799999999
 20
3971.8229139999999
 30
0.0
 40
60.0
  1
80
 50
90.0
  0
POINT
  5
4DA
  8
LAYER01
 62
     7
 10
47.95987499999999
 20
3845.8229139999999
 30
0.0
  0
POINT
  5
4DB
  8
LAYER01
 62
     7
 10
47.95987499999999
 20
3765.8229139999999
 30
0.0
  0
POINT
  5
4DC
  8
LAYER01
 62
     7
 10
-97.214997999999994
 20
3765.8229139999999
 30
0.0
  0
ENDBLK
  5
4DD
  8
0
  0
BLOCK
  8
0
  2
*D30
 70
     1
 10
0.0
 20
0.0
 30
0.0
  3
*D30
  1

  0
LINE
  5
4E0
  8
LAYER01
 62
     7
 10
605.45987500000001
 20
4537.151742
 30
0.0
 11
797.95987500000001
 21
4537.151742
 31
0.0
  0
LINE
  5
4E1
  8
LAYER01
 62
     7
 10
605.45987500000001
 20
4527.6664639999999
 30
0.0
 11
605.45987500000001
 21
4567.151742
 31
0.0
  0
LINE
  5
4E2
  8
LAYER01
 62
     7
 10
797.95987500000001
 20
4527.6664639999999
 30
0.0
 11
797.95987500000001
 21
4567.151742
 31
0.0
  0
SOLID
  5
4E3
  8
LAYER01
 62
     7
 10
653.45987500000001
 20
4529.1520620000001
 30
0.0
 11
605.45987500000001
 21
4537.151742
 31
0.0
 12
653.45987500000001
 22
4545.151421999999
 32
0.0
 13
653.45987500000001
 23
4545.151421999999
 33
0.0
  0
SOLID
  5
4E4
  8
LAYER01
 62
     7
 10
749.95987500000001
 20
4529.1520620000001
 30
0.0
 11
797.95987500000001
 21
4537.151742
 31
0.0
 12
749.95987500000001
 22
4545.151421999999
 32
0.0
 13
749.95987500000001
 23
4545.151421999999
 33
0.0
  0
TEXT
  5
4E5
  8
LAYER01
  6
CONTINUOUS
 62
     7
 10
655.40910300000007
 20
4567.151742
 30
0.0
 40
60.0
  1
193
  0
POINT
  5
4E6
  8
LAYER01
 62
     7
 10
605.45987500000001
 20
4503.6664639999999
 30
0.0
  0
POINT
  5
4E7
  8
LAYER01
 62
     7
 10
797.95987500000001
 20
4503.6664639999999
 30
0.0
  0
POINT
  5
4E8
  8
LAYER01
 62
     7
 10
797.95987500000001
 20
4537.151742
 30
0.0
  0
ENDBLK
  5
4E9
  8
0
  0
BLOCK
  8
0
  2
*D31
 70
     1
 10
0.0
 20
0.0
 30
0.0
  3
*D31
  1

  0
LINE
  5
4EC
  8
LAYER01
 62
     7
 10
605.45987500000001
 20
4652.3002589999996
 30
0.0
 11
1162.959875
 21
4652.3002589999996
 31
0.0
  0
LINE
  5
4ED
  8
LAYER01
 62
     7
 10
605.45987500000001
 20
4527.6664639999999
 30
0.0
 11
605.45987500000001
 21
4682.3002589999996
 31
0.0
  0
LINE
  5
4EE
  8
LAYER01
 62
     7
 10
1162.959875
 20
4527.6664639999999
 30
0.0
 11
1162.959875
 21
4682.3002589999996
 31
0.0
  0
SOLID
  5
4EF
  8
LAYER01
 62
     7
 10
653.45987500000001
 20
4644.3005789999997
 30
0.0
 11
605.45987500000001
 21
4652.3002589999996
 31
0.0
 12
653.45987500000001
 22
4660.2999390000004
 32
0.0
 13
653.45987500000001
 23
4660.2999390000004
 33
0.0
  0
SOLID
  5
4F0
  8
LAYER01
 62
     7
 10
1114.959875
 20
4644.3005789999997
 30
0.0
 11
1162.959875
 21
4652.3002589999996
 31
0.0
 12
1114.959875
 22
4660.2999390000004
 32
0.0
 13
1114.959875
 23
4660.2999390000004
 33
0.0
  0
TEXT
  5
4F1
  8
LAYER01
  6
CONTINUOUS
 62
     7
 10
837.90910300000007
 20
4682.3002589999996
 30
0.0
 40
60.0
  1
557
  0
POINT
  5
4F2
  8
LAYER01
 62
     7
 10
605.45987500000001
 20
4503.6664639999999
 30
0.0
  0
POINT
  5
4F3
  8
LAYER01
 62
     7
 10
1162.959875
 20
4503.6664639999999
 30
0.0
  0
POINT
  5
4F4
  8
LAYER01
 62
     7
 10
1162.959875
 20
4652.3002589999996
 30
0.0
  0
ENDBLK
  5
4F5
  8
0
  0
BLOCK
  8
0
  2
*D32
 70
     1
 10
0.0
 20
0.0
 30
0.0
  3
*D32
  1

  0
LINE
  5
4F8
  8
LAYER01
 62
     7
 10
357.93568699999997
 20
4068.6100579999988
 30
0.0
 11
862.9356869999998
 21
4068.6100579999988
 31
0.0
  0
LINE
  5
4F9
  8
LAYER01
 62
     7
 10
357.93568699999997
 20
4129.6664639999999
 30
0.0
 11
357.93568699999997
 21
4038.6100579999988
 31
0.0
  0
LINE
  5
4FA
  8
LAYER01
 62
     7
 10
862.9356869999998
 20
4129.6664639999999
 30
0.0
 11
862.9356869999998
 21
4038.6100579999988
 31
0.0
  0
SOLID
  5
4FB
  8
LAYER01
 62
     7
 10
405.93568699999997
 20
4060.6103779999999
 30
0.0
 11
357.93568699999997
 21
4068.6100579999988
 31
0.0
 12
405.93568699999997
 22
4076.609738000001
 32
0.0
 13
405.93568699999997
 23
4076.609738000001
 33
0.0
  0
SOLID
  5
4FC
  8
LAYER01
 62
     7
 10
814.93568700000003
 20
4060.6103779999999
 30
0.0
 11
862.9356869999998
 21
4068.6100579999988
 31
0.0
 12
814.93568700000003
 22
4076.609738000001
 32
0.0
 13
814.93568700000003
 23
4076.609738000001
 33
0.0
  0
TEXT
  5
4FD
  8
LAYER01
  6
CONTINUOUS
 62
     7
 10
563.85645599999987
 20
4098.6100580000011
 30
0.0
 40
60.0
  1
505
  0
POINT
  5
4FE
  8
LAYER01
 62
     7
 10
357.93568699999997
 20
4153.666463999999
 30
0.0
  0
POINT
  5
4FF
  8
LAYER01
 62
     7
 10
862.9356869999998
 20
4153.666463999999
 30
0.0
  0
POINT
  5
500
  8
LAYER01
 62
     7
 10
862.9356869999998
 20
4068.6100579999988
 30
0.0
  0
ENDBLK
  5
501
  8
0
  0
BLOCK
  8
0
  2
*D33
 70
     1
 10
0.0
 20
0.0
 30
0.0
  3
*D33
  1

  0
LINE
  5
504
  8
LAYER01
 62
     7
 10
1246.0591569999999
 20
4503.6664639999999
 30
0.0
 11
1246.0591569999999
 21
4406.666463999999
 31
0.0
  0
LINE
  5
505
  8
LAYER01
 62
     7
 10
1186.959875
 20
4503.6664639999999
 30
0.0
 11
1276.0591569999999
 21
4503.6664639999999
 31
0.0
  0
LINE
  5
506
  8
LAYER01
 62
     7
 10
1186.959875
 20
4406.666463999999
 30
0.0
 11
1276.0591569999999
 21
4406.666463999999
 31
0.0
  0
SOLID
  5
507
  8
LAYER01
 62
     7
 10
1238.059477
 20
4455.6664639999999
 30
0.0
 11
1246.0591569999999
 21
4503.6664639999999
 31
0.0
 12
1254.058837
 22
4455.6664639999999
 32
0.0
 13
1254.058837
 23
4455.6664639999999
 33
0.0
  0
SOLID
  5
508
  8
LAYER01
 62
     7
 10
1238.059477
 20
4454.6664639999999
 30
0.0
 11
1246.0591569999999
 21
4406.666463999999
 31
0.0
 12
1254.058837
 22
4454.6664639999999
 32
0.0
 13
1254.058837
 23
4454.6664639999999
 33
0.0
  0
TEXT
  5
509
  8
LAYER01
  6
CONTINUOUS
 62
     7
 10
1216.0591569999999
 20
4419.1850859999986
 30
0.0
 40
60.0
  1
97
 50
90.0
  0
POINT
  5
50A
  8
LAYER01
 62
     7
 10
1162.959875
 20
4503.6664639999999
 30
0.0
  0
POINT
  5
50B
  8
LAYER01
 62
     7
 10
1162.959875
 20
4406.666463999999
 30
0.0
  0
POINT
  5
50C
  8
LAYER01
 62
     7
 10
1246.0591569999999
 20
4406.666463999999
 30
0.0
  0
ENDBLK
  5
50D
  8
0
  0
BLOCK
  8
0
  2
*D34
 70
     1
 10
0.0
 20
0.0
 30
0.0
  3
*D34
  1

  0
LINE
  5
510
  8
LAYER01
 62
     7
 10
862.9356869999998
 20
4068.7358100000001
 30
0.0
 11
1162.959875
 21
4068.7358100000001
 31
0.0
  0
LINE
  5
511
  8
LAYER01
 62
     7
 10
862.9356869999998
 20
4129.6664639999999
 30
0.0
 11
862.9356869999998
 21
4038.7358100000001
 31
0.0
  0
LINE
  5
512
  8
LAYER01
 62
     7
 10
1162.959875
 20
4129.6664639999999
 30
0.0
 11
1162.959875
 21
4038.7358100000001
 31
0.0
  0
SOLID
  5
513
  8
LAYER01
 62
     7
 10
910.93568699999992
 20
4060.7361299999998
 30
0.0
 11
862.9356869999998
 21
4068.7358100000001
 31
0.0
 12
910.93568699999992
 22
4076.7354899999991
 32
0.0
 13
910.93568699999992
 23
4076.7354899999991
 33
0.0
  0
SOLID
  5
514
  8
LAYER01
 62
     7
 10
1114.959875
 20
4060.7361299999998
 30
0.0
 11
1162.959875
 21
4068.7358100000001
 31
0.0
 12
1114.959875
 22
4076.7354899999991
 32
0.0
 13
1114.959875
 23
4076.7354899999991
 33
0.0
  0
TEXT
  5
515
  8
LAYER01
  6
CONTINUOUS
 62
     7
 10
966.36854900000003
 20
4098.7358099999992
 30
0.0
 40
60.0
  1
300
  0
POINT
  5
516
  8
LAYER01
 62
     7
 10
862.9356869999998
 20
4153.666463999999
 30
0.0
  0
POINT
  5
517
  8
LAYER01
 62
     7
 10
1162.959875
 20
4153.666463999999
 30
0.0
  0
POINT
  5
518
  8
LAYER01
 62
     7
 10
1162.959875
 20
4068.7358100000001
 30
0.0
  0
ENDBLK
  5
519
  8
0
  0
BLOCK
  8
0
  2
*D35
 70
     1
 10
0.0
 20
0.0
 30
0.0
  3
*D35
  1

  0
LINE
  5
51C
  8
LAYER01
 62
     7
 10
946.57836899999995
 20
4339.6281349999999
 30
0.0
 11
1005.190592
 21
4386.7260189999997
 31
0.0
  0
LINE
  5
51D
  8
LAYER01
 62
     7
 10
1005.190592
 20
4386.7260189999997
 30
0.0
 11
1028.486578
 21
4386.7260189999997
 31
0.0
  0
SOLID
  5
51E
  8
LAYER01
 62
     7
 10
989.0060289999999
 20
4363.4585479999987
 30
0.0
 11
946.57836899999995
 21
4339.6281349999999
 31
0.0
 12
978.98433000000011
 22
4375.9303190000001
 32
0.0
 13
978.98433000000011
 23
4375.9303190000001
 33
0.0
  0
TEXT
  5
51F
  8
LAYER01
  6
CONTINUOUS
 62
     7
 10
1058.486578
 20
4356.7260189999988
 30
0.0
 40
60.0
  1
%%c35
  0
POINT
  5
520
  8
LAYER01
 62
     7
 10
932.936823
 20
4328.6664639999999
 30
0.0
  0
POINT
  5
521
  8
LAYER01
 62
     7
 10
1005.190592
 20
4386.7260189999997
 30
0.0
  0
ENDBLK
  5
522
  8
0
  0
BLOCK
  8
0
  2
*D36
 70
     1
 10
0.0
 20
0.0
 30
0.0
  3
*D36
  1

  0
LINE
  5
525
  8
LAYER01
 62
     7
 10
797.95987500000001
 20
4537.4684100000004
 30
0.0
 11
932.936823
 21
4537.4684100000004
 31
0.0
  0
LINE
  5
526
  8
LAYER01
 62
     7
 10
797.95987500000001
 20
4527.6664639999999
 30
0.0
 11
797.95987500000001
 21
4567.4684100000004
 31
0.0
  0
LINE
  5
527
  8
LAYER01
 62
     7
 10
932.936823
 20
4527.6664639999999
 30
0.0
 11
932.936823
 21
4567.4684100000004
 31
0.0
  0
SOLID
  5
528
  8
LAYER01
 62
     7
 10
845.9598749999999
 20
4529.4687299999996
 30
0.0
 11
797.95987500000001
 21
4537.4684100000004
 31
0.0
 12
845.9598749999999
 22
4545.4680900000003
 32
0.0
 13
845.9598749999999
 23
4545.4680900000003
 33
0.0
  0
SOLID
  5
529
  8
LAYER01
 62
     7
 10
884.93682299999989
 20
4529.4687299999996
 30
0.0
 11
932.936823
 21
4537.4684100000004
 31
0.0
 12
884.93682299999989
 22
4545.4680900000003
 32
0.0
 13
884.93682299999989
 23
4545.4680900000003
 33
0.0
  0
TEXT
  5
52A
  8
LAYER01
  6
CONTINUOUS
 62
     7
 10
819.14757699999996
 20
4567.4684100000004
 30
0.0
 40
60.0
  1
135
  0
POINT
  5
52B
  8
LAYER01
 62
     7
 10
797.95987500000001
 20
4503.6664639999999
 30
0.0
  0
POINT
  5
52C
  8
LAYER01
 62
     7
 10
932.936823
 20
4503.6664639999999
 30
0.0
  0
POINT
  5
52D
  8
LAYER01
 62
     7
 10
932.936823
 20
4537.4684100000004
 30
0.0
  0
ENDBLK
  5
52E
  8
0
  0
BLOCK
  8
0
  2
NIZ_WEB-G38
 70
     0
 10
0.0
 20
0.0
 30
0.0
  3
NIZ_WEB-G38
  1

  0
POLYLINE
  5
531
  8
LAYER01
  6
CONTINUOUS
 62
     7
 66
     1
 10
0.0
 20
0.0
 30
0.0
 70
     1
  0
VERTEX
  5
E9D
  8
LAYER01
  6
CONTINUOUS
 62
     7
 10
2106.8723010000008
 20
3299.8394189999999
 30
0.0
  0
VERTEX
  5
E9E
  8
LAYER01
  6
CONTINUOUS
 62
     7
 10
2148.3019880000002
 20
3299.8394189999999
 30
0.0
  0
VERTEX
  5
E9F
  8
LAYER01
  6
CONTINUOUS
 62
     7
 10
2200.3299670000001
 20
3181.3312449999999
 30
0.0
  0
VERTEX
  5
EA0
  8
LAYER01
  6
CONTINUOUS
 62
     7
 10
2252.3579449999988
 20
3299.8394189999999
 30
0.0
  0
VERTEX
  5
EA1
  8
LAYER01
  6
CONTINUOUS
 62
     7
 10
2295.714594
 20
3299.8394189999999
 30
0.0
  0
VERTEX
  5
EA2
  8
LAYER01
  6
CONTINUOUS
 62
     7
 10
2200.3299670000001
 20
3087.8735799999999
 30
0.0
  0
VERTEX
  5
EA3
  8
LAYER01
  6
CONTINUOUS
 62
     7
 10
2106.8723010000008
 20
3299.8394189999999
 30
0.0
  0
VERTEX
  5
EA4
  8
LAYER01
  6
CONTINUOUS
 62
     7
 10
2106.8723010000008
 20
3299.8394189999999
 30
0.0
  0
SEQEND
  5
EA5
  8
LAYER01
  6
CONTINUOUS
 62
     7
  0
POLYLINE
  5
53B
  8
LAYER01
  6
CONTINUOUS
 62
     7
 66
     1
 10
0.0
 20
0.0
 30
0.0
 70
     1
  0
VERTEX
  5
EA6
  8
LAYER01
  6
CONTINUOUS
 62
     7
 10
2248.5040210000002
 20
3155.3172559999998
 30
0.0
  0
VERTEX
  5
EA7
  8
LAYER01
  6
CONTINUOUS
 62
     7
 10
2262.9562369999999
 20
3189.0390940000002
 30
0.0
  0
VERTEX
  5
EA8
  8
LAYER01
  6
CONTINUOUS
 62
     7
 10
2325.582508
 20
3189.0390940000002
 30
0.0
  0
VERTEX
  5
EA9
  8
LAYER01
  6
CONTINUOUS
 62
     7
 10
2293.787632
 20
3258.4097320000001
 30
0.0
  0
VERTEX
  5
EAA
  8
LAYER01
  6
CONTINUOUS
 62
     7
 10
2312.0937730000001
 20
3302.7298620000001
 30
0.0
  0
VERTEX
  5
EAB
  8
LAYER01
  6
CONTINUOUS
 62
     7
 10
2397.8435899999999
 20
3121.5954179999999
 30
0.0
  0
VERTEX
  5
EAC
  8
LAYER01
  6
CONTINUOUS
 62
     7
 10
2397.8435899999999
 20
3299.8394189999999
 30
0.0
  0
VERTEX
  5
EAD
  8
LAYER01
  6
CONTINUOUS
 62
     7
 10
2512.4978390000001
 20
3299.8394189999999
 30
0.0
  0
VERTEX
  5
EAE
  8
LAYER01
  6
CONTINUOUS
 62
     7
 10
2512.4978390000001
 20
3299.8394189999999
 30
0.0
  0
VERTEX
  5
EAF
  8
LAYER01
  6
CONTINUOUS
 62
     7
 10
2523.0961309999998
 20
3297.9124569999999
 30
0.0
  0
VERTEX
  5
EB0
  8
LAYER01
  6
CONTINUOUS
 62
     7
 10
2532.7309420000011
 20
3294.0585329999999
 30
0.0
  0
VERTEX
  5
EB1
  8
LAYER01
  6
CONTINUOUS
 62
     7
 10
2541.4022719999998
 20
3287.3141649999998
 30
0.0
  0
VERTEX
  5
EB2
  8
LAYER01
  6
CONTINUOUS
 62
     7
 10
2549.1101210000002
 20
3280.5697970000001
 30
0.0
  0
VERTEX
  5
EB3
  8
LAYER01
  6
CONTINUOUS
 62
     7
 10
2555.8544879999999
 20
3271.8984679999999
 30
0.0
  0
VERTEX
  5
EB4
  8
LAYER01
  6
CONTINUOUS
 62
     7
 10
2560.6718940000001
 20
3262.263657
 30
0.0
  0
VERTEX
  5
EB5
  8
LAYER01
  6
CONTINUOUS
 62
     7
 10
2564.5258180000001
 20
3250.7018840000001
 30
0.0
  0
VERTEX
  5
EB6
  8
LAYER01
  6
CONTINUOUS
 62
     7
 10
2565.4892989999998
 20
3240.1035919999999
 30
0.0
  0
VERTEX
  5
EB7
  8
LAYER01
  6
CONTINUOUS
 62
     7
 10
2565.4892989999998
 20
3240.1035919999999
 30
0.0
  0
VERTEX
  5
EB8
  8
LAYER01
  6
CONTINUOUS
 62
     7
 10
2565.4892989999998
 20
3228.541819
 30
0.0
  0
VERTEX
  5
EB9
  8
LAYER01
  6
CONTINUOUS
 62
     7
 10
2563.5623369999998
 20
3218.9070080000001
 30
0.0
  0
VERTEX
  5
EBA
  8
LAYER01
  6
CONTINUOUS
 62
     7
 10
2559.7084129999998
 20
3209.2721969999998
 30
0.0
  0
VERTEX
  5
EBB
  8
LAYER01
  6
CONTINUOUS
 62
     7
 10
2554.8910070000002
 20
3200.6008670000001
 30
0.0
  0
VERTEX
  5
EBC
  8
LAYER01
  6
CONTINUOUS
 62
     7
 10
2548.1466399999999
 20
3192.8930180000002
 30
0.0
  0
VERTEX
  5
EBD
  8
LAYER01
  6
CONTINUOUS
 62
     7
 10
2540.438791
 20
3186.148651
 30
0.0
  0
VERTEX
  5
EBE
  8
LAYER01
  6
CONTINUOUS
 62
     7
 10
2531.7674609999999
 20
3181.3312449999999
 30
0.0
  0
VERTEX
  5
EBF
  8
LAYER01
  6
CONTINUOUS
 62
     7
 10
2521.1691689999998
 20
3177.4773209999998
 30
0.0
  0
VERTEX
  5
EC0
  8
LAYER01
  6
CONTINUOUS
 62
     7
 10
2582.8319590000001
 20
3095.5814289999998
 30
0.0
  0
VERTEX
  5
EC1
  8
LAYER01
  6
CONTINUOUS
 62
     7
 10
2582.8319590000001
 20
3299.8394189999999
 30
0.0
  0
VERTEX
  5
EC2
  8
LAYER01
  6
CONTINUOUS
 62
     7
 10
2623.2981639999998
 20
3299.8394189999999
 30
0.0
  0
VERTEX
  5
EC3
  8
LAYER01
  6
CONTINUOUS
 62
     7
 10
2623.2981639999998
 20
3093.654466
 30
0.0
  0
VERTEX
  5
EC4
  8
LAYER01
  6
CONTINUOUS
 62
     7
 10
2536.5848660000001
 20
3093.654466
 30
0.0
  0
VERTEX
  5
EC5
  8
LAYER01
  6
CONTINUOUS
 62
     7
 10
2452.7620120000001
 20
3200.6008670000001
 30
0.0
  0
VERTEX
  5
EC6
  8
LAYER01
  6
CONTINUOUS
 62
     7
 10
2495.1551800000011
 20
3200.6008670000001
 30
0.0
  0
VERTEX
  5
EC7
  8
LAYER01
  6
CONTINUOUS
 62
     7
 10
2495.1551800000011
 20
3200.6008670000001
 30
0.0
  0
VERTEX
  5
EC8
  8
LAYER01
  6
CONTINUOUS
 62
     7
 10
2500.9360660000002
 20
3201.5643479999999
 30
0.0
  0
VERTEX
  5
EC9
  8
LAYER01
  6
CONTINUOUS
 62
     7
 10
2506.7169530000001
 20
3203.4913099999999
 30
0.0
  0
VERTEX
  5
ECA
  8
LAYER01
  6
CONTINUOUS
 62
     7
 10
2511.5343579999999
 20
3206.3817540000009
 30
0.0
  0
VERTEX
  5
ECB
  8
LAYER01
  6
CONTINUOUS
 62
     7
 10
2516.351764
 20
3210.235678
 30
0.0
  0
VERTEX
  5
ECC
  8
LAYER01
  6
CONTINUOUS
 62
     7
 10
2519.2422069999998
 20
3215.0530829999998
 30
0.0
  0
VERTEX
  5
ECD
  8
LAYER01
  6
CONTINUOUS
 62
     7
 10
2522.13265
 20
3220.833970000001
 30
0.0
  0
VERTEX
  5
ECE
  8
LAYER01
  6
CONTINUOUS
 62
     7
 10
2524.059612
 20
3226.614857
 30
0.0
  0
VERTEX
  5
ECF
  8
LAYER01
  6
CONTINUOUS
 62
     7
 10
2524.059612
 20
3233.3592239999998
 30
0.0
  0
VERTEX
  5
ED0
  8
LAYER01
  6
CONTINUOUS
 62
     7
 10
2524.059612
 20
3233.3592239999998
 30
0.0
  0
VERTEX
  5
ED1
  8
LAYER01
  6
CONTINUOUS
 62
     7
 10
2524.059612
 20
3239.1401110000011
 30
0.0
  0
VERTEX
  5
ED2
  8
LAYER01
  6
CONTINUOUS
 62
     7
 10
2522.13265
 20
3244.9209970000002
 30
0.0
  0
VERTEX
  5
ED3
  8
LAYER01
  6
CONTINUOUS
 62
     7
 10
2520.205688
 20
3250.7018840000001
 30
0.0
  0
VERTEX
  5
ED4
  8
LAYER01
  6
CONTINUOUS
 62
     7
 10
2516.351764
 20
3255.5192889999998
 30
0.0
  0
VERTEX
  5
ED5
  8
LAYER01
  6
CONTINUOUS
 62
     7
 10
2512.4978390000001
 20
3259.3732140000002
 30
0.0
  0
VERTEX
  5
ED6
  8
LAYER01
  6
CONTINUOUS
 62
     7
 10
2506.7169530000001
 20
3262.263657
 30
0.0
  0
VERTEX
  5
ED7
  8
LAYER01
  6
CONTINUOUS
 62
     7
 10
2500.9360660000002
 20
3264.190619
 30
0.0
  0
VERTEX
  5
ED8
  8
LAYER01
  6
CONTINUOUS
 62
     7
 10
2495.1551800000011
 20
3265.1541000000002
 30
0.0
  0
VERTEX
  5
ED9
  8
LAYER01
  6
CONTINUOUS
 62
     7
 10
2441.2002389999998
 20
3265.1541000000002
 30
0.0
  0
VERTEX
  5
EDA
  8
LAYER01
  6
CONTINUOUS
 62
     7
 10
2441.2002389999998
 20
3093.654466
 30
0.0
  0
VERTEX
  5
EDB
  8
LAYER01
  6
CONTINUOUS
 62
     7
 10
2371.8296
 20
3093.654466
 30
0.0
  0
VERTEX
  5
EDC
  8
LAYER01
  6
CONTINUOUS
 62
     7
 10
2342.9251680000002
 20
3155.3172559999998
 30
0.0
  0
VERTEX
  5
EDD
  8
LAYER01
  6
CONTINUOUS
 62
     7
 10
2248.5040210000002
 20
3155.3172559999998
 30
0.0
  0
VERTEX
  5
EDE
  8
LAYER01
  6
CONTINUOUS
 62
     7
 10
2248.5040210000002
 20
3155.3172559999998
 30
0.0
  0
SEQEND
  5
EDF
  8
LAYER01
  6
CONTINUOUS
 62
     7
  0
POLYLINE
  5
576
  8
LAYER01
  6
CONTINUOUS
 62
     7
 66
     1
 10
0.0
 20
0.0
 30
0.0
 70
     1
  0
VERTEX
  5
EE0
  8
LAYER01
  6
CONTINUOUS
 62
     7
 10
2810.2134960000012
 20
3286.350684
 30
0.0
  0
VERTEX
  5
EE1
  8
LAYER01
  6
CONTINUOUS
 62
     7
 10
2784.1995059999999
 20
3253.5923269999998
 30
0.0
  0
VERTEX
  5
EE2
  8
LAYER01
  6
CONTINUOUS
 62
     7
 10
2784.1995059999999
 20
3253.5923269999998
 30
0.0
  0
VERTEX
  5
EE3
  8
LAYER01
  6
CONTINUOUS
 62
     7
 10
2775.5281759999998
 20
3259.3732140000002
 30
0.0
  0
VERTEX
  5
EE4
  8
LAYER01
  6
CONTINUOUS
 62
     7
 10
2766.856847
 20
3264.190619
 30
0.0
  0
VERTEX
  5
EE5
  8
LAYER01
  6
CONTINUOUS
 62
     7
 10
2757.2220360000001
 20
3267.0810620000011
 30
0.0
  0
VERTEX
  5
EE6
  8
LAYER01
  6
CONTINUOUS
 62
     7
 10
2746.623744
 20
3267.0810620000011
 30
0.0
  0
VERTEX
  5
EE7
  8
LAYER01
  6
CONTINUOUS
 62
     7
 10
2746.623744
 20
3267.0810620000011
 30
0.0
  0
VERTEX
  5
EE8
  8
LAYER01
  6
CONTINUOUS
 62
     7
 10
2739.8793760000008
 20
3267.0810620000011
 30
0.0
  0
VERTEX
  5
EE9
  8
LAYER01
  6
CONTINUOUS
 62
     7
 10
2733.1350080000002
 20
3266.117581
 30
0.0
  0
VERTEX
  5
EEA
  8
LAYER01
  6
CONTINUOUS
 62
     7
 10
2726.390641
 20
3264.190619
 30
0.0
  0
VERTEX
  5
EEB
  8
LAYER01
  6
CONTINUOUS
 62
     7
 10
2719.6462729999998
 20
3261.3001760000011
 30
0.0
  0
VERTEX
  5
EEC
  8
LAYER01
  6
CONTINUOUS
 62
     7
 10
2713.8653869999998
 20
3258.4097320000001
 30
0.0
  0
VERTEX
  5
EED
  8
LAYER01
  6
CONTINUOUS
 62
     7
 10
2709.0479810000002
 20
3254.5558080000001
 30
0.0
  0
VERTEX
  5
EEE
  8
LAYER01
  6
CONTINUOUS
 62
     7
 10
2703.2670950000002
 20
3250.7018840000001
 30
0.0
  0
VERTEX
  5
EEF
  8
LAYER01
  6
CONTINUOUS
 62
     7
 10
2699.4131699999998
 20
3245.8844779999999
 30
0.0
  0
VERTEX
  5
EF0
  8
LAYER01
  6
CONTINUOUS
 62
     7
 10
2694.595765
 20
3240.1035919999999
 30
0.0
  0
VERTEX
  5
EF1
  8
LAYER01
  6
CONTINUOUS
 62
     7
 10
2691.7053219999998
 20
3234.322705
 30
0.0
  0
VERTEX
  5
EF2
  8
LAYER01
  6
CONTINUOUS
 62
     7
 10
2687.8513969999999
 20
3228.541819
 30
0.0
  0
VERTEX
  5
EF3
  8
LAYER01
  6
CONTINUOUS
 62
     7
 10
2684.960954000001
 20
3222.7609320000001
 30
0.0
  0
VERTEX
  5
EF4
  8
LAYER01
  6
CONTINUOUS
 62
     7
 10
2683.0339920000001
 20
3216.0165649999999
 30
0.0
  0
VERTEX
  5
EF5
  8
LAYER01
  6
CONTINUOUS
 62
     7
 10
2682.0705109999999
 20
3209.2721969999998
 30
0.0
  0
VERTEX
  5
EF6
  8
LAYER01
  6
CONTINUOUS
 62
     7
 10
2681.1070300000001
 20
3202.5278290000001
 30
0.0
  0
VERTEX
  5
EF7
  8
LAYER01
  6
CONTINUOUS
 62
     7
 10
2680.1435489999999
 20
3194.8199810000001
 30
0.0
  0
VERTEX
  5
EF8
  8
LAYER01
  6
CONTINUOUS
 62
     7
 10
2680.1435489999999
 20
3194.8199810000001
 30
0.0
  0
VERTEX
  5
EF9
  8
LAYER01
  6
CONTINUOUS
 62
     7
 10
2681.1070300000001
 20
3188.075613
 30
0.0
  0
VERTEX
  5
EFA
  8
LAYER01
  6
CONTINUOUS
 62
     7
 10
2682.0705109999999
 20
3181.3312449999999
 30
0.0
  0
VERTEX
  5
EFB
  8
LAYER01
  6
CONTINUOUS
 62
     7
 10
2683.0339920000001
 20
3174.5868780000001
 30
0.0
  0
VERTEX
  5
EFC
  8
LAYER01
  6
CONTINUOUS
 62
     7
 10
2685.9244349999999
 20
3168.8059910000011
 30
0.0
  0
VERTEX
  5
EFD
  8
LAYER01
  6
CONTINUOUS
 62
     7
 10
2687.8513969999999
 20
3163.0251050000002
 30
0.0
  0
VERTEX
  5
EFE
  8
LAYER01
  6
CONTINUOUS
 62
     7
 10
2691.7053219999998
 20
3157.2442179999998
 30
0.0
  0
VERTEX
  5
EFF
  8
LAYER01
  6
CONTINUOUS
 62
     7
 10
2695.5592459999998
 20
3151.4633319999998
 30
0.0
  0
VERTEX
  5
F00
  8
LAYER01
  6
CONTINUOUS
 62
     7
 10
2699.4131699999998
 20
3146.6459260000001
 30
0.0
  0
VERTEX
  5
F01
  8
LAYER01
  6
CONTINUOUS
 62
     7
 10
2704.2305759999999
 20
3141.8285209999999
 30
0.0
  0
VERTEX
  5
F02
  8
LAYER01
  6
CONTINUOUS
 62
     7
 10
2709.0479810000002
 20
3137.974596
 30
0.0
  0
VERTEX
  5
F03
  8
LAYER01
  6
CONTINUOUS
 62
     7
 10
2714.8288680000001
 20
3135.0841530000012
 30
0.0
  0
VERTEX
  5
F04
  8
LAYER01
  6
CONTINUOUS
 62
     7
 10
2720.6097540000001
 20
3132.19371
 30
0.0
  0
VERTEX
  5
F05
  8
LAYER01
  6
CONTINUOUS
 62
     7
 10
2727.3541220000002
 20
3129.3032669999998
 30
0.0
  0
VERTEX
  5
F06
  8
LAYER01
  6
CONTINUOUS
 62
     7
 10
2733.1350080000002
 20
3127.3763039999999
 30
0.0
  0
VERTEX
  5
F07
  8
LAYER01
  6
CONTINUOUS
 62
     7
 10
2739.8793760000008
 20
3126.4128230000001
 30
0.0
  0
VERTEX
  5
F08
  8
LAYER01
  6
CONTINUOUS
 62
     7
 10
2747.5872250000002
 20
3126.4128230000001
 30
0.0
  0
VERTEX
  5
F09
  8
LAYER01
  6
CONTINUOUS
 62
     7
 10
2747.5872250000002
 20
3126.4128230000001
 30
0.0
  0
VERTEX
  5
F0A
  8
LAYER01
  6
CONTINUOUS
 62
     7
 10
2758.1855170000008
 20
3127.3763039999999
 30
0.0
  0
VERTEX
  5
F0B
  8
LAYER01
  6
CONTINUOUS
 62
     7
 10
2766.856847
 20
3129.3032669999998
 30
0.0
  0
VERTEX
  5
F0C
  8
LAYER01
  6
CONTINUOUS
 62
     7
 10
2775.5281759999998
 20
3134.120672
 30
0.0
  0
VERTEX
  5
F0D
  8
LAYER01
  6
CONTINUOUS
 62
     7
 10
2784.1995059999999
 20
3139.9015589999999
 30
0.0
  0
VERTEX
  5
F0E
  8
LAYER01
  6
CONTINUOUS
 62
     7
 10
2809.2500140000002
 20
3106.1797200000001
 30
0.0
  0
VERTEX
  5
F0F
  8
LAYER01
  6
CONTINUOUS
 62
     7
 10
2809.2500140000002
 20
3106.1797200000001
 30
0.0
  0
VERTEX
  5
F10
  8
LAYER01
  6
CONTINUOUS
 62
     7
 10
2794.7977980000001
 20
3097.5083909999998
 30
0.0
  0
VERTEX
  5
F11
  8
LAYER01
  6
CONTINUOUS
 62
     7
 10
2787.0899490000002
 20
3094.6179470000002
 30
0.0
  0
VERTEX
  5
F12
  8
LAYER01
  6
CONTINUOUS
 62
     7
 10
2780.3455819999999
 20
3091.727504
 30
0.0
  0
VERTEX
  5
F13
  8
LAYER01
  6
CONTINUOUS
 62
     7
 10
2772.637733
 20
3089.8005420000009
 30
0.0
  0
VERTEX
  5
F14
  8
LAYER01
  6
CONTINUOUS
 62
     7
 10
2764.9298840000001
 20
3088.8370610000002
 30
0.0
  0
VERTEX
  5
F15
  8
LAYER01
  6
CONTINUOUS
 62
     7
 10
2747.5872250000002
 20
3087.8735799999999
 30
0.0
  0
VERTEX
  5
F16
  8
LAYER01
  6
CONTINUOUS
 62
     7
 10
2747.5872250000002
 20
3087.8735799999999
 30
0.0
  0
VERTEX
  5
F17
  8
LAYER01
  6
CONTINUOUS
 62
     7
 10
2736.0254519999999
 20
3088.8370610000002
 30
0.0
  0
VERTEX
  5
F18
  8
LAYER01
  6
CONTINUOUS
 62
     7
 10
2725.4271600000011
 20
3090.7640230000002
 30
0.0
  0
VERTEX
  5
F19
  8
LAYER01
  6
CONTINUOUS
 62
     7
 10
2714.8288680000001
 20
3092.6909850000002
 30
0.0
  0
VERTEX
  5
F1A
  8
LAYER01
  6
CONTINUOUS
 62
     7
 10
2705.1940570000002
 20
3096.5449100000001
 30
0.0
  0
VERTEX
  5
F1B
  8
LAYER01
  6
CONTINUOUS
 62
     7
 10
2695.5592459999998
 20
3101.3623149999999
 30
0.0
  0
VERTEX
  5
F1C
  8
LAYER01
  6
CONTINUOUS
 62
     7
 10
2686.8879160000001
 20
3106.1797200000001
 30
0.0
  0
VERTEX
  5
F1D
  8
LAYER01
  6
CONTINUOUS
 62
     7
 10
2678.216586
 20
3112.9240880000002
 30
0.0
  0
VERTEX
  5
F1E
  8
LAYER01
  6
CONTINUOUS
 62
     7
 10
2670.508738
 20
3119.6684559999999
 30
0.0
  0
VERTEX
  5
F1F
  8
LAYER01
  6
CONTINUOUS
 62
     7
 10
2662.8008890000001
 20
3127.3763039999999
 30
0.0
  0
VERTEX
  5
F20
  8
LAYER01
  6
CONTINUOUS
 62
     7
 10
2657.0200030000001
 20
3136.047634
 30
0.0
  0
VERTEX
  5
F21
  8
LAYER01
  6
CONTINUOUS
 62
     7
 10
2651.2391160000011
 20
3144.7189640000001
 30
0.0
  0
VERTEX
  5
F22
  8
LAYER01
  6
CONTINUOUS
 62
     7
 10
2646.421711
 20
3154.353775000001
 30
0.0
  0
VERTEX
  5
F23
  8
LAYER01
  6
CONTINUOUS
 62
     7
 10
2643.5312669999998
 20
3163.9885859999999
 30
0.0
  0
VERTEX
  5
F24
  8
LAYER01
  6
CONTINUOUS
 62
     7
 10
2640.6408240000001
 20
3174.5868780000001
 30
0.0
  0
VERTEX
  5
F25
  8
LAYER01
  6
CONTINUOUS
 62
     7
 10
2638.7138620000001
 20
3185.1851700000002
 30
0.0
  0
VERTEX
  5
F26
  8
LAYER01
  6
CONTINUOUS
 62
     7
 10
2637.7503809999998
 20
3196.7469430000001
 30
0.0
  0
VERTEX
  5
F27
  8
LAYER01
  6
CONTINUOUS
 62
     7
 10
2637.7503809999998
 20
3196.7469430000001
 30
0.0
  0
VERTEX
  5
F28
  8
LAYER01
  6
CONTINUOUS
 62
     7
 10
2638.7138620000001
 20
3207.3452349999998
 30
0.0
  0
VERTEX
  5
F29
  8
LAYER01
  6
CONTINUOUS
 62
     7
 10
2640.6408240000001
 20
3218.9070080000001
 30
0.0
  0
VERTEX
  5
F2A
  8
LAYER01
  6
CONTINUOUS
 62
     7
 10
2642.5677860000001
 20
3228.541819
 30
0.0
  0
VERTEX
  5
F2B
  8
LAYER01
  6
CONTINUOUS
 62
     7
 10
2646.421711
 20
3239.1401110000011
 30
0.0
  0
VERTEX
  5
F2C
  8
LAYER01
  6
CONTINUOUS
 62
     7
 10
2651.2391160000011
 20
3248.7749220000001
 30
0.0
  0
VERTEX
  5
F2D
  8
LAYER01
  6
CONTINUOUS
 62
     7
 10
2656.056521
 20
3257.4462510000012
 30
0.0
  0
VERTEX
  5
F2E
  8
LAYER01
  6
CONTINUOUS
 62
     7
 10
2662.8008890000001
 20
3266.117581
 30
0.0
  0
VERTEX
  5
F2F
  8
LAYER01
  6
CONTINUOUS
 62
     7
 10
2669.5452570000011
 20
3273.8254299999999
 30
0.0
  0
VERTEX
  5
F30
  8
LAYER01
  6
CONTINUOUS
 62
     7
 10
2677.2531049999998
 20
3280.5697970000001
 30
0.0
  0
VERTEX
  5
F31
  8
LAYER01
  6
CONTINUOUS
 62
     7
 10
2685.9244349999999
 20
3287.3141649999998
 30
0.0
  0
VERTEX
  5
F32
  8
LAYER01
  6
CONTINUOUS
 62
     7
 10
2694.595765
 20
3292.1315709999999
 30
0.0
  0
VERTEX
  5
F33
  8
LAYER01
  6
CONTINUOUS
 62
     7
 10
2704.2305759999999
 20
3296.9489760000001
 30
0.0
  0
VERTEX
  5
F34
  8
LAYER01
  6
CONTINUOUS
 62
     7
 10
2713.8653869999998
 20
3300.8029000000001
 30
0.0
  0
VERTEX
  5
F35
  8
LAYER01
  6
CONTINUOUS
 62
     7
 10
2724.463679
 20
3303.6933440000012
 30
0.0
  0
VERTEX
  5
F36
  8
LAYER01
  6
CONTINUOUS
 62
     7
 10
2736.0254519999999
 20
3304.656825
 30
0.0
  0
VERTEX
  5
F37
  8
LAYER01
  6
CONTINUOUS
 62
     7
 10
2746.623744
 20
3305.6203059999998
 30
0.0
  0
VERTEX
  5
F38
  8
LAYER01
  6
CONTINUOUS
 62
     7
 10
2746.623744
 20
3305.6203059999998
 30
0.0
  0
VERTEX
  5
F39
  8
LAYER01
  6
CONTINUOUS
 62
     7
 10
2763.9664029999999
 20
3304.656825
 30
0.0
  0
VERTEX
  5
F3A
  8
LAYER01
  6
CONTINUOUS
 62
     7
 10
2772.637733
 20
3303.6933440000012
 30
0.0
  0
VERTEX
  5
F3B
  8
LAYER01
  6
CONTINUOUS
 62
     7
 10
2780.3455819999999
 20
3301.7663809999999
 30
0.0
  0
VERTEX
  5
F3C
  8
LAYER01
  6
CONTINUOUS
 62
     7
 10
2787.0899490000002
 20
3298.8759380000001
 30
0.0
  0
VERTEX
  5
F3D
  8
LAYER01
  6
CONTINUOUS
 62
     7
 10
2794.7977980000001
 20
3295.9854949999999
 30
0.0
  0
VERTEX
  5
F3E
  8
LAYER01
  6
CONTINUOUS
 62
     7
 10
2802.505647
 20
3291.1680889999998
 30
0.0
  0
VERTEX
  5
F3F
  8
LAYER01
  6
CONTINUOUS
 62
     7
 10
2810.2134960000012
 20
3286.350684
 30
0.0
  0
VERTEX
  5
F40
  8
LAYER01
  6
CONTINUOUS
 62
     7
 10
2810.2134960000012
 20
3286.350684
 30
0.0
  0
SEQEND
  5
F41
  8
LAYER01
  6
CONTINUOUS
 62
     7
  0
POLYLINE
  5
5D9
  8
LAYER01
  6
CONTINUOUS
 62
     7
 66
     1
 10
0.0
 20
0.0
 30
0.0
 70
     1
  0
VERTEX
  5
F42
  8
LAYER01
  6
CONTINUOUS
 62
     7
 10
2903.6711610000002
 20
3304.656825
 30
0.0
  0
VERTEX
  5
F43
  8
LAYER01
  6
CONTINUOUS
 62
     7
 10
2903.6711610000002
 20
3304.656825
 30
0.0
  0
VERTEX
  5
F44
  8
LAYER01
  6
CONTINUOUS
 62
     7
 10
2893.0728690000001
 20
3303.6933440000012
 30
0.0
  0
VERTEX
  5
F45
  8
LAYER01
  6
CONTINUOUS
 62
     7
 10
2881.5110960000002
 20
3302.7298620000001
 30
0.0
  0
VERTEX
  5
F46
  8
LAYER01
  6
CONTINUOUS
 62
     7
 10
2871.8762850000012
 20
3299.8394189999999
 30
0.0
  0
VERTEX
  5
F47
  8
LAYER01
  6
CONTINUOUS
 62
     7
 10
2861.2779930000002
 20
3295.9854949999999
 30
0.0
  0
VERTEX
  5
F48
  8
LAYER01
  6
CONTINUOUS
 62
     7
 10
2851.6431819999998
 20
3292.1315709999999
 30
0.0
  0
VERTEX
  5
F49
  8
LAYER01
  6
CONTINUOUS
 62
     7
 10
2842.971853
 20
3286.350684
 30
0.0
  0
VERTEX
  5
F4A
  8
LAYER01
  6
CONTINUOUS
 62
     7
 10
2834.3005229999999
 20
3280.5697970000001
 30
0.0
  0
VERTEX
  5
F4B
  8
LAYER01
  6
CONTINUOUS
 62
     7
 10
2826.592674
 20
3272.8619490000001
 30
0.0
  0
VERTEX
  5
F4C
  8
LAYER01
  6
CONTINUOUS
 62
     7
 10
2819.8483059999999
 20
3265.1541000000002
 30
0.0
  0
VERTEX
  5
F4D
  8
LAYER01
  6
CONTINUOUS
 62
     7
 10
2813.1039390000001
 20
3257.4462510000012
 30
0.0
  0
VERTEX
  5
F4E
  8
LAYER01
  6
CONTINUOUS
 62
     7
 10
2807.3230520000002
 20
3248.7749220000001
 30
0.0
  0
VERTEX
  5
F4F
  8
LAYER01
  6
CONTINUOUS
 62
     7
 10
2802.505647
 20
3239.1401110000011
 30
0.0
  0
VERTEX
  5
F50
  8
LAYER01
  6
CONTINUOUS
 62
     7
 10
2799.6152040000002
 20
3228.541819
 30
0.0
  0
VERTEX
  5
F51
  8
LAYER01
  6
CONTINUOUS
 62
     7
 10
2796.7247600000001
 20
3218.9070080000001
 30
0.0
  0
VERTEX
  5
F52
  8
LAYER01
  6
CONTINUOUS
 62
     7
 10
2794.7977980000001
 20
3207.3452349999998
 30
0.0
  0
VERTEX
  5
F53
  8
LAYER01
  6
CONTINUOUS
 62
     7
 10
2793.8343169999998
 20
3196.7469430000001
 30
0.0
  0
VERTEX
  5
F54
  8
LAYER01
  6
CONTINUOUS
 62
     7
 10
2793.8343169999998
 20
3196.7469430000001
 30
0.0
  0
VERTEX
  5
F55
  8
LAYER01
  6
CONTINUOUS
 62
     7
 10
2794.7977980000001
 20
3185.1851700000002
 30
0.0
  0
VERTEX
  5
F56
  8
LAYER01
  6
CONTINUOUS
 62
     7
 10
2795.7612789999998
 20
3174.5868780000001
 30
0.0
  0
VERTEX
  5
F57
  8
LAYER01
  6
CONTINUOUS
 62
     7
 10
2798.6517220000001
 20
3163.9885859999999
 30
0.0
  0
VERTEX
  5
F58
  8
LAYER01
  6
CONTINUOUS
 62
     7
 10
2802.505647
 20
3154.353775000001
 30
0.0
  0
VERTEX
  5
F59
  8
LAYER01
  6
CONTINUOUS
 62
     7
 10
2806.359571
 20
3144.7189640000001
 30
0.0
  0
VERTEX
  5
F5A
  8
LAYER01
  6
CONTINUOUS
 62
     7
 10
2812.1404579999999
 20
3136.047634
 30
0.0
  0
VERTEX
  5
F5B
  8
LAYER01
  6
CONTINUOUS
 62
     7
 10
2817.9213440000012
 20
3127.3763039999999
 30
0.0
  0
VERTEX
  5
F5C
  8
LAYER01
  6
CONTINUOUS
 62
     7
 10
2824.665712
 20
3119.6684559999999
 30
0.0
  0
VERTEX
  5
F5D
  8
LAYER01
  6
CONTINUOUS
 62
     7
 10
2832.3735609999999
 20
3111.960607
 30
0.0
  0
VERTEX
  5
F5E
  8
LAYER01
  6
CONTINUOUS
 62
     7
 10
2841.0448900000001
 20
3106.1797200000001
 30
0.0
  0
VERTEX
  5
F5F
  8
LAYER01
  6
CONTINUOUS
 62
     7
 10
2849.7162199999998
 20
3100.3988340000001
 30
0.0
  0
VERTEX
  5
F60
  8
LAYER01
  6
CONTINUOUS
 62
     7
 10
2859.3510310000001
 20
3095.5814289999998
 30
0.0
  0
VERTEX
  5
F61
  8
LAYER01
  6
CONTINUOUS
 62
     7
 10
2868.985842
 20
3091.727504
 30
0.0
  0
VERTEX
  5
F62
  8
LAYER01
  6
CONTINUOUS
 62
     7
 10
2879.5841340000002
 20
3089.8005420000009
 30
0.0
  0
VERTEX
  5
F63
  8
LAYER01
  6
CONTINUOUS
 62
     7
 10
2890.1824260000012
 20
3087.8735799999999
 30
0.0
  0
VERTEX
  5
F64
  8
LAYER01
  6
CONTINUOUS
 62
     7
 10
2900.780718
 20
3086.9100990000002
 30
0.0
  0
VERTEX
  5
F65
  8
LAYER01
  6
CONTINUOUS
 62
     7
 10
2900.780718
 20
3086.9100990000002
 30
0.0
  0
VERTEX
  5
F66
  8
LAYER01
  6
CONTINUOUS
 62
     7
 10
2912.3424909999999
 20
3087.8735799999999
 30
0.0
  0
VERTEX
  5
F67
  8
LAYER01
  6
CONTINUOUS
 62
     7
 10
2922.940783
 20
3089.8005420000009
 30
0.0
  0
VERTEX
  5
F68
  8
LAYER01
  6
CONTINUOUS
 62
     7
 10
2933.5390750000001
 20
3092.6909850000002
 30
0.0
  0
VERTEX
  5
F69
  8
LAYER01
  6
CONTINUOUS
 62
     7
 10
2943.173886
 20
3096.5449100000001
 30
0.0
  0
VERTEX
  5
F6A
  8
LAYER01
  6
CONTINUOUS
 62
     7
 10
2952.8086969999999
 20
3101.3623149999999
 30
0.0
  0
VERTEX
  5
F6B
  8
LAYER01
  6
CONTINUOUS
 62
     7
 10
2961.4800260000002
 20
3107.1432020000002
 30
0.0
  0
VERTEX
  5
F6C
  8
LAYER01
  6
CONTINUOUS
 62
     7
 10
2970.1513559999999
 20
3112.9240880000002
 30
0.0
  0
VERTEX
  5
F6D
  8
LAYER01
  6
CONTINUOUS
 62
     7
 10
2977.8592050000011
 20
3120.631937000001
 30
0.0
  0
VERTEX
  5
F6E
  8
LAYER01
  6
CONTINUOUS
 62
     7
 10
2984.603572
 20
3128.339786
 30
0.0
  0
VERTEX
  5
F6F
  8
LAYER01
  6
CONTINUOUS
 62
     7
 10
2990.3844589999999
 20
3137.0111149999998
 30
0.0
  0
VERTEX
  5
F70
  8
LAYER01
  6
CONTINUOUS
 62
     7
 10
2995.2018640000001
 20
3145.6824449999999
 30
0.0
  0
VERTEX
  5
F71
  8
LAYER01
  6
CONTINUOUS
 62
     7
 10
3000.0192699999998
 20
3155.3172559999998
 30
0.0
  0
VERTEX
  5
F72
  8
LAYER01
  6
CONTINUOUS
 62
     7
 10
3003.8731939999998
 20
3165.9155479999999
 30
0.0
  0
VERTEX
  5
F73
  8
LAYER01
  6
CONTINUOUS
 62
     7
 10
3005.8001559999998
 20
3176.5138400000001
 30
0.0
  0
VERTEX
  5
F74
  8
LAYER01
  6
CONTINUOUS
 62
     7
 10
3006.7636370000009
 20
3187.1121320000011
 30
0.0
  0
VERTEX
  5
F75
  8
LAYER01
  6
CONTINUOUS
 62
     7
 10
3007.7271190000001
 20
3198.6739050000001
 30
0.0
  0
VERTEX
  5
F76
  8
LAYER01
  6
CONTINUOUS
 62
     7
 10
3007.7271190000001
 20
3198.6739050000001
 30
0.0
  0
VERTEX
  5
F77
  8
LAYER01
  6
CONTINUOUS
 62
     7
 10
3006.7636370000009
 20
3209.2721969999998
 30
0.0
  0
VERTEX
  5
F78
  8
LAYER01
  6
CONTINUOUS
 62
     7
 10
3004.836675
 20
3219.8704889999999
 30
0.0
  0
VERTEX
  5
F79
  8
LAYER01
  6
CONTINUOUS
 62
     7
 10
3001.9462319999998
 20
3229.5052999999998
 30
0.0
  0
VERTEX
  5
F7A
  8
LAYER01
  6
CONTINUOUS
 62
     7
 10
2999.055789
 20
3239.1401110000011
 30
0.0
  0
VERTEX
  5
F7B
  8
LAYER01
  6
CONTINUOUS
 62
     7
 10
2994.2383829999999
 20
3247.8114399999999
 30
0.0
  0
VERTEX
  5
F7C
  8
LAYER01
  6
CONTINUOUS
 62
     7
 10
2989.4209780000001
 20
3256.4827700000001
 30
0.0
  0
VERTEX
  5
F7D
  8
LAYER01
  6
CONTINUOUS
 62
     7
 10
2983.6400910000002
 20
3265.1541000000002
 30
0.0
  0
VERTEX
  5
F7E
  8
LAYER01
  6
CONTINUOUS
 62
     7
 10
2976.895724
 20
3271.8984679999999
 30
0.0
  0
VERTEX
  5
F7F
  8
LAYER01
  6
CONTINUOUS
 62
     7
 10
2969.1878750000001
 20
3278.6428350000001
 30
0.0
  0
VERTEX
  5
F80
  8
LAYER01
  6
CONTINUOUS
 62
     7
 10
2961.4800260000002
 20
3285.3872030000011
 30
0.0
  0
VERTEX
  5
F81
  8
LAYER01
  6
CONTINUOUS
 62
     7
 10
2952.8086969999999
 20
3290.204608
 30
0.0
  0
VERTEX
  5
F82
  8
LAYER01
  6
CONTINUOUS
 62
     7
 10
2944.1373670000012
 20
3295.0220140000001
 30
0.0
  0
VERTEX
  5
F83
  8
LAYER01
  6
CONTINUOUS
 62
     7
 10
2934.5025559999999
 20
3298.8759380000001
 30
0.0
  0
VERTEX
  5
F84
  8
LAYER01
  6
CONTINUOUS
 62
     7
 10
2924.867745
 20
3301.7663809999999
 30
0.0
  0
VERTEX
  5
F85
  8
LAYER01
  6
CONTINUOUS
 62
     7
 10
2914.2694530000008
 20
3303.6933440000012
 30
0.0
  0
VERTEX
  5
F86
  8
LAYER01
  6
CONTINUOUS
 62
     7
 10
2903.6711610000002
 20
3304.656825
 30
0.0
  0
VERTEX
  5
F87
  8
LAYER01
  6
CONTINUOUS
 62
     7
 10
2903.6711610000002
 20
3304.656825
 30
0.0
  0
SEQEND
  5
F88
  8
LAYER01
  6
CONTINUOUS
 62
     7
  0
POLYLINE
  5
621
  8
LAYER01
  6
CONTINUOUS
 62
     7
 66
     1
 10
0.0
 20
0.0
 30
0.0
 70
     1
  0
VERTEX
  5
F89
  8
LAYER01
  6
CONTINUOUS
 62
     7
 10
2900.780718
 20
3126.4128230000001
 30
0.0
  0
VERTEX
  5
F8A
  8
LAYER01
  6
CONTINUOUS
 62
     7
 10
2900.780718
 20
3126.4128230000001
 30
0.0
  0
VERTEX
  5
F8B
  8
LAYER01
  6
CONTINUOUS
 62
     7
 10
2894.0363499999999
 20
3127.3763039999999
 30
0.0
  0
VERTEX
  5
F8C
  8
LAYER01
  6
CONTINUOUS
 62
     7
 10
2887.2919830000001
 20
3128.339786
 30
0.0
  0
VERTEX
  5
F8D
  8
LAYER01
  6
CONTINUOUS
 62
     7
 10
2880.547615
 20
3129.3032669999998
 30
0.0
  0
VERTEX
  5
F8E
  8
LAYER01
  6
CONTINUOUS
 62
     7
 10
2873.8032469999998
 20
3132.19371
 30
0.0
  0
VERTEX
  5
F8F
  8
LAYER01
  6
CONTINUOUS
 62
     7
 10
2868.0223609999998
 20
3135.0841530000012
 30
0.0
  0
VERTEX
  5
F90
  8
LAYER01
  6
CONTINUOUS
 62
     7
 10
2862.2414739999999
 20
3138.9380769999998
 30
0.0
  0
VERTEX
  5
F91
  8
LAYER01
  6
CONTINUOUS
 62
     7
 10
2857.4240690000001
 20
3142.7920020000001
 30
0.0
  0
VERTEX
  5
F92
  8
LAYER01
  6
CONTINUOUS
 62
     7
 10
2852.606663
 20
3147.6094069999999
 30
0.0
  0
VERTEX
  5
F93
  8
LAYER01
  6
CONTINUOUS
 62
     7
 10
2847.7892579999998
 20
3152.426813
 30
0.0
  0
VERTEX
  5
F94
  8
LAYER01
  6
CONTINUOUS
 62
     7
 10
2843.9353339999998
 20
3157.2442179999998
 30
0.0
  0
VERTEX
  5
F95
  8
LAYER01
  6
CONTINUOUS
 62
     7
 10
2841.0448900000001
 20
3163.0251050000002
 30
0.0
  0
VERTEX
  5
F96
  8
LAYER01
  6
CONTINUOUS
 62
     7
 10
2838.1544469999999
 20
3169.769472
 30
0.0
  0
VERTEX
  5
F97
  8
LAYER01
  6
CONTINUOUS
 62
     7
 10
2835.2640040000001
 20
3175.5503589999998
 30
0.0
  0
VERTEX
  5
F98
  8
LAYER01
  6
CONTINUOUS
 62
     7
 10
2834.3005229999999
 20
3182.2947260000001
 30
0.0
  0
VERTEX
  5
F99
  8
LAYER01
  6
CONTINUOUS
 62
     7
 10
2832.3735609999999
 20
3189.0390940000002
 30
0.0
  0
VERTEX
  5
F9A
  8
LAYER01
  6
CONTINUOUS
 62
     7
 10
2832.3735609999999
 20
3196.7469430000001
 30
0.0
  0
VERTEX
  5
F9B
  8
LAYER01
  6
CONTINUOUS
 62
     7
 10
2832.3735609999999
 20
3196.7469430000001
 30
0.0
  0
VERTEX
  5
F9C
  8
LAYER01
  6
CONTINUOUS
 62
     7
 10
2833.3370420000001
 20
3203.4913099999999
 30
0.0
  0
VERTEX
  5
F9D
  8
LAYER01
  6
CONTINUOUS
 62
     7
 10
2834.3005229999999
 20
3210.235678
 30
0.0
  0
VERTEX
  5
F9E
  8
LAYER01
  6
CONTINUOUS
 62
     7
 10
2836.2274850000008
 20
3216.980046000001
 30
0.0
  0
VERTEX
  5
F9F
  8
LAYER01
  6
CONTINUOUS
 62
     7
 10
2838.1544469999999
 20
3223.7244129999999
 30
0.0
  0
VERTEX
  5
FA0
  8
LAYER01
  6
CONTINUOUS
 62
     7
 10
2841.0448900000001
 20
3229.5052999999998
 30
0.0
  0
VERTEX
  5
FA1
  8
LAYER01
  6
CONTINUOUS
 62
     7
 10
2844.898815
 20
3235.2861859999998
 30
0.0
  0
VERTEX
  5
FA2
  8
LAYER01
  6
CONTINUOUS
 62
     7
 10
2848.752739
 20
3240.1035919999999
 30
0.0
  0
VERTEX
  5
FA3
  8
LAYER01
  6
CONTINUOUS
 62
     7
 10
2853.5701440000012
 20
3244.9209970000002
 30
0.0
  0
VERTEX
  5
FA4
  8
LAYER01
  6
CONTINUOUS
 62
     7
 10
2858.3875499999999
 20
3249.7384030000012
 30
0.0
  0
VERTEX
  5
FA5
  8
LAYER01
  6
CONTINUOUS
 62
     7
 10
2863.2049550000002
 20
3253.5923269999998
 30
0.0
  0
VERTEX
  5
FA6
  8
LAYER01
  6
CONTINUOUS
 62
     7
 10
2868.985842
 20
3257.4462510000012
 30
0.0
  0
VERTEX
  5
FA7
  8
LAYER01
  6
CONTINUOUS
 62
     7
 10
2875.7302100000002
 20
3260.336695
 30
0.0
  0
VERTEX
  5
FA8
  8
LAYER01
  6
CONTINUOUS
 62
     7
 10
2881.5110960000002
 20
3262.263657
 30
0.0
  0
VERTEX
  5
FA9
  8
LAYER01
  6
CONTINUOUS
 62
     7
 10
2888.2554639999998
 20
3264.190619
 30
0.0
  0
VERTEX
  5
FAA
  8
LAYER01
  6
CONTINUOUS
 62
     7
 10
2894.9998310000001
 20
3265.1541000000002
 30
0.0
  0
VERTEX
  5
FAB
  8
LAYER01
  6
CONTINUOUS
 62
     7
 10
2902.70768
 20
3265.1541000000002
 30
0.0
  0
VERTEX
  5
FAC
  8
LAYER01
  6
CONTINUOUS
 62
     7
 10
2902.70768
 20
3265.1541000000002
 30
0.0
  0
VERTEX
  5
FAD
  8
LAYER01
  6
CONTINUOUS
 62
     7
 10
2909.4520480000001
 20
3264.190619
 30
0.0
  0
VERTEX
  5
FAE
  8
LAYER01
  6
CONTINUOUS
 62
     7
 10
2916.1964149999999
 20
3263.2271380000002
 30
0.0
  0
VERTEX
  5
FAF
  8
LAYER01
  6
CONTINUOUS
 62
     7
 10
2921.9773019999998
 20
3261.3001760000011
 30
0.0
  0
VERTEX
  5
FB0
  8
LAYER01
  6
CONTINUOUS
 62
     7
 10
2928.721669
 20
3259.3732140000002
 30
0.0
  0
VERTEX
  5
FB1
  8
LAYER01
  6
CONTINUOUS
 62
     7
 10
2933.5390750000001
 20
3256.4827700000001
 30
0.0
  0
VERTEX
  5
FB2
  8
LAYER01
  6
CONTINUOUS
 62
     7
 10
2939.3199610000011
 20
3252.6288460000001
 30
0.0
  0
VERTEX
  5
FB3
  8
LAYER01
  6
CONTINUOUS
 62
     7
 10
2944.1373670000012
 20
3248.7749220000001
 30
0.0
  0
VERTEX
  5
FB4
  8
LAYER01
  6
CONTINUOUS
 62
     7
 10
2948.954772
 20
3244.9209970000002
 30
0.0
  0
VERTEX
  5
FB5
  8
LAYER01
  6
CONTINUOUS
 62
     7
 10
2952.8086969999999
 20
3240.1035919999999
 30
0.0
  0
VERTEX
  5
FB6
  8
LAYER01
  6
CONTINUOUS
 62
     7
 10
2956.6626209999999
 20
3234.322705
 30
0.0
  0
VERTEX
  5
FB7
  8
LAYER01
  6
CONTINUOUS
 62
     7
 10
2960.516545
 20
3229.5052999999998
 30
0.0
  0
VERTEX
  5
FB8
  8
LAYER01
  6
CONTINUOUS
 62
     7
 10
2963.4069890000001
 20
3223.7244129999999
 30
0.0
  0
VERTEX
  5
FB9
  8
LAYER01
  6
CONTINUOUS
 62
     7
 10
2965.3339510000001
 20
3216.980046000001
 30
0.0
  0
VERTEX
  5
FBA
  8
LAYER01
  6
CONTINUOUS
 62
     7
 10
2967.2609130000001
 20
3211.1991589999989
 30
0.0
  0
VERTEX
  5
FBB
  8
LAYER01
  6
CONTINUOUS
 62
     7
 10
2968.2243939999998
 20
3204.4547910000001
 30
0.0
  0
VERTEX
  5
FBC
  8
LAYER01
  6
CONTINUOUS
 62
     7
 10
2968.2243939999998
 20
3197.7104239999999
 30
0.0
  0
VERTEX
  5
FBD
  8
LAYER01
  6
CONTINUOUS
 62
     7
 10
2968.2243939999998
 20
3197.7104239999999
 30
0.0
  0
VERTEX
  5
FBE
  8
LAYER01
  6
CONTINUOUS
 62
     7
 10
2968.2243939999998
 20
3190.002575
 30
0.0
  0
VERTEX
  5
FBF
  8
LAYER01
  6
CONTINUOUS
 62
     7
 10
2967.2609130000001
 20
3183.2582080000002
 30
0.0
  0
VERTEX
  5
FC0
  8
LAYER01
  6
CONTINUOUS
 62
     7
 10
2966.2974319999998
 20
3176.5138400000001
 30
0.0
  0
VERTEX
  5
FC1
  8
LAYER01
  6
CONTINUOUS
 62
     7
 10
2963.4069890000001
 20
3170.7329530000002
 30
0.0
  0
VERTEX
  5
FC2
  8
LAYER01
  6
CONTINUOUS
 62
     7
 10
2961.4800260000002
 20
3163.9885859999999
 30
0.0
  0
VERTEX
  5
FC3
  8
LAYER01
  6
CONTINUOUS
 62
     7
 10
2957.6261020000011
 20
3158.207699
 30
0.0
  0
VERTEX
  5
FC4
  8
LAYER01
  6
CONTINUOUS
 62
     7
 10
2953.7721780000002
 20
3152.426813
 30
0.0
  0
VERTEX
  5
FC5
  8
LAYER01
  6
CONTINUOUS
 62
     7
 10
2948.954772
 20
3147.6094069999999
 30
0.0
  0
VERTEX
  5
FC6
  8
LAYER01
  6
CONTINUOUS
 62
     7
 10
2944.1373670000012
 20
3142.7920020000001
 30
0.0
  0
VERTEX
  5
FC7
  8
LAYER01
  6
CONTINUOUS
 62
     7
 10
2939.3199610000011
 20
3138.9380769999998
 30
0.0
  0
VERTEX
  5
FC8
  8
LAYER01
  6
CONTINUOUS
 62
     7
 10
2933.5390750000001
 20
3135.0841530000012
 30
0.0
  0
VERTEX
  5
FC9
  8
LAYER01
  6
CONTINUOUS
 62
     7
 10
2927.7581879999998
 20
3132.19371
 30
0.0
  0
VERTEX
  5
FCA
  8
LAYER01
  6
CONTINUOUS
 62
     7
 10
2921.013821
 20
3130.266748
 30
0.0
  0
VERTEX
  5
FCB
  8
LAYER01
  6
CONTINUOUS
 62
     7
 10
2914.2694530000008
 20
3128.339786
 30
0.0
  0
VERTEX
  5
FCC
  8
LAYER01
  6
CONTINUOUS
 62
     7
 10
2907.5250850000011
 20
3127.3763039999999
 30
0.0
  0
VERTEX
  5
FCD
  8
LAYER01
  6
CONTINUOUS
 62
     7
 10
2900.780718
 20
3126.4128230000001
 30
0.0
  0
VERTEX
  5
FCE
  8
LAYER01
  6
CONTINUOUS
 62
     7
 10
2900.780718
 20
3126.4128230000001
 30
0.0
  0
SEQEND
  5
FCF
  8
LAYER01
  6
CONTINUOUS
 62
     7
  0
POLYLINE
  5
669
  8
LAYER01
  6
CONTINUOUS
 62
     7
 66
     1
 10
0.0
 20
0.0
 30
0.0
 70
     1
  0
VERTEX
  5
FD0
  8
LAYER01
  6
CONTINUOUS
 62
     7
 10
2977.8592050000011
 20
3299.8394189999999
 30
0.0
  0
VERTEX
  5
FD1
  8
LAYER01
  6
CONTINUOUS
 62
     7
 10
3079.9881999999998
 20
3299.8394189999999
 30
0.0
  0
VERTEX
  5
FD2
  8
LAYER01
  6
CONTINUOUS
 62
     7
 10
3079.9881999999998
 20
3299.8394189999999
 30
0.0
  0
VERTEX
  5
FD3
  8
LAYER01
  6
CONTINUOUS
 62
     7
 10
3091.5499730000001
 20
3297.9124569999999
 30
0.0
  0
VERTEX
  5
FD4
  8
LAYER01
  6
CONTINUOUS
 62
     7
 10
3102.1482649999998
 20
3293.0950520000001
 30
0.0
  0
VERTEX
  5
FD5
  8
LAYER01
  6
CONTINUOUS
 62
     7
 10
3110.8195949999999
 20
3287.3141649999998
 30
0.0
  0
VERTEX
  5
FD6
  8
LAYER01
  6
CONTINUOUS
 62
     7
 10
3118.5274440000012
 20
3279.6063160000008
 30
0.0
  0
VERTEX
  5
FD7
  8
LAYER01
  6
CONTINUOUS
 62
     7
 10
3125.2718110000001
 20
3271.8984679999999
 30
0.0
  0
VERTEX
  5
FD8
  8
LAYER01
  6
CONTINUOUS
 62
     7
 10
3130.0892170000002
 20
3262.263657
 30
0.0
  0
VERTEX
  5
FD9
  8
LAYER01
  6
CONTINUOUS
 62
     7
 10
3132.97966
 20
3250.7018840000001
 30
0.0
  0
VERTEX
  5
FDA
  8
LAYER01
  6
CONTINUOUS
 62
     7
 10
3133.9431410000002
 20
3240.1035919999999
 30
0.0
  0
VERTEX
  5
FDB
  8
LAYER01
  6
CONTINUOUS
 62
     7
 10
3133.9431410000002
 20
3240.1035919999999
 30
0.0
  0
VERTEX
  5
FDC
  8
LAYER01
  6
CONTINUOUS
 62
     7
 10
3132.97966
 20
3228.541819
 30
0.0
  0
VERTEX
  5
FDD
  8
LAYER01
  6
CONTINUOUS
 62
     7
 10
3131.052698
 20
3218.9070080000001
 30
0.0
  0
VERTEX
  5
FDE
  8
LAYER01
  6
CONTINUOUS
 62
     7
 10
3127.198774
 20
3209.2721969999998
 30
0.0
  0
VERTEX
  5
FDF
  8
LAYER01
  6
CONTINUOUS
 62
     7
 10
3122.3813679999998
 20
3200.6008670000001
 30
0.0
  0
VERTEX
  5
FE0
  8
LAYER01
  6
CONTINUOUS
 62
     7
 10
3115.6370000000002
 20
3192.8930180000002
 30
0.0
  0
VERTEX
  5
FE1
  8
LAYER01
  6
CONTINUOUS
 62
     7
 10
3108.8926329999999
 20
3187.1121320000011
 30
0.0
  0
VERTEX
  5
FE2
  8
LAYER01
  6
CONTINUOUS
 62
     7
 10
3099.257822
 20
3181.3312449999999
 30
0.0
  0
VERTEX
  5
FE3
  8
LAYER01
  6
CONTINUOUS
 62
     7
 10
3089.6230110000001
 20
3177.4773209999998
 30
0.0
  0
VERTEX
  5
FE4
  8
LAYER01
  6
CONTINUOUS
 62
     7
 10
3152.2492820000002
 20
3093.654466
 30
0.0
  0
VERTEX
  5
FE5
  8
LAYER01
  6
CONTINUOUS
 62
     7
 10
3104.0752269999998
 20
3093.654466
 30
0.0
  0
VERTEX
  5
FE6
  8
LAYER01
  6
CONTINUOUS
 62
     7
 10
3020.2523729999998
 20
3200.6008670000001
 30
0.0
  0
VERTEX
  5
FE7
  8
LAYER01
  6
CONTINUOUS
 62
     7
 10
3067.4629460000001
 20
3200.6008670000001
 30
0.0
  0
VERTEX
  5
FE8
  8
LAYER01
  6
CONTINUOUS
 62
     7
 10
3067.4629460000001
 20
3200.6008670000001
 30
0.0
  0
VERTEX
  5
FE9
  8
LAYER01
  6
CONTINUOUS
 62
     7
 10
3073.243833
 20
3202.5278290000001
 30
0.0
  0
VERTEX
  5
FEA
  8
LAYER01
  6
CONTINUOUS
 62
     7
 10
3078.0612379999998
 20
3204.4547910000001
 30
0.0
  0
VERTEX
  5
FEB
  8
LAYER01
  6
CONTINUOUS
 62
     7
 10
3081.9151619999998
 20
3208.308716
 30
0.0
  0
VERTEX
  5
FEC
  8
LAYER01
  6
CONTINUOUS
 62
     7
 10
3085.7690870000001
 20
3212.1626400000009
 30
0.0
  0
VERTEX
  5
FED
  8
LAYER01
  6
CONTINUOUS
 62
     7
 10
3088.6595299999999
 20
3216.980046000001
 30
0.0
  0
VERTEX
  5
FEE
  8
LAYER01
  6
CONTINUOUS
 62
     7
 10
3091.5499730000001
 20
3221.7974509999999
 30
0.0
  0
VERTEX
  5
FEF
  8
LAYER01
  6
CONTINUOUS
 62
     7
 10
3092.5134539999999
 20
3227.5783379999998
 30
0.0
  0
VERTEX
  5
FF0
  8
LAYER01
  6
CONTINUOUS
 62
     7
 10
3092.5134539999999
 20
3233.3592239999998
 30
0.0
  0
VERTEX
  5
FF1
  8
LAYER01
  6
CONTINUOUS
 62
     7
 10
3092.5134539999999
 20
3233.3592239999998
 30
0.0
  0
VERTEX
  5
FF2
  8
LAYER01
  6
CONTINUOUS
 62
     7
 10
3092.5134539999999
 20
3239.1401110000011
 30
0.0
  0
VERTEX
  5
FF3
  8
LAYER01
  6
CONTINUOUS
 62
     7
 10
3090.5864919999999
 20
3243.9575159999999
 30
0.0
  0
VERTEX
  5
FF4
  8
LAYER01
  6
CONTINUOUS
 62
     7
 10
3088.6595299999999
 20
3248.7749220000001
 30
0.0
  0
VERTEX
  5
FF5
  8
LAYER01
  6
CONTINUOUS
 62
     7
 10
3085.7690870000001
 20
3253.5923269999998
 30
0.0
  0
VERTEX
  5
FF6
  8
LAYER01
  6
CONTINUOUS
 62
     7
 10
3081.9151619999998
 20
3257.4462510000012
 30
0.0
  0
VERTEX
  5
FF7
  8
LAYER01
  6
CONTINUOUS
 62
     7
 10
3078.0612379999998
 20
3260.336695
 30
0.0
  0
VERTEX
  5
FF8
  8
LAYER01
  6
CONTINUOUS
 62
     7
 10
3072.2803510000008
 20
3263.2271380000002
 30
0.0
  0
VERTEX
  5
FF9
  8
LAYER01
  6
CONTINUOUS
 62
     7
 10
3067.4629460000001
 20
3265.1541000000002
 30
0.0
  0
VERTEX
  5
FFA
  8
LAYER01
  6
CONTINUOUS
 62
     7
 10
3012.5445239999999
 20
3265.1541000000002
 30
0.0
  0
VERTEX
  5
FFB
  8
LAYER01
  6
CONTINUOUS
 62
     7
 10
2977.8592050000011
 20
3299.8394189999999
 30
0.0
  0
VERTEX
  5
FFC
  8
LAYER01
  6
CONTINUOUS
 62
     7
 10
2977.8592050000011
 20
3299.8394189999999
 30
0.0
  0
SEQEND
  5
FFD
  8
LAYER01
  6
CONTINUOUS
 62
     7
  0
POLYLINE
  5
698
  8
LAYER01
  6
CONTINUOUS
 62
     7
 66
     1
 10
0.0
 20
0.0
 30
0.0
 70
     1
  0
VERTEX
  5
FFE
  8
LAYER01
  6
CONTINUOUS
 62
     7
 10
3178.2632709999998
 20
3248.7749220000001
 30
0.0
  0
VERTEX
  5
FFF
  8
LAYER01
  6
CONTINUOUS
 62
     7
 10
3178.2632709999998
 20
3248.7749220000001
 30
0.0
  0
VERTEX
  5
1000
  8
LAYER01
  6
CONTINUOUS
 62
     7
 10
3183.0806769999999
 20
3249.7384030000012
 30
0.0
  0
VERTEX
  5
1001
  8
LAYER01
  6
CONTINUOUS
 62
     7
 10
3187.8980820000002
 20
3250.7018840000001
 30
0.0
  0
VERTEX
  5
1002
  8
LAYER01
  6
CONTINUOUS
 62
     7
 10
3192.7154879999998
 20
3253.5923269999998
 30
0.0
  0
VERTEX
  5
1003
  8
LAYER01
  6
CONTINUOUS
 62
     7
 10
3196.5694119999998
 20
3256.4827700000001
 30
0.0
  0
VERTEX
  5
1004
  8
LAYER01
  6
CONTINUOUS
 62
     7
 10
3199.459855000001
 20
3260.336695
 30
0.0
  0
VERTEX
  5
1005
  8
LAYER01
  6
CONTINUOUS
 62
     7
 10
3201.3868170000001
 20
3264.190619
 30
0.0
  0
VERTEX
  5
1006
  8
LAYER01
  6
CONTINUOUS
 62
     7
 10
3203.3137790000001
 20
3269.0080240000002
 30
0.0
  0
VERTEX
  5
1007
  8
LAYER01
  6
CONTINUOUS
 62
     7
 10
3203.3137790000001
 20
3274.7889110000001
 30
0.0
  0
VERTEX
  5
1008
  8
LAYER01
  6
CONTINUOUS
 62
     7
 10
3203.3137790000001
 20
3274.7889110000001
 30
0.0
  0
VERTEX
  5
1009
  8
LAYER01
  6
CONTINUOUS
 62
     7
 10
3203.3137790000001
 20
3279.6063160000008
 30
0.0
  0
VERTEX
  5
100A
  8
LAYER01
  6
CONTINUOUS
 62
     7
 10
3201.3868170000001
 20
3284.423722
 30
0.0
  0
VERTEX
  5
100B
  8
LAYER01
  6
CONTINUOUS
 62
     7
 10
3199.459855000001
 20
3288.277646
 30
0.0
  0
VERTEX
  5
100C
  8
LAYER01
  6
CONTINUOUS
 62
     7
 10
3196.5694119999998
 20
3292.1315709999999
 30
0.0
  0
VERTEX
  5
100D
  8
LAYER01
  6
CONTINUOUS
 62
     7
 10
3192.7154879999998
 20
3295.0220140000001
 30
0.0
  0
VERTEX
  5
100E
  8
LAYER01
  6
CONTINUOUS
 62
     7
 10
3187.8980820000002
 20
3297.9124569999999
 30
0.0
  0
VERTEX
  5
100F
  8
LAYER01
  6
CONTINUOUS
 62
     7
 10
3183.0806769999999
 20
3298.8759380000001
 30
0.0
  0
VERTEX
  5
1010
  8
LAYER01
  6
CONTINUOUS
 62
     7
 10
3178.2632709999998
 20
3299.8394189999999
 30
0.0
  0
VERTEX
  5
1011
  8
LAYER01
  6
CONTINUOUS
 62
     7
 10
3178.2632709999998
 20
3299.8394189999999
 30
0.0
  0
VERTEX
  5
1012
  8
LAYER01
  6
CONTINUOUS
 62
     7
 10
3173.445866
 20
3298.8759380000001
 30
0.0
  0
VERTEX
  5
1013
  8
LAYER01
  6
CONTINUOUS
 62
     7
 10
3168.6284600000008
 20
3297.9124569999999
 30
0.0
  0
VERTEX
  5
1014
  8
LAYER01
  6
CONTINUOUS
 62
     7
 10
3163.8110550000001
 20
3295.0220140000001
 30
0.0
  0
VERTEX
  5
1015
  8
LAYER01
  6
CONTINUOUS
 62
     7
 10
3159.9571310000001
 20
3292.1315709999999
 30
0.0
  0
VERTEX
  5
1016
  8
LAYER01
  6
CONTINUOUS
 62
     7
 10
3157.066687
 20
3288.277646
 30
0.0
  0
VERTEX
  5
1017
  8
LAYER01
  6
CONTINUOUS
 62
     7
 10
3155.139725
 20
3284.423722
 30
0.0
  0
VERTEX
  5
1018
  8
LAYER01
  6
CONTINUOUS
 62
     7
 10
3153.212763
 20
3279.6063160000008
 30
0.0
  0
VERTEX
  5
1019
  8
LAYER01
  6
CONTINUOUS
 62
     7
 10
3153.212763
 20
3274.7889110000001
 30
0.0
  0
VERTEX
  5
101A
  8
LAYER01
  6
CONTINUOUS
 62
     7
 10
3153.212763
 20
3274.7889110000001
 30
0.0
  0
VERTEX
  5
101B
  8
LAYER01
  6
CONTINUOUS
 62
     7
 10
3153.212763
 20
3269.0080240000002
 30
0.0
  0
VERTEX
  5
101C
  8
LAYER01
  6
CONTINUOUS
 62
     7
 10
3155.139725
 20
3264.190619
 30
0.0
  0
VERTEX
  5
101D
  8
LAYER01
  6
CONTINUOUS
 62
     7
 10
3157.066687
 20
3260.336695
 30
0.0
  0
VERTEX
  5
101E
  8
LAYER01
  6
CONTINUOUS
 62
     7
 10
3159.9571310000001
 20
3256.4827700000001
 30
0.0
  0
VERTEX
  5
101F
  8
LAYER01
  6
CONTINUOUS
 62
     7
 10
3163.8110550000001
 20
3253.5923269999998
 30
0.0
  0
VERTEX
  5
1020
  8
LAYER01
  6
CONTINUOUS
 62
     7
 10
3168.6284600000008
 20
3250.7018840000001
 30
0.0
  0
VERTEX
  5
1021
  8
LAYER01
  6
CONTINUOUS
 62
     7
 10
3173.445866
 20
3249.7384030000012
 30
0.0
  0
VERTEX
  5
1022
  8
LAYER01
  6
CONTINUOUS
 62
     7
 10
3178.2632709999998
 20
3248.7749220000001
 30
0.0
  0
VERTEX
  5
1023
  8
LAYER01
  6
CONTINUOUS
 62
     7
 10
3178.2632709999998
 20
3248.7749220000001
 30
0.0
  0
SEQEND
  5
1024
  8
LAYER01
  6
CONTINUOUS
 62
     7
  0
POLYLINE
  5
6C0
  8
LAYER01
  6
CONTINUOUS
 62
     7
 66
     1
 10
0.0
 20
0.0
 30
0.0
 70
     1
  0
VERTEX
  5
1025
  8
LAYER01
  6
CONTINUOUS
 62
     7
 10
3178.2632709999998
 20
3295.9854949999999
 30
0.0
  0
VERTEX
  5
1026
  8
LAYER01
  6
CONTINUOUS
 62
     7
 10
3178.2632709999998
 20
3295.9854949999999
 30
0.0
  0
VERTEX
  5
1027
  8
LAYER01
  6
CONTINUOUS
 62
     7
 10
3182.1171960000001
 20
3295.0220140000001
 30
0.0
  0
VERTEX
  5
1028
  8
LAYER01
  6
CONTINUOUS
 62
     7
 10
3185.9711200000002
 20
3294.0585329999999
 30
0.0
  0
VERTEX
  5
1029
  8
LAYER01
  6
CONTINUOUS
 62
     7
 10
3189.8250440000002
 20
3292.1315709999999
 30
0.0
  0
VERTEX
  5
102A
  8
LAYER01
  6
CONTINUOUS
 62
     7
 10
3192.7154879999998
 20
3289.2411269999998
 30
0.0
  0
VERTEX
  5
102B
  8
LAYER01
  6
CONTINUOUS
 62
     7
 10
3195.6059310000001
 20
3286.350684
 30
0.0
  0
VERTEX
  5
102C
  8
LAYER01
  6
CONTINUOUS
 62
     7
 10
3197.5328930000001
 20
3282.49676
 30
0.0
  0
VERTEX
  5
102D
  8
LAYER01
  6
CONTINUOUS
 62
     7
 10
3199.459855000001
 20
3278.6428350000001
 30
0.0
  0
VERTEX
  5
102E
  8
LAYER01
  6
CONTINUOUS
 62
     7
 10
3199.459855000001
 20
3274.7889110000001
 30
0.0
  0
VERTEX
  5
102F
  8
LAYER01
  6
CONTINUOUS
 62
     7
 10
3199.459855000001
 20
3274.7889110000001
 30
0.0
  0
VERTEX
  5
1030
  8
LAYER01
  6
CONTINUOUS
 62
     7
 10
3199.459855000001
 20
3269.971505
 30
0.0
  0
VERTEX
  5
1031
  8
LAYER01
  6
CONTINUOUS
 62
     7
 10
3197.5328930000001
 20
3266.117581
 30
0.0
  0
VERTEX
  5
1032
  8
LAYER01
  6
CONTINUOUS
 62
     7
 10
3195.6059310000001
 20
3262.263657
 30
0.0
  0
VERTEX
  5
1033
  8
LAYER01
  6
CONTINUOUS
 62
     7
 10
3192.7154879999998
 20
3259.3732140000002
 30
0.0
  0
VERTEX
  5
1034
  8
LAYER01
  6
CONTINUOUS
 62
     7
 10
3189.8250440000002
 20
3256.4827700000001
 30
0.0
  0
VERTEX
  5
1035
  8
LAYER01
  6
CONTINUOUS
 62
     7
 10
3185.9711200000002
 20
3254.5558080000001
 30
0.0
  0
VERTEX
  5
1036
  8
LAYER01
  6
CONTINUOUS
 62
     7
 10
3182.1171960000001
 20
3253.5923269999998
 30
0.0
  0
VERTEX
  5
1037
  8
LAYER01
  6
CONTINUOUS
 62
     7
 10
3178.2632709999998
 20
3253.5923269999998
 30
0.0
  0
VERTEX
  5
1038
  8
LAYER01
  6
CONTINUOUS
 62
     7
 10
3178.2632709999998
 20
3253.5923269999998
 30
0.0
  0
VERTEX
  5
1039
  8
LAYER01
  6
CONTINUOUS
 62
     7
 10
3174.4093469999998
 20
3253.5923269999998
 30
0.0
  0
VERTEX
  5
103A
  8
LAYER01
  6
CONTINUOUS
 62
     7
 10
3169.5919410000001
 20
3254.5558080000001
 30
0.0
  0
VERTEX
  5
103B
  8
LAYER01
  6
CONTINUOUS
 62
     7
 10
3166.7014979999999
 20
3256.4827700000001
 30
0.0
  0
VERTEX
  5
103C
  8
LAYER01
  6
CONTINUOUS
 62
     7
 10
3162.8475739999999
 20
3259.3732140000002
 30
0.0
  0
VERTEX
  5
103D
  8
LAYER01
  6
CONTINUOUS
 62
     7
 10
3160.9206119999999
 20
3262.263657
 30
0.0
  0
VERTEX
  5
103E
  8
LAYER01
  6
CONTINUOUS
 62
     7
 10
3158.993649
 20
3266.117581
 30
0.0
  0
VERTEX
  5
103F
  8
LAYER01
  6
CONTINUOUS
 62
     7
 10
3157.066687
 20
3269.971505
 30
0.0
  0
VERTEX
  5
1040
  8
LAYER01
  6
CONTINUOUS
 62
     7
 10
3157.066687
 20
3274.7889110000001
 30
0.0
  0
VERTEX
  5
1041
  8
LAYER01
  6
CONTINUOUS
 62
     7
 10
3157.066687
 20
3274.7889110000001
 30
0.0
  0
VERTEX
  5
1042
  8
LAYER01
  6
CONTINUOUS
 62
     7
 10
3157.066687
 20
3278.6428350000001
 30
0.0
  0
VERTEX
  5
1043
  8
LAYER01
  6
CONTINUOUS
 62
     7
 10
3158.993649
 20
3282.49676
 30
0.0
  0
VERTEX
  5
1044
  8
LAYER01
  6
CONTINUOUS
 62
     7
 10
3160.9206119999999
 20
3286.350684
 30
0.0
  0
VERTEX
  5
1045
  8
LAYER01
  6
CONTINUOUS
 62
     7
 10
3162.8475739999999
 20
3289.2411269999998
 30
0.0
  0
VERTEX
  5
1046
  8
LAYER01
  6
CONTINUOUS
 62
     7
 10
3166.7014979999999
 20
3292.1315709999999
 30
0.0
  0
VERTEX
  5
1047
  8
LAYER01
  6
CONTINUOUS
 62
     7
 10
3169.5919410000001
 20
3294.0585329999999
 30
0.0
  0
VERTEX
  5
1048
  8
LAYER01
  6
CONTINUOUS
 62
     7
 10
3174.4093469999998
 20
3295.0220140000001
 30
0.0
  0
VERTEX
  5
1049
  8
LAYER01
  6
CONTINUOUS
 62
     7
 10
3178.2632709999998
 20
3295.9854949999999
 30
0.0
  0
VERTEX
  5
104A
  8
LAYER01
  6
CONTINUOUS
 62
     7
 10
3178.2632709999998
 20
3295.9854949999999
 30
0.0
  0
SEQEND
  5
104B
  8
LAYER01
  6
CONTINUOUS
 62
     7
  0
POLYLINE
  5
6E8
  8
LAYER01
  6
CONTINUOUS
 62
     7
 66
     1
 10
0.0
 20
0.0
 30
0.0
 70
     1
  0
VERTEX
  5
104C
  8
LAYER01
  6
CONTINUOUS
 62
     7
 10
3182.1171960000001
 20
3272.8619490000001
 30
0.0
  0
VERTEX
  5
104D
  8
LAYER01
  6
CONTINUOUS
 62
     7
 10
3182.1171960000001
 20
3272.8619490000001
 30
0.0
  0
VERTEX
  5
104E
  8
LAYER01
  6
CONTINUOUS
 62
     7
 10
3185.0076389999999
 20
3273.8254299999999
 30
0.0
  0
VERTEX
  5
104F
  8
LAYER01
  6
CONTINUOUS
 62
     7
 10
3187.8980820000002
 20
3274.7889110000001
 30
0.0
  0
VERTEX
  5
1050
  8
LAYER01
  6
CONTINUOUS
 62
     7
 10
3189.8250440000002
 20
3277.6793539999999
 30
0.0
  0
VERTEX
  5
1051
  8
LAYER01
  6
CONTINUOUS
 62
     7
 10
3189.8250440000002
 20
3280.5697970000001
 30
0.0
  0
VERTEX
  5
1052
  8
LAYER01
  6
CONTINUOUS
 62
     7
 10
3189.8250440000002
 20
3280.5697970000001
 30
0.0
  0
VERTEX
  5
1053
  8
LAYER01
  6
CONTINUOUS
 62
     7
 10
3189.8250440000002
 20
3284.423722
 30
0.0
  0
VERTEX
  5
1054
  8
LAYER01
  6
CONTINUOUS
 62
     7
 10
3186.9346010000008
 20
3287.3141649999998
 30
0.0
  0
VERTEX
  5
1055
  8
LAYER01
  6
CONTINUOUS
 62
     7
 10
3184.0441580000002
 20
3288.277646
 30
0.0
  0
VERTEX
  5
1056
  8
LAYER01
  6
CONTINUOUS
 62
     7
 10
3180.1902329999998
 20
3288.277646
 30
0.0
  0
VERTEX
  5
1057
  8
LAYER01
  6
CONTINUOUS
 62
     7
 10
3168.6284600000008
 20
3288.277646
 30
0.0
  0
VERTEX
  5
1058
  8
LAYER01
  6
CONTINUOUS
 62
     7
 10
3168.6284600000008
 20
3260.336695
 30
0.0
  0
VERTEX
  5
1059
  8
LAYER01
  6
CONTINUOUS
 62
     7
 10
3172.4823849999998
 20
3260.336695
 30
0.0
  0
VERTEX
  5
105A
  8
LAYER01
  6
CONTINUOUS
 62
     7
 10
3172.4823849999998
 20
3272.8619490000001
 30
0.0
  0
VERTEX
  5
105B
  8
LAYER01
  6
CONTINUOUS
 62
     7
 10
3178.2632709999998
 20
3272.8619490000001
 30
0.0
  0
VERTEX
  5
105C
  8
LAYER01
  6
CONTINUOUS
 62
     7
 10
3185.0076389999999
 20
3260.336695
 30
0.0
  0
VERTEX
  5
105D
  8
LAYER01
  6
CONTINUOUS
 62
     7
 10
3189.8250440000002
 20
3260.336695
 30
0.0
  0
VERTEX
  5
105E
  8
LAYER01
  6
CONTINUOUS
 62
     7
 10
3182.1171960000001
 20
3272.8619490000001
 30
0.0
  0
VERTEX
  5
105F
  8
LAYER01
  6
CONTINUOUS
 62
     7
 10
3182.1171960000001
 20
3272.8619490000001
 30
0.0
  0
SEQEND
  5
1060
  8
LAYER01
  6
CONTINUOUS
 62
     7
  0
POLYLINE
  5
6FE
  8
LAYER01
  6
CONTINUOUS
 62
     7
 66
     1
 10
0.0
 20
0.0
 30
0.0
 70
     1
  0
VERTEX
  5
1061
  8
LAYER01
  6
CONTINUOUS
 62
     7
 10
3179.226752
 20
3284.423722
 30
0.0
  0
VERTEX
  5
1062
  8
LAYER01
  6
CONTINUOUS
 62
     7
 10
3179.226752
 20
3284.423722
 30
0.0
  0
VERTEX
  5
1063
  8
LAYER01
  6
CONTINUOUS
 62
     7
 10
3184.0441580000002
 20
3283.4602410000002
 30
0.0
  0
VERTEX
  5
1064
  8
LAYER01
  6
CONTINUOUS
 62
     7
 10
3185.9711200000002
 20
3282.49676
 30
0.0
  0
VERTEX
  5
1065
  8
LAYER01
  6
CONTINUOUS
 62
     7
 10
3185.9711200000002
 20
3280.5697970000001
 30
0.0
  0
VERTEX
  5
1066
  8
LAYER01
  6
CONTINUOUS
 62
     7
 10
3185.9711200000002
 20
3280.5697970000001
 30
0.0
  0
VERTEX
  5
1067
  8
LAYER01
  6
CONTINUOUS
 62
     7
 10
3185.0076389999999
 20
3278.6428350000001
 30
0.0
  0
VERTEX
  5
1068
  8
LAYER01
  6
CONTINUOUS
 62
     7
 10
3183.0806769999999
 20
3277.6793539999999
 30
0.0
  0
VERTEX
  5
1069
  8
LAYER01
  6
CONTINUOUS
 62
     7
 10
3177.29979
 20
3276.7158730000001
 30
0.0
  0
VERTEX
  5
106A
  8
LAYER01
  6
CONTINUOUS
 62
     7
 10
3172.4823849999998
 20
3276.7158730000001
 30
0.0
  0
VERTEX
  5
106B
  8
LAYER01
  6
CONTINUOUS
 62
     7
 10
3172.4823849999998
 20
3284.423722
 30
0.0
  0
VERTEX
  5
106C
  8
LAYER01
  6
CONTINUOUS
 62
     7
 10
3179.226752
 20
3284.423722
 30
0.0
  0
VERTEX
  5
106D
  8
LAYER01
  6
CONTINUOUS
 62
     7
 10
3179.226752
 20
3284.423722
 30
0.0
  0
SEQEND
  5
106E
  8
LAYER01
  6
CONTINUOUS
 62
     7
  0
ENDBLK
  5
70D
  8
0
  0
BLOCK
  8
0
  2
NIZ_WEB-G40
 70
     0
 10
0.0
 20
0.0
 30
0.0
  3
NIZ_WEB-G40
  1

  0
TEXT
  5
710
  8
LAYER01
  6
VERDECKT
 62
     1
 10
2187.8594079999998
 20
2793.6400670000012
 30
0.0
 40
10.0
  1
A. Sprenger GmbH
  7
SIMPLEX
  0
TEXT
  5
711
  8
LAYER01
  6
VERDECKT
 62
     1
 10
2187.8594079999998
 20
2776.49721
 30
0.0
 40
10.0
  1
Berner Str. 10
  7
SIMPLEX
  0
TEXT
  5
712
  8
LAYER01
  6
VERDECKT
 62
     1
 10
2187.8594079999998
 20
2759.3543530000002
 30
0.0
 40
10.0
  1
60437 Frankfurt
  7
SIMPLEX
  0
TEXT
  5
713
  8
LAYER01
  6
VERDECKT
 62
     1
 10
2187.8594079999998
 20
2742.2114959999999
 30
0.0
 40
10.0
  1
Tel.: 069 - 507 27 41
  7
SIMPLEX
  0
TEXT
  5
714
  8
LAYER01
  6
VERDECKT
 62
     1
 10
2187.8594079999998
 20
2725.0686390000001
 30
0.0
 40
10.0
  1
Fax: 069 - 507 72 91
  7
SIMPLEX
  0
TEXT
  5
715
  8
LAYER01
  6
VERDECKT
 62
     1
 10
2187.8594079999998
 20
2707.9257819999998
 30
0.0
 40
10.0
  1
info@varicor.org
  7
SIMPLEX
  0
ENDBLK
  5
716
  8
0
  0
BLOCK
  8
0
  2
NIZ_WEB-G39
 70
     0
 10
0.0
 20
0.0
 30
0.0
  3
NIZ_WEB-G39
  1

  0
TEXT
  5
719
  8
LAYER01
  6
CONTINUOUS
 62
     1
 10
3238.6778629999999
 20
2558.5598800000012
 30
0.0
 40
10.0
  1
Blatt
  7
SIMPLEX
  0
LINE
  5
71A
  8
LAYER01
  6
CONTINUOUS
 62
     1
 10
2173.6778629999999
 20
2628.5598799999998
 30
0.0
 11
2773.6778629999999
 21
2628.5598799999998
 31
0.0
  0
LINE
  5
71B
  8
LAYER01
  6
CONTINUOUS
 62
     1
 10
2173.6778629999999
 20
2603.5598800000012
 30
0.0
 11
2773.6778629999999
 21
2603.5598800000012
 31
0.0
  0
LINE
  5
71C
  8
LAYER01
  6
CONTINUOUS
 62
     1
 10
2173.6778629999999
 20
2578.5598799999998
 30
0.0
 11
3303.6778629999999
 21
2578.5598799999998
 31
0.0
  0
LINE
  5
71D
  8
LAYER01
  6
CONTINUOUS
 62
     1
 10
2173.6778629999999
 20
2503.5598799999998
 30
0.0
 11
3303.6778629999999
 21
2503.5598799999998
 31
0.0
  0
LINE
  5
71E
  8
LAYER01
  6
CONTINUOUS
 62
     1
 10
2173.6778629999999
 20
2703.5598799999998
 30
0.0
 11
3303.6778629999999
 21
2703.5598799999998
 31
0.0
  0
POLYLINE
  5
71F
  8
LAYER01
  6
CONTINUOUS
 62
     1
 66
     1
 10
0.0
 20
0.0
 30
0.0
 70
     1
  0
VERTEX
  5
106F
  8
LAYER01
  6
CONTINUOUS
 62
     1
 10
2173.6778629999999
 20
2473.5598799999998
 30
0.0
  0
VERTEX
  5
1070
  8
LAYER01
  6
CONTINUOUS
 62
     1
 10
2173.6778629999999
 20
2808.5598800000012
 30
0.0
  0
VERTEX
  5
1071
  8
LAYER01
  6
CONTINUOUS
 62
     1
 10
3303.6778629999999
 20
2808.5598800000012
 30
0.0
  0
VERTEX
  5
1072
  8
LAYER01
  6
CONTINUOUS
 62
     1
 10
3303.6778629999999
 20
2473.5598799999998
 30
0.0
  0
SEQEND
  5
1073
  8
LAYER01
  6
CONTINUOUS
 62
     1
  0
LINE
  5
725
  8
LAYER01
  6
CONTINUOUS
 62
     1
 10
2173.6778629999999
 20
2678.5598799999998
 30
0.0
 11
2773.6778629999999
 21
2678.5598799999998
 31
0.0
  0
LINE
  5
726
  8
LAYER01
  6
CONTINUOUS
 62
     1
 10
2173.6778629999999
 20
2653.5598799999998
 30
0.0
 11
2773.6778629999999
 21
2653.5598799999998
 31
0.0
  0
LINE
  5
727
  8
LAYER01
  6
CONTINUOUS
 62
     1
 10
2498.6778629999999
 20
2808.5598800000012
 30
0.0
 11
2498.6778629999999
 21
2473.5598799999998
 31
0.0
  0
INSERT
  5
728
  8
LAYER01
  2
NIZ_WEB-G40
 10
0.0
 20
0.0
 30
0.0
  0
LINE
  5
729
  8
LAYER01
  6
CONTINUOUS
 62
     1
 10
2173.6778629999999
 20
2528.5598799999998
 30
0.0
 11
2498.6778629999999
 21
2528.5598799999998
 31
0.0
  0
LINE
  5
72A
  8
LAYER01
  6
CONTINUOUS
 62
     1
 10
2173.6778629999999
 20
2553.5598799999998
 30
0.0
 11
2498.6778629999999
 21
2553.5598799999998
 31
0.0
  0
LINE
  5
72B
  8
LAYER01
  6
CONTINUOUS
 62
     1
 10
2218.6778629999999
 20
2703.5598799999998
 30
0.0
 11
2218.6778629999999
 21
2473.5598799999998
 31
0.0
  0
TEXT
  5
72C
  8
LAYER01
  6
CONTINUOUS
 62
     1
 10
2182.0771279999999
 20
2483.5598799999998
 30
0.0
 40
9.5
  1
Zust
  7
SIMPLEX
  0
LINE
  5
72D
  8
LAYER01
  6
CONTINUOUS
 62
     1
 10
2376.4624779999999
 20
2473.5598799999998
 30
0.0
 11
2376.4624779999999
 21
2703.5598799999998
 31
0.0
  0
LINE
  5
72E
  8
LAYER01
  6
CONTINUOUS
 62
     1
 10
2453.6778629999999
 20
2703.5598799999998
 30
0.0
 11
2453.6778629999999
 21
2473.5598799999998
 31
0.0
  0
TEXT
  5
72F
  8
LAYER01
  6
CONTINUOUS
 62
     1
 10
2262.8064049999998
 20
2483.5598799999998
 30
0.0
 40
9.5
  1
Änderung
  7
SIMPLEX
  0
TEXT
  5
730
  8
LAYER01
  6
CONTINUOUS
 62
     1
 10
2390.5320080000001
 20
2483.5598799999998
 30
0.0
 40
9.5
  1
Datum
  7
SIMPLEX
  0
TEXT
  5
731
  8
LAYER01
  6
CONTINUOUS
 62
     1
 10
2457.4417670000012
 20
2483.5598799999998
 30
0.0
 40
9.5
  1
Name
  7
SIMPLEX
  0
LINE
  5
732
  8
LAYER01
  6
CONTINUOUS
 62
     1
 10
3303.6778629999999
 20
2768.5598800000012
 30
0.0
 11
2773.6778629999999
 21
2768.5598800000012
 31
0.0
  0
LINE
  5
733
  8
LAYER01
  6
CONTINUOUS
 62
     1
 10
2563.6778629999999
 20
2603.5598800000012
 30
0.0
 11
2563.6778629999999
 21
2703.5598799999998
 31
0.0
  0
TEXT
  5
734
  8
LAYER01
  6
CONTINUOUS
 62
     1
 10
2508.6778629999999
 20
2658.5598799999998
 30
0.0
 40
10.0
  1
Bearb.
  7
SIMPLEX
  0
TEXT
  5
735
  8
LAYER01
  6
CONTINUOUS
 62
     1
 10
2508.6778629999999
 20
2608.5598799999998
 30
0.0
 40
10.0
  1
Norm
  7
SIMPLEX
  0
TEXT
  5
736
  8
LAYER01
  6
CONTINUOUS
 62
     1
 10
2508.6778629999999
 20
2633.5598799999998
 30
0.0
 40
10.0
  1
Gepr.
  7
SIMPLEX
  0
TEXT
  5
737
  8
LAYER01
  6
CONTINUOUS
 62
     1
 10
2588.6778629999999
 20
2683.5598800000012
 30
0.0
 40
10.0
  1
Datum
  7
SIMPLEX
  0
TEXT
  5
738
  8
LAYER01
  6
CONTINUOUS
 62
     1
 10
2688.6778629999999
 20
2683.5598800000012
 30
0.0
 40
10.0
  1
Name
  7
SIMPLEX
  0
TEXT
  5
739
  8
LAYER01
  6
CONTINUOUS
 62
     1
 10
3278.6778629999999
 20
2508.5598799999998
 30
0.0
 40
10.0
  1
Bl.
  7
SIMPLEX
  0
LINE
  5
73A
  8
LAYER01
  6
CONTINUOUS
 62
     1
 10
2773.6778629999999
 20
2473.5598799999998
 30
0.0
 11
2773.6778629999999
 21
2808.5598800000012
 31
0.0
  0
LINE
  5
73B
  8
LAYER01
  6
CONTINUOUS
 62
     1
 10
2658.6778629999999
 20
2578.5598799999998
 30
0.0
 11
2658.6778629999999
 21
2808.5598800000012
 31
0.0
  0
LINE
  5
73C
  8
LAYER01
  6
CONTINUOUS
 62
     1
 10
3088.6778629999999
 20
2808.5598800000012
 30
0.0
 11
3088.6778629999999
 21
2768.5598800000012
 31
0.0
  0
TEXT
  5
73D
  8
LAYER01
  6
CONTINUOUS
 62
     1
 10
2784.5718619999998
 20
2783.0298780000012
 30
0.0
 40
10.0
  1
Maßstab
  7
SIMPLEX
  0
LINE
  5
73E
  8
LAYER01
  6
CONTINUOUS
 62
     1
 10
3228.6778629999999
 20
2578.5598799999998
 30
0.0
 11
3228.6778629999999
 21
2503.5598799999998
 31
0.0
  0
LINE
  5
73F
  8
LAYER01
  6
CONTINUOUS
 62
     1
 10
3228.6778629999999
 20
2528.5598799999998
 30
0.0
 11
3303.6778629999999
 21
2528.5598799999998
 31
0.0
  0
ENDBLK
  5
740
  8
0
  0
BLOCK
  8
0
  2
*D40
 70
     1
 10
0.0
 20
0.0
 30
0.0
  3
*D40
  1

  0
LINE
  5
743
  8
LAYER01
 62
     7
 10
1868.7490749999999
 20
3634.0093219999999
 30
0.0
 11
1964.7490749999999
 21
3634.0093219999999
 31
0.0
  0
LINE
  5
744
  8
LAYER01
 62
     7
 10
1822.7490749999999
 20
3634.0093219999999
 30
0.0
 11
1726.7490749999999
 21
3634.0093219999999
 31
0.0
  0
LINE
  5
745
  8
LAYER01
 62
     7
 10
1868.7490749999999
 20
3684.6484139999998
 30
0.0
 11
1868.7490749999999
 21
3604.0093219999999
 31
0.0
  0
LINE
  5
746
  8
LAYER01
 62
     7
 10
1822.7490749999999
 20
3684.6484139999998
 30
0.0
 11
1822.7490749999999
 21
3604.0093219999999
 31
0.0
  0
SOLID
  5
747
  8
LAYER01
 62
     7
 10
1916.7490749999999
 20
3642.0090019999998
 30
0.0
 11
1868.7490749999999
 21
3634.0093219999999
 31
0.0
 12
1916.7490749999999
 22
3626.009642
 32
0.0
 13
1916.7490749999999
 23
3626.009642
 33
0.0
  0
SOLID
  5
748
  8
LAYER01
 62
     7
 10
1774.7490749999999
 20
3642.0090019999998
 30
0.0
 11
1822.7490749999999
 21
3634.0093219999999
 31
0.0
 12
1774.7490749999999
 22
3626.009642
 32
0.0
 13
1774.7490749999999
 23
3626.009642
 33
0.0
  0
TEXT
  5
749
  8
LAYER01
  6
CONTINUOUS
 62
     7
 10
1936.5940519999999
 20
3638.4376090000001
 30
0.0
 40
60.0
  1
46
  0
POINT
  5
74A
  8
LAYER01
 62
     7
 10
1868.7490749999999
 20
3708.6484140000011
 30
0.0
  0
POINT
  5
74B
  8
LAYER01
 62
     7
 10
1822.7490749999999
 20
3708.6484140000011
 30
0.0
  0
POINT
  5
74C
  8
LAYER01
 62
     7
 10
1822.7490749999999
 20
3634.0093219999999
 30
0.0
  0
ENDBLK
  5
74D
  8
0
  0
BLOCK
  8
0
  2
*D41
 70
     1
 10
0.0
 20
0.0
 30
0.0
  3
*D41
  1

  0
LINE
  5
750
  8
LAYER01
 62
     7
 10
1880.5320039999999
 20
3730.8229139999999
 30
0.0
 11
1880.5320039999999
 21
3845.8711659999999
 31
0.0
  0
LINE
  5
751
  8
LAYER01
 62
     7
 10
1856.8745719999999
 20
3730.8229139999999
 30
0.0
 11
1850.5320039999999
 21
3730.8229139999999
 31
0.0
  0
LINE
  5
752
  8
LAYER01
 62
     7
 10
1856.8745719999999
 20
3845.8711659999999
 30
0.0
 11
1850.5320039999999
 21
3845.8711659999999
 31
0.0
  0
SOLID
  5
753
  8
LAYER01
 62
     7
 10
1888.531684
 20
3778.8229139999999
 30
0.0
 11
1880.5320039999999
 21
3730.8229139999999
 31
0.0
 12
1872.5323239999991
 22
3778.8229139999999
 32
0.0
 13
1872.5323239999991
 23
3778.8229139999999
 33
0.0
  0
SOLID
  5
754
  8
LAYER01
 62
     7
 10
1888.531684
 20
3797.8711659999999
 30
0.0
 11
1880.5320039999999
 21
3845.8711659999999
 31
0.0
 12
1872.5323239999991
 22
3797.8711659999999
 32
0.0
 13
1872.5323239999991
 23
3797.8711659999999
 33
0.0
  0
TEXT
  5
755
  8
LAYER01
  6
CONTINUOUS
 62
     7
 10
1850.5320039999999
 20
3743.546397999999
 30
0.0
 40
60.0
  1
115
 50
90.0
  0
POINT
  5
756
  8
LAYER01
 62
     7
 10
1880.8745719999999
 20
3730.8229139999999
 30
0.0
  0
POINT
  5
757
  8
LAYER01
 62
     7
 10
1880.8745719999999
 20
3845.8711659999999
 30
0.0
  0
POINT
  5
758
  8
LAYER01
 62
     7
 10
1880.5320039999999
 20
3845.8711659999999
 30
0.0
  0
ENDBLK
  5
759
  8
0
  0
BLOCK
  8
0
  2
*D42
 70
     1
 10
0.0
 20
0.0
 30
0.0
  3
*D42
  1

  0
LINE
  5
75C
  8
LAYER01
 62
     7
 10
1528.7922699999999
 20
3845.8229139999999
 30
0.0
 11
1528.7922699999999
 21
3941.8229139999999
 31
0.0
  0
LINE
  5
75D
  8
LAYER01
 62
     7
 10
1528.7922699999999
 20
3765.8229139999999
 30
0.0
 11
1528.7922699999999
 21
3669.8229139999999
 31
0.0
  0
LINE
  5
75E
  8
LAYER01
 62
     7
 10
1568.623578
 20
3845.8229139999999
 30
0.0
 11
1498.7922699999999
 21
3845.8229139999999
 31
0.0
  0
LINE
  5
75F
  8
LAYER01
 62
     7
 10
1568.623578
 20
3765.8229139999999
 30
0.0
 11
1498.7922699999999
 21
3765.8229139999999
 31
0.0
  0
SOLID
  5
760
  8
LAYER01
 62
     7
 10
1520.79259
 20
3893.8229139999999
 30
0.0
 11
1528.7922699999999
 21
3845.8229139999999
 31
0.0
 12
1536.79195
 22
3893.8229139999999
 32
0.0
 13
1536.79195
 23
3893.8229139999999
 33
0.0
  0
SOLID
  5
761
  8
LAYER01
 62
     7
 10
1520.79259
 20
3717.8229139999999
 30
0.0
 11
1528.7922699999999
 21
3765.8229139999999
 31
0.0
 12
1536.79195
 22
3717.8229139999999
 32
0.0
 13
1536.79195
 23
3717.8229139999999
 33
0.0
  0
TEXT
  5
762
  8
LAYER01
  6
CONTINUOUS
 62
     7
 10
1498.7922699999999
 20
3971.8229139999999
 30
0.0
 40
60.0
  1
80
 50
90.0
  0
POINT
  5
763
  8
LAYER01
 62
     7
 10
1592.623578
 20
3845.8229139999999
 30
0.0
  0
POINT
  5
764
  8
LAYER01
 62
     7
 10
1592.623578
 20
3765.8229139999999
 30
0.0
  0
POINT
  5
765
  8
LAYER01
 62
     7
 10
1528.7922699999999
 20
3765.8229139999999
 30
0.0
  0
ENDBLK
  5
766
  8
0
  0
BLOCK
  8
0
  2
*D43
 70
     1
 10
0.0
 20
0.0
 30
0.0
  3
*D43
  1

  0
LINE
  5
769
  8
LAYER01
 62
     7
 10
2034.483892
 20
3885.8229139999999
 30
0.0
 11
2034.483892
 21
3708.6484140000011
 31
0.0
  0
LINE
  5
76A
  8
LAYER01
 62
     7
 10
1966.8745530000001
 20
3885.8229139999999
 30
0.0
 11
2064.4838920000002
 21
3885.8229139999999
 31
0.0
  0
LINE
  5
76B
  8
LAYER01
 62
     7
 10
1966.8745530000001
 20
3708.6484140000011
 30
0.0
 11
2064.4838920000002
 21
3708.6484140000011
 31
0.0
  0
SOLID
  5
76C
  8
LAYER01
 62
     7
 10
2026.4842120000001
 20
3837.8229139999999
 30
0.0
 11
2034.483892
 21
3885.8229139999999
 31
0.0
 12
2042.4835720000001
 22
3837.8229139999999
 32
0.0
 13
2042.4835720000001
 23
3837.8229139999999
 33
0.0
  0
SOLID
  5
76D
  8
LAYER01
 62
     7
 10
2026.4842120000001
 20
3756.6484139999998
 30
0.0
 11
2034.483892
 21
3708.6484140000011
 31
0.0
 12
2042.4835720000001
 22
3756.6484139999998
 32
0.0
 13
2042.4835720000001
 23
3756.6484139999998
 33
0.0
  0
TEXT
  5
76E
  8
LAYER01
  6
CONTINUOUS
 62
     7
 10
2004.483892
 20
3751.952417
 30
0.0
 40
60.0
  1
177
 50
90.0
  0
POINT
  5
76F
  8
LAYER01
 62
     7
 10
1942.8745530000001
 20
3885.8229139999999
 30
0.0
  0
POINT
  5
770
  8
LAYER01
 62
     7
 10
1942.8745530000001
 20
3708.6484140000011
 30
0.0
  0
POINT
  5
771
  8
LAYER01
 62
     7
 10
2034.483892
 20
3708.6484140000011
 30
0.0
  0
ENDBLK
  5
772
  8
0
  0
ENDSEC
  0
SECTION
  2
ENTITIES
  0
POLYLINE
  5
773
  8
LAYER01
  6
CONTINUOUS
 62
     7
 66
     1
 10
0.0
 20
0.0
 30
0.0
 70
     1
  0
VERTEX
  5
1074
  8
LAYER01
  6
CONTINUOUS
 62
     7
 10
-643.21732199999997
 20
2473.5598799999998
 30
0.0
  0
VERTEX
  5
1075
  8
LAYER01
  6
CONTINUOUS
 62
     7
 10
-643.21732199999997
 20
5234.9667630000004
 30
0.0
  0
VERTEX
  5
1076
  8
LAYER01
  6
CONTINUOUS
 62
     7
 10
3303.6778629999999
 20
5234.9667630000004
 30
0.0
  0
VERTEX
  5
1077
  8
LAYER01
  6
CONTINUOUS
 62
     7
 10
3303.6778629999999
 20
2473.5598799999998
 30
0.0
  0
SEQEND
  5
1078
  8
LAYER01
  6
CONTINUOUS
 62
     7
  0
POLYLINE
  5
779
  8
LAYER01
  6
CONTINUOUS
 62
     7
 66
     1
 10
0.0
 20
0.0
 30
0.0
 70
     1
  0
VERTEX
  5
1079
  8
LAYER01
  6
CONTINUOUS
 62
     7
 10
-2656.1858109999998
 20
2473.5598799999998
 30
0.0
  0
VERTEX
  5
107A
  8
LAYER01
  6
CONTINUOUS
 62
     7
 10
-2656.1858109999998
 20
5234.9667630000004
 30
0.0
  0
VERTEX
  5
107B
  8
LAYER01
  6
CONTINUOUS
 62
     7
 10
-6603.0809959999997
 20
5234.9667630000004
 30
0.0
  0
VERTEX
  5
107C
  8
LAYER01
  6
CONTINUOUS
 62
     7
 10
-6603.0809959999997
 20
2473.5598799999998
 30
0.0
  0
SEQEND
  5
107D
  8
LAYER01
  6
CONTINUOUS
 62
     7
  0
TEXT
  5
77F
  8
LAYER01
  6
VERDECKT
 62
     1
 10
-3089.77315
 20
2782.5575349999999
 30
0.0
 40
10.0
  1
1 : 10 (DIN A3)
  7
SIMPLEX
  0
TEXT
  5
780
  8
LAYER01
  6
VERDECKT
 62
     1
 10
-2832.0445559999998
 20
2782.5575349999999
 30
0.0
 40
10.0
  1
xxx.skd
  7
SIMPLEX
  0
INSERT
  5
781
  8
LAYER01
  2
NIZ_WEB-G1
 10
0.0
 20
0.0
 30
0.0
  0
INSERT
  5
782
  8
LAYER01
  2
NIZ_WEB-G2
 10
0.0
 20
0.0
 30
0.0
  0
TEXT
  5
783
  8
LAYER01
  6
STRICHPUNKTIERT
 62
     7
 10
-3831.0048331070961
 20
2953.165963431471
 30
0.0
 40
43.651061999999989
  1
http://www.mineralwerkstoff.de
  0
TEXT
  5
784
  8
LAYER01
  6
VERDECKT
 62
     1
 10
-3155.7168780000002
 20
2718.0792240000001
 30
0.0
 40
25.0
  1
A. Sprenger GmbH
  7
SIMPLEX
  0
TEXT
  5
785
  8
LAYER01
  6
CONTINUOUS
 62
     7
 10
-3163.8270339999999
 20
2872.9008920000001
 30
0.0
 40
7.5
  1
Diese Zeichnung ist geistiges Eigentum der A. Sprenger GmbH
  7
SIMPLEX
  0
TEXT
  5
786
  8
LAYER01
  6
CONTINUOUS
 62
     7
 10
-3163.8270339999999
 20
2860.0437489999999
 30
0.0
 40
7.5
  1
und urheberrechtlich geschützt. Ohne unsere Zustimmung darf 
  7
SIMPLEX
  0
TEXT
  5
787
  8
LAYER01
  6
CONTINUOUS
 62
     7
 10
-3163.8270339999999
 20
2847.1866070000001
 30
0.0
 40
7.5
  1
sie in keiner Form verwendet oder Dritten zugänglich gemacht
  7
SIMPLEX
  0
TEXT
  5
788
  8
LAYER01
  6
CONTINUOUS
 62
     7
 10
-3163.8270339999999
 20
2834.3294639999999
 30
0.0
 40
7.5
  1
werden. (§106 Urheberrecht)
  7
SIMPLEX
  0
TEXT
  5
789
  8
LAYER01
  6
VERDECKT
 62
     1
 10
-3291.2257850000001
 20
2660.157889000001
 30
0.0
 40
10.0
  1
b.s.
  7
SIMPLEX
  0
TEXT
  5
78A
  8
LAYER01
  6
VERDECKT
 62
     1
 10
-3387.3829409999998
 20
2660.194426
 30
0.0
 40
10.0
  1
15.4.2021
  7
SIMPLEX
  0
TEXT
  5
78B
  8
LAYER01
  6
VERDECKT
 62
     1
 10
-3155.7168780000002
 20
2619.8963399999998
 30
0.0
 40
35.0
  1
Nizza (links)
  7
SIMPLEX
  0
LINE
  5
78C
  8
0
  6
CONTINUOUS
 62
     7
 10
-4016.9891210000001
 20
3845.8229139999999
 30
0.0
 11
-4016.9891210000001
 21
3833.8229139999999
 31
0.0
  0
LINE
  5
78D
  8
0
  6
CONTINUOUS
 62
     7
 10
-4016.9891210000001
 20
3885.8229139999999
 30
0.0
 11
-4028.9891210000001
 21
3885.8229139999999
 31
0.0
  0
DIMENSION
  5
78E
  8
LAYER01
 62
     7
  2
*D3
 10
-6095.8903019999998
 20
4406.666463999999
 30
0.0
 11
-6155.8903020000007
 21
4463.0688759999994
 31
0.0
 53
90.0
 13
-6012.7910200000006
 23
4503.6664639999999
 33
0.0
 14
-6012.7910200000006
 24
4406.666463999999
 34
0.0
 50
90.0
  0
DIMENSION
  5
78F
  8
LAYER01
 62
     7
  2
*D4
 10
-6185.1203329999998
 20
4328.6664639999999
 30
0.0
 11
-6245.1203329999998
 21
4428.0200819999991
 31
0.0
 53
90.0
 13
-6012.7910200000006
 23
4503.6664639999999
 33
0.0
 14
-6012.7910200000006
 24
4328.6664639999999
 34
0.0
 50
90.0
  0
DIMENSION
  5
790
  8
LAYER01
 62
     7
  2
*D5
 10
-6384.5661790000004
 20
4153.666463999999
 30
0.0
 11
-6444.5661790000004
 21
4340.520082
 31
0.0
 53
90.0
 13
-6012.7910200000006
 23
4503.6664639999999
 33
0.0
 14
-6012.7910200000006
 24
4153.666463999999
 34
0.0
 50
90.0
  0
DIMENSION
  5
791
  8
LAYER01
 62
     7
  2
*D6
 10
-6012.7910200000006
 20
4067.1938479999999
 30
0.0
 11
-5850.9253079999999
 21
4127.1938479999999
 31
0.0
 13
-5712.7668320000002
 23
4153.666463999999
 33
0.0
 14
-6012.7910200000006
 24
4153.666463999999
 34
0.0
  0
DIMENSION
  5
792
  8
LAYER01
 62
     7
  2
*D7
 10
-5712.7668320000002
 20
4068.6100579999988
 30
0.0
 11
-5448.4132149999987
 21
4128.6100580000002
 31
0.0
 13
-5207.7668320000002
 23
4153.666463999999
 33
0.0
 14
-5712.7668320000002
 24
4153.666463999999
 34
0.0
  0
DIMENSION
  5
793
  8
LAYER01
 62
     7
  2
*D8
 10
-4897.7910199999997
 20
4067.1938479999999
 30
0.0
 11
-5040.9253079999999
 21
4127.1938479999999
 31
0.0
 13
-5207.7668320000002
 23
4153.666463999999
 33
0.0
 14
-4897.7910199999997
 24
4153.666463999999
 34
0.0
  0
DIMENSION
  5
794
  8
LAYER01
 62
     7
  2
*D9
 10
-5647.7910199999997
 20
4537.151742
 30
0.0
 11
-5539.6874020000014
 21
4597.151742
 31
0.0
 13
-5455.2910199999997
 23
4503.6664639999999
 33
0.0
 14
-5647.7910199999997
 24
4503.6664639999999
 34
0.0
  0
DIMENSION
  5
795
  8
LAYER01
 62
     7
  2
*D10
 10
-5782.7679680000001
 20
4537.4684100000004
 30
0.0
 11
-5703.4258760000002
 21
4597.4684100000004
 31
0.0
 13
-5647.7910199999997
 23
4503.6664639999999
 33
0.0
 14
-5782.7679680000001
 24
4503.6664639999999
 34
0.0
  0
DIMENSION
  5
796
  8
LAYER01
 62
     7
  2
*D11
 10
-6091.1160039999986
 20
3885.8229139999999
 30
0.0
 11
-6151.1160040000004
 21
4051.8279889999999
 31
0.0
 53
90.0
 13
-6012.7910200000006
 23
3845.8229139999999
 33
0.0
 14
-6012.7910200000006
 24
3885.8229139999999
 34
0.0
 50
90.0
  0
DIMENSION
  5
797
  8
LAYER01
 62
     7
  2
*D12
 10
-5455.2910199999997
 20
4656.0733939999991
 30
0.0
 11
-5718.917461
 21
4716.073394
 31
0.0
 13
-6012.7910200000006
 23
4503.6664639999999
 33
0.0
 14
-5455.2910199999997
 24
4503.6664639999999
 34
0.0
  0
DIMENSION
  5
798
  8
LAYER01
 62
     7
  2
*D13
 10
-4897.7910199999997
 20
4772.0814119999986
 30
0.0
 11
-5435.1262740000002
 21
4832.0814119999986
 31
0.0
 13
-6012.7910200000006
 23
4503.6664639999999
 33
0.0
 14
-4897.7910199999997
 24
4503.6664639999999
 34
0.0
  0
DIMENSION
  5
799
  8
LAYER01
 62
     7
  2
*D14
 10
-5455.2910199999997
 20
4656.0733939999991
 30
0.0
 11
-5161.417461
 21
4716.073394
 31
0.0
 13
-4897.7910199999997
 23
4503.6664639999999
 33
0.0
 14
-5455.2910199999997
 24
4503.6664639999999
 34
0.0
  0
DIMENSION
  5
79A
  8
LAYER01
 62
     7
  2
*D15
 10
-4766.3752869999989
 20
4479.0427140000011
 30
0.0
 11
-4826.3752869999998
 21
4344.1662729999989
 31
0.0
 53
90.0
 13
-4897.7910199999997
 23
4179.0427140000002
 33
0.0
 14
-4897.7910199999997
 24
4479.0427140000011
 34
0.0
 50
90.0
  0
DIMENSION
  5
79B
  8
LAYER01
 62
     7
  2
*D16
 10
-6197.8817040000004
 20
3765.8229139999999
 30
0.0
 11
-6257.8817040000004
 21
4011.827988999999
 31
0.0
 53
90.0
 13
-6012.7910200000006
 23
3845.8229139999999
 33
0.0
 14
-6012.7910200000006
 24
3765.8229139999999
 34
0.0
 50
90.0
  0
DIMENSION
  5
79C
  8
LAYER01
 62
     7
  2
*D17
 10
-3925.379782
 20
3708.6484140000011
 30
0.0
 11
-3985.3797820000009
 21
3812.0803340000002
 31
0.0
 53
90.0
 13
-4016.9891210000001
 23
3885.8229139999999
 33
0.0
 14
-4016.9891210000001
 24
3708.6484140000011
 34
0.0
 50
90.0
  0
DIMENSION
  5
79D
  8
LAYER01
 62
     7
  2
*D18
 10
-4431.0714039999993
 20
3765.8229139999999
 30
0.0
 11
-4491.0714040000003
 21
4011.827988999999
 31
0.0
 53
90.0
 13
-4367.240096999999
 23
3845.8229139999999
 33
0.0
 14
-4367.240096999999
 24
3765.8229139999999
 34
0.0
 50
90.0
  0
DIMENSION
  5
79E
  8
LAYER01
 62
     7
  2
*D19
 10
-4137.1145999999999
 20
3634.0093219999999
 30
0.0
 11
-3983.2645470000002
 21
3668.437609000001
 31
0.0
 13
-4091.1145999999999
 23
3708.6484140000011
 33
0.0
 14
-4137.1145999999999
 24
3708.6484140000011
 34
0.0
  0
DIMENSION
  5
79F
  8
LAYER01
 62
     7
  2
*D20
 10
1404.1343529999999
 20
4328.6664639999999
 30
0.0
 11
1344.1343529999999
 21
4429.8733060000004
 31
0.0
 53
90.0
 13
1162.959875
 23
4503.6664639999999
 33
0.0
 14
1162.959875
 24
4328.6664639999999
 34
0.0
 50
90.0
  0
TEXT
  5
7A0
  8
LAYER01
  6
VERDECKT
 62
     7
 10
-91.882442999999995
 20
3382.1976199999999
 30
0.0
 40
70.0
  1
Waschtischmodell Nizza
  7
SIMPLEX
  0
TEXT
  5
7A1
  8
LAYER01
  6
VERDECKT
 62
     7
 10
-91.882442999999995
 20
3262.1976199999999
 30
0.0
 40
70.0
  1
Version Ablauf rechts
  7
SIMPLEX
  0
TEXT
  5
7A2
  8
LAYER01
  6
VERDECKT
 62
     7
 10
-91.882442999999995
 20
3142.1976199999999
 30
0.0
 40
70.0
  1
ohne Überlauf
  7
SIMPLEX
  0
TEXT
  5
7A3
  8
LAYER01
  6
VERDECKT
 62
     7
 10
-91.882442999999995
 20
3022.1976199999999
 30
0.0
 40
70.0
  1
mit/ohne Hahnlochbohrung
  7
SIMPLEX
  0
TEXT
  5
7A4
  8
LAYER01
  6
VERDECKT
 62
     7
 10
-91.882442999999995
 20
2902.1976199999999
 30
0.0
 40
70.0
  1
Waschtisch ist links um 230 mm
  7
SIMPLEX
  0
TEXT
  5
7A5
  8
LAYER01
  6
VERDECKT
 62
     7
 10
-91.882442999999995
 20
2782.1976199999999
 30
0.0
 40
70.0
  1
und rechts um 120 mm kürzbar
  7
SIMPLEX
  0
TEXT
  5
7A6
  8
LAYER01
  6
VERDECKT
 62
     7
 10
-91.882442999999995
 20
2662.1976199999999
 30
0.0
 40
70.0
  1
(Mindestlänge 765 mm)
  7
SIMPLEX
  0
TEXT
  5
7A7
  8
LAYER01
  6
VERDECKT
 62
     7
 10
-6051.7461169999997
 20
3382.1976199999999
 30
0.0
 40
70.0
  1
Waschtischmodell Nizza
  7
SIMPLEX
  0
TEXT
  5
7A8
  8
LAYER01
  6
VERDECKT
 62
     7
 10
-6051.7461169999997
 20
3262.1976199999999
 30
0.0
 40
70.0
  1
Version Ablauf links
  7
SIMPLEX
  0
TEXT
  5
7A9
  8
LAYER01
  6
VERDECKT
 62
     7
 10
-6051.7461169999997
 20
3142.1976199999999
 30
0.0
 40
70.0
  1
ohne Überlauf
  7
SIMPLEX
  0
TEXT
  5
7AA
  8
LAYER01
  6
VERDECKT
 62
     7
 10
-6051.7461169999997
 20
3022.1976199999999
 30
0.0
 40
70.0
  1
mit/ohne Hahnlochbohrung
  7
SIMPLEX
  0
TEXT
  5
7AB
  8
LAYER01
  6
VERDECKT
 62
     7
 10
-6051.7461169999997
 20
2902.1976199999999
 30
0.0
 40
70.0
  1
Waschtisch ist links um 120 mm
  7
SIMPLEX
  0
TEXT
  5
7AC
  8
LAYER01
  6
VERDECKT
 62
     7
 10
-6051.7461169999997
 20
2782.1976199999999
 30
0.0
 40
70.0
  1
und rechts um 230 mm kürzbar
  7
SIMPLEX
  0
TEXT
  5
7AD
  8
LAYER01
  6
VERDECKT
 62
     7
 10
-6051.7461169999997
 20
2662.1976199999999
 30
0.0
 40
70.0
  1
(Mindestlänge 765 mm)
  7
SIMPLEX
  0
LINE
  5
7AE
  8
LAYER01
  6
CONTINUOUS
 62
     7
 10
-5755.8108519999996
 20
4328.6664639999999
 30
0.0
 11
-5819.0878560000001
 21
4328.6664639999999
 31
0.0
  0
LINE
  5
7AF
  8
LAYER01
  6
CONTINUOUS
 62
     7
 10
-5782.7679680000001
 20
4354.2712789999987
 30
0.0
 11
-5782.7679680000001
 21
4296.3524089999992
 31
0.0
  0
LINE
  5
7B0
  8
LAYER01
  6
CONTINUOUS
 62
     7
 10
-5647.7910199999997
 20
4464.5458140000001
 30
0.0
 11
-5647.7910199999997
 21
4356.0420950000007
 31
0.0
  0
LINE
  5
7B1
  8
LAYER01
  6
CONTINUOUS
 62
     7
 10
-5698.9951200000014
 20
4406.666463999999
 30
0.0
 11
-5599.0574850000003
 21
4406.666463999999
 31
0.0
  0
DIMENSION
  5
7B2
  8
LAYER01
 62
     7
  2
*D21
 10
-5845.0828190000002
 20
4386.5140709999996
 30
0.0
 11
-5917.5174580000003
 21
4386.5140709999996
 31
0.0
 70
     3
 15
-5795.5935149999996
 25
4340.5725700000003
 35
0.0
 40
67.526386000000002
  0
LINE
  5
7B3
  8
LAYER01
  6
CONTINUOUS
 62
     7
 10
-4367.240096999999
 20
3845.8229139999999
 30
0.0
 11
-4367.240096999999
 21
3765.8229139999999
 31
0.0
  0
LINE
  5
7B4
  8
LAYER01
  6
CONTINUOUS
 62
     7
 10
-4091.1145999999999
 20
3708.6484140000011
 30
0.0
 11
-4071.1145999999999
 21
3708.6484140000011
 31
0.0
  0
LINE
  5
7B5
  8
LAYER01
  6
CONTINUOUS
 62
     7
 10
-4091.1145999999999
 20
3720.6484139999998
 30
0.0
 11
-4091.1145999999999
 21
3708.6484140000011
 31
0.0
  0
LINE
  5
7B6
  8
LAYER01
  6
CONTINUOUS
 62
     7
 10
-4091.1145999999999
 20
3720.6484139999998
 30
0.0
 11
-4078.9891029999999
 21
3730.8229139999999
 31
0.0
  0
LINE
  5
7B7
  8
LAYER01
  6
CONTINUOUS
 62
     7
 10
-4114.114599999999
 20
3708.6484140000011
 30
0.0
 11
-4114.114599999999
 21
3764.3367669999998
 31
0.0
  0
LINE
  5
7B8
  8
LAYER01
  6
CONTINUOUS
 62
     7
 10
-4157.114599999999
 20
3708.6484140000011
 30
0.0
 11
-4157.114599999999
 21
3718.6484139999998
 31
0.0
  0
LINE
  5
7B9
  8
LAYER01
  6
CONTINUOUS
 62
     7
 10
-4137.1145999999999
 20
3708.6484140000011
 30
0.0
 11
-4157.114599999999
 21
3708.6484140000011
 31
0.0
  0
LINE
  5
7BA
  8
LAYER01
  6
CONTINUOUS
 62
     7
 10
-4137.1145999999999
 20
3720.6484139999998
 30
0.0
 11
-4137.1145999999999
 21
3708.6484140000011
 31
0.0
  0
LINE
  5
7BB
  8
LAYER01
  6
CONTINUOUS
 62
     7
 10
-4137.1145999999999
 20
3720.6484139999998
 30
0.0
 11
-4149.240096999999
 21
3730.8229139999999
 31
0.0
  0
DIMENSION
  5
7BC
  8
LAYER01
 62
     7
  2
*D22
 10
-4079.3316700000009
 20
3845.8711659999999
 30
0.0
 11
-4139.3316699999996
 21
3802.1467010000001
 31
0.0
 53
90.0
 13
-4078.9891029999999
 23
3730.8229139999999
 33
0.0
 14
-4078.9891029999999
 24
3845.8711659999999
 34
0.0
 50
90.0
  0
LINE
  5
7BD
  8
LAYER01
  6
CONTINUOUS
 62
     7
 10
-4016.9891210000001
 20
3845.8229139999999
 30
0.0
 11
-4016.9891210000001
 21
3885.8229139999999
 31
0.0
  0
LINE
  5
7BE
  8
LAYER01
  6
CONTINUOUS
 62
     7
 10
-4016.9891210000001
 20
3833.8229139999999
 30
0.0
 11
-4030.9891210000001
 21
3833.8229139999999
 31
0.0
  0
LINE
  5
7BF
  8
LAYER01
  6
CONTINUOUS
 62
     7
 10
-4028.9891210000001
 20
3885.8229139999999
 30
0.0
 11
-4028.9891210000001
 21
3845.8229139999999
 31
0.0
  0
LINE
  5
7C0
  8
LAYER01
  6
CONTINUOUS
 62
     7
 10
-4897.7910199999997
 20
4490.6664639999999
 30
0.0
 11
-6012.7910200000006
 21
4490.6664639999999
 31
0.0
  0
LINE
  5
7C1
  8
LAYER01
  6
CONTINUOUS
 62
     7
 10
-4897.7910199999997
 20
4492.6664639999999
 30
0.0
 11
-6012.7910200000006
 21
4492.6664639999999
 31
0.0
  0
LINE
  5
7C2
  8
LAYER01
  6
CONTINUOUS
 62
     7
 10
-4897.7910199999997
 20
4490.6664639999999
 30
0.0
 11
-4897.7910199999997
 21
4492.6664639999999
 31
0.0
  0
LINE
  5
7C3
  8
LAYER01
  6
CONTINUOUS
 62
     7
 10
-6012.7910200000006
 20
4490.6664639999999
 30
0.0
 11
-6012.7910200000006
 21
4492.6664639999999
 31
0.0
  0
SOLID
  5
7C4
  8
LAYER01
  6
CONTINUOUS
 62
     7
 10
-4897.7910199999997
 20
4490.6664639999999
 30
0.0
 11
-6012.7910200000006
 21
4490.6664639999999
 31
0.0
 12
-4897.7910199999997
 22
4492.6664639999999
 32
0.0
 13
-6012.7910200000006
 23
4492.6664639999999
 33
0.0
  0
LINE
  5
7C5
  8
LAYER01
  6
CONTINUOUS
 62
     7
 10
-4897.7910199999997
 20
4502.666463999999
 30
0.0
 11
-6012.7910200000006
 21
4502.666463999999
 31
0.0
  0
LINE
  5
7C6
  8
LAYER01
  6
CONTINUOUS
 62
     7
 10
-4897.7910199999997
 20
4504.6664639999999
 30
0.0
 11
-6012.7910200000006
 21
4504.6664639999999
 31
0.0
  0
LINE
  5
7C7
  8
LAYER01
  6
CONTINUOUS
 62
     7
 10
-4897.7910199999997
 20
4502.666463999999
 30
0.0
 11
-4897.7910199999997
 21
4504.6664639999999
 31
0.0
  0
LINE
  5
7C8
  8
LAYER01
  6
CONTINUOUS
 62
     7
 10
-6012.7910200000006
 20
4502.666463999999
 30
0.0
 11
-6012.7910200000006
 21
4504.6664639999999
 31
0.0
  0
SOLID
  5
7C9
  8
LAYER01
  6
CONTINUOUS
 62
     7
 10
-4897.7910199999997
 20
4502.666463999999
 30
0.0
 11
-6012.7910200000006
 21
4502.666463999999
 31
0.0
 12
-4897.7910199999997
 22
4504.6664639999999
 32
0.0
 13
-6012.7910200000006
 23
4504.6664639999999
 33
0.0
  0
LINE
  5
7CA
  8
LAYER01
  6
CONTINUOUS
 62
     7
 10
-6011.7910199999997
 20
4503.6664639999999
 30
0.0
 11
-6011.7910199999997
 21
4153.666463999999
 31
0.0
  0
LINE
  5
7CB
  8
LAYER01
  6
CONTINUOUS
 62
     7
 10
-6013.7910200000006
 20
4503.6664639999999
 30
0.0
 11
-6013.7910200000006
 21
4153.666463999999
 31
0.0
  0
LINE
  5
7CC
  8
LAYER01
  6
CONTINUOUS
 62
     7
 10
-6011.7910199999997
 20
4503.6664639999999
 30
0.0
 11
-6013.7910200000006
 21
4503.6664639999999
 31
0.0
  0
LINE
  5
7CD
  8
LAYER01
  6
CONTINUOUS
 62
     7
 10
-6011.7910199999997
 20
4153.666463999999
 30
0.0
 11
-6013.7910200000006
 21
4153.666463999999
 31
0.0
  0
SOLID
  5
7CE
  8
LAYER01
  6
CONTINUOUS
 62
     7
 10
-6011.7910199999997
 20
4503.6664639999999
 30
0.0
 11
-6011.7910199999997
 21
4153.666463999999
 31
0.0
 12
-6013.7910200000006
 22
4503.6664639999999
 32
0.0
 13
-6013.7910200000006
 23
4153.666463999999
 33
0.0
  0
LINE
  5
7CF
  8
LAYER01
  6
CONTINUOUS
 62
     7
 10
-6012.7910200000006
 20
4154.6664639999999
 30
0.0
 11
-4897.7910199999997
 21
4154.6664639999999
 31
0.0
  0
LINE
  5
7D0
  8
LAYER01
  6
CONTINUOUS
 62
     7
 10
-6012.7910200000006
 20
4152.6664639999999
 30
0.0
 11
-4897.7910199999997
 21
4152.6664639999999
 31
0.0
  0
LINE
  5
7D1
  8
LAYER01
  6
CONTINUOUS
 62
     7
 10
-6012.7910200000006
 20
4154.6664639999999
 30
0.0
 11
-6012.7910200000006
 21
4152.6664639999999
 31
0.0
  0
LINE
  5
7D2
  8
LAYER01
  6
CONTINUOUS
 62
     7
 10
-4897.7910199999997
 20
4154.6664639999999
 30
0.0
 11
-4897.7910199999997
 21
4152.6664639999999
 31
0.0
  0
SOLID
  5
7D3
  8
LAYER01
  6
CONTINUOUS
 62
     7
 10
-6012.7910200000006
 20
4154.6664639999999
 30
0.0
 11
-4897.7910199999997
 21
4154.6664639999999
 31
0.0
 12
-6012.7910200000006
 22
4152.6664639999999
 32
0.0
 13
-4897.7910199999997
 23
4152.6664639999999
 33
0.0
  0
POLYLINE
  5
7D4
  8
LAYER01
  6
CONTINUOUS
 62
     7
 66
     1
 10
0.0
 20
0.0
 30
0.0
 70
     1
 40
2.0
 41
2.0
  0
VERTEX
  5
107E
  8
LAYER01
  6
CONTINUOUS
 62
     7
 10
-5207.7668320000002
 20
4179.0427140000002
 30
0.0
  0
VERTEX
  5
107F
  8
LAYER01
  6
CONTINUOUS
 62
     7
 10
-5712.7668320000002
 20
4179.0427140000002
 30
0.0
  0
VERTEX
  5
1080
  8
LAYER01
  6
CONTINUOUS
 62
     7
 10
-5712.7668320000002
 20
4479.0427140000011
 30
0.0
  0
VERTEX
  5
1081
  8
LAYER01
  6
CONTINUOUS
 62
     7
 10
-5207.7668320000002
 20
4479.0427140000011
 30
0.0
  0
SEQEND
  5
1082
  8
LAYER01
  6
CONTINUOUS
 62
     7
  0
CIRCLE
  5
7DA
  8
LAYER01
  6
CONTINUOUS
 62
     7
 10
-5647.7910199999997
 20
4406.666463999999
 30
0.0
 40
22.0
  0
CIRCLE
  5
7DB
  8
LAYER01
  6
CONTINUOUS
 62
     7
 10
-5647.7910199999997
 20
4406.666463999999
 30
0.0
 40
24.0
  0
CIRCLE
  5
7DC
  8
LAYER01
  6
CONTINUOUS
 62
     7
 10
-5647.7910199999997
 20
4406.666463999999
 30
0.0
 40
34.0
  0
CIRCLE
  5
7DD
  8
LAYER01
  6
CONTINUOUS
 62
     7
 10
-5647.7910199999997
 20
4406.666463999999
 30
0.0
 40
36.0
  0
CIRCLE
  5
7DE
  8
LAYER01
  6
CONTINUOUS
 62
     7
 10
-5782.7679680000001
 20
4328.6664639999999
 30
0.0
 40
16.5
  0
CIRCLE
  5
7DF
  8
LAYER01
  6
CONTINUOUS
 62
     7
 10
-5782.7679680000001
 20
4328.6664639999999
 30
0.0
 40
18.5
  0
LINE
  5
7E0
  8
LAYER01
  6
CONTINUOUS
 62
     7
 10
-6012.7910200000006
 20
3846.8229139999999
 30
0.0
 11
-4897.7910199999997
 21
3846.8229139999999
 31
0.0
  0
LINE
  5
7E1
  8
LAYER01
  6
CONTINUOUS
 62
     7
 10
-6012.7910200000006
 20
3844.8229139999999
 30
0.0
 11
-4897.7910199999997
 21
3844.8229139999999
 31
0.0
  0
LINE
  5
7E2
  8
LAYER01
  6
CONTINUOUS
 62
     7
 10
-6012.7910200000006
 20
3846.8229139999999
 30
0.0
 11
-6012.7910200000006
 21
3844.8229139999999
 31
0.0
  0
LINE
  5
7E3
  8
LAYER01
  6
CONTINUOUS
 62
     7
 10
-4897.7910199999997
 20
3846.8229139999999
 30
0.0
 11
-4897.7910199999997
 21
3844.8229139999999
 31
0.0
  0
SOLID
  5
7E4
  8
LAYER01
  6
CONTINUOUS
 62
     7
 10
-6012.7910200000006
 20
3846.8229139999999
 30
0.0
 11
-4897.7910199999997
 21
3846.8229139999999
 31
0.0
 12
-6012.7910200000006
 22
3844.8229139999999
 32
0.0
 13
-4897.7910199999997
 23
3844.8229139999999
 33
0.0
  0
LINE
  5
7E5
  8
LAYER01
  6
CONTINUOUS
 62
     7
 10
-6012.7910200000006
 20
3886.8229139999999
 30
0.0
 11
-4897.7910199999997
 21
3886.8229139999999
 31
0.0
  0
LINE
  5
7E6
  8
LAYER01
  6
CONTINUOUS
 62
     7
 10
-6012.7910200000006
 20
3884.8229139999999
 30
0.0
 11
-4897.7910199999997
 21
3884.8229139999999
 31
0.0
  0
LINE
  5
7E7
  8
LAYER01
  6
CONTINUOUS
 62
     7
 10
-6012.7910200000006
 20
3886.8229139999999
 30
0.0
 11
-6012.7910200000006
 21
3884.8229139999999
 31
0.0
  0
LINE
  5
7E8
  8
LAYER01
  6
CONTINUOUS
 62
     7
 10
-4897.7910199999997
 20
3886.8229139999999
 30
0.0
 11
-4897.7910199999997
 21
3884.8229139999999
 31
0.0
  0
SOLID
  5
7E9
  8
LAYER01
  6
CONTINUOUS
 62
     7
 10
-6012.7910200000006
 20
3886.8229139999999
 30
0.0
 11
-4897.7910199999997
 21
3886.8229139999999
 31
0.0
 12
-6012.7910200000006
 22
3884.8229139999999
 32
0.0
 13
-4897.7910199999997
 23
3884.8229139999999
 33
0.0
  0
LINE
  5
7EA
  8
LAYER01
  6
CONTINUOUS
 62
     7
 10
-4897.7910199999997
 20
3764.8229139999999
 30
0.0
 11
-6012.7910200000006
 21
3764.8229139999999
 31
0.0
  0
LINE
  5
7EB
  8
LAYER01
  6
CONTINUOUS
 62
     7
 10
-4897.7910199999997
 20
3766.8229139999999
 30
0.0
 11
-6012.7910200000006
 21
3766.8229139999999
 31
0.0
  0
LINE
  5
7EC
  8
LAYER01
  6
CONTINUOUS
 62
     7
 10
-4897.7910199999997
 20
3764.8229139999999
 30
0.0
 11
-4897.7910199999997
 21
3766.8229139999999
 31
0.0
  0
LINE
  5
7ED
  8
LAYER01
  6
CONTINUOUS
 62
     7
 10
-6012.7910200000006
 20
3764.8229139999999
 30
0.0
 11
-6012.7910200000006
 21
3766.8229139999999
 31
0.0
  0
SOLID
  5
7EE
  8
LAYER01
  6
CONTINUOUS
 62
     7
 10
-4897.7910199999997
 20
3764.8229139999999
 30
0.0
 11
-6012.7910200000006
 21
3764.8229139999999
 31
0.0
 12
-4897.7910199999997
 22
3766.8229139999999
 32
0.0
 13
-6012.7910200000006
 23
3766.8229139999999
 33
0.0
  0
LINE
  5
7EF
  8
LAYER01
  6
CONTINUOUS
 62
     7
 10
-6011.7910199999997
 20
3885.8229139999999
 30
0.0
 11
-6011.7910199999997
 21
3765.8229139999999
 31
0.0
  0
LINE
  5
7F0
  8
LAYER01
  6
CONTINUOUS
 62
     7
 10
-6013.7910200000006
 20
3885.8229139999999
 30
0.0
 11
-6013.7910200000006
 21
3765.8229139999999
 31
0.0
  0
LINE
  5
7F1
  8
LAYER01
  6
CONTINUOUS
 62
     7
 10
-6011.7910199999997
 20
3885.8229139999999
 30
0.0
 11
-6013.7910200000006
 21
3885.8229139999999
 31
0.0
  0
LINE
  5
7F2
  8
LAYER01
  6
CONTINUOUS
 62
     7
 10
-6011.7910199999997
 20
3765.8229139999999
 30
0.0
 11
-6013.7910200000006
 21
3765.8229139999999
 31
0.0
  0
SOLID
  5
7F3
  8
LAYER01
  6
CONTINUOUS
 62
     7
 10
-6011.7910199999997
 20
3885.8229139999999
 30
0.0
 11
-6011.7910199999997
 21
3765.8229139999999
 31
0.0
 12
-6013.7910200000006
 22
3885.8229139999999
 32
0.0
 13
-6013.7910200000006
 23
3765.8229139999999
 33
0.0
  0
LINE
  5
7F4
  8
LAYER01
  6
CONTINUOUS
 62
     7
 10
-4896.7910200000006
 20
3885.8229139999999
 30
0.0
 11
-4896.7910200000006
 21
3765.8229139999999
 31
0.0
  0
LINE
  5
7F5
  8
LAYER01
  6
CONTINUOUS
 62
     7
 10
-4898.7910199999997
 20
3885.8229139999999
 30
0.0
 11
-4898.7910199999997
 21
3765.8229139999999
 31
0.0
  0
LINE
  5
7F6
  8
LAYER01
  6
CONTINUOUS
 62
     7
 10
-4896.7910200000006
 20
3885.8229139999999
 30
0.0
 11
-4898.7910199999997
 21
3885.8229139999999
 31
0.0
  0
LINE
  5
7F7
  8
LAYER01
  6
CONTINUOUS
 62
     7
 10
-4896.7910200000006
 20
3765.8229139999999
 30
0.0
 11
-4898.7910199999997
 21
3765.8229139999999
 31
0.0
  0
SOLID
  5
7F8
  8
LAYER01
  6
CONTINUOUS
 62
     7
 10
-4896.7910200000006
 20
3885.8229139999999
 30
0.0
 11
-4896.7910200000006
 21
3765.8229139999999
 31
0.0
 12
-4898.7910199999997
 22
3885.8229139999999
 32
0.0
 13
-4898.7910199999997
 23
3765.8229139999999
 33
0.0
  0
LINE
  5
7F9
  8
LAYER01
  6
CONTINUOUS
 62
     7
 10
-5599.7910200000006
 20
3720.8967379999999
 30
0.0
 11
-5203.7668320000002
 21
3720.8967379999999
 31
0.0
  0
LINE
  5
7FA
  8
LAYER01
  6
CONTINUOUS
 62
     7
 10
-5599.7910200000006
 20
3718.8967379999999
 30
0.0
 11
-5203.7668320000002
 21
3718.8967379999999
 31
0.0
  0
LINE
  5
7FB
  8
LAYER01
  6
CONTINUOUS
 62
     7
 10
-5599.7910200000006
 20
3720.8967379999999
 30
0.0
 11
-5599.7910200000006
 21
3718.8967379999999
 31
0.0
  0
LINE
  5
7FC
  8
LAYER01
  6
CONTINUOUS
 62
     7
 10
-5203.7668320000002
 20
3720.8967379999999
 30
0.0
 11
-5203.7668320000002
 21
3718.8967379999999
 31
0.0
  0
SOLID
  5
7FD
  8
LAYER01
  6
CONTINUOUS
 62
     7
 10
-5599.7910200000006
 20
3720.8967379999999
 30
0.0
 11
-5203.7668320000002
 21
3720.8967379999999
 31
0.0
 12
-5599.7910200000006
 22
3718.8967379999999
 32
0.0
 13
-5203.7668320000002
 23
3718.8967379999999
 33
0.0
  0
LINE
  5
7FE
  8
LAYER01
  6
CONTINUOUS
 62
     7
 10
-5193.7668320000002
 20
3730.8967380000008
 30
0.0
 11
-5193.7668320000002
 21
3765.8229139999999
 31
0.0
  0
LINE
  5
7FF
  8
LAYER01
  6
CONTINUOUS
 62
     7
 10
-5191.7668320000002
 20
3730.8967380000008
 30
0.0
 11
-5191.7668320000002
 21
3765.8229139999999
 31
0.0
  0
LINE
  5
800
  8
LAYER01
  6
CONTINUOUS
 62
     7
 10
-5193.7668320000002
 20
3730.8967380000008
 30
0.0
 11
-5191.7668320000002
 21
3730.8967380000008
 31
0.0
  0
LINE
  5
801
  8
LAYER01
  6
CONTINUOUS
 62
     7
 10
-5193.7668320000002
 20
3765.8229139999999
 30
0.0
 11
-5191.7668320000002
 21
3765.8229139999999
 31
0.0
  0
SOLID
  5
802
  8
LAYER01
  6
CONTINUOUS
 62
     7
 10
-5193.7668320000002
 20
3730.8967380000008
 30
0.0
 11
-5193.7668320000002
 21
3765.8229139999999
 31
0.0
 12
-5191.7668320000002
 22
3730.8967380000008
 32
0.0
 13
-5191.7668320000002
 23
3765.8229139999999
 33
0.0
  0
ARC
  5
803
  8
LAYER01
  6
CONTINUOUS
 62
     7
 10
-5203.7668320000002
 20
3730.8967380000008
 30
0.0
 40
10.0
 50
270.0
 51
0.0
  0
ARC
  5
804
  8
LAYER01
  6
CONTINUOUS
 62
     7
 10
-5203.7668320000002
 20
3730.8967380000008
 30
0.0
 40
12.0
 50
270.0
 51
0.0
  0
LINE
  5
805
  8
LAYER01
  6
CONTINUOUS
 62
     7
 10
-5203.7668320000002
 20
3718.8967379999999
 30
0.0
 11
-5203.7668320000002
 21
3720.8967379999999
 31
0.0
  0
LINE
  5
806
  8
LAYER01
  6
CONTINUOUS
 62
     7
 10
-5191.7668320000002
 20
3730.8967380000008
 30
0.0
 11
-5193.7668320000002
 21
3730.8967380000008
 31
0.0
  0
LINE
  5
807
  8
LAYER01
  6
CONTINUOUS
 62
     7
 10
-5728.7668320000002
 20
3730.8967380000008
 30
0.0
 11
-5728.7668320000002
 21
3765.8229139999999
 31
0.0
  0
LINE
  5
808
  8
LAYER01
  6
CONTINUOUS
 62
     7
 10
-5726.7668320000002
 20
3730.8967380000008
 30
0.0
 11
-5726.7668320000002
 21
3765.8229139999999
 31
0.0
  0
LINE
  5
809
  8
LAYER01
  6
CONTINUOUS
 62
     7
 10
-5728.7668320000002
 20
3730.8967380000008
 30
0.0
 11
-5726.7668320000002
 21
3730.8967380000008
 31
0.0
  0
LINE
  5
80A
  8
LAYER01
  6
CONTINUOUS
 62
     7
 10
-5728.7668320000002
 20
3765.8229139999999
 30
0.0
 11
-5726.7668320000002
 21
3765.8229139999999
 31
0.0
  0
SOLID
  5
80B
  8
LAYER01
  6
CONTINUOUS
 62
     7
 10
-5728.7668320000002
 20
3730.8967380000008
 30
0.0
 11
-5728.7668320000002
 21
3765.8229139999999
 31
0.0
 12
-5726.7668320000002
 22
3730.8967380000008
 32
0.0
 13
-5726.7668320000002
 23
3765.8229139999999
 33
0.0
  0
ARC
  5
80C
  8
LAYER01
  6
CONTINUOUS
 62
     7
 10
-5716.7668320000012
 20
3730.8967380000008
 30
0.0
 40
10.0
 50
180.0
 51
270.0
  0
ARC
  5
80D
  8
LAYER01
  6
CONTINUOUS
 62
     7
 10
-5716.7668320000012
 20
3730.8967380000008
 30
0.0
 40
12.0
 50
180.0
 51
270.0
  0
LINE
  5
80E
  8
LAYER01
  6
CONTINUOUS
 62
     7
 10
-5728.7668320000002
 20
3730.8967380000008
 30
0.0
 11
-5726.7668320000002
 21
3730.8967380000008
 31
0.0
  0
LINE
  5
80F
  8
LAYER01
  6
CONTINUOUS
 62
     7
 10
-5716.7668320000012
 20
3718.8967379999999
 30
0.0
 11
-5716.7668320000012
 21
3720.8967379999999
 31
0.0
  0
LINE
  5
810
  8
LAYER01
  6
CONTINUOUS
 62
     7
 10
-5690.7910199999997
 20
3709.6484139999998
 30
0.0
 11
-5604.7910199999997
 21
3709.6484139999998
 31
0.0
  0
LINE
  5
811
  8
LAYER01
  6
CONTINUOUS
 62
     7
 10
-5690.7910199999997
 20
3707.6484140000011
 30
0.0
 11
-5604.7910199999997
 21
3707.6484140000011
 31
0.0
  0
LINE
  5
812
  8
LAYER01
  6
CONTINUOUS
 62
     7
 10
-5690.7910199999997
 20
3709.6484139999998
 30
0.0
 11
-5690.7910199999997
 21
3707.6484140000011
 31
0.0
  0
LINE
  5
813
  8
LAYER01
  6
CONTINUOUS
 62
     7
 10
-5604.7910199999997
 20
3709.6484139999998
 30
0.0
 11
-5604.7910199999997
 21
3707.6484140000011
 31
0.0
  0
SOLID
  5
814
  8
LAYER01
  6
CONTINUOUS
 62
     7
 10
-5690.7910199999997
 20
3709.6484139999998
 30
0.0
 11
-5604.7910199999997
 21
3709.6484139999998
 31
0.0
 12
-5690.7910199999997
 22
3707.6484140000011
 32
0.0
 13
-5604.7910199999997
 23
3707.6484140000011
 33
0.0
  0
LINE
  5
815
  8
LAYER01
  6
CONTINUOUS
 62
     7
 10
-5605.7910200000006
 20
3708.6484140000011
 30
0.0
 11
-5605.7910200000006
 21
3714.8967379999999
 31
0.0
  0
LINE
  5
816
  8
LAYER01
  6
CONTINUOUS
 62
     7
 10
-5603.7910199999997
 20
3708.6484140000011
 30
0.0
 11
-5603.7910199999997
 21
3714.8967379999999
 31
0.0
  0
LINE
  5
817
  8
LAYER01
  6
CONTINUOUS
 62
     7
 10
-5605.7910200000006
 20
3708.6484140000011
 30
0.0
 11
-5603.7910199999997
 21
3708.6484140000011
 31
0.0
  0
LINE
  5
818
  8
LAYER01
  6
CONTINUOUS
 62
     7
 10
-5605.7910200000006
 20
3714.8967379999999
 30
0.0
 11
-5603.7910199999997
 21
3714.8967379999999
 31
0.0
  0
SOLID
  5
819
  8
LAYER01
  6
CONTINUOUS
 62
     7
 10
-5605.7910200000006
 20
3708.6484140000011
 30
0.0
 11
-5605.7910200000006
 21
3714.8967379999999
 31
0.0
 12
-5603.7910199999997
 22
3708.6484140000011
 32
0.0
 13
-5603.7910199999997
 23
3714.8967379999999
 33
0.0
  0
ARC
  5
81A
  8
LAYER01
  6
CONTINUOUS
 62
     7
 10
-5599.7910200000006
 20
3714.8967379999999
 30
0.0
 40
4.0
 50
90.0
 51
180.0
  0
ARC
  5
81B
  8
LAYER01
  6
CONTINUOUS
 62
     7
 10
-5599.7910200000006
 20
3714.8967379999999
 30
0.0
 40
6.0
 50
90.0
 51
180.0
  0
LINE
  5
81C
  8
LAYER01
  6
CONTINUOUS
 62
     7
 10
-5599.7910200000006
 20
3720.8967379999999
 30
0.0
 11
-5599.7910200000006
 21
3718.8967379999999
 31
0.0
  0
LINE
  5
81D
  8
LAYER01
  6
CONTINUOUS
 62
     7
 10
-5605.7910200000006
 20
3714.8967379999999
 30
0.0
 11
-5603.7910199999997
 21
3714.8967379999999
 31
0.0
  0
LINE
  5
81E
  8
LAYER01
  6
CONTINUOUS
 62
     7
 10
-5691.7910200000006
 20
3708.6484140000011
 30
0.0
 11
-5691.7910200000006
 21
3714.8967379999999
 31
0.0
  0
LINE
  5
81F
  8
LAYER01
  6
CONTINUOUS
 62
     7
 10
-5689.7910200000006
 20
3708.6484140000011
 30
0.0
 11
-5689.7910200000006
 21
3714.8967379999999
 31
0.0
  0
LINE
  5
820
  8
LAYER01
  6
CONTINUOUS
 62
     7
 10
-5691.7910200000006
 20
3708.6484140000011
 30
0.0
 11
-5689.7910200000006
 21
3708.6484140000011
 31
0.0
  0
LINE
  5
821
  8
LAYER01
  6
CONTINUOUS
 62
     7
 10
-5691.7910200000006
 20
3714.8967379999999
 30
0.0
 11
-5689.7910200000006
 21
3714.8967379999999
 31
0.0
  0
SOLID
  5
822
  8
LAYER01
  6
CONTINUOUS
 62
     7
 10
-5691.7910200000006
 20
3708.6484140000011
 30
0.0
 11
-5691.7910200000006
 21
3714.8967379999999
 31
0.0
 12
-5689.7910200000006
 22
3708.6484140000011
 32
0.0
 13
-5689.7910200000006
 23
3714.8967379999999
 33
0.0
  0
LINE
  5
823
  8
LAYER01
  6
CONTINUOUS
 62
     7
 10
-5716.7668320000012
 20
3720.8967379999999
 30
0.0
 11
-5695.7910200000006
 21
3720.8967379999999
 31
0.0
  0
LINE
  5
824
  8
LAYER01
  6
CONTINUOUS
 62
     7
 10
-5716.7668320000012
 20
3718.8967379999999
 30
0.0
 11
-5695.7910200000006
 21
3718.8967379999999
 31
0.0
  0
LINE
  5
825
  8
LAYER01
  6
CONTINUOUS
 62
     7
 10
-5716.7668320000012
 20
3720.8967379999999
 30
0.0
 11
-5716.7668320000012
 21
3718.8967379999999
 31
0.0
  0
LINE
  5
826
  8
LAYER01
  6
CONTINUOUS
 62
     7
 10
-5695.7910200000006
 20
3720.8967379999999
 30
0.0
 11
-5695.7910200000006
 21
3718.8967379999999
 31
0.0
  0
SOLID
  5
827
  8
LAYER01
  6
CONTINUOUS
 62
     7
 10
-5716.7668320000012
 20
3720.8967379999999
 30
0.0
 11
-5695.7910200000006
 21
3720.8967379999999
 31
0.0
 12
-5716.7668320000012
 22
3718.8967379999999
 32
0.0
 13
-5695.7910200000006
 23
3718.8967379999999
 33
0.0
  0
ARC
  5
828
  8
LAYER01
  6
CONTINUOUS
 62
     7
 10
-5695.7910200000006
 20
3714.8967379999999
 30
0.0
 40
4.0
 50
0.0
 51
90.0
  0
ARC
  5
829
  8
LAYER01
  6
CONTINUOUS
 62
     7
 10
-5695.7910200000006
 20
3714.8967379999999
 30
0.0
 40
6.0
 50
0.0
 51
90.0
  0
LINE
  5
82A
  8
LAYER01
  6
CONTINUOUS
 62
     7
 10
-5689.7910200000006
 20
3714.8967379999999
 30
0.0
 11
-5691.7910200000006
 21
3714.8967379999999
 31
0.0
  0
LINE
  5
82B
  8
LAYER01
  6
CONTINUOUS
 62
     7
 10
-5695.7910200000006
 20
3720.8967379999999
 30
0.0
 11
-5695.7910200000006
 21
3718.8967379999999
 31
0.0
  0
LINE
  5
82C
  8
LAYER01
  6
CONTINUOUS
 62
     7
 10
-4342.2400969999999
 20
3844.8229139999999
 30
0.0
 11
-4367.240096999999
 21
3844.8229139999999
 31
0.0
  0
LINE
  5
82D
  8
LAYER01
  6
CONTINUOUS
 62
     7
 10
-4342.2400969999999
 20
3846.8229139999999
 30
0.0
 11
-4367.240096999999
 21
3846.8229139999999
 31
0.0
  0
LINE
  5
82E
  8
LAYER01
  6
CONTINUOUS
 62
     7
 10
-4342.2400969999999
 20
3844.8229139999999
 30
0.0
 11
-4342.2400969999999
 21
3846.8229139999999
 31
0.0
  0
LINE
  5
82F
  8
LAYER01
  6
CONTINUOUS
 62
     7
 10
-4367.240096999999
 20
3844.8229139999999
 30
0.0
 11
-4367.240096999999
 21
3846.8229139999999
 31
0.0
  0
SOLID
  5
830
  8
LAYER01
  6
CONTINUOUS
 62
     7
 10
-4342.2400969999999
 20
3844.8229139999999
 30
0.0
 11
-4367.240096999999
 21
3844.8229139999999
 31
0.0
 12
-4342.2400969999999
 22
3846.8229139999999
 32
0.0
 13
-4367.240096999999
 23
3846.8229139999999
 33
0.0
  0
POLYLINE
  5
831
  8
LAYER01
  6
CONTINUOUS
 62
     7
 66
     1
 10
0.0
 20
0.0
 30
0.0
 70
     1
 40
2.0
 41
2.0
  0
VERTEX
  5
1083
  8
LAYER01
  6
CONTINUOUS
 62
     7
 10
-4367.240096999999
 20
3765.8229139999999
 30
0.0
  0
VERTEX
  5
1084
  8
LAYER01
  6
CONTINUOUS
 62
     7
 10
-4367.240096999999
 20
3845.8229139999999
 30
0.0
  0
VERTEX
  5
1085
  8
LAYER01
  6
CONTINUOUS
 62
     7
 10
-4342.2400969999999
 20
3845.8229139999999
 30
0.0
  0
VERTEX
  5
1086
  8
LAYER01
  6
CONTINUOUS
 62
     7
 10
-4337.1173959999996
 20
3748.0759700000008
 30
0.0
  0
VERTEX
  5
1087
  8
LAYER01
  6
CONTINUOUS
 62
     7
 10
-4337.0516999999991
 20
3747.341668
 30
0.0
  0
VERTEX
  5
1088
  8
LAYER01
  6
CONTINUOUS
 62
     7
 10
-4336.9320839999991
 20
3746.6142020000002
 30
0.0
  0
VERTEX
  5
1089
  8
LAYER01
  6
CONTINUOUS
 62
     7
 10
-4336.7591979999997
 20
3745.8975260000002
 30
0.0
  0
VERTEX
  5
108A
  8
LAYER01
  6
CONTINUOUS
 62
     7
 10
-4336.5339819999999
 20
3745.195534
 30
0.0
  0
VERTEX
  5
108B
  8
LAYER01
  6
CONTINUOUS
 62
     7
 10
-4336.2576600000002
 20
3744.5120419999998
 30
0.0
  0
VERTEX
  5
108C
  8
LAYER01
  6
CONTINUOUS
 62
     7
 10
-4335.9317340000007
 20
3743.850766
 30
0.0
  0
VERTEX
  5
108D
  8
LAYER01
  6
CONTINUOUS
 62
     7
 10
-4335.5579749999988
 20
3743.2152980000001
 30
0.0
  0
VERTEX
  5
108E
  8
LAYER01
  6
CONTINUOUS
 62
     7
 10
-4335.1384149999994
 20
3742.609093
 30
0.0
  0
VERTEX
  5
108F
  8
LAYER01
  6
CONTINUOUS
 62
     7
 10
-4334.6753330000001
 20
3742.0354470000002
 30
0.0
  0
VERTEX
  5
1090
  8
LAYER01
  6
CONTINUOUS
 62
     7
 10
-4334.1712479999987
 20
3741.497476
 30
0.0
  0
VERTEX
  5
1091
  8
LAYER01
  6
CONTINUOUS
 62
     7
 10
-4333.6288990000003
 20
3740.9981039999998
 30
0.0
  0
VERTEX
  5
1092
  8
LAYER01
  6
CONTINUOUS
 62
     7
 10
-4333.0512330000001
 20
3740.540047
 30
0.0
  0
VERTEX
  5
1093
  8
LAYER01
  6
CONTINUOUS
 62
     7
 10
-4332.44139
 20
3740.1257920000012
 30
0.0
  0
VERTEX
  5
1094
  8
LAYER01
  6
CONTINUOUS
 62
     7
 10
-4331.8026850000006
 20
3739.7575929999998
 30
0.0
  0
VERTEX
  5
1095
  8
LAYER01
  6
CONTINUOUS
 62
     7
 10
-4331.1385890000001
 20
3739.4374499999999
 30
0.0
  0
VERTEX
  5
1096
  8
LAYER01
  6
CONTINUOUS
 62
     7
 10
-4330.4527119999993
 20
3739.1671030000011
 30
0.0
  0
VERTEX
  5
1097
  8
LAYER01
  6
CONTINUOUS
 62
     7
 10
-4329.7487819999997
 20
3738.9480210000011
 30
0.0
  0
VERTEX
  5
1098
  8
LAYER01
  6
CONTINUOUS
 62
     7
 10
-4329.030624
 20
3738.7813959999999
 30
0.0
  0
VERTEX
  5
1099
  8
LAYER01
  6
CONTINUOUS
 62
     7
 10
-4328.3021419999995
 20
3738.6681330000001
 30
0.0
  0
VERTEX
  5
109A
  8
LAYER01
  6
CONTINUOUS
 62
     7
 10
-4327.5672949999998
 20
3738.608847
 30
0.0
  0
VERTEX
  5
109B
  8
LAYER01
  6
CONTINUOUS
 62
     7
 10
-4149.240096999999
 20
3730.8229139999999
 30
0.0
  0
VERTEX
  5
109C
  8
LAYER01
  6
CONTINUOUS
 62
     7
 10
-4137.1145999999999
 20
3720.6484139999998
 30
0.0
  0
VERTEX
  5
109D
  8
LAYER01
  6
CONTINUOUS
 62
     7
 10
-4137.1145999999999
 20
3708.6484140000011
 30
0.0
  0
VERTEX
  5
109E
  8
LAYER01
  6
CONTINUOUS
 62
     7
 10
-4157.114599999999
 20
3708.6484140000011
 30
0.0
  0
VERTEX
  5
109F
  8
LAYER01
  6
CONTINUOUS
 62
     7
 10
-4157.114599999999
 20
3718.6484139999998
 30
0.0
  0
VERTEX
  5
10A0
  8
LAYER01
  6
CONTINUOUS
 62
     7
 10
-4342.6653829999987
 20
3726.7497360000002
 30
0.0
  0
VERTEX
  5
10A1
  8
LAYER01
  6
CONTINUOUS
 62
     7
 10
-4343.0328060000002
 20
3726.7793790000001
 30
0.0
  0
VERTEX
  5
10A2
  8
LAYER01
  6
CONTINUOUS
 62
     7
 10
-4343.3970469999986
 20
3726.83601
 30
0.0
  0
VERTEX
  5
10A3
  8
LAYER01
  6
CONTINUOUS
 62
     7
 10
-4343.7561260000002
 20
3726.9193230000001
 30
0.0
  0
VERTEX
  5
10A4
  8
LAYER01
  6
CONTINUOUS
 62
     7
 10
-4344.1080910000001
 20
3727.0288639999999
 30
0.0
  0
VERTEX
  5
10A5
  8
LAYER01
  6
CONTINUOUS
 62
     7
 10
-4344.4510299999993
 20
3727.164037
 30
0.0
  0
VERTEX
  5
10A6
  8
LAYER01
  6
CONTINUOUS
 62
     7
 10
-4344.7830780000004
 20
3727.3241090000001
 30
0.0
  0
VERTEX
  5
10A7
  8
LAYER01
  6
CONTINUOUS
 62
     7
 10
-4345.102429999999
 20
3727.5082080000002
 30
0.0
  0
VERTEX
  5
10A8
  8
LAYER01
  6
CONTINUOUS
 62
     7
 10
-4345.4073520000002
 20
3727.7153350000008
 30
0.0
  0
VERTEX
  5
10A9
  8
LAYER01
  6
CONTINUOUS
 62
     7
 10
-4345.6961849999998
 20
3727.9443640000009
 30
0.0
  0
VERTEX
  5
10AA
  8
LAYER01
  6
CONTINUOUS
 62
     7
 10
-4345.9673590000002
 20
3728.194050000001
 30
0.0
  0
VERTEX
  5
10AB
  8
LAYER01
  6
CONTINUOUS
 62
     7
 10
-4346.2194019999997
 20
3728.4630350000002
 30
0.0
  0
VERTEX
  5
10AC
  8
LAYER01
  6
CONTINUOUS
 62
     7
 10
-4346.4509429999989
 20
3728.749859
 30
0.0
  0
VERTEX
  5
10AD
  8
LAYER01
  6
CONTINUOUS
 62
     7
 10
-4346.660723
 20
3729.0529609999999
 30
0.0
  0
VERTEX
  5
10AE
  8
LAYER01
  6
CONTINUOUS
 62
     7
 10
-4346.8476020000007
 20
3729.370695000001
 30
0.0
  0
VERTEX
  5
10AF
  8
LAYER01
  6
CONTINUOUS
 62
     7
 10
-4347.0105649999987
 20
3729.701333
 30
0.0
  0
VERTEX
  5
10B0
  8
LAYER01
  6
CONTINUOUS
 62
     7
 10
-4347.1487259999994
 20
3730.043079
 30
0.0
  0
VERTEX
  5
10B1
  8
LAYER01
  6
CONTINUOUS
 62
     7
 10
-4347.2613340000007
 20
3730.3940750000002
 30
0.0
  0
VERTEX
  5
10B2
  8
LAYER01
  6
CONTINUOUS
 62
     7
 10
-4347.347777
 20
3730.7524130000011
 30
0.0
  0
VERTEX
  5
10B3
  8
LAYER01
  6
CONTINUOUS
 62
     7
 10
-4347.4075849999999
 20
3731.1161459999998
 30
0.0
  0
VERTEX
  5
10B4
  8
LAYER01
  6
CONTINUOUS
 62
     7
 10
-4347.4404329999998
 20
3731.4832970000002
 30
0.0
  0
VERTEX
  5
10B5
  8
LAYER01
  6
CONTINUOUS
 62
     7
 10
-4348.9917720000003
 20
3761.084593
 30
0.0
  0
VERTEX
  5
10B6
  8
LAYER01
  6
CONTINUOUS
 62
     7
 10
-4349.0260029999999
 20
3761.4625639999999
 30
0.0
  0
VERTEX
  5
10B7
  8
LAYER01
  6
CONTINUOUS
 62
     7
 10
-4349.0888050000003
 20
3761.8368500000001
 30
0.0
  0
VERTEX
  5
10B8
  8
LAYER01
  6
CONTINUOUS
 62
     7
 10
-4349.1798149999986
 20
3762.2052939999999
 30
0.0
  0
VERTEX
  5
10B9
  8
LAYER01
  6
CONTINUOUS
 62
     7
 10
-4349.2985090000002
 20
3762.5657740000001
 30
0.0
  0
VERTEX
  5
10BA
  8
LAYER01
  6
CONTINUOUS
 62
     7
 10
-4349.4442040000004
 20
3762.9162120000001
 30
0.0
  0
VERTEX
  5
10BB
  8
LAYER01
  6
CONTINUOUS
 62
     7
 10
-4349.6160579999987
 20
3763.2545909999999
 30
0.0
  0
VERTEX
  5
10BC
  8
LAYER01
  6
CONTINUOUS
 62
     7
 10
-4349.8130839999994
 20
3763.5789589999999
 30
0.0
  0
VERTEX
  5
10BD
  8
LAYER01
  6
CONTINUOUS
 62
     7
 10
-4350.0341440000002
 20
3763.8874490000012
 30
0.0
  0
VERTEX
  5
10BE
  8
LAYER01
  6
CONTINUOUS
 62
     7
 10
-4350.277967
 20
3764.1782830000002
 30
0.0
  0
VERTEX
  5
10BF
  8
LAYER01
  6
CONTINUOUS
 62
     7
 10
-4350.543146
 20
3764.4497849999998
 30
0.0
  0
VERTEX
  5
10C0
  8
LAYER01
  6
CONTINUOUS
 62
     7
 10
-4350.8281550000002
 20
3764.7003920000002
 30
0.0
  0
VERTEX
  5
10C1
  8
LAYER01
  6
CONTINUOUS
 62
     7
 10
-4351.1313520000003
 20
3764.9286600000009
 30
0.0
  0
VERTEX
  5
10C2
  8
LAYER01
  6
CONTINUOUS
 62
     7
 10
-4351.4509879999996
 20
3765.133272
 30
0.0
  0
VERTEX
  5
10C3
  8
LAYER01
  6
CONTINUOUS
 62
     7
 10
-4351.7852240000002
 20
3765.3130520000009
 30
0.0
  0
VERTEX
  5
10C4
  8
LAYER01
  6
CONTINUOUS
 62
     7
 10
-4352.1321319999997
 20
3765.4669610000001
 30
0.0
  0
VERTEX
  5
10C5
  8
LAYER01
  6
CONTINUOUS
 62
     7
 10
-4352.4897149999988
 20
3765.5941149999999
 30
0.0
  0
VERTEX
  5
10C6
  8
LAYER01
  6
CONTINUOUS
 62
     7
 10
-4352.8559130000003
 20
3765.6937809999999
 30
0.0
  0
VERTEX
  5
10C7
  8
LAYER01
  6
CONTINUOUS
 62
     7
 10
-4353.2286149999991
 20
3765.7653829999999
 30
0.0
  0
VERTEX
  5
10C8
  8
LAYER01
  6
CONTINUOUS
 62
     7
 10
-4353.6056749999989
 20
3765.8085099999998
 30
0.0
  0
VERTEX
  5
10C9
  8
LAYER01
  6
CONTINUOUS
 62
     7
 10
-4353.9849190000004
 20
3765.8229139999999
 30
0.0
  0
SEQEND
  5
10CA
  8
LAYER01
  6
CONTINUOUS
 62
     7
  0
POLYLINE
  5
87A
  8
LAYER01
  6
CONTINUOUS
 62
     7
 66
     1
 10
0.0
 20
0.0
 30
0.0
 40
2.0
 41
2.0
  0
VERTEX
  5
10CB
  8
LAYER01
  6
CONTINUOUS
 62
     7
 10
-4157.114599999999
 20
3718.6484139999998
 30
0.0
  0
VERTEX
  5
10CC
  8
LAYER01
  6
CONTINUOUS
 62
     7
 10
-4342.6653829999987
 20
3726.7497360000002
 30
0.0
 42
-0.386369
  0
VERTEX
  5
10CD
  8
LAYER01
  6
CONTINUOUS
 62
     7
 10
-4347.4404329999998
 20
3731.4832970000002
 30
0.0
  0
VERTEX
  5
10CE
  8
LAYER01
  6
CONTINUOUS
 62
     7
 10
-4348.9917720000003
 20
3761.084593
 30
0.0
 42
0.39896
  0
VERTEX
  5
10CF
  8
LAYER01
  6
CONTINUOUS
 62
     7
 10
-4353.9849190000004
 20
3765.8229139999999
 30
0.0
  0
VERTEX
  5
10D0
  8
LAYER01
  6
CONTINUOUS
 62
     7
 10
-4367.240096999999
 20
3765.8229139999999
 30
0.0
  0
SEQEND
  5
10D1
  8
LAYER01
  6
CONTINUOUS
 62
     7
  0
POLYLINE
  5
882
  8
LAYER01
  6
CONTINUOUS
 62
     7
 66
     1
 10
0.0
 20
0.0
 30
0.0
 40
2.0
 41
2.0
  0
VERTEX
  5
10D2
  8
LAYER01
  6
CONTINUOUS
 62
     7
 10
-4149.240096999999
 20
3730.8229139999999
 30
0.0
  0
VERTEX
  5
10D3
  8
LAYER01
  6
CONTINUOUS
 62
     7
 10
-4327.5672949999998
 20
3738.608847
 30
0.0
 42
-0.386369
  0
VERTEX
  5
10D4
  8
LAYER01
  6
CONTINUOUS
 62
     7
 10
-4337.1173959999996
 20
3748.0759700000008
 30
0.0
  0
VERTEX
  5
10D5
  8
LAYER01
  6
CONTINUOUS
 62
     7
 10
-4342.2400969999999
 20
3845.8229139999999
 30
0.0
  0
SEQEND
  5
10D6
  8
LAYER01
  6
CONTINUOUS
 62
     7
  0
LINE
  5
888
  8
LAYER01
  6
CONTINUOUS
 62
     7
 10
-4149.240096999999
 20
3844.8229139999999
 30
0.0
 11
-4342.2400969999999
 21
3844.8229139999999
 31
0.0
  0
LINE
  5
889
  8
LAYER01
  6
CONTINUOUS
 62
     7
 10
-4149.240096999999
 20
3846.8229139999999
 30
0.0
 11
-4342.2400969999999
 21
3846.8229139999999
 31
0.0
  0
LINE
  5
88A
  8
LAYER01
  6
CONTINUOUS
 62
     7
 10
-4149.240096999999
 20
3844.8229139999999
 30
0.0
 11
-4149.240096999999
 21
3846.8229139999999
 31
0.0
  0
LINE
  5
88B
  8
LAYER01
  6
CONTINUOUS
 62
     7
 10
-4342.2400969999999
 20
3844.8229139999999
 30
0.0
 11
-4342.2400969999999
 21
3846.8229139999999
 31
0.0
  0
SOLID
  5
88C
  8
LAYER01
  6
CONTINUOUS
 62
     7
 10
-4149.240096999999
 20
3844.8229139999999
 30
0.0
 11
-4342.2400969999999
 21
3844.8229139999999
 31
0.0
 12
-4149.240096999999
 22
3846.8229139999999
 32
0.0
 13
-4342.2400969999999
 23
3846.8229139999999
 33
0.0
  0
LINE
  5
88D
  8
LAYER01
  6
CONTINUOUS
 62
     7
 10
-4898.7910199999997
 20
4153.666463999999
 30
0.0
 11
-4898.7910199999997
 21
4503.6664639999999
 31
0.0
  0
LINE
  5
88E
  8
LAYER01
  6
CONTINUOUS
 62
     7
 10
-4896.7910200000006
 20
4153.666463999999
 30
0.0
 11
-4896.7910200000006
 21
4503.6664639999999
 31
0.0
  0
LINE
  5
88F
  8
LAYER01
  6
CONTINUOUS
 62
     7
 10
-4898.7910199999997
 20
4153.666463999999
 30
0.0
 11
-4896.7910200000006
 21
4153.666463999999
 31
0.0
  0
LINE
  5
890
  8
LAYER01
  6
CONTINUOUS
 62
     7
 10
-4898.7910199999997
 20
4503.6664639999999
 30
0.0
 11
-4896.7910200000006
 21
4503.6664639999999
 31
0.0
  0
SOLID
  5
891
  8
LAYER01
  6
CONTINUOUS
 62
     7
 10
-4898.7910199999997
 20
4153.666463999999
 30
0.0
 11
-4898.7910199999997
 21
4503.6664639999999
 31
0.0
 12
-4896.7910200000006
 22
4153.666463999999
 32
0.0
 13
-4896.7910200000006
 23
4503.6664639999999
 33
0.0
  0
POLYLINE
  5
892
  8
LAYER01
  6
CONTINUOUS
 62
     7
 66
     1
 10
0.0
 20
0.0
 30
0.0
 40
2.0
 41
2.0
  0
VERTEX
  5
10D7
  8
LAYER01
  6
CONTINUOUS
 62
     7
 10
-4071.1145999999999
 20
3708.6484140000011
 30
0.0
  0
VERTEX
  5
10D8
  8
LAYER01
  6
CONTINUOUS
 62
     7
 10
-4071.1145999999999
 20
3714.9035910000011
 30
0.0
 42
-0.39896
  0
VERTEX
  5
10D9
  8
LAYER01
  6
CONTINUOUS
 62
     7
 10
-4066.3762789999992
 20
3719.8967380000008
 30
0.0
  0
VERTEX
  5
10DA
  8
LAYER01
  6
CONTINUOUS
 62
     7
 10
-4045.870422
 20
3720.9714049999998
 30
0.0
 42
0.383864
  0
VERTEX
  5
10DB
  8
LAYER01
  6
CONTINUOUS
 62
     7
 10
-4036.4074860000001
 20
3730.4343410000001
 30
0.0
  0
VERTEX
  5
10DC
  8
LAYER01
  6
CONTINUOUS
 62
     7
 10
-4030.9891210000001
 20
3833.8229139999999
 30
0.0
  0
SEQEND
  5
10DD
  8
LAYER01
  6
CONTINUOUS
 62
     7
  0
POLYLINE
  5
89A
  8
LAYER01
  6
CONTINUOUS
 62
     7
 66
     1
 10
0.0
 20
0.0
 30
0.0
 40
2.0
 41
2.0
  0
VERTEX
  5
10DE
  8
LAYER01
  6
CONTINUOUS
 62
     7
 10
-4078.9891029999999
 20
3730.8229139999999
 30
0.0
  0
VERTEX
  5
10DF
  8
LAYER01
  6
CONTINUOUS
 62
     7
 10
-4057.0232879999999
 20
3731.9740929999998
 30
0.0
 42
0.383864
  0
VERTEX
  5
10E0
  8
LAYER01
  6
CONTINUOUS
 62
     7
 10
-4047.560352
 20
3741.4370290000002
 30
0.0
  0
VERTEX
  5
10E1
  8
LAYER01
  6
CONTINUOUS
 62
     7
 10
-4042.5863690000001
 20
3836.3462730000001
 30
0.0
 42
-0.39896
  0
VERTEX
  5
10E2
  8
LAYER01
  6
CONTINUOUS
 62
     7
 10
-4032.6000739999999
 20
3845.8229139999999
 30
0.0
  0
VERTEX
  5
10E3
  8
LAYER01
  6
CONTINUOUS
 62
     7
 10
-4028.9891210000001
 20
3845.8229139999999
 30
0.0
  0
SEQEND
  5
10E4
  8
LAYER01
  6
CONTINUOUS
 62
     7
  0
POLYLINE
  5
8A2
  8
LAYER01
  6
CONTINUOUS
 62
     7
 66
     1
 10
0.0
 20
0.0
 30
0.0
 70
     1
 40
2.0
 41
2.0
  0
VERTEX
  5
10E5
  8
LAYER01
  6
CONTINUOUS
 62
     7
 10
-4048.7336129999999
 20
3737.2348810000012
 30
0.0
  0
VERTEX
  5
10E6
  8
LAYER01
  6
CONTINUOUS
 62
     7
 10
-4048.411192999999
 20
3737.8930220000002
 30
0.0
  0
VERTEX
  5
10E7
  8
LAYER01
  6
CONTINUOUS
 62
     7
 10
-4048.137839999999
 20
3738.5730090000002
 30
0.0
  0
VERTEX
  5
10E8
  8
LAYER01
  6
CONTINUOUS
 62
     7
 10
-4047.9150220000001
 20
3739.2711899999999
 30
0.0
  0
VERTEX
  5
10E9
  8
LAYER01
  6
CONTINUOUS
 62
     7
 10
-4047.7439359999989
 20
3739.983815
 30
0.0
  0
VERTEX
  5
10EA
  8
LAYER01
  6
CONTINUOUS
 62
     7
 10
-4047.6255000000001
 20
3740.7070560000002
 30
0.0
  0
VERTEX
  5
10EB
  8
LAYER01
  6
CONTINUOUS
 62
     7
 10
-4047.560352
 20
3741.4370290000002
 30
0.0
  0
VERTEX
  5
10EC
  8
LAYER01
  6
CONTINUOUS
 62
     7
 10
-4042.5863690000001
 20
3836.3462730000001
 30
0.0
  0
VERTEX
  5
10ED
  8
LAYER01
  6
CONTINUOUS
 62
     7
 10
-4042.5179059999991
 20
3837.1022149999999
 30
0.0
  0
VERTEX
  5
10EE
  8
LAYER01
  6
CONTINUOUS
 62
     7
 10
-4042.3923020000002
 20
3837.8507869999999
 30
0.0
  0
VERTEX
  5
10EF
  8
LAYER01
  6
CONTINUOUS
 62
     7
 10
-4042.210282
 20
3838.5876750000002
 30
0.0
  0
VERTEX
  5
10F0
  8
LAYER01
  6
CONTINUOUS
 62
     7
 10
-4041.9728939999991
 20
3839.308634
 30
0.0
  0
VERTEX
  5
10F1
  8
LAYER01
  6
CONTINUOUS
 62
     7
 10
-4041.6815059999999
 20
3840.0095110000002
 30
0.0
  0
VERTEX
  5
10F2
  8
LAYER01
  6
CONTINUOUS
 62
     7
 10
-4041.3377959999998
 20
3840.686267
 30
0.0
  0
VERTEX
  5
10F3
  8
LAYER01
  6
CONTINUOUS
 62
     7
 10
-4040.943745
 20
3841.3350040000009
 30
0.0
  0
VERTEX
  5
10F4
  8
LAYER01
  6
CONTINUOUS
 62
     7
 10
-4040.501624
 20
3841.9519840000012
 30
0.0
  0
VERTEX
  5
10F5
  8
LAYER01
  6
CONTINUOUS
 62
     7
 10
-4040.0139789999998
 20
3842.533652000001
 30
0.0
  0
VERTEX
  5
10F6
  8
LAYER01
  6
CONTINUOUS
 62
     7
 10
-4039.4836200000009
 20
3843.076657000001
 30
0.0
  0
VERTEX
  5
10F7
  8
LAYER01
  6
CONTINUOUS
 62
     7
 10
-4038.9136020000001
 20
3843.577871
 30
0.0
  0
VERTEX
  5
10F8
  8
LAYER01
  6
CONTINUOUS
 62
     7
 10
-4038.3072099999999
 20
3844.0344060000002
 30
0.0
  0
VERTEX
  5
10F9
  8
LAYER01
  6
CONTINUOUS
 62
     7
 10
-4037.6679359999998
 20
3844.4436310000001
 30
0.0
  0
VERTEX
  5
10FA
  8
LAYER01
  6
CONTINUOUS
 62
     7
 10
-4036.9994660000002
 20
3844.8031890000002
 30
0.0
  0
VERTEX
  5
10FB
  8
LAYER01
  6
CONTINUOUS
 62
     7
 10
-4036.3056479999991
 20
3845.1110090000002
 30
0.0
  0
VERTEX
  5
10FC
  8
LAYER01
  6
CONTINUOUS
 62
     7
 10
-4035.5904819999992
 20
3845.3653169999998
 30
0.0
  0
VERTEX
  5
10FD
  8
LAYER01
  6
CONTINUOUS
 62
     7
 10
-4034.8580869999992
 20
3845.5646470000002
 30
0.0
  0
VERTEX
  5
10FE
  8
LAYER01
  6
CONTINUOUS
 62
     7
 10
-4034.112681999999
 20
3845.707852
 30
0.0
  0
VERTEX
  5
10FF
  8
LAYER01
  6
CONTINUOUS
 62
     7
 10
-4033.3585629999998
 20
3845.7941070000011
 30
0.0
  0
VERTEX
  5
1100
  8
LAYER01
  6
CONTINUOUS
 62
     7
 10
-4032.6000739999999
 20
3845.8229139999999
 30
0.0
  0
VERTEX
  5
1101
  8
LAYER01
  6
CONTINUOUS
 62
     7
 10
-4028.9891210000001
 20
3845.8229139999999
 30
0.0
  0
VERTEX
  5
1102
  8
LAYER01
  6
CONTINUOUS
 62
     7
 10
-4028.9891210000001
 20
3845.9056030000002
 30
0.0
  0
VERTEX
  5
1103
  8
LAYER01
  6
CONTINUOUS
 62
     7
 10
-4028.9891210000001
 20
3885.8229139999999
 30
0.0
  0
VERTEX
  5
1104
  8
LAYER01
  6
CONTINUOUS
 62
     7
 10
-4016.9891210000001
 20
3885.8229139999999
 30
0.0
  0
VERTEX
  5
1105
  8
LAYER01
  6
CONTINUOUS
 62
     7
 10
-4016.9891210000001
 20
3845.8229139999999
 30
0.0
  0
VERTEX
  5
1106
  8
LAYER01
  6
CONTINUOUS
 62
     7
 10
-4016.9891210000001
 20
3833.8229139999999
 30
0.0
  0
VERTEX
  5
1107
  8
LAYER01
  6
CONTINUOUS
 62
     7
 10
-4030.9891210000001
 20
3833.8229139999999
 30
0.0
  0
VERTEX
  5
1108
  8
LAYER01
  6
CONTINUOUS
 62
     7
 10
-4036.4074860000001
 20
3730.4343410000001
 30
0.0
  0
VERTEX
  5
1109
  8
LAYER01
  6
CONTINUOUS
 62
     7
 10
-4036.4726350000001
 20
3729.7043680000002
 30
0.0
  0
VERTEX
  5
110A
  8
LAYER01
  6
CONTINUOUS
 62
     7
 10
-4036.5910699999999
 20
3728.9811270000009
 30
0.0
  0
VERTEX
  5
110B
  8
LAYER01
  6
CONTINUOUS
 62
     7
 10
-4036.7621559999998
 20
3728.2685020000008
 30
0.0
  0
VERTEX
  5
110C
  8
LAYER01
  6
CONTINUOUS
 62
     7
 10
-4036.9849740000009
 20
3727.5703210000001
 30
0.0
  0
VERTEX
  5
110D
  8
LAYER01
  6
CONTINUOUS
 62
     7
 10
-4037.258327
 20
3726.8903340000002
 30
0.0
  0
VERTEX
  5
110E
  8
LAYER01
  6
CONTINUOUS
 62
     7
 10
-4037.5807469999991
 20
3726.2321929999998
 30
0.0
  0
VERTEX
  5
110F
  8
LAYER01
  6
CONTINUOUS
 62
     7
 10
-4037.9505020000001
 20
3725.599432
 30
0.0
  0
VERTEX
  5
1110
  8
LAYER01
  6
CONTINUOUS
 62
     7
 10
-4038.3656070000002
 20
3724.9954509999998
 30
0.0
  0
VERTEX
  5
1111
  8
LAYER01
  6
CONTINUOUS
 62
     7
 10
-4038.8238310000011
 20
3724.4234940000001
 30
0.0
  0
VERTEX
  5
1112
  8
LAYER01
  6
CONTINUOUS
 62
     7
 10
-4039.322713999999
 20
3723.8866320000002
 30
0.0
  0
VERTEX
  5
1113
  8
LAYER01
  6
CONTINUOUS
 62
     7
 10
-4039.8595759999998
 20
3723.3877499999999
 30
0.0
  0
VERTEX
  5
1114
  8
LAYER01
  6
CONTINUOUS
 62
     7
 10
-4040.4315329999999
 20
3722.929525
 30
0.0
  0
VERTEX
  5
1115
  8
LAYER01
  6
CONTINUOUS
 62
     7
 10
-4041.0355139999988
 20
3722.5144209999999
 30
0.0
  0
VERTEX
  5
1116
  8
LAYER01
  6
CONTINUOUS
 62
     7
 10
-4041.6682740000001
 20
3722.1446660000001
 30
0.0
  0
VERTEX
  5
1117
  8
LAYER01
  6
CONTINUOUS
 62
     7
 10
-4042.326415
 20
3721.8222460000002
 30
0.0
  0
VERTEX
  5
1118
  8
LAYER01
  6
CONTINUOUS
 62
     7
 10
-4043.0064029999999
 20
3721.5488930000001
 30
0.0
  0
VERTEX
  5
1119
  8
LAYER01
  6
CONTINUOUS
 62
     7
 10
-4043.7045840000001
 20
3721.3260749999999
 30
0.0
  0
VERTEX
  5
111A
  8
LAYER01
  6
CONTINUOUS
 62
     7
 10
-4044.4172079999998
 20
3721.1549879999998
 30
0.0
  0
VERTEX
  5
111B
  8
LAYER01
  6
CONTINUOUS
 62
     7
 10
-4045.140449
 20
3721.0365529999999
 30
0.0
  0
VERTEX
  5
111C
  8
LAYER01
  6
CONTINUOUS
 62
     7
 10
-4045.870422
 20
3720.9714049999998
 30
0.0
  0
VERTEX
  5
111D
  8
LAYER01
  6
CONTINUOUS
 62
     7
 10
-4066.3762789999992
 20
3719.8967380000008
 30
0.0
  0
VERTEX
  5
111E
  8
LAYER01
  6
CONTINUOUS
 62
     7
 10
-4066.75425
 20
3719.8625069999998
 30
0.0
  0
VERTEX
  5
111F
  8
LAYER01
  6
CONTINUOUS
 62
     7
 10
-4067.1285360000011
 20
3719.7997049999999
 30
0.0
  0
VERTEX
  5
1120
  8
LAYER01
  6
CONTINUOUS
 62
     7
 10
-4067.4969799999999
 20
3719.7086950000012
 30
0.0
  0
VERTEX
  5
1121
  8
LAYER01
  6
CONTINUOUS
 62
     7
 10
-4067.8574600000002
 20
3719.590001
 30
0.0
  0
VERTEX
  5
1122
  8
LAYER01
  6
CONTINUOUS
 62
     7
 10
-4068.2078979999992
 20
3719.4443070000011
 30
0.0
  0
VERTEX
  5
1123
  8
LAYER01
  6
CONTINUOUS
 62
     7
 10
-4068.546276
 20
3719.2724520000011
 30
0.0
  0
VERTEX
  5
1124
  8
LAYER01
  6
CONTINUOUS
 62
     7
 10
-4068.870645
 20
3719.0754270000011
 30
0.0
  0
VERTEX
  5
1125
  8
LAYER01
  6
CONTINUOUS
 62
     7
 10
-4069.1791349999999
 20
3718.8543659999991
 30
0.0
  0
VERTEX
  5
1126
  8
LAYER01
  6
CONTINUOUS
 62
     7
 10
-4069.4699690000002
 20
3718.6105429999998
 30
0.0
  0
VERTEX
  5
1127
  8
LAYER01
  6
CONTINUOUS
 62
     7
 10
-4069.7414709999998
 20
3718.3453640000012
 30
0.0
  0
VERTEX
  5
1128
  8
LAYER01
  6
CONTINUOUS
 62
     7
 10
-4069.9920780000011
 20
3718.0603549999992
 30
0.0
  0
VERTEX
  5
1129
  8
LAYER01
  6
CONTINUOUS
 62
     7
 10
-4070.2203460000001
 20
3717.7571590000011
 30
0.0
  0
VERTEX
  5
112A
  8
LAYER01
  6
CONTINUOUS
 62
     7
 10
-4070.4249579999992
 20
3717.4375219999988
 30
0.0
  0
VERTEX
  5
112B
  8
LAYER01
  6
CONTINUOUS
 62
     7
 10
-4070.6047370000001
 20
3717.1032869999999
 30
0.0
  0
VERTEX
  5
112C
  8
LAYER01
  6
CONTINUOUS
 62
     7
 10
-4070.7586469999992
 20
3716.756378
 30
0.0
  0
VERTEX
  5
112D
  8
LAYER01
  6
CONTINUOUS
 62
     7
 10
-4070.8858009999999
 20
3716.398795000001
 30
0.0
  0
VERTEX
  5
112E
  8
LAYER01
  6
CONTINUOUS
 62
     7
 10
-4070.9854669999991
 20
3716.0325969999999
 30
0.0
  0
VERTEX
  5
112F
  8
LAYER01
  6
CONTINUOUS
 62
     7
 10
-4071.057069
 20
3715.6598949999998
 30
0.0
  0
VERTEX
  5
1130
  8
LAYER01
  6
CONTINUOUS
 62
     7
 10
-4071.100195999999
 20
3715.282835
 30
0.0
  0
VERTEX
  5
1131
  8
LAYER01
  6
CONTINUOUS
 62
     7
 10
-4071.1145999999999
 20
3714.9035910000011
 30
0.0
  0
VERTEX
  5
1132
  8
LAYER01
  6
CONTINUOUS
 62
     7
 10
-4071.1145999999999
 20
3708.6484140000011
 30
0.0
  0
VERTEX
  5
1133
  8
LAYER01
  6
CONTINUOUS
 62
     7
 10
-4091.1145999999999
 20
3708.6484140000011
 30
0.0
  0
VERTEX
  5
1134
  8
LAYER01
  6
CONTINUOUS
 62
     7
 10
-4091.1145999999999
 20
3720.6484139999998
 30
0.0
  0
VERTEX
  5
1135
  8
LAYER01
  6
CONTINUOUS
 62
     7
 10
-4078.9891029999999
 20
3730.8229139999999
 30
0.0
  0
VERTEX
  5
1136
  8
LAYER01
  6
CONTINUOUS
 62
     7
 10
-4057.0232879999999
 20
3731.9740929999998
 30
0.0
  0
VERTEX
  5
1137
  8
LAYER01
  6
CONTINUOUS
 62
     7
 10
-4056.2933149999999
 20
3732.0392420000012
 30
0.0
  0
VERTEX
  5
1138
  8
LAYER01
  6
CONTINUOUS
 62
     7
 10
-4055.5700740000011
 20
3732.1576770000001
 30
0.0
  0
VERTEX
  5
1139
  8
LAYER01
  6
CONTINUOUS
 62
     7
 10
-4054.8574490000001
 20
3732.328763
 30
0.0
  0
VERTEX
  5
113A
  8
LAYER01
  6
CONTINUOUS
 62
     7
 10
-4054.1592679999999
 20
3732.5515810000011
 30
0.0
  0
VERTEX
  5
113B
  8
LAYER01
  6
CONTINUOUS
 62
     7
 10
-4053.4792809999999
 20
3732.8249340000011
 30
0.0
  0
VERTEX
  5
113C
  8
LAYER01
  6
CONTINUOUS
 62
     7
 10
-4052.82114
 20
3733.1473540000002
 30
0.0
  0
VERTEX
  5
113D
  8
LAYER01
  6
CONTINUOUS
 62
     7
 10
-4052.1883789999988
 20
3733.5171089999999
 30
0.0
  0
VERTEX
  5
113E
  8
LAYER01
  6
CONTINUOUS
 62
     7
 10
-4051.5843989999998
 20
3733.9322139999999
 30
0.0
  0
VERTEX
  5
113F
  8
LAYER01
  6
CONTINUOUS
 62
     7
 10
-4051.0124409999999
 20
3734.3904380000008
 30
0.0
  0
VERTEX
  5
1140
  8
LAYER01
  6
CONTINUOUS
 62
     7
 10
-4050.475578999999
 20
3734.8893210000001
 30
0.0
  0
VERTEX
  5
1141
  8
LAYER01
  6
CONTINUOUS
 62
     7
 10
-4049.9766970000001
 20
3735.426183
 30
0.0
  0
VERTEX
  5
1142
  8
LAYER01
  6
CONTINUOUS
 62
     7
 10
-4049.5184730000001
 20
3735.9981399999988
 30
0.0
  0
VERTEX
  5
1143
  8
LAYER01
  6
CONTINUOUS
 62
     7
 10
-4049.1033679999991
 20
3736.6021209999999
 30
0.0
  0
SEQEND
  5
1144
  8
LAYER01
  6
CONTINUOUS
 62
     7
  0
LINE
  5
903
  8
LAYER01
  6
CONTINUOUS
 62
     7
 10
-4028.988433
 20
3844.9056030000002
 30
0.0
 11
-4149.2394089999998
 21
3844.8229139999999
 31
0.0
  0
LINE
  5
904
  8
LAYER01
  6
CONTINUOUS
 62
     7
 10
-4028.9898079999998
 20
3846.9056020000012
 30
0.0
 11
-4149.2407839999996
 21
3846.822913
 31
0.0
  0
LINE
  5
905
  8
LAYER01
  6
CONTINUOUS
 62
     7
 10
-4028.988433
 20
3844.9056030000002
 30
0.0
 11
-4028.9898079999998
 21
3846.9056020000012
 31
0.0
  0
LINE
  5
906
  8
LAYER01
  6
CONTINUOUS
 62
     7
 10
-4149.2394089999998
 20
3844.8229139999999
 30
0.0
 11
-4149.2407839999996
 21
3846.822913
 31
0.0
  0
SOLID
  5
907
  8
LAYER01
  6
CONTINUOUS
 62
     7
 10
-4028.988433
 20
3844.9056030000002
 30
0.0
 11
-4149.2394089999998
 21
3844.8229139999999
 31
0.0
 12
-4028.9898079999998
 22
3846.9056020000012
 32
0.0
 13
-4149.2407839999996
 23
3846.822913
 33
0.0
  0
LINE
  5
908
  8
LAYER01
  6
CONTINUOUS
 62
     7
 10
-4137.1145999999999
 20
3709.6484139999998
 30
0.0
 11
-4091.1145999999999
 21
3709.6484139999998
 31
0.0
  0
LINE
  5
909
  8
LAYER01
  6
CONTINUOUS
 62
     7
 10
-4137.1145999999999
 20
3707.6484140000011
 30
0.0
 11
-4091.1145999999999
 21
3707.6484140000011
 31
0.0
  0
LINE
  5
90A
  8
LAYER01
  6
CONTINUOUS
 62
     7
 10
-4137.1145999999999
 20
3709.6484139999998
 30
0.0
 11
-4137.1145999999999
 21
3707.6484140000011
 31
0.0
  0
LINE
  5
90B
  8
LAYER01
  6
CONTINUOUS
 62
     7
 10
-4091.1145999999999
 20
3709.6484139999998
 30
0.0
 11
-4091.1145999999999
 21
3707.6484140000011
 31
0.0
  0
SOLID
  5
90C
  8
LAYER01
  6
CONTINUOUS
 62
     7
 10
-4137.1145999999999
 20
3709.6484139999998
 30
0.0
 11
-4091.1145999999999
 21
3709.6484139999998
 31
0.0
 12
-4137.1145999999999
 22
3707.6484140000011
 32
0.0
 13
-4091.1145999999999
 23
3707.6484140000011
 33
0.0
  0
LINE
  5
90D
  8
LAYER01
  6
CONTINUOUS
 62
     7
 10
-4137.1145999999999
 20
3721.6484140000011
 30
0.0
 11
-4091.1145999999999
 21
3721.6484140000011
 31
0.0
  0
LINE
  5
90E
  8
LAYER01
  6
CONTINUOUS
 62
     7
 10
-4137.1145999999999
 20
3719.6484139999998
 30
0.0
 11
-4091.1145999999999
 21
3719.6484139999998
 31
0.0
  0
LINE
  5
90F
  8
LAYER01
  6
CONTINUOUS
 62
     7
 10
-4137.1145999999999
 20
3721.6484140000011
 30
0.0
 11
-4137.1145999999999
 21
3719.6484139999998
 31
0.0
  0
LINE
  5
910
  8
LAYER01
  6
CONTINUOUS
 62
     7
 10
-4091.1145999999999
 20
3721.6484140000011
 30
0.0
 11
-4091.1145999999999
 21
3719.6484139999998
 31
0.0
  0
SOLID
  5
911
  8
LAYER01
  6
CONTINUOUS
 62
     7
 10
-4137.1145999999999
 20
3721.6484140000011
 30
0.0
 11
-4091.1145999999999
 21
3721.6484140000011
 31
0.0
 12
-4137.1145999999999
 22
3719.6484139999998
 32
0.0
 13
-4091.1145999999999
 23
3719.6484139999998
 33
0.0
  0
LINE
  5
912
  8
LAYER01
  6
CONTINUOUS
 62
     7
 10
-4149.240096999999
 20
3731.8229139999999
 30
0.0
 11
-4078.9891029999999
 21
3731.8229139999999
 31
0.0
  0
LINE
  5
913
  8
LAYER01
  6
CONTINUOUS
 62
     7
 10
-4149.240096999999
 20
3729.8229139999999
 30
0.0
 11
-4078.9891029999999
 21
3729.8229139999999
 31
0.0
  0
LINE
  5
914
  8
LAYER01
  6
CONTINUOUS
 62
     7
 10
-4149.240096999999
 20
3731.8229139999999
 30
0.0
 11
-4149.240096999999
 21
3729.8229139999999
 31
0.0
  0
LINE
  5
915
  8
LAYER01
  6
CONTINUOUS
 62
     7
 10
-4078.9891029999999
 20
3731.8229139999999
 30
0.0
 11
-4078.9891029999999
 21
3729.8229139999999
 31
0.0
  0
SOLID
  5
916
  8
LAYER01
  6
CONTINUOUS
 62
     7
 10
-4149.240096999999
 20
3731.8229139999999
 30
0.0
 11
-4078.9891029999999
 21
3731.8229139999999
 31
0.0
 12
-4149.240096999999
 22
3729.8229139999999
 32
0.0
 13
-4078.9891029999999
 23
3729.8229139999999
 33
0.0
  0
LINE
  5
917
  8
LAYER01
  6
VERDECKT
 62
     7
 10
-6012.7910200000006
 20
4165.6664639999999
 30
0.0
 11
-4897.7910199999997
 21
4165.6664639999999
 31
0.0
  0
DIMENSION
  5
918
  8
LAYER01
 62
     7
  2
*D23
 10
47.95987499999999
 20
4652.3002589999996
 30
0.0
 11
340.41671600000001
 21
4712.3002589999996
 31
0.0
 13
605.45987500000001
 23
4503.6664639999999
 33
0.0
 14
47.95987499999999
 24
4503.6664639999999
 34
0.0
  0
DIMENSION
  5
919
  8
LAYER01
 62
     7
  2
*D24
 10
47.95987499999999
 20
4762.3737929999998
 30
0.0
 11
623.73566399999993
 21
4822.3737929999998
 31
0.0
 13
1162.959875
 23
4503.6664639999999
 33
0.0
 14
47.95987499999999
 24
4503.6664639999999
 34
0.0
  0
DIMENSION
  5
91A
  8
LAYER01
 62
     7
  2
*D25
 10
47.95987499999999
 20
4068.7358100000001
 30
0.0
 11
217.67214899999999
 21
4128.7358100000001
 31
0.0
 13
357.93568699999997
 23
4153.666463999999
 33
0.0
 14
47.95987499999999
 24
4153.666463999999
 34
0.0
  0
LINE
  5
91B
  8
LAYER01
  6
VERDECKT
 62
     7
 10
1162.959875
 20
4165.6664639999999
 30
0.0
 11
47.95987499999999
 21
4165.6664639999999
 31
0.0
  0
LINE
  5
91C
  8
LAYER01
  6
CONTINUOUS
 62
     7
 10
47.95987499999999
 20
4492.6664639999999
 30
0.0
 11
1162.959875
 21
4492.6664639999999
 31
0.0
  0
LINE
  5
91D
  8
LAYER01
  6
CONTINUOUS
 62
     7
 10
47.95987499999999
 20
4490.6664639999999
 30
0.0
 11
1162.959875
 21
4490.6664639999999
 31
0.0
  0
LINE
  5
91E
  8
LAYER01
  6
CONTINUOUS
 62
     7
 10
47.95987499999999
 20
4492.6664639999999
 30
0.0
 11
47.95987499999999
 21
4490.6664639999999
 31
0.0
  0
LINE
  5
91F
  8
LAYER01
  6
CONTINUOUS
 62
     7
 10
1162.959875
 20
4492.6664639999999
 30
0.0
 11
1162.959875
 21
4490.6664639999999
 31
0.0
  0
SOLID
  5
920
  8
LAYER01
  6
CONTINUOUS
 62
     7
 10
47.95987499999999
 20
4492.6664639999999
 30
0.0
 11
1162.959875
 21
4492.6664639999999
 31
0.0
 12
47.95987499999999
 22
4490.6664639999999
 32
0.0
 13
1162.959875
 23
4490.6664639999999
 33
0.0
  0
LINE
  5
921
  8
LAYER01
  6
CONTINUOUS
 62
     7
 10
47.95987499999999
 20
4504.6664639999999
 30
0.0
 11
1162.959875
 21
4504.6664639999999
 31
0.0
  0
LINE
  5
922
  8
LAYER01
  6
CONTINUOUS
 62
     7
 10
47.95987499999999
 20
4502.666463999999
 30
0.0
 11
1162.959875
 21
4502.666463999999
 31
0.0
  0
LINE
  5
923
  8
LAYER01
  6
CONTINUOUS
 62
     7
 10
47.95987499999999
 20
4504.6664639999999
 30
0.0
 11
47.95987499999999
 21
4502.666463999999
 31
0.0
  0
LINE
  5
924
  8
LAYER01
  6
CONTINUOUS
 62
     7
 10
1162.959875
 20
4504.6664639999999
 30
0.0
 11
1162.959875
 21
4502.666463999999
 31
0.0
  0
SOLID
  5
925
  8
LAYER01
  6
CONTINUOUS
 62
     7
 10
47.95987499999999
 20
4504.6664639999999
 30
0.0
 11
1162.959875
 21
4504.6664639999999
 31
0.0
 12
47.95987499999999
 22
4502.666463999999
 32
0.0
 13
1162.959875
 23
4502.666463999999
 33
0.0
  0
LINE
  5
926
  8
LAYER01
  6
CONTINUOUS
 62
     7
 10
1162.959875
 20
3844.8229139999999
 30
0.0
 11
47.95987499999999
 21
3844.8229139999999
 31
0.0
  0
LINE
  5
927
  8
LAYER01
  6
CONTINUOUS
 62
     7
 10
1162.959875
 20
3846.8229139999999
 30
0.0
 11
47.95987499999999
 21
3846.8229139999999
 31
0.0
  0
LINE
  5
928
  8
LAYER01
  6
CONTINUOUS
 62
     7
 10
1162.959875
 20
3844.8229139999999
 30
0.0
 11
1162.959875
 21
3846.8229139999999
 31
0.0
  0
LINE
  5
929
  8
LAYER01
  6
CONTINUOUS
 62
     7
 10
47.95987499999999
 20
3844.8229139999999
 30
0.0
 11
47.95987499999999
 21
3846.8229139999999
 31
0.0
  0
SOLID
  5
92A
  8
LAYER01
  6
CONTINUOUS
 62
     7
 10
1162.959875
 20
3844.8229139999999
 30
0.0
 11
47.95987499999999
 21
3844.8229139999999
 31
0.0
 12
1162.959875
 22
3846.8229139999999
 32
0.0
 13
47.95987499999999
 23
3846.8229139999999
 33
0.0
  0
LINE
  5
92B
  8
LAYER01
  6
CONTINUOUS
 62
     7
 10
1162.959875
 20
3884.8229139999999
 30
0.0
 11
47.95987499999999
 21
3884.8229139999999
 31
0.0
  0
LINE
  5
92C
  8
LAYER01
  6
CONTINUOUS
 62
     7
 10
1162.959875
 20
3886.8229139999999
 30
0.0
 11
47.95987499999999
 21
3886.8229139999999
 31
0.0
  0
LINE
  5
92D
  8
LAYER01
  6
CONTINUOUS
 62
     7
 10
1162.959875
 20
3884.8229139999999
 30
0.0
 11
1162.959875
 21
3886.8229139999999
 31
0.0
  0
LINE
  5
92E
  8
LAYER01
  6
CONTINUOUS
 62
     7
 10
47.95987499999999
 20
3884.8229139999999
 30
0.0
 11
47.95987499999999
 21
3886.8229139999999
 31
0.0
  0
SOLID
  5
92F
  8
LAYER01
  6
CONTINUOUS
 62
     7
 10
1162.959875
 20
3884.8229139999999
 30
0.0
 11
47.95987499999999
 21
3884.8229139999999
 31
0.0
 12
1162.959875
 22
3886.8229139999999
 32
0.0
 13
47.95987499999999
 23
3886.8229139999999
 33
0.0
  0
LINE
  5
930
  8
LAYER01
  6
CONTINUOUS
 62
     7
 10
47.95987499999999
 20
3766.8229139999999
 30
0.0
 11
1162.959875
 21
3766.8229139999999
 31
0.0
  0
LINE
  5
931
  8
LAYER01
  6
CONTINUOUS
 62
     7
 10
47.95987499999999
 20
3764.8229139999999
 30
0.0
 11
1162.959875
 21
3764.8229139999999
 31
0.0
  0
LINE
  5
932
  8
LAYER01
  6
CONTINUOUS
 62
     7
 10
47.95987499999999
 20
3766.8229139999999
 30
0.0
 11
47.95987499999999
 21
3764.8229139999999
 31
0.0
  0
LINE
  5
933
  8
LAYER01
  6
CONTINUOUS
 62
     7
 10
1162.959875
 20
3766.8229139999999
 30
0.0
 11
1162.959875
 21
3764.8229139999999
 31
0.0
  0
SOLID
  5
934
  8
LAYER01
  6
CONTINUOUS
 62
     7
 10
47.95987499999999
 20
3766.8229139999999
 30
0.0
 11
1162.959875
 21
3766.8229139999999
 31
0.0
 12
47.95987499999999
 22
3764.8229139999999
 32
0.0
 13
1162.959875
 23
3764.8229139999999
 33
0.0
  0
LINE
  5
935
  8
LAYER01
  6
CONTINUOUS
 62
     7
 10
1162.959875
 20
4152.6664639999999
 30
0.0
 11
47.95987499999999
 21
4152.6664639999999
 31
0.0
  0
LINE
  5
936
  8
LAYER01
  6
CONTINUOUS
 62
     7
 10
1162.959875
 20
4154.6664639999999
 30
0.0
 11
47.95987499999999
 21
4154.6664639999999
 31
0.0
  0
LINE
  5
937
  8
LAYER01
  6
CONTINUOUS
 62
     7
 10
1162.959875
 20
4152.6664639999999
 30
0.0
 11
1162.959875
 21
4154.6664639999999
 31
0.0
  0
LINE
  5
938
  8
LAYER01
  6
CONTINUOUS
 62
     7
 10
47.95987499999999
 20
4152.6664639999999
 30
0.0
 11
47.95987499999999
 21
4154.6664639999999
 31
0.0
  0
SOLID
  5
939
  8
LAYER01
  6
CONTINUOUS
 62
     7
 10
1162.959875
 20
4152.6664639999999
 30
0.0
 11
47.95987499999999
 21
4152.6664639999999
 31
0.0
 12
1162.959875
 22
4154.6664639999999
 32
0.0
 13
47.95987499999999
 23
4154.6664639999999
 33
0.0
  0
DIMENSION
  5
93A
  8
LAYER01
 62
     7
  2
*D26
 10
-27.431857000000001
 20
4179.0427140000002
 30
0.0
 11
-87.431856999999994
 21
4335.0782600000002
 31
0.0
 53
90.0
 13
47.95987499999999
 23
4479.0427140000011
 33
0.0
 14
47.95987499999999
 24
4179.0427140000002
 34
0.0
 50
90.0
  0
DIMENSION
  5
93B
  8
LAYER01
 62
     7
  2
*D27
 10
-153.78471099999999
 20
4153.666463999999
 30
0.0
 11
-213.78471099999999
 21
4342.3733060000004
 31
0.0
 53
90.0
 13
47.95987499999999
 23
4503.6664639999999
 33
0.0
 14
47.95987499999999
 24
4153.666463999999
 34
0.0
 50
90.0
  0
LINE
  5
93C
  8
LAYER01
  6
CONTINUOUS
 62
     7
 10
46.959874999999997
 20
4153.666463999999
 30
0.0
 11
46.959874999999997
 21
4503.6664639999999
 31
0.0
  0
LINE
  5
93D
  8
LAYER01
  6
CONTINUOUS
 62
     7
 10
48.959874999999997
 20
4153.666463999999
 30
0.0
 11
48.959874999999997
 21
4503.6664639999999
 31
0.0
  0
LINE
  5
93E
  8
LAYER01
  6
CONTINUOUS
 62
     7
 10
46.959874999999997
 20
4153.666463999999
 30
0.0
 11
48.959874999999997
 21
4153.666463999999
 31
0.0
  0
LINE
  5
93F
  8
LAYER01
  6
CONTINUOUS
 62
     7
 10
46.959874999999997
 20
4503.6664639999999
 30
0.0
 11
48.959874999999997
 21
4503.6664639999999
 31
0.0
  0
SOLID
  5
940
  8
LAYER01
  6
CONTINUOUS
 62
     7
 10
46.959874999999997
 20
4153.666463999999
 30
0.0
 11
46.959874999999997
 21
4503.6664639999999
 31
0.0
 12
48.959874999999997
 22
4153.666463999999
 32
0.0
 13
48.959874999999997
 23
4503.6664639999999
 33
0.0
  0
DIMENSION
  5
941
  8
LAYER01
 62
     7
  2
*D28
 10
8.9113990000000012
 20
3885.8229139999999
 30
0.0
 11
-51.088601000000011
 21
4051.8279889999999
 31
0.0
 53
90.0
 13
47.95987499999999
 23
3845.8229139999999
 33
0.0
 14
47.95987499999999
 24
3885.8229139999999
 34
0.0
 50
90.0
  0
DIMENSION
  5
942
  8
LAYER01
 62
     7
  2
*D29
 10
-97.214997999999994
 20
3765.8229139999999
 30
0.0
 11
-157.21499800000001
 21
4011.827988999999
 31
0.0
 53
90.0
 13
47.95987499999999
 23
3845.8229139999999
 33
0.0
 14
47.95987499999999
 24
3765.8229139999999
 34
0.0
 50
90.0
  0
LINE
  5
943
  8
LAYER01
  6
CONTINUOUS
 62
     7
 10
48.959874999999997
 20
3885.8229139999999
 30
0.0
 11
48.959874999999997
 21
3765.8229139999999
 31
0.0
  0
LINE
  5
944
  8
LAYER01
  6
CONTINUOUS
 62
     7
 10
46.959874999999997
 20
3885.8229139999999
 30
0.0
 11
46.959874999999997
 21
3765.8229139999999
 31
0.0
  0
LINE
  5
945
  8
LAYER01
  6
CONTINUOUS
 62
     7
 10
48.959874999999997
 20
3885.8229139999999
 30
0.0
 11
46.959874999999997
 21
3885.8229139999999
 31
0.0
  0
LINE
  5
946
  8
LAYER01
  6
CONTINUOUS
 62
     7
 10
48.959874999999997
 20
3765.8229139999999
 30
0.0
 11
46.959874999999997
 21
3765.8229139999999
 31
0.0
  0
SOLID
  5
947
  8
LAYER01
  6
CONTINUOUS
 62
     7
 10
48.959874999999997
 20
3885.8229139999999
 30
0.0
 11
48.959874999999997
 21
3765.8229139999999
 31
0.0
 12
46.959874999999997
 22
3885.8229139999999
 32
0.0
 13
46.959874999999997
 23
3765.8229139999999
 33
0.0
  0
DIMENSION
  5
948
  8
LAYER01
 62
     7
  2
*D30
 10
797.95987500000001
 20
4537.151742
 30
0.0
 11
715.41671599999995
 21
4597.151742
 31
0.0
 13
605.45987500000001
 23
4503.6664639999999
 33
0.0
 14
797.95987500000001
 24
4503.6664639999999
 34
0.0
  0
DIMENSION
  5
949
  8
LAYER01
 62
     7
  2
*D31
 10
1162.959875
 20
4652.3002589999996
 30
0.0
 11
897.91671600000006
 21
4712.3002589999996
 31
0.0
 13
605.45987500000001
 23
4503.6664639999999
 33
0.0
 14
1162.959875
 24
4503.6664639999999
 34
0.0
  0
DIMENSION
  5
94A
  8
LAYER01
 62
     7
  2
*D32
 10
862.9356869999998
 20
4068.6100579999988
 30
0.0
 11
623.86406900000009
 21
4128.6100580000002
 31
0.0
 13
357.93568699999997
 23
4153.666463999999
 33
0.0
 14
862.9356869999998
 24
4153.666463999999
 34
0.0
  0
LINE
  5
94B
  8
LAYER01
  6
CONTINUOUS
 62
     7
 10
849.16397500000005
 20
4406.666463999999
 30
0.0
 11
749.22634000000005
 21
4406.666463999999
 31
0.0
  0
POLYLINE
  5
94C
  8
LAYER01
  6
CONTINUOUS
 62
     7
 66
     1
 10
0.0
 20
0.0
 30
0.0
 70
     1
 40
2.0
 41
2.0
  0
VERTEX
  5
1145
  8
LAYER01
  6
CONTINUOUS
 62
     7
 10
357.93568699999997
 20
4179.0427140000002
 30
0.0
  0
VERTEX
  5
1146
  8
LAYER01
  6
CONTINUOUS
 62
     7
 10
862.9356869999998
 20
4179.0427140000002
 30
0.0
  0
VERTEX
  5
1147
  8
LAYER01
  6
CONTINUOUS
 62
     7
 10
862.9356869999998
 20
4479.0427140000011
 30
0.0
  0
VERTEX
  5
1148
  8
LAYER01
  6
CONTINUOUS
 62
     7
 10
357.93568699999997
 20
4479.0427140000011
 30
0.0
  0
SEQEND
  5
1149
  8
LAYER01
  6
CONTINUOUS
 62
     7
  0
LINE
  5
952
  8
LAYER01
  6
CONTINUOUS
 62
     7
 10
840.95987500000001
 20
3707.6484140000011
 30
0.0
 11
754.95987500000001
 21
3707.6484140000011
 31
0.0
  0
LINE
  5
953
  8
LAYER01
  6
CONTINUOUS
 62
     7
 10
840.95987500000001
 20
3709.6484139999998
 30
0.0
 11
754.95987500000001
 21
3709.6484139999998
 31
0.0
  0
LINE
  5
954
  8
LAYER01
  6
CONTINUOUS
 62
     7
 10
840.95987500000001
 20
3707.6484140000011
 30
0.0
 11
840.95987500000001
 21
3709.6484139999998
 31
0.0
  0
LINE
  5
955
  8
LAYER01
  6
CONTINUOUS
 62
     7
 10
754.95987500000001
 20
3707.6484140000011
 30
0.0
 11
754.95987500000001
 21
3709.6484139999998
 31
0.0
  0
SOLID
  5
956
  8
LAYER01
  6
CONTINUOUS
 62
     7
 10
840.95987500000001
 20
3707.6484140000011
 30
0.0
 11
754.95987500000001
 21
3707.6484140000011
 31
0.0
 12
840.95987500000001
 22
3709.6484139999998
 32
0.0
 13
754.95987500000001
 23
3709.6484139999998
 33
0.0
  0
CIRCLE
  5
957
  8
LAYER01
  6
CONTINUOUS
 62
     7
 10
797.95987500000001
 20
4406.666463999999
 30
0.0
 40
34.0
  0
CIRCLE
  5
958
  8
LAYER01
  6
CONTINUOUS
 62
     7
 10
797.95987500000001
 20
4406.666463999999
 30
0.0
 40
36.0
  0
LINE
  5
959
  8
LAYER01
  6
CONTINUOUS
 62
     7
 10
749.95987500000001
 20
3718.8967379999999
 30
0.0
 11
353.93568699999997
 21
3718.8967379999999
 31
0.0
  0
LINE
  5
95A
  8
LAYER01
  6
CONTINUOUS
 62
     7
 10
749.95987500000001
 20
3720.8967379999999
 30
0.0
 11
353.93568699999997
 21
3720.8967379999999
 31
0.0
  0
LINE
  5
95B
  8
LAYER01
  6
CONTINUOUS
 62
     7
 10
749.95987500000001
 20
3718.8967379999999
 30
0.0
 11
749.95987500000001
 21
3720.8967379999999
 31
0.0
  0
LINE
  5
95C
  8
LAYER01
  6
CONTINUOUS
 62
     7
 10
353.93568699999997
 20
3718.8967379999999
 30
0.0
 11
353.93568699999997
 21
3720.8967379999999
 31
0.0
  0
SOLID
  5
95D
  8
LAYER01
  6
CONTINUOUS
 62
     7
 10
749.95987500000001
 20
3718.8967379999999
 30
0.0
 11
353.93568699999997
 21
3718.8967379999999
 31
0.0
 12
749.95987500000001
 22
3720.8967379999999
 32
0.0
 13
353.93568699999997
 23
3720.8967379999999
 33
0.0
  0
LINE
  5
95E
  8
LAYER01
  6
CONTINUOUS
 62
     7
 10
341.93568699999997
 20
3730.8967380000008
 30
0.0
 11
341.93568699999997
 21
3765.8229139999999
 31
0.0
  0
LINE
  5
95F
  8
LAYER01
  6
CONTINUOUS
 62
     7
 10
343.93568700000009
 20
3730.8967380000008
 30
0.0
 11
343.93568700000009
 21
3765.8229139999999
 31
0.0
  0
LINE
  5
960
  8
LAYER01
  6
CONTINUOUS
 62
     7
 10
341.93568699999997
 20
3730.8967380000008
 30
0.0
 11
343.93568700000009
 21
3730.8967380000008
 31
0.0
  0
LINE
  5
961
  8
LAYER01
  6
CONTINUOUS
 62
     7
 10
341.93568699999997
 20
3765.8229139999999
 30
0.0
 11
343.93568700000009
 21
3765.8229139999999
 31
0.0
  0
SOLID
  5
962
  8
LAYER01
  6
CONTINUOUS
 62
     7
 10
341.93568699999997
 20
3730.8967380000008
 30
0.0
 11
341.93568699999997
 21
3765.8229139999999
 31
0.0
 12
343.93568700000009
 22
3730.8967380000008
 32
0.0
 13
343.93568700000009
 23
3765.8229139999999
 33
0.0
  0
ARC
  5
963
  8
LAYER01
  6
CONTINUOUS
 62
     7
 10
353.93568699999997
 20
3730.8967380000008
 30
0.0
 40
10.0
 50
180.0
 51
270.0
  0
ARC
  5
964
  8
LAYER01
  6
CONTINUOUS
 62
     7
 10
353.93568699999997
 20
3730.8967380000008
 30
0.0
 40
12.0
 50
180.0
 51
270.0
  0
LINE
  5
965
  8
LAYER01
  6
CONTINUOUS
 62
     7
 10
341.93568699999997
 20
3730.8967380000008
 30
0.0
 11
343.93568700000009
 21
3730.8967380000008
 31
0.0
  0
LINE
  5
966
  8
LAYER01
  6
CONTINUOUS
 62
     7
 10
353.93568699999997
 20
3718.8967379999999
 30
0.0
 11
353.93568699999997
 21
3720.8967379999999
 31
0.0
  0
LINE
  5
967
  8
LAYER01
  6
CONTINUOUS
 62
     7
 10
753.95987500000001
 20
3708.6484140000011
 30
0.0
 11
753.95987500000001
 21
3714.8967379999999
 31
0.0
  0
LINE
  5
968
  8
LAYER01
  6
CONTINUOUS
 62
     7
 10
755.95987500000001
 20
3708.6484140000011
 30
0.0
 11
755.95987500000001
 21
3714.8967379999999
 31
0.0
  0
LINE
  5
969
  8
LAYER01
  6
CONTINUOUS
 62
     7
 10
753.95987500000001
 20
3708.6484140000011
 30
0.0
 11
755.95987500000001
 21
3708.6484140000011
 31
0.0
  0
LINE
  5
96A
  8
LAYER01
  6
CONTINUOUS
 62
     7
 10
753.95987500000001
 20
3714.8967379999999
 30
0.0
 11
755.95987500000001
 21
3714.8967379999999
 31
0.0
  0
SOLID
  5
96B
  8
LAYER01
  6
CONTINUOUS
 62
     7
 10
753.95987500000001
 20
3708.6484140000011
 30
0.0
 11
753.95987500000001
 21
3714.8967379999999
 31
0.0
 12
755.95987500000001
 22
3708.6484140000011
 32
0.0
 13
755.95987500000001
 23
3714.8967379999999
 33
0.0
  0
ARC
  5
96C
  8
LAYER01
  6
CONTINUOUS
 62
     7
 10
749.95987500000001
 20
3714.8967379999999
 30
0.0
 40
4.0
 50
0.0
 51
90.0
  0
ARC
  5
96D
  8
LAYER01
  6
CONTINUOUS
 62
     7
 10
749.95987500000001
 20
3714.8967379999999
 30
0.0
 40
6.0
 50
0.0
 51
90.0
  0
LINE
  5
96E
  8
LAYER01
  6
CONTINUOUS
 62
     7
 10
755.95987500000001
 20
3714.8967379999999
 30
0.0
 11
753.95987500000001
 21
3714.8967379999999
 31
0.0
  0
LINE
  5
96F
  8
LAYER01
  6
CONTINUOUS
 62
     7
 10
749.95987500000001
 20
3720.8967379999999
 30
0.0
 11
749.95987500000001
 21
3718.8967379999999
 31
0.0
  0
DIMENSION
  5
970
  8
LAYER01
 62
     7
  2
*D33
 10
1246.0591569999999
 20
4406.666463999999
 30
0.0
 11
1186.0591569999999
 21
4459.1901609999986
 31
0.0
 53
90.0
 13
1162.959875
 23
4503.6664639999999
 33
0.0
 14
1162.959875
 24
4406.666463999999
 34
0.0
 50
90.0
  0
LINE
  5
971
  8
LAYER01
  6
CONTINUOUS
 62
     7
 10
797.95987500000001
 20
4464.5458140000001
 30
0.0
 11
797.95987500000001
 21
4356.0420950000007
 31
0.0
  0
LINE
  5
972
  8
LAYER01
  6
CONTINUOUS
 62
     7
 10
1163.959875
 20
4503.6664639999999
 30
0.0
 11
1163.959875
 21
4153.666463999999
 31
0.0
  0
LINE
  5
973
  8
LAYER01
  6
CONTINUOUS
 62
     7
 10
1161.959875
 20
4503.6664639999999
 30
0.0
 11
1161.959875
 21
4153.666463999999
 31
0.0
  0
LINE
  5
974
  8
LAYER01
  6
CONTINUOUS
 62
     7
 10
1163.959875
 20
4503.6664639999999
 30
0.0
 11
1161.959875
 21
4503.6664639999999
 31
0.0
  0
LINE
  5
975
  8
LAYER01
  6
CONTINUOUS
 62
     7
 10
1163.959875
 20
4153.666463999999
 30
0.0
 11
1161.959875
 21
4153.666463999999
 31
0.0
  0
SOLID
  5
976
  8
LAYER01
  6
CONTINUOUS
 62
     7
 10
1163.959875
 20
4503.6664639999999
 30
0.0
 11
1163.959875
 21
4153.666463999999
 31
0.0
 12
1161.959875
 22
4503.6664639999999
 32
0.0
 13
1161.959875
 23
4153.666463999999
 33
0.0
  0
DIMENSION
  5
977
  8
LAYER01
 62
     7
  2
*D34
 10
1162.959875
 20
4068.7358100000001
 30
0.0
 11
1026.3761629999999
 21
4128.7358100000001
 31
0.0
 13
862.9356869999998
 23
4153.666463999999
 33
0.0
 14
1162.959875
 24
4153.666463999999
 34
0.0
  0
LINE
  5
978
  8
LAYER01
  6
CONTINUOUS
 62
     7
 10
905.97970799999985
 20
4328.6664639999999
 30
0.0
 11
969.256711
 21
4328.6664639999999
 31
0.0
  0
LINE
  5
979
  8
LAYER01
  6
CONTINUOUS
 62
     7
 10
932.936823
 20
4354.2712789999987
 30
0.0
 11
932.936823
 21
4296.3524089999992
 31
0.0
  0
DIMENSION
  5
97A
  8
LAYER01
 62
     7
  2
*D35
 10
1005.190592
 20
4386.7260189999997
 30
0.0
 11
1118.494191999999
 21
4386.7260189999997
 31
0.0
 70
     3
 15
946.57836899999995
 25
4339.6281349999999
 35
0.0
 40
75.190446999999992
  0
LINE
  5
97B
  8
LAYER01
  6
CONTINUOUS
 62
     7
 10
876.93568699999992
 20
3730.8967380000008
 30
0.0
 11
876.93568699999992
 21
3765.8229139999999
 31
0.0
  0
LINE
  5
97C
  8
LAYER01
  6
CONTINUOUS
 62
     7
 10
878.9356869999998
 20
3730.8967380000008
 30
0.0
 11
878.9356869999998
 21
3765.8229139999999
 31
0.0
  0
LINE
  5
97D
  8
LAYER01
  6
CONTINUOUS
 62
     7
 10
876.93568699999992
 20
3730.8967380000008
 30
0.0
 11
878.9356869999998
 21
3730.8967380000008
 31
0.0
  0
LINE
  5
97E
  8
LAYER01
  6
CONTINUOUS
 62
     7
 10
876.93568699999992
 20
3765.8229139999999
 30
0.0
 11
878.9356869999998
 21
3765.8229139999999
 31
0.0
  0
SOLID
  5
97F
  8
LAYER01
  6
CONTINUOUS
 62
     7
 10
876.93568699999992
 20
3730.8967380000008
 30
0.0
 11
876.93568699999992
 21
3765.8229139999999
 31
0.0
 12
878.9356869999998
 22
3730.8967380000008
 32
0.0
 13
878.9356869999998
 23
3765.8229139999999
 33
0.0
  0
ARC
  5
980
  8
LAYER01
  6
CONTINUOUS
 62
     7
 10
866.93568699999992
 20
3730.8967380000008
 30
0.0
 40
10.0
 50
270.0
 51
0.0
  0
ARC
  5
981
  8
LAYER01
  6
CONTINUOUS
 62
     7
 10
866.93568699999992
 20
3730.8967380000008
 30
0.0
 40
12.0
 50
270.0
 51
0.0
  0
LINE
  5
982
  8
LAYER01
  6
CONTINUOUS
 62
     7
 10
866.93568699999992
 20
3718.8967379999999
 30
0.0
 11
866.93568699999992
 21
3720.8967379999999
 31
0.0
  0
LINE
  5
983
  8
LAYER01
  6
CONTINUOUS
 62
     7
 10
878.9356869999998
 20
3730.8967380000008
 30
0.0
 11
876.93568699999992
 21
3730.8967380000008
 31
0.0
  0
LINE
  5
984
  8
LAYER01
  6
CONTINUOUS
 62
     7
 10
839.95987500000001
 20
3708.6484140000011
 30
0.0
 11
839.95987500000001
 21
3714.8967379999999
 31
0.0
  0
LINE
  5
985
  8
LAYER01
  6
CONTINUOUS
 62
     7
 10
841.95987500000001
 20
3708.6484140000011
 30
0.0
 11
841.95987500000001
 21
3714.8967379999999
 31
0.0
  0
LINE
  5
986
  8
LAYER01
  6
CONTINUOUS
 62
     7
 10
839.95987500000001
 20
3708.6484140000011
 30
0.0
 11
841.95987500000001
 21
3708.6484140000011
 31
0.0
  0
LINE
  5
987
  8
LAYER01
  6
CONTINUOUS
 62
     7
 10
839.95987500000001
 20
3714.8967379999999
 30
0.0
 11
841.95987500000001
 21
3714.8967379999999
 31
0.0
  0
SOLID
  5
988
  8
LAYER01
  6
CONTINUOUS
 62
     7
 10
839.95987500000001
 20
3708.6484140000011
 30
0.0
 11
839.95987500000001
 21
3714.8967379999999
 31
0.0
 12
841.95987500000001
 22
3708.6484140000011
 32
0.0
 13
841.95987500000001
 23
3714.8967379999999
 33
0.0
  0
LINE
  5
989
  8
LAYER01
  6
CONTINUOUS
 62
     7
 10
866.93568699999992
 20
3718.8967379999999
 30
0.0
 11
845.9598749999999
 21
3718.8967379999999
 31
0.0
  0
LINE
  5
98A
  8
LAYER01
  6
CONTINUOUS
 62
     7
 10
866.93568699999992
 20
3720.8967379999999
 30
0.0
 11
845.9598749999999
 21
3720.8967379999999
 31
0.0
  0
LINE
  5
98B
  8
LAYER01
  6
CONTINUOUS
 62
     7
 10
866.93568699999992
 20
3718.8967379999999
 30
0.0
 11
866.93568699999992
 21
3720.8967379999999
 31
0.0
  0
LINE
  5
98C
  8
LAYER01
  6
CONTINUOUS
 62
     7
 10
845.9598749999999
 20
3718.8967379999999
 30
0.0
 11
845.9598749999999
 21
3720.8967379999999
 31
0.0
  0
SOLID
  5
98D
  8
LAYER01
  6
CONTINUOUS
 62
     7
 10
866.93568699999992
 20
3718.8967379999999
 30
0.0
 11
845.9598749999999
 21
3718.8967379999999
 31
0.0
 12
866.93568699999992
 22
3720.8967379999999
 32
0.0
 13
845.9598749999999
 23
3720.8967379999999
 33
0.0
  0
ARC
  5
98E
  8
LAYER01
  6
CONTINUOUS
 62
     7
 10
845.9598749999999
 20
3714.8967379999999
 30
0.0
 40
4.0
 50
90.0
 51
180.0
  0
ARC
  5
98F
  8
LAYER01
  6
CONTINUOUS
 62
     7
 10
845.9598749999999
 20
3714.8967379999999
 30
0.0
 40
6.0
 50
90.0
 51
180.0
  0
LINE
  5
990
  8
LAYER01
  6
CONTINUOUS
 62
     7
 10
845.9598749999999
 20
3720.8967379999999
 30
0.0
 11
845.9598749999999
 21
3718.8967379999999
 31
0.0
  0
LINE
  5
991
  8
LAYER01
  6
CONTINUOUS
 62
     7
 10
839.95987500000001
 20
3714.8967379999999
 30
0.0
 11
841.95987500000001
 21
3714.8967379999999
 31
0.0
  0
LINE
  5
992
  8
LAYER01
  6
CONTINUOUS
 62
     7
 10
1163.959875
 20
3885.8229139999999
 30
0.0
 11
1163.959875
 21
3765.8229139999999
 31
0.0
  0
LINE
  5
993
  8
LAYER01
  6
CONTINUOUS
 62
     7
 10
1161.959875
 20
3885.8229139999999
 30
0.0
 11
1161.959875
 21
3765.8229139999999
 31
0.0
  0
LINE
  5
994
  8
LAYER01
  6
CONTINUOUS
 62
     7
 10
1163.959875
 20
3885.8229139999999
 30
0.0
 11
1161.959875
 21
3885.8229139999999
 31
0.0
  0
LINE
  5
995
  8
LAYER01
  6
CONTINUOUS
 62
     7
 10
1163.959875
 20
3765.8229139999999
 30
0.0
 11
1161.959875
 21
3765.8229139999999
 31
0.0
  0
SOLID
  5
996
  8
LAYER01
  6
CONTINUOUS
 62
     7
 10
1163.959875
 20
3885.8229139999999
 30
0.0
 11
1163.959875
 21
3765.8229139999999
 31
0.0
 12
1161.959875
 22
3885.8229139999999
 32
0.0
 13
1161.959875
 23
3765.8229139999999
 33
0.0
  0
CIRCLE
  5
997
  8
LAYER01
  6
CONTINUOUS
 62
     7
 10
932.936823
 20
4328.6664639999999
 30
0.0
 40
16.5
  0
CIRCLE
  5
998
  8
LAYER01
  6
CONTINUOUS
 62
     7
 10
932.936823
 20
4328.6664639999999
 30
0.0
 40
18.5
  0
CIRCLE
  5
999
  8
LAYER01
  6
CONTINUOUS
 62
     7
 10
797.95987500000001
 20
4406.666463999999
 30
0.0
 40
22.0
  0
CIRCLE
  5
99A
  8
LAYER01
  6
CONTINUOUS
 62
     7
 10
797.95987500000001
 20
4406.666463999999
 30
0.0
 40
24.0
  0
DIMENSION
  5
99B
  8
LAYER01
 62
     7
  2
*D36
 10
932.936823
 20
4537.4684100000004
 30
0.0
 11
879.15519099999995
 21
4597.4684100000004
 31
0.0
 13
797.95987500000001
 23
4503.6664639999999
 33
0.0
 14
932.936823
 24
4503.6664639999999
 34
0.0
  0
LINE
  5
99C
  8
LAYER01
  6
CONTINUOUS
 62
     7
 10
797.95987500000001
 20
4485.9442139999992
 30
0.0
 11
797.95987500000001
 21
4535.9442139999992
 31
0.0
  0
INSERT
  5
99D
  8
LAYER01
  2
NIZ_WEB-G38
 10
0.0
 20
0.0
 30
0.0
  0
INSERT
  5
99E
  8
LAYER01
  2
NIZ_WEB-G39
 10
0.0
 20
0.0
 30
0.0
  0
TEXT
  5
99F
  8
LAYER01
  6
STRICHPUNKTIERT
 62
     7
 10
2126.8248570658802
 20
2957.70899704769
 30
0.0
 40
43.651061999999989
  1
http://www.mineralwerkstoff.de
  0
DIMENSION
  5
9A0
  8
LAYER01
 62
     7
  2
*D40
 10
1822.7490749999999
 20
3634.0093219999999
 30
0.0
 11
1976.599127
 21
3668.437609000001
 31
0.0
 13
1868.7490749999999
 23
3708.6484140000011
 33
0.0
 14
1822.7490749999999
 24
3708.6484140000011
 34
0.0
  0
DIMENSION
  5
9A1
  8
LAYER01
 62
     7
  2
*D41
 10
1880.5320039999999
 20
3845.8711659999999
 30
0.0
 11
1820.5320039999999
 21
3803.5540120000001
 31
0.0
 53
90.0
 13
1880.8745719999999
 23
3730.8229139999999
 33
0.0
 14
1880.8745719999999
 24
3845.8711659999999
 34
0.0
 50
90.0
  0
LINE
  5
9A2
  8
LAYER01
  6
CONTINUOUS
 62
     7
 10
1822.7490749999999
 20
3708.6484140000011
 30
0.0
 11
1802.7490749999999
 21
3708.6484140000011
 31
0.0
  0
LINE
  5
9A3
  8
LAYER01
  6
CONTINUOUS
 62
     7
 10
1822.7490749999999
 20
3720.6484139999998
 30
0.0
 11
1810.623578
 21
3730.8229139999999
 31
0.0
  0
POLYLINE
  5
9A4
  8
LAYER01
  6
CONTINUOUS
 62
     7
 66
     1
 10
0.0
 20
0.0
 30
0.0
 70
     1
 40
2.0
 41
2.0
  0
VERTEX
  5
114A
  8
LAYER01
  6
CONTINUOUS
 62
     7
 10
1592.623578
 20
3765.8229139999999
 30
0.0
  0
VERTEX
  5
114B
  8
LAYER01
  6
CONTINUOUS
 62
     7
 10
1592.623578
 20
3845.8229139999999
 30
0.0
  0
VERTEX
  5
114C
  8
LAYER01
  6
CONTINUOUS
 62
     7
 10
1617.623578
 20
3845.8229139999999
 30
0.0
  0
VERTEX
  5
114D
  8
LAYER01
  6
CONTINUOUS
 62
     7
 10
1622.7462780000001
 20
3748.0759700000008
 30
0.0
  0
VERTEX
  5
114E
  8
LAYER01
  6
CONTINUOUS
 62
     7
 10
1622.811974
 20
3747.341668
 30
0.0
  0
VERTEX
  5
114F
  8
LAYER01
  6
CONTINUOUS
 62
     7
 10
1622.9315899999999
 20
3746.6142020000002
 30
0.0
  0
VERTEX
  5
1150
  8
LAYER01
  6
CONTINUOUS
 62
     7
 10
1623.104476
 20
3745.8975260000002
 30
0.0
  0
VERTEX
  5
1151
  8
LAYER01
  6
CONTINUOUS
 62
     7
 10
1623.329692
 20
3745.195534
 30
0.0
  0
VERTEX
  5
1152
  8
LAYER01
  6
CONTINUOUS
 62
     7
 10
1623.606014
 20
3744.5120419999998
 30
0.0
  0
VERTEX
  5
1153
  8
LAYER01
  6
CONTINUOUS
 62
     7
 10
1623.9319399999999
 20
3743.850766
 30
0.0
  0
VERTEX
  5
1154
  8
LAYER01
  6
CONTINUOUS
 62
     7
 10
1624.305699
 20
3743.2152980000001
 30
0.0
  0
VERTEX
  5
1155
  8
LAYER01
  6
CONTINUOUS
 62
     7
 10
1624.7252590000001
 20
3742.609093
 30
0.0
  0
VERTEX
  5
1156
  8
LAYER01
  6
CONTINUOUS
 62
     7
 10
1625.188341
 20
3742.0354470000002
 30
0.0
  0
VERTEX
  5
1157
  8
LAYER01
  6
CONTINUOUS
 62
     7
 10
1625.6924260000001
 20
3741.497476
 30
0.0
  0
VERTEX
  5
1158
  8
LAYER01
  6
CONTINUOUS
 62
     7
 10
1626.2347749999999
 20
3740.9981039999998
 30
0.0
  0
VERTEX
  5
1159
  8
LAYER01
  6
CONTINUOUS
 62
     7
 10
1626.812441
 20
3740.540047
 30
0.0
  0
VERTEX
  5
115A
  8
LAYER01
  6
CONTINUOUS
 62
     7
 10
1627.422284
 20
3740.1257920000012
 30
0.0
  0
VERTEX
  5
115B
  8
LAYER01
  6
CONTINUOUS
 62
     7
 10
1628.0609890000001
 20
3739.7575929999998
 30
0.0
  0
VERTEX
  5
115C
  8
LAYER01
  6
CONTINUOUS
 62
     7
 10
1628.725085
 20
3739.4374499999999
 30
0.0
  0
VERTEX
  5
115D
  8
LAYER01
  6
CONTINUOUS
 62
     7
 10
1629.4109619999999
 20
3739.1671030000011
 30
0.0
  0
VERTEX
  5
115E
  8
LAYER01
  6
CONTINUOUS
 62
     7
 10
1630.1148920000001
 20
3738.9480210000011
 30
0.0
  0
VERTEX
  5
115F
  8
LAYER01
  6
CONTINUOUS
 62
     7
 10
1630.83305
 20
3738.7813959999999
 30
0.0
  0
VERTEX
  5
1160
  8
LAYER01
  6
CONTINUOUS
 62
     7
 10
1631.5615319999999
 20
3738.6681330000001
 30
0.0
  0
VERTEX
  5
1161
  8
LAYER01
  6
CONTINUOUS
 62
     7
 10
1632.2963789999999
 20
3738.608847
 30
0.0
  0
VERTEX
  5
1162
  8
LAYER01
  6
CONTINUOUS
 62
     7
 10
1810.623578
 20
3730.8229139999999
 30
0.0
  0
VERTEX
  5
1163
  8
LAYER01
  6
CONTINUOUS
 62
     7
 10
1822.7490749999999
 20
3720.6484139999998
 30
0.0
  0
VERTEX
  5
1164
  8
LAYER01
  6
CONTINUOUS
 62
     7
 10
1822.7490749999999
 20
3708.6484140000011
 30
0.0
  0
VERTEX
  5
1165
  8
LAYER01
  6
CONTINUOUS
 62
     7
 10
1802.7490749999999
 20
3708.6484140000011
 30
0.0
  0
VERTEX
  5
1166
  8
LAYER01
  6
CONTINUOUS
 62
     7
 10
1802.7490749999999
 20
3718.6484139999998
 30
0.0
  0
VERTEX
  5
1167
  8
LAYER01
  6
CONTINUOUS
 62
     7
 10
1617.1982909999999
 20
3726.7497360000002
 30
0.0
  0
VERTEX
  5
1168
  8
LAYER01
  6
CONTINUOUS
 62
     7
 10
1616.830868
 20
3726.7793790000001
 30
0.0
  0
VERTEX
  5
1169
  8
LAYER01
  6
CONTINUOUS
 62
     7
 10
1616.466627
 20
3726.83601
 30
0.0
  0
VERTEX
  5
116A
  8
LAYER01
  6
CONTINUOUS
 62
     7
 10
1616.107548
 20
3726.9193230000001
 30
0.0
  0
VERTEX
  5
116B
  8
LAYER01
  6
CONTINUOUS
 62
     7
 10
1615.7555829999999
 20
3727.0288639999999
 30
0.0
  0
VERTEX
  5
116C
  8
LAYER01
  6
CONTINUOUS
 62
     7
 10
1615.412644
 20
3727.164037
 30
0.0
  0
VERTEX
  5
116D
  8
LAYER01
  6
CONTINUOUS
 62
     7
 10
1615.080596
 20
3727.3241090000001
 30
0.0
  0
VERTEX
  5
116E
  8
LAYER01
  6
CONTINUOUS
 62
     7
 10
1614.761244
 20
3727.5082080000002
 30
0.0
  0
VERTEX
  5
116F
  8
LAYER01
  6
CONTINUOUS
 62
     7
 10
1614.456322
 20
3727.7153350000008
 30
0.0
  0
VERTEX
  5
1170
  8
LAYER01
  6
CONTINUOUS
 62
     7
 10
1614.1674889999999
 20
3727.9443640000009
 30
0.0
  0
VERTEX
  5
1171
  8
LAYER01
  6
CONTINUOUS
 62
     7
 10
1613.896315
 20
3728.194050000001
 30
0.0
  0
VERTEX
  5
1172
  8
LAYER01
  6
CONTINUOUS
 62
     7
 10
1613.644272
 20
3728.4630350000002
 30
0.0
  0
VERTEX
  5
1173
  8
LAYER01
  6
CONTINUOUS
 62
     7
 10
1613.4127309999999
 20
3728.749859
 30
0.0
  0
VERTEX
  5
1174
  8
LAYER01
  6
CONTINUOUS
 62
     7
 10
1613.202951
 20
3729.0529609999999
 30
0.0
  0
VERTEX
  5
1175
  8
LAYER01
  6
CONTINUOUS
 62
     7
 10
1613.0160719999999
 20
3729.370695000001
 30
0.0
  0
VERTEX
  5
1176
  8
LAYER01
  6
CONTINUOUS
 62
     7
 10
1612.8531089999999
 20
3729.701333
 30
0.0
  0
VERTEX
  5
1177
  8
LAYER01
  6
CONTINUOUS
 62
     7
 10
1612.714948
 20
3730.043079
 30
0.0
  0
VERTEX
  5
1178
  8
LAYER01
  6
CONTINUOUS
 62
     7
 10
1612.6023399999999
 20
3730.3940750000002
 30
0.0
  0
VERTEX
  5
1179
  8
LAYER01
  6
CONTINUOUS
 62
     7
 10
1612.515897
 20
3730.7524130000011
 30
0.0
  0
VERTEX
  5
117A
  8
LAYER01
  6
CONTINUOUS
 62
     7
 10
1612.456089
 20
3731.1161459999998
 30
0.0
  0
VERTEX
  5
117B
  8
LAYER01
  6
CONTINUOUS
 62
     7
 10
1612.423241
 20
3731.4832970000002
 30
0.0
  0
VERTEX
  5
117C
  8
LAYER01
  6
CONTINUOUS
 62
     7
 10
1610.8719020000001
 20
3761.084593
 30
0.0
  0
VERTEX
  5
117D
  8
LAYER01
  6
CONTINUOUS
 62
     7
 10
1610.837671
 20
3761.4625639999999
 30
0.0
  0
VERTEX
  5
117E
  8
LAYER01
  6
CONTINUOUS
 62
     7
 10
1610.7748690000001
 20
3761.8368500000001
 30
0.0
  0
VERTEX
  5
117F
  8
LAYER01
  6
CONTINUOUS
 62
     7
 10
1610.683859
 20
3762.2052939999999
 30
0.0
  0
VERTEX
  5
1180
  8
LAYER01
  6
CONTINUOUS
 62
     7
 10
1610.565165
 20
3762.5657740000001
 30
0.0
  0
VERTEX
  5
1181
  8
LAYER01
  6
CONTINUOUS
 62
     7
 10
1610.4194709999999
 20
3762.9162120000001
 30
0.0
  0
VERTEX
  5
1182
  8
LAYER01
  6
CONTINUOUS
 62
     7
 10
1610.2476160000001
 20
3763.2545909999999
 30
0.0
  0
VERTEX
  5
1183
  8
LAYER01
  6
CONTINUOUS
 62
     7
 10
1610.0505909999999
 20
3763.5789589999999
 30
0.0
  0
VERTEX
  5
1184
  8
LAYER01
  6
CONTINUOUS
 62
     7
 10
1609.82953
 20
3763.8874490000012
 30
0.0
  0
VERTEX
  5
1185
  8
LAYER01
  6
CONTINUOUS
 62
     7
 10
1609.585707
 20
3764.1782830000002
 30
0.0
  0
VERTEX
  5
1186
  8
LAYER01
  6
CONTINUOUS
 62
     7
 10
1609.320528
 20
3764.4497849999998
 30
0.0
  0
VERTEX
  5
1187
  8
LAYER01
  6
CONTINUOUS
 62
     7
 10
1609.035519
 20
3764.7003920000002
 30
0.0
  0
VERTEX
  5
1188
  8
LAYER01
  6
CONTINUOUS
 62
     7
 10
1608.732323
 20
3764.9286600000009
 30
0.0
  0
VERTEX
  5
1189
  8
LAYER01
  6
CONTINUOUS
 62
     7
 10
1608.4126859999999
 20
3765.133272
 30
0.0
  0
VERTEX
  5
118A
  8
LAYER01
  6
CONTINUOUS
 62
     7
 10
1608.0784510000001
 20
3765.3130520000009
 30
0.0
  0
VERTEX
  5
118B
  8
LAYER01
  6
CONTINUOUS
 62
     7
 10
1607.731542
 20
3765.4669610000001
 30
0.0
  0
VERTEX
  5
118C
  8
LAYER01
  6
CONTINUOUS
 62
     7
 10
1607.373959
 20
3765.5941149999999
 30
0.0
  0
VERTEX
  5
118D
  8
LAYER01
  6
CONTINUOUS
 62
     7
 10
1607.0077610000001
 20
3765.6937809999999
 30
0.0
  0
VERTEX
  5
118E
  8
LAYER01
  6
CONTINUOUS
 62
     7
 10
1606.635059
 20
3765.7653829999999
 30
0.0
  0
VERTEX
  5
118F
  8
LAYER01
  6
CONTINUOUS
 62
     7
 10
1606.2579989999999
 20
3765.8085099999998
 30
0.0
  0
VERTEX
  5
1190
  8
LAYER01
  6
CONTINUOUS
 62
     7
 10
1605.878755
 20
3765.8229139999999
 30
0.0
  0
SEQEND
  5
1191
  8
LAYER01
  6
CONTINUOUS
 62
     7
  0
LINE
  5
9ED
  8
LAYER01
  6
CONTINUOUS
 62
     7
 10
1930.875241
 20
3844.9056030000002
 30
0.0
 11
1810.6242649999999
 21
3844.8229139999999
 31
0.0
  0
LINE
  5
9EE
  8
LAYER01
  6
CONTINUOUS
 62
     7
 10
1930.8738659999999
 20
3846.9056020000012
 30
0.0
 11
1810.6228900000001
 21
3846.822913
 31
0.0
  0
LINE
  5
9EF
  8
LAYER01
  6
CONTINUOUS
 62
     7
 10
1930.875241
 20
3844.9056030000002
 30
0.0
 11
1930.8738659999999
 21
3846.9056020000012
 31
0.0
  0
LINE
  5
9F0
  8
LAYER01
  6
CONTINUOUS
 62
     7
 10
1810.6242649999999
 20
3844.8229139999999
 30
0.0
 11
1810.6228900000001
 21
3846.822913
 31
0.0
  0
SOLID
  5
9F1
  8
LAYER01
  6
CONTINUOUS
 62
     7
 10
1930.875241
 20
3844.9056030000002
 30
0.0
 11
1810.6242649999999
 21
3844.8229139999999
 31
0.0
 12
1930.8738659999999
 22
3846.9056020000012
 32
0.0
 13
1810.6228900000001
 23
3846.822913
 33
0.0
  0
LINE
  5
9F2
  8
LAYER01
  6
CONTINUOUS
 62
     7
 10
1810.623578
 20
3731.8229139999999
 30
0.0
 11
1880.8745719999999
 21
3731.8229139999999
 31
0.0
  0
LINE
  5
9F3
  8
LAYER01
  6
CONTINUOUS
 62
     7
 10
1810.623578
 20
3729.8229139999999
 30
0.0
 11
1880.8745719999999
 21
3729.8229139999999
 31
0.0
  0
LINE
  5
9F4
  8
LAYER01
  6
CONTINUOUS
 62
     7
 10
1810.623578
 20
3731.8229139999999
 30
0.0
 11
1810.623578
 21
3729.8229139999999
 31
0.0
  0
LINE
  5
9F5
  8
LAYER01
  6
CONTINUOUS
 62
     7
 10
1880.8745719999999
 20
3731.8229139999999
 30
0.0
 11
1880.8745719999999
 21
3729.8229139999999
 31
0.0
  0
SOLID
  5
9F6
  8
LAYER01
  6
CONTINUOUS
 62
     7
 10
1810.623578
 20
3731.8229139999999
 30
0.0
 11
1880.8745719999999
 21
3731.8229139999999
 31
0.0
 12
1810.623578
 22
3729.8229139999999
 32
0.0
 13
1880.8745719999999
 23
3729.8229139999999
 33
0.0
  0
DIMENSION
  5
9F7
  8
LAYER01
 62
     7
  2
*D42
 10
1528.7922699999999
 20
3765.8229139999999
 30
0.0
 11
1468.7922699999999
 21
4011.827988999999
 31
0.0
 53
90.0
 13
1592.623578
 23
3845.8229139999999
 33
0.0
 14
1592.623578
 24
3765.8229139999999
 34
0.0
 50
90.0
  0
LINE
  5
9F8
  8
LAYER01
  6
CONTINUOUS
 62
     7
 10
1802.7490749999999
 20
3708.6484140000011
 30
0.0
 11
1802.7490749999999
 21
3718.6484139999998
 31
0.0
  0
LINE
  5
9F9
  8
LAYER01
  6
CONTINUOUS
 62
     7
 10
1593.623578
 20
3845.8229139999999
 30
0.0
 11
1593.623578
 21
3765.8229139999999
 31
0.0
  0
LINE
  5
9FA
  8
LAYER01
  6
CONTINUOUS
 62
     7
 10
1591.623578
 20
3845.8229139999999
 30
0.0
 11
1591.623578
 21
3765.8229139999999
 31
0.0
  0
LINE
  5
9FB
  8
LAYER01
  6
CONTINUOUS
 62
     7
 10
1593.623578
 20
3845.8229139999999
 30
0.0
 11
1591.623578
 21
3845.8229139999999
 31
0.0
  0
LINE
  5
9FC
  8
LAYER01
  6
CONTINUOUS
 62
     7
 10
1593.623578
 20
3765.8229139999999
 30
0.0
 11
1591.623578
 21
3765.8229139999999
 31
0.0
  0
SOLID
  5
9FD
  8
LAYER01
  6
CONTINUOUS
 62
     7
 10
1593.623578
 20
3845.8229139999999
 30
0.0
 11
1593.623578
 21
3765.8229139999999
 31
0.0
 12
1591.623578
 22
3845.8229139999999
 32
0.0
 13
1591.623578
 23
3765.8229139999999
 33
0.0
  0
LINE
  5
9FE
  8
LAYER01
  6
CONTINUOUS
 62
     7
 10
1617.623578
 20
3844.8229139999999
 30
0.0
 11
1592.623578
 21
3844.8229139999999
 31
0.0
  0
LINE
  5
9FF
  8
LAYER01
  6
CONTINUOUS
 62
     7
 10
1617.623578
 20
3846.8229139999999
 30
0.0
 11
1592.623578
 21
3846.8229139999999
 31
0.0
  0
LINE
  5
A00
  8
LAYER01
  6
CONTINUOUS
 62
     7
 10
1617.623578
 20
3844.8229139999999
 30
0.0
 11
1617.623578
 21
3846.8229139999999
 31
0.0
  0
LINE
  5
A01
  8
LAYER01
  6
CONTINUOUS
 62
     7
 10
1592.623578
 20
3844.8229139999999
 30
0.0
 11
1592.623578
 21
3846.8229139999999
 31
0.0
  0
SOLID
  5
A02
  8
LAYER01
  6
CONTINUOUS
 62
     7
 10
1617.623578
 20
3844.8229139999999
 30
0.0
 11
1592.623578
 21
3844.8229139999999
 31
0.0
 12
1617.623578
 22
3846.8229139999999
 32
0.0
 13
1592.623578
 23
3846.8229139999999
 33
0.0
  0
POLYLINE
  5
A03
  8
LAYER01
  6
CONTINUOUS
 62
     7
 66
     1
 10
0.0
 20
0.0
 30
0.0
 40
2.0
 41
2.0
  0
VERTEX
  5
1192
  8
LAYER01
  6
CONTINUOUS
 62
     7
 10
1802.7490749999999
 20
3718.6484139999998
 30
0.0
  0
VERTEX
  5
1193
  8
LAYER01
  6
CONTINUOUS
 62
     7
 10
1617.1982909999999
 20
3726.7497360000002
 30
0.0
 42
-0.386369
  0
VERTEX
  5
1194
  8
LAYER01
  6
CONTINUOUS
 62
     7
 10
1612.423241
 20
3731.4832970000002
 30
0.0
  0
VERTEX
  5
1195
  8
LAYER01
  6
CONTINUOUS
 62
     7
 10
1610.8719020000001
 20
3761.084593
 30
0.0
 42
0.39896
  0
VERTEX
  5
1196
  8
LAYER01
  6
CONTINUOUS
 62
     7
 10
1605.878755
 20
3765.8229139999999
 30
0.0
  0
VERTEX
  5
1197
  8
LAYER01
  6
CONTINUOUS
 62
     7
 10
1592.623578
 20
3765.8229139999999
 30
0.0
  0
SEQEND
  5
1198
  8
LAYER01
  6
CONTINUOUS
 62
     7
  0
POLYLINE
  5
A0B
  8
LAYER01
  6
CONTINUOUS
 62
     7
 66
     1
 10
0.0
 20
0.0
 30
0.0
 40
2.0
 41
2.0
  0
VERTEX
  5
1199
  8
LAYER01
  6
CONTINUOUS
 62
     7
 10
1810.623578
 20
3730.8229139999999
 30
0.0
  0
VERTEX
  5
119A
  8
LAYER01
  6
CONTINUOUS
 62
     7
 10
1632.2963789999999
 20
3738.608847
 30
0.0
 42
-0.386369
  0
VERTEX
  5
119B
  8
LAYER01
  6
CONTINUOUS
 62
     7
 10
1622.7462780000001
 20
3748.0759700000008
 30
0.0
  0
VERTEX
  5
119C
  8
LAYER01
  6
CONTINUOUS
 62
     7
 10
1617.623578
 20
3845.8229139999999
 30
0.0
  0
SEQEND
  5
119D
  8
LAYER01
  6
CONTINUOUS
 62
     7
  0
LINE
  5
A11
  8
LAYER01
  6
CONTINUOUS
 62
     7
 10
1810.623578
 20
3844.8229139999999
 30
0.0
 11
1617.623578
 21
3844.8229139999999
 31
0.0
  0
LINE
  5
A12
  8
LAYER01
  6
CONTINUOUS
 62
     7
 10
1810.623578
 20
3846.8229139999999
 30
0.0
 11
1617.623578
 21
3846.8229139999999
 31
0.0
  0
LINE
  5
A13
  8
LAYER01
  6
CONTINUOUS
 62
     7
 10
1810.623578
 20
3844.8229139999999
 30
0.0
 11
1810.623578
 21
3846.8229139999999
 31
0.0
  0
LINE
  5
A14
  8
LAYER01
  6
CONTINUOUS
 62
     7
 10
1617.623578
 20
3844.8229139999999
 30
0.0
 11
1617.623578
 21
3846.8229139999999
 31
0.0
  0
SOLID
  5
A15
  8
LAYER01
  6
CONTINUOUS
 62
     7
 10
1810.623578
 20
3844.8229139999999
 30
0.0
 11
1617.623578
 21
3844.8229139999999
 31
0.0
 12
1810.623578
 22
3846.8229139999999
 32
0.0
 13
1617.623578
 23
3846.8229139999999
 33
0.0
  0
LINE
  5
A16
  8
LAYER01
  6
CONTINUOUS
 62
     7
 10
1845.7490749999999
 20
3708.6484140000011
 30
0.0
 11
1845.7490749999999
 21
3764.3367669999998
 31
0.0
  0
LINE
  5
A17
  8
0
  6
CONTINUOUS
 62
     7
 10
1942.8745530000001
 20
3885.8229139999999
 30
0.0
 11
1930.8745530000001
 21
3885.8229139999999
 31
0.0
  0
LINE
  5
A18
  8
LAYER01
  6
CONTINUOUS
 62
     7
 10
1942.8745530000001
 20
3833.8229139999999
 30
0.0
 11
1928.8745530000001
 21
3833.8229139999999
 31
0.0
  0
LINE
  5
A19
  8
LAYER01
  6
CONTINUOUS
 62
     7
 10
1942.8745530000001
 20
3845.8229139999999
 30
0.0
 11
1942.8745530000001
 21
3833.8229139999999
 31
0.0
  0
LINE
  5
A1A
  8
LAYER01
  6
CONTINUOUS
 62
     7
 10
1930.8745530000001
 20
3885.8229139999999
 30
0.0
 11
1930.8745530000001
 21
3845.8229139999999
 31
0.0
  0
LINE
  5
A1B
  8
LAYER01
  6
CONTINUOUS
 62
     7
 10
1942.8745530000001
 20
3845.8229139999999
 30
0.0
 11
1942.8745530000001
 21
3885.8229139999999
 31
0.0
  0
POLYLINE
  5
A1C
  8
LAYER01
  6
CONTINUOUS
 62
     7
 66
     1
 10
0.0
 20
0.0
 30
0.0
  0
VERTEX
  5
119E
  8
LAYER01
  6
CONTINUOUS
 62
     7
 10
1888.7490749999999
 20
3708.6484140000011
 30
0.0
  0
VERTEX
  5
119F
  8
LAYER01
  6
CONTINUOUS
 62
     7
 10
1888.7490749999999
 20
3714.9035910000011
 30
0.0
 42
-0.39896
  0
VERTEX
  5
11A0
  8
LAYER01
  6
CONTINUOUS
 62
     7
 10
1893.4873950000001
 20
3719.8967380000008
 30
0.0
  0
VERTEX
  5
11A1
  8
LAYER01
  6
CONTINUOUS
 62
     7
 10
1913.993252
 20
3720.9714049999998
 30
0.0
 42
0.383864
  0
VERTEX
  5
11A2
  8
LAYER01
  6
CONTINUOUS
 62
     7
 10
1923.4561880000001
 20
3730.4343410000001
 30
0.0
  0
VERTEX
  5
11A3
  8
LAYER01
  6
CONTINUOUS
 62
     7
 10
1928.8745530000001
 20
3833.8229139999999
 30
0.0
  0
SEQEND
  5
11A4
  8
LAYER01
  6
CONTINUOUS
 62
     7
  0
POLYLINE
  5
A24
  8
LAYER01
  6
CONTINUOUS
 62
     7
 66
     1
 10
0.0
 20
0.0
 30
0.0
  0
VERTEX
  5
11A5
  8
LAYER01
  6
CONTINUOUS
 62
     7
 10
1880.8745719999999
 20
3730.8229139999999
 30
0.0
  0
VERTEX
  5
11A6
  8
LAYER01
  6
CONTINUOUS
 62
     7
 10
1902.8403860000001
 20
3731.9740929999998
 30
0.0
 42
0.383864
  0
VERTEX
  5
11A7
  8
LAYER01
  6
CONTINUOUS
 62
     7
 10
1912.303322
 20
3741.4370290000002
 30
0.0
  0
VERTEX
  5
11A8
  8
LAYER01
  6
CONTINUOUS
 62
     7
 10
1917.2773050000001
 20
3836.3462730000001
 30
0.0
 42
-0.39896
  0
VERTEX
  5
11A9
  8
LAYER01
  6
CONTINUOUS
 62
     7
 10
1927.2636
 20
3845.8229139999999
 30
0.0
  0
VERTEX
  5
11AA
  8
LAYER01
  6
CONTINUOUS
 62
     7
 10
1930.8745530000001
 20
3845.8229139999999
 30
0.0
  0
SEQEND
  5
11AB
  8
LAYER01
  6
CONTINUOUS
 62
     7
  0
LINE
  5
A2C
  8
LAYER01
  6
CONTINUOUS
 62
     7
 10
1868.7490749999999
 20
3708.6484140000011
 30
0.0
 11
1888.7490749999999
 21
3708.6484140000011
 31
0.0
  0
LINE
  5
A2D
  8
LAYER01
  6
CONTINUOUS
 62
     7
 10
1868.7490749999999
 20
3720.6484139999998
 30
0.0
 11
1868.7490749999999
 21
3708.6484140000011
 31
0.0
  0
LINE
  5
A2E
  8
LAYER01
  6
CONTINUOUS
 62
     7
 10
1822.7490749999999
 20
3720.6484139999998
 30
0.0
 11
1822.7490749999999
 21
3708.6484140000011
 31
0.0
  0
LINE
  5
A2F
  8
LAYER01
  6
CONTINUOUS
 62
     7
 10
1868.7490749999999
 20
3720.6484139999998
 30
0.0
 11
1880.8745719999999
 21
3730.8229139999999
 31
0.0
  0
DIMENSION
  5
A30
  8
LAYER01
 62
     7
  2
*D43
 10
2034.483892
 20
3708.6484140000011
 30
0.0
 11
1974.483892
 21
3811.9600310000001
 31
0.0
 53
90.0
 13
1942.8745530000001
 23
3885.8229139999999
 33
0.0
 14
1942.8745530000001
 24
3708.6484140000011
 34
0.0
 50
90.0
  0
POLYLINE
  5
A31
  8
LAYER01
  6
CONTINUOUS
 62
     7
 66
     1
 10
0.0
 20
0.0
 30
0.0
 70
     1
 40
2.0
 41
2.0
  0
VERTEX
  5
11AC
  8
LAYER01
  6
CONTINUOUS
 62
     7
 10
1911.1300609999989
 20
3737.2348810000012
 30
0.0
  0
VERTEX
  5
11AD
  8
LAYER01
  6
CONTINUOUS
 62
     7
 10
1911.452481
 20
3737.8930220000002
 30
0.0
  0
VERTEX
  5
11AE
  8
LAYER01
  6
CONTINUOUS
 62
     7
 10
1911.725835
 20
3738.5730090000002
 30
0.0
  0
VERTEX
  5
11AF
  8
LAYER01
  6
CONTINUOUS
 62
     7
 10
1911.948652
 20
3739.2711899999999
 30
0.0
  0
VERTEX
  5
11B0
  8
LAYER01
  6
CONTINUOUS
 62
     7
 10
1912.119739
 20
3739.983815
 30
0.0
  0
VERTEX
  5
11B1
  8
LAYER01
  6
CONTINUOUS
 62
     7
 10
1912.2381740000001
 20
3740.7070560000002
 30
0.0
  0
VERTEX
  5
11B2
  8
LAYER01
  6
CONTINUOUS
 62
     7
 10
1912.303322
 20
3741.4370290000002
 30
0.0
  0
VERTEX
  5
11B3
  8
LAYER01
  6
CONTINUOUS
 62
     7
 10
1917.2773050000001
 20
3836.3462730000001
 30
0.0
  0
VERTEX
  5
11B4
  8
LAYER01
  6
CONTINUOUS
 62
     7
 10
1917.3457679999999
 20
3837.1022149999999
 30
0.0
  0
VERTEX
  5
11B5
  8
LAYER01
  6
CONTINUOUS
 62
     7
 10
1917.471372
 20
3837.8507869999999
 30
0.0
  0
VERTEX
  5
11B6
  8
LAYER01
  6
CONTINUOUS
 62
     7
 10
1917.6533919999999
 20
3838.5876750000002
 30
0.0
  0
VERTEX
  5
11B7
  8
LAYER01
  6
CONTINUOUS
 62
     7
 10
1917.8907799999999
 20
3839.308634
 30
0.0
  0
VERTEX
  5
11B8
  8
LAYER01
  6
CONTINUOUS
 62
     7
 10
1918.182168
 20
3840.0095110000002
 30
0.0
  0
VERTEX
  5
11B9
  8
LAYER01
  6
CONTINUOUS
 62
     7
 10
1918.5258779999999
 20
3840.686267
 30
0.0
  0
VERTEX
  5
11BA
  8
LAYER01
  6
CONTINUOUS
 62
     7
 10
1918.9199289999999
 20
3841.3350040000009
 30
0.0
  0
VERTEX
  5
11BB
  8
LAYER01
  6
CONTINUOUS
 62
     7
 10
1919.36205
 20
3841.9519840000012
 30
0.0
  0
VERTEX
  5
11BC
  8
LAYER01
  6
CONTINUOUS
 62
     7
 10
1919.8496950000001
 20
3842.533652000001
 30
0.0
  0
VERTEX
  5
11BD
  8
LAYER01
  6
CONTINUOUS
 62
     7
 10
1920.380054
 20
3843.076657000001
 30
0.0
  0
VERTEX
  5
11BE
  8
LAYER01
  6
CONTINUOUS
 62
     7
 10
1920.9500720000001
 20
3843.577871
 30
0.0
  0
VERTEX
  5
11BF
  8
LAYER01
  6
CONTINUOUS
 62
     7
 10
1921.5564649999999
 20
3844.0344060000002
 30
0.0
  0
VERTEX
  5
11C0
  8
LAYER01
  6
CONTINUOUS
 62
     7
 10
1922.1957379999999
 20
3844.4436310000001
 30
0.0
  0
VERTEX
  5
11C1
  8
LAYER01
  6
CONTINUOUS
 62
     7
 10
1922.8642090000001
 20
3844.8031890000002
 30
0.0
  0
VERTEX
  5
11C2
  8
LAYER01
  6
CONTINUOUS
 62
     7
 10
1923.5580259999999
 20
3845.1110090000002
 30
0.0
  0
VERTEX
  5
11C3
  8
LAYER01
  6
CONTINUOUS
 62
     7
 10
1924.2731920000001
 20
3845.3653169999998
 30
0.0
  0
VERTEX
  5
11C4
  8
LAYER01
  6
CONTINUOUS
 62
     7
 10
1925.005588
 20
3845.5646470000002
 30
0.0
  0
VERTEX
  5
11C5
  8
LAYER01
  6
CONTINUOUS
 62
     7
 10
1925.750992
 20
3845.707852
 30
0.0
  0
VERTEX
  5
11C6
  8
LAYER01
  6
CONTINUOUS
 62
     7
 10
1926.5051109999999
 20
3845.7941070000011
 30
0.0
  0
VERTEX
  5
11C7
  8
LAYER01
  6
CONTINUOUS
 62
     7
 10
1927.2636
 20
3845.8229139999999
 30
0.0
  0
VERTEX
  5
11C8
  8
LAYER01
  6
CONTINUOUS
 62
     7
 10
1930.8745530000001
 20
3845.8229139999999
 30
0.0
  0
VERTEX
  5
11C9
  8
LAYER01
  6
CONTINUOUS
 62
     7
 10
1930.8745530000001
 20
3845.9056030000002
 30
0.0
  0
VERTEX
  5
11CA
  8
LAYER01
  6
CONTINUOUS
 62
     7
 10
1930.8745530000001
 20
3885.8229139999999
 30
0.0
  0
VERTEX
  5
11CB
  8
LAYER01
  6
CONTINUOUS
 62
     7
 10
1942.8745530000001
 20
3885.8229139999999
 30
0.0
  0
VERTEX
  5
11CC
  8
LAYER01
  6
CONTINUOUS
 62
     7
 10
1942.8745530000001
 20
3845.8229139999999
 30
0.0
  0
VERTEX
  5
11CD
  8
LAYER01
  6
CONTINUOUS
 62
     7
 10
1942.8745530000001
 20
3833.8229139999999
 30
0.0
  0
VERTEX
  5
11CE
  8
LAYER01
  6
CONTINUOUS
 62
     7
 10
1928.8745530000001
 20
3833.8229139999999
 30
0.0
  0
VERTEX
  5
11CF
  8
LAYER01
  6
CONTINUOUS
 62
     7
 10
1923.4561880000001
 20
3730.4343410000001
 30
0.0
  0
VERTEX
  5
11D0
  8
LAYER01
  6
CONTINUOUS
 62
     7
 10
1923.3910390000001
 20
3729.7043680000002
 30
0.0
  0
VERTEX
  5
11D1
  8
LAYER01
  6
CONTINUOUS
 62
     7
 10
1923.272604
 20
3728.9811270000009
 30
0.0
  0
VERTEX
  5
11D2
  8
LAYER01
  6
CONTINUOUS
 62
     7
 10
1923.1015179999999
 20
3728.2685020000008
 30
0.0
  0
VERTEX
  5
11D3
  8
LAYER01
  6
CONTINUOUS
 62
     7
 10
1922.8787
 20
3727.5703210000001
 30
0.0
  0
VERTEX
  5
11D4
  8
LAYER01
  6
CONTINUOUS
 62
     7
 10
1922.6053469999999
 20
3726.8903340000002
 30
0.0
  0
VERTEX
  5
11D5
  8
LAYER01
  6
CONTINUOUS
 62
     7
 10
1922.282927
 20
3726.2321929999998
 30
0.0
  0
VERTEX
  5
11D6
  8
LAYER01
  6
CONTINUOUS
 62
     7
 10
1921.913172
 20
3725.599432
 30
0.0
  0
VERTEX
  5
11D7
  8
LAYER01
  6
CONTINUOUS
 62
     7
 10
1921.498067
 20
3724.9954509999998
 30
0.0
  0
VERTEX
  5
11D8
  8
LAYER01
  6
CONTINUOUS
 62
     7
 10
1921.039843
 20
3724.4234940000001
 30
0.0
  0
VERTEX
  5
11D9
  8
LAYER01
  6
CONTINUOUS
 62
     7
 10
1920.54096
 20
3723.8866320000002
 30
0.0
  0
VERTEX
  5
11DA
  8
LAYER01
  6
CONTINUOUS
 62
     7
 10
1920.0040980000001
 20
3723.3877499999999
 30
0.0
  0
VERTEX
  5
11DB
  8
LAYER01
  6
CONTINUOUS
 62
     7
 10
1919.432141
 20
3722.929525
 30
0.0
  0
VERTEX
  5
11DC
  8
LAYER01
  6
CONTINUOUS
 62
     7
 10
1918.82816
 20
3722.5144209999999
 30
0.0
  0
VERTEX
  5
11DD
  8
LAYER01
  6
CONTINUOUS
 62
     7
 10
1918.1954000000001
 20
3722.1446660000001
 30
0.0
  0
VERTEX
  5
11DE
  8
LAYER01
  6
CONTINUOUS
 62
     7
 10
1917.5372589999999
 20
3721.8222460000002
 30
0.0
  0
VERTEX
  5
11DF
  8
LAYER01
  6
CONTINUOUS
 62
     7
 10
1916.857272
 20
3721.5488930000001
 30
0.0
  0
VERTEX
  5
11E0
  8
LAYER01
  6
CONTINUOUS
 62
     7
 10
1916.159091
 20
3721.3260749999999
 30
0.0
  0
VERTEX
  5
11E1
  8
LAYER01
  6
CONTINUOUS
 62
     7
 10
1915.4464660000001
 20
3721.1549879999998
 30
0.0
  0
VERTEX
  5
11E2
  8
LAYER01
  6
CONTINUOUS
 62
     7
 10
1914.723225
 20
3721.0365529999999
 30
0.0
  0
VERTEX
  5
11E3
  8
LAYER01
  6
CONTINUOUS
 62
     7
 10
1913.993252
 20
3720.9714049999998
 30
0.0
  0
VERTEX
  5
11E4
  8
LAYER01
  6
CONTINUOUS
 62
     7
 10
1893.4873950000001
 20
3719.8967380000008
 30
0.0
  0
VERTEX
  5
11E5
  8
LAYER01
  6
CONTINUOUS
 62
     7
 10
1893.109424
 20
3719.8625069999998
 30
0.0
  0
VERTEX
  5
11E6
  8
LAYER01
  6
CONTINUOUS
 62
     7
 10
1892.735138
 20
3719.7997049999999
 30
0.0
  0
VERTEX
  5
11E7
  8
LAYER01
  6
CONTINUOUS
 62
     7
 10
1892.3666940000001
 20
3719.7086950000012
 30
0.0
  0
VERTEX
  5
11E8
  8
LAYER01
  6
CONTINUOUS
 62
     7
 10
1892.006214
 20
3719.590001
 30
0.0
  0
VERTEX
  5
11E9
  8
LAYER01
  6
CONTINUOUS
 62
     7
 10
1891.6557760000001
 20
3719.4443070000011
 30
0.0
  0
VERTEX
  5
11EA
  8
LAYER01
  6
CONTINUOUS
 62
     7
 10
1891.3173979999999
 20
3719.2724520000011
 30
0.0
  0
VERTEX
  5
11EB
  8
LAYER01
  6
CONTINUOUS
 62
     7
 10
1890.993029
 20
3719.0754270000011
 30
0.0
  0
VERTEX
  5
11EC
  8
LAYER01
  6
CONTINUOUS
 62
     7
 10
1890.6845390000001
 20
3718.8543659999991
 30
0.0
  0
VERTEX
  5
11ED
  8
LAYER01
  6
CONTINUOUS
 62
     7
 10
1890.393705
 20
3718.6105429999998
 30
0.0
  0
VERTEX
  5
11EE
  8
LAYER01
  6
CONTINUOUS
 62
     7
 10
1890.1222029999999
 20
3718.3453640000012
 30
0.0
  0
VERTEX
  5
11EF
  8
LAYER01
  6
CONTINUOUS
 62
     7
 10
1889.871596
 20
3718.0603549999992
 30
0.0
  0
VERTEX
  5
11F0
  8
LAYER01
  6
CONTINUOUS
 62
     7
 10
1889.643329
 20
3717.7571590000011
 30
0.0
  0
VERTEX
  5
11F1
  8
LAYER01
  6
CONTINUOUS
 62
     7
 10
1889.4387160000001
 20
3717.4375219999988
 30
0.0
  0
VERTEX
  5
11F2
  8
LAYER01
  6
CONTINUOUS
 62
     7
 10
1889.2589370000001
 20
3717.1032869999999
 30
0.0
  0
VERTEX
  5
11F3
  8
LAYER01
  6
CONTINUOUS
 62
     7
 10
1889.1050270000001
 20
3716.756378
 30
0.0
  0
VERTEX
  5
11F4
  8
LAYER01
  6
CONTINUOUS
 62
     7
 10
1888.977873
 20
3716.398795000001
 30
0.0
  0
VERTEX
  5
11F5
  8
LAYER01
  6
CONTINUOUS
 62
     7
 10
1888.8782080000001
 20
3716.0325969999999
 30
0.0
  0
VERTEX
  5
11F6
  8
LAYER01
  6
CONTINUOUS
 62
     7
 10
1888.806605
 20
3715.6598949999998
 30
0.0
  0
VERTEX
  5
11F7
  8
LAYER01
  6
CONTINUOUS
 62
     7
 10
1888.7634780000001
 20
3715.282835
 30
0.0
  0
VERTEX
  5
11F8
  8
LAYER01
  6
CONTINUOUS
 62
     7
 10
1888.7490749999999
 20
3714.9035910000011
 30
0.0
  0
VERTEX
  5
11F9
  8
LAYER01
  6
CONTINUOUS
 62
     7
 10
1888.7490749999999
 20
3708.6484140000011
 30
0.0
  0
VERTEX
  5
11FA
  8
LAYER01
  6
CONTINUOUS
 62
     7
 10
1868.7490749999999
 20
3708.6484140000011
 30
0.0
  0
VERTEX
  5
11FB
  8
LAYER01
  6
CONTINUOUS
 62
     7
 10
1868.7490749999999
 20
3720.6484139999998
 30
0.0
  0
VERTEX
  5
11FC
  8
LAYER01
  6
CONTINUOUS
 62
     7
 10
1880.8745719999999
 20
3730.8229139999999
 30
0.0
  0
VERTEX
  5
11FD
  8
LAYER01
  6
CONTINUOUS
 62
     7
 10
1902.8403860000001
 20
3731.9740929999998
 30
0.0
  0
VERTEX
  5
11FE
  8
LAYER01
  6
CONTINUOUS
 62
     7
 10
1903.5703590000001
 20
3732.0392420000012
 30
0.0
  0
VERTEX
  5
11FF
  8
LAYER01
  6
CONTINUOUS
 62
     7
 10
1904.2936
 20
3732.1576770000001
 30
0.0
  0
VERTEX
  5
1200
  8
LAYER01
  6
CONTINUOUS
 62
     7
 10
1905.0062250000001
 20
3732.328763
 30
0.0
  0
VERTEX
  5
1201
  8
LAYER01
  6
CONTINUOUS
 62
     7
 10
1905.7044060000001
 20
3732.5515810000011
 30
0.0
  0
VERTEX
  5
1202
  8
LAYER01
  6
CONTINUOUS
 62
     7
 10
1906.384393
 20
3732.8249340000011
 30
0.0
  0
VERTEX
  5
1203
  8
LAYER01
  6
CONTINUOUS
 62
     7
 10
1907.0425339999999
 20
3733.1473540000002
 30
0.0
  0
VERTEX
  5
1204
  8
LAYER01
  6
CONTINUOUS
 62
     7
 10
1907.675295
 20
3733.5171089999999
 30
0.0
  0
VERTEX
  5
1205
  8
LAYER01
  6
CONTINUOUS
 62
     7
 10
1908.279276
 20
3733.9322139999999
 30
0.0
  0
VERTEX
  5
1206
  8
LAYER01
  6
CONTINUOUS
 62
     7
 10
1908.8512330000001
 20
3734.3904380000008
 30
0.0
  0
VERTEX
  5
1207
  8
LAYER01
  6
CONTINUOUS
 62
     7
 10
1909.388095
 20
3734.8893210000001
 30
0.0
  0
VERTEX
  5
1208
  8
LAYER01
  6
CONTINUOUS
 62
     7
 10
1909.8869769999999
 20
3735.426183
 30
0.0
  0
VERTEX
  5
1209
  8
LAYER01
  6
CONTINUOUS
 62
     7
 10
1910.345202
 20
3735.9981399999988
 30
0.0
  0
VERTEX
  5
120A
  8
LAYER01
  6
CONTINUOUS
 62
     7
 10
1910.7603059999999
 20
3736.6021209999999
 30
0.0
  0
SEQEND
  5
120B
  8
LAYER01
  6
CONTINUOUS
 62
     7
  0
LINE
  5
A92
  8
LAYER01
  6
CONTINUOUS
 62
     7
 10
1822.7490749999999
 20
3709.6484139999998
 30
0.0
 11
1868.7490749999999
 21
3709.6484139999998
 31
0.0
  0
LINE
  5
A93
  8
LAYER01
  6
CONTINUOUS
 62
     7
 10
1822.7490749999999
 20
3707.6484140000011
 30
0.0
 11
1868.7490749999999
 21
3707.6484140000011
 31
0.0
  0
LINE
  5
A94
  8
LAYER01
  6
CONTINUOUS
 62
     7
 10
1822.7490749999999
 20
3709.6484139999998
 30
0.0
 11
1822.7490749999999
 21
3707.6484140000011
 31
0.0
  0
LINE
  5
A95
  8
LAYER01
  6
CONTINUOUS
 62
     7
 10
1868.7490749999999
 20
3709.6484139999998
 30
0.0
 11
1868.7490749999999
 21
3707.6484140000011
 31
0.0
  0
SOLID
  5
A96
  8
LAYER01
  6
CONTINUOUS
 62
     7
 10
1822.7490749999999
 20
3709.6484139999998
 30
0.0
 11
1868.7490749999999
 21
3709.6484139999998
 31
0.0
 12
1822.7490749999999
 22
3707.6484140000011
 32
0.0
 13
1868.7490749999999
 23
3707.6484140000011
 33
0.0
  0
LINE
  5
A97
  8
LAYER01
  6
CONTINUOUS
 62
     7
 10
1822.7490749999999
 20
3721.6484140000011
 30
0.0
 11
1868.7490749999999
 21
3721.6484140000011
 31
0.0
  0
LINE
  5
A98
  8
LAYER01
  6
CONTINUOUS
 62
     7
 10
1822.7490749999999
 20
3719.6484139999998
 30
0.0
 11
1868.7490749999999
 21
3719.6484139999998
 31
0.0
  0
LINE
  5
A99
  8
LAYER01
  6
CONTINUOUS
 62
     7
 10
1822.7490749999999
 20
3721.6484140000011
 30
0.0
 11
1822.7490749999999
 21
3719.6484139999998
 31
0.0
  0
LINE
  5
A9A
  8
LAYER01
  6
CONTINUOUS
 62
     7
 10
1868.7490749999999
 20
3721.6484140000011
 30
0.0
 11
1868.7490749999999
 21
3719.6484139999998
 31
0.0
  0
SOLID
  5
A9B
  8
LAYER01
  6
CONTINUOUS
 62
     7
 10
1822.7490749999999
 20
3721.6484140000011
 30
0.0
 11
1868.7490749999999
 21
3721.6484140000011
 31
0.0
 12
1822.7490749999999
 22
3719.6484139999998
 32
0.0
 13
1868.7490749999999
 23
3719.6484139999998
 33
0.0
  0
TEXT
  5
A9C
  8
LAYER01
  6
VERDECKT
 62
     1
 10
2804.146796
 20
2718.0792240000001
 30
0.0
 40
25.0
  1
A. Sprenger GmbH
  7
SIMPLEX
  0
TEXT
  5
A9D
  8
LAYER01
  6
CONTINUOUS
 62
     7
 10
2796.0366399999998
 20
2872.9008920000001
 30
0.0
 40
7.5
  1
Diese Zeichnung ist geistiges Eigentum der A. Sprenger GmbH
  7
SIMPLEX
  0
TEXT
  5
A9E
  8
LAYER01
  6
CONTINUOUS
 62
     7
 10
2796.0366399999998
 20
2860.0437489999999
 30
0.0
 40
7.5
  1
und urheberrechtlich geschützt. Ohne unsere Zustimmung darf 
  7
SIMPLEX
  0
TEXT
  5
A9F
  8
LAYER01
  6
CONTINUOUS
 62
     7
 10
2796.0366399999998
 20
2847.1866070000001
 30
0.0
 40
7.5
  1
sie in keiner Form verwendet oder Dritten zugänglich gemacht
  7
SIMPLEX
  0
TEXT
  5
AA0
  8
LAYER01
  6
CONTINUOUS
 62
     7
 10
2796.0366399999998
 20
2834.3294639999999
 30
0.0
 40
7.5
  1
werden. (§106 Urheberrecht)
  7
SIMPLEX
  0
TEXT
  5
AA1
  8
LAYER01
  6
VERDECKT
 62
     1
 10
2804.146796
 20
2619.8963399999998
 30
0.0
 40
35.0
  1
Nizza (rechts)
  7
SIMPLEX
  0
TEXT
  5
AA2
  8
LAYER01
  6
VERDECKT
 62
     1
 10
2668.63789
 20
2660.157889000001
 30
0.0
 40
10.0
  1
b.s.
  7
SIMPLEX
  0
TEXT
  5
AA3
  8
LAYER01
  6
VERDECKT
 62
     1
 10
2572.4807329999999
 20
2660.194426
 30
0.0
 40
10.0
  1
15.4.2021
  7
SIMPLEX
  0
TEXT
  5
AA4
  8
LAYER01
  6
VERDECKT
 62
     1
 10
2870.0905240000002
 20
2782.5575349999999
 30
0.0
 40
10.0
  1
1 : 10 (DIN A3)
  7
SIMPLEX
  0
TEXT
  5
AA5
  8
LAYER01
  6
VERDECKT
 62
     1
 10
3127.8191179999999
 20
2782.5575349999999
 30
0.0
 40
10.0
  1
xxx.skd
  7
SIMPLEX
  0
ENDSEC
  0
EOF