  0
SECTION
  2
HEADER
  9
$ACADVER
  1
AC1009
  9
$INSBASE
 10
0.0
 20
0.0
 30
0.0
  9
$EXTMIN
 10
-1492.3650809999999
 20
-1402.607716
 30
0.0
  9
$EXTMAX
 10
2480.453164
 20
1331.469873
 30
0.0
  9
$LIMMIN
 10
-1609.220632
 20
-1525.9953149999999
  9
$LIMMAX
 10
2590.779368
 20
1444.0046850000001
  9
$ORTHOMODE
 70
     1
  9
$REGENMODE
 70
     1
  9
$FILLMODE
 70
     1
  9
$QTEXTMODE
 70
     0
  9
$MIRRTEXT
 70
     0
  9
$DRAGMODE
 70
     2
  9
$LTSCALE
 40
60.0
  9
$OSMODE
 70
    39
  9
$ATTMODE
 70
     1
  9
$TEXTSIZE
 40
0.0
  9
$TRACEWID
 40
0.05
  9
$TEXTSTYLE
  7
STANDARD
  9
$CLAYER
  8
LAYER01
  9
$CELTYPE
  6
VERDECKT
  9
$CECOLOR
 62
     7
  9
$DIMSCALE
 40
1.0
  9
$DIMASZ
 40
0.18
  9
$DIMEXO
 40
0.0625
  9
$DIMDLI
 40
0.38
  9
$DIMRND
 40
0.0
  9
$DIMDLE
 40
0.0
  9
$DIMEXE
 40
0.18
  9
$DIMTP
 40
0.0
  9
$DIMTM
 40
0.0
  9
$DIMTXT
 40
0.18
  9
$DIMCEN
 40
0.09
  9
$DIMTSZ
 40
0.0
  9
$DIMTOL
 70
     0
  9
$DIMLIM
 70
     0
  9
$DIMTIH
 70
     1
  9
$DIMTOH
 70
     1
  9
$DIMSE1
 70
     0
  9
$DIMSE2
 70
     0
  9
$DIMTAD
 70
     0
  9
$DIMZIN
 70
     0
  9
$DIMBLK
  1

  9
$DIMASO
 70
     1
  9
$DIMSHO
 70
     1
  9
$DIMPOST
  1

  9
$DIMAPOST
  1

  9
$DIMALT
 70
     0
  9
$DIMALTD
 70
     2
  9
$DIMALTF
 40
25.399999999999999
  9
$DIMLFAC
 40
1.0
  9
$DIMTOFL
 70
     0
  9
$DIMTVP
 40
0.0
  9
$DIMTIX
 70
     0
  9
$DIMSOXD
 70
     0
  9
$DIMSAH
 70
     0
  9
$DIMBLK1
  1

  9
$DIMBLK2
  1

  9
$DIMSTYLE
  2
STANDARD
  9
$DIMCLRD
 70
     0
  9
$DIMCLRE
 70
     0
  9
$DIMCLRT
 70
     0
  9
$DIMTFAC
 40
1.0
  9
$DIMGAP
 40
0.09
  9
$LUNITS
 70
     2
  9
$LUPREC
 70
     4
  9
$SKETCHINC
 40
0.1
  9
$FILLETRAD
 40
10.0
  9
$AUNITS
 70
     0
  9
$AUPREC
 70
     0
  9
$MENU
  1
acad
  9
$ELEVATION
 40
0.0
  9
$PELEVATION
 40
0.0
  9
$THICKNESS
 40
0.0
  9
$LIMCHECK
 70
     0
  9
$BLIPMODE
 70
     0
  9
$CHAMFERA
 40
0.0
  9
$CHAMFERB
 40
0.0
  9
$SKPOLY
 70
     0
  9
$TDCREATE
 40
2305814.0418533799
  9
$TDUPDATE
 40
2457078.450881077
  9
$TDINDWG
 40
0.0019145718
  9
$TDUSRTIMER
 40
0.0019145486
  9
$USRTIMER
 70
     1
  9
$ANGBASE
 50
0.0
  9
$ANGDIR
 70
     0
  9
$PDMODE
 70
     0
  9
$PDSIZE
 40
0.0
  9
$PLINEWID
 40
0.0
  9
$COORDS
 70
     1
  9
$SPLFRAME
 70
     0
  9
$SPLINETYPE
 70
     6
  9
$SPLINESEGS
 70
    10
  9
$ATTDIA
 70
     0
  9
$ATTREQ
 70
     1
  9
$HANDLING
 70
     1
  9
$HANDSEED
  5
94F
  9
$SURFTAB1
 70
     6
  9
$SURFTAB2
 70
     6
  9
$SURFTYPE
 70
     6
  9
$SURFU
 70
     6
  9
$SURFV
 70
     6
  9
$UCSNAME
  2

  9
$UCSORG
 10
0.0
 20
0.0
 30
0.0
  9
$UCSXDIR
 10
1.0
 20
0.0
 30
0.0
  9
$UCSYDIR
 10
0.0
 20
1.0
 30
0.0
  9
$PUCSNAME
  2

  9
$PUCSORG
 10
0.0
 20
0.0
 30
0.0
  9
$PUCSXDIR
 10
1.0
 20
0.0
 30
0.0
  9
$PUCSYDIR
 10
0.0
 20
1.0
 30
0.0
  9
$USERI1
 70
     0
  9
$USERI2
 70
     0
  9
$USERI3
 70
     0
  9
$USERI4
 70
     0
  9
$USERI5
 70
     0
  9
$USERR1
 40
0.0
  9
$USERR2
 40
0.0
  9
$USERR3
 40
0.0
  9
$USERR4
 40
0.0
  9
$USERR5
 40
0.0
  9
$WORLDVIEW
 70
     1
  9
$SHADEDGE
 70
     3
  9
$SHADEDIF
 70
    70
  9
$TILEMODE
 70
     1
  9
$MAXACTVP
 70
    64
  9
$PLIMCHECK
 70
     0
  9
$PEXTMIN
 10
1.0000000000000000E+020
 20
1.0000000000000000E+020
 30
1.0000000000000000E+020
  9
$PEXTMAX
 10
-1.0000000000000000E+020
 20
-1.0000000000000000E+020
 30
-1.0000000000000000E+020
  9
$PLIMMIN
 10
0.0
 20
0.0
  9
$PLIMMAX
 10
12.0
 20
9.0
  9
$UNITMODE
 70
     0
  9
$VISRETAIN
 70
     1
  9
$PLINEGEN
 70
     0
  9
$PSLTSCALE
 70
     1
  0
ENDSEC
  0
SECTION
  2
TABLES
  0
TABLE
  2
VPORT
 70
     1
  0
VPORT
  2
*ACTIVE
 70
     0
 10
0.0
 20
0.0
 11
1.0
 21
1.0
 12
490.77936799999969
 22
-40.995315000000112
 13
0.0
 23
0.0
 14
1.0
 24
1.0
 15
0.0
 25
0.0
 16
0.0
 26
0.0
 36
1.0
 17
0.0
 27
0.0
 37
0.0
 40
2989.369565217391
 41
1.4396082698585411
 42
50.0
 43
0.0
 44
0.0
 50
0.0
 51
0.0
 71
     0
 72
   100
 73
     1
 74
     1
 75
     0
 76
     0
 77
     0
 78
     0
  0
ENDTAB
  0
TABLE
  2
LTYPE
 70
    11
  0
LTYPE
  2
CONTINUOUS
 70
     0
  3
Solid line
 72
    65
 73
     0
 40
0.0
  0
LTYPE
  2
VERDECKT
 70
     0
  3
_ _ _ _ _ _ _ _ _ _ _ _ _ _ _ _ _ _ _ _ _ _ 
 72
    65
 73
     2
 40
0.25
 49
0.125
 49
-0.125
  0
LTYPE
  2
GESTRICHELT
 70
     0
  3
__ __ __ __ __ __ __ __ __ __ __ __ __ __ __
 72
    65
 73
     2
 40
0.75
 49
0.5
 49
-0.25
  0
LTYPE
  2
MITTELLINIE
 70
     0
  3
____ _ ____ _ ____ _ ____ _ ____ _ ____ _ __
 72
    65
 73
     4
 40
2.0
 49
1.25
 49
-0.25
 49
0.25
 49
-0.25
  0
LTYPE
  2
PHANTOM
 70
     0
  3
_____ _ _ _____ _ _ _____ _ _ _____ _ _ ____
 72
    65
 73
     6
 40
2.5
 49
1.25
 49
-0.25
 49
0.25
 49
-0.25
 49
0.25
 49
-0.25
  0
LTYPE
  2
PUNKTIERT
 70
     0
  3
............................................
 72
    65
 73
     2
 40
0.25
 49
0.0
 49
-0.25
  0
LTYPE
  2
STRICHPUNKTIERT
 70
     0
  3
__ . __ . __ . __ . __ . __ . __ . __ . __ .
 72
    65
 73
     4
 40
1.0
 49
0.5
 49
-0.25
 49
0.0
 49
-0.25
  0
LTYPE
  2
RAND
 70
     0
  3
__ __ . __ __ . __ __ . __ __ . __ __ . __ _
 72
    65
 73
     6
 40
1.75
 49
0.5
 49
-0.25
 49
0.5
 49
-0.25
 49
0.0
 49
-0.25
  0
LTYPE
  2
TRENNLINIE
 70
     0
  3
__ . . __ . . __ . . __ . . __ . . __ . . __
 72
    65
 73
     6
 40
1.25
 49
0.5
 49
-0.25
 49
0.0
 49
-0.25
 49
0.0
 49
-0.25
  0
LTYPE
  2
ENG_PUNKTIERT
 70
     0
  3
Schließen                                   
 72
    65
 73
     2
 40
0.1
 49
0.05
 49
-0.05
  0
LTYPE
  2
CLOSE
 70
     0
  3
                                            
 72
    65
 73
     0
 40
0.0
  0
ENDTAB
  0
TABLE
  2
LAYER
 70
   255
  0
LAYER
  2
0
 70
     0
 62
     7
  6
CONTINUOUS
  0
LAYER
  2
LAYER01
 70
     0
 62
     7
  6
CONTINUOUS
  0
LAYER
  2
LAYER02
 70
     0
 62
     7
  6
CONTINUOUS
  0
LAYER
  2
LAYER03
 70
     0
 62
     7
  6
CONTINUOUS
  0
LAYER
  2
LAYER04
 70
     0
 62
     7
  6
CONTINUOUS
  0
LAYER
  2
LAYER05
 70
     0
 62
     7
  6
CONTINUOUS
  0
LAYER
  2
LAYER06
 70
     0
 62
     7
  6
CONTINUOUS
  0
LAYER
  2
LAYER07
 70
     0
 62
     7
  6
CONTINUOUS
  0
LAYER
  2
LAYER08
 70
     0
 62
     7
  6
CONTINUOUS
  0
LAYER
  2
LAYER09
 70
     0
 62
     7
  6
CONTINUOUS
  0
LAYER
  2
LAYER10
 70
     0
 62
     7
  6
CONTINUOUS
  0
LAYER
  2
2
 70
     0
 62
     7
  6
CONTINUOUS
  0
LAYER
  2
5
 70
     0
 62
     7
  6
CONTINUOUS
  0
LAYER
  2
RAUMAUFM
 70
     0
 62
     7
  6
CONTINUOUS
  0
LAYER
  2
EINRICHT
 70
     0
 62
     7
  6
CONTINUOUS
  0
LAYER
  2
HILFE
 70
     0
 62
     7
  6
CONTINUOUS
  0
LAYER
  2
SCHNITTE
 70
     0
 62
     7
  6
CONTINUOUS
  0
LAYER
  2
SCHRAFF1
 70
     0
 62
     7
  6
CONTINUOUS
  0
LAYER
  2
SCHRAFF2
 70
     0
 62
     7
  6
CONTINUOUS
  0
LAYER
  2
BEMASS-1
 70
     0
 62
     7
  6
CONTINUOUS
  0
LAYER
  2
BEMASS-2
 70
     0
 62
     7
  6
CONTINUOUS
  0
LAYER
  2
TEXT
 70
     0
 62
     7
  6
CONTINUOUS
  0
LAYER
  2
SYMBOLE
 70
     0
 62
     7
  6
CONTINUOUS
  0
LAYER
  2
RAHMEN
 70
     0
 62
     7
  6
CONTINUOUS
  0
LAYER
  2
SCHRIFTF
 70
     0
 62
     7
  6
CONTINUOUS
  0
LAYER
  2
ACHSEN
 70
     0
 62
     7
  6
CONTINUOUS
  0
LAYER
  2
ZEICHN
 70
     0
 62
     7
  6
CONTINUOUS
  0
LAYER
  2
7
 70
     0
 62
     7
  6
CONTINUOUS
  0
LAYER
  2
1
 70
     0
 62
     7
  6
CONTINUOUS
  0
LAYER
  2
6
 70
     0
 62
     7
  6
CONTINUOUS
  0
LAYER
  2
4
 70
     0
 62
     7
  6
CONTINUOUS
  0
LAYER
  2
GRUNDEBENE
 70
     0
 62
     7
  6
CONTINUOUS
  0
LAYER
  2
GRUNDRISS
 70
     0
 62
     7
  6
CONTINUOUS
  0
LAYER
  2
BEMASSUNGGRUNDRISS
 70
     0
 62
     7
  6
CONTINUOUS
  0
LAYER
  2
WANDELEMENTE
 70
     0
 62
     7
  6
CONTINUOUS
  0
LAYER
  2
KUECHE
 70
     0
 62
     7
  6
CONTINUOUS
  0
LAYER
  2
THEKEBROETCHEN
 70
     0
 62
     7
  6
CONTINUOUS
  0
LAYER
  2
CENTERLINIE
 70
     0
 62
     7
  6
CONTINUOUS
  0
LAYER
  2
UMRISSE
 70
     0
 62
     7
  6
CONTINUOUS
  0
LAYER
  2
MAUER
 70
     0
 62
     7
  6
CONTINUOUS
  0
LAYER
  2
SCHRAFFUR
 70
     0
 62
     7
  6
CONTINUOUS
  0
LAYER
  2
MASSLINIE
 70
     0
 62
     7
  6
CONTINUOUS
  0
LAYER
  2
PV
 70
     0
 62
     7
  6
CONTINUOUS
  0
LAYER
  2
BESCHRIFTUNG
 70
     0
 62
     7
  6
CONTINUOUS
  0
LAYER
  2
AS
 70
     0
 62
     7
  6
CONTINUOUS
  0
LAYER
  2
PL
 70
     0
 62
     7
  6
CONTINUOUS
  0
LAYER
  2
UK
 70
     0
 62
     7
  6
CONTINUOUS
  0
LAYER
  2
TEXT3
 70
     0
 62
     7
  6
CONTINUOUS
  0
LAYER
  2
TEXT7
 70
     0
 62
     7
  6
CONTINUOUS
  0
LAYER
  2
BEPL1
 70
     0
 62
     7
  6
CONTINUOUS
  0
LAYER
  2
BEPL2
 70
     0
 62
     7
  6
CONTINUOUS
  0
LAYER
  2
BEPL2V
 70
     0
 62
     7
  6
CONTINUOUS
  0
LAYER
  2
BEPL4
 70
     0
 62
     7
  6
CONTINUOUS
  0
LAYER
  2
BEPL
 70
     0
 62
     7
  6
CONTINUOUS
  0
LAYER
  2
UK1
 70
     0
 62
     7
  6
CONTINUOUS
  0
LAYER
  2
UK2
 70
     0
 62
     7
  6
CONTINUOUS
  0
LAYER
  2
UK2V
 70
     0
 62
     7
  6
CONTINUOUS
  0
LAYER
  2
UK3
 70
     0
 62
     7
  6
CONTINUOUS
  0
LAYER
  2
TEXT2
 70
     0
 62
     7
  6
CONTINUOUS
  0
LAYER
  2
HILF2S
 70
     0
 62
     7
  6
CONTINUOUS
  0
LAYER
  2
UK1V
 70
     0
 62
     7
  6
CONTINUOUS
  0
LAYER
  2
GAIN_ZRA
 70
     0
 62
     7
  6
CONTINUOUS
  0
LAYER
  2
GAIN_ZSF
 70
     0
 62
     7
  6
CONTINUOUS
  0
LAYER
  2
RAHM4
 70
     0
 62
     7
  6
CONTINUOUS
  0
LAYER
  2
KORPUSBAND
 70
     0
 62
     7
  6
CONTINUOUS
  0
LAYER
  2
E---LGPL--------
 70
     0
 62
     7
  6
CONTINUOUS
  0
LAYER
  2
E---NPFL--------
 70
     0
 62
     7
  6
CONTINUOUS
  0
LAYER
  2
E---PLNKTXT-----
 70
     0
 62
     7
  6
CONTINUOUS
  0
LAYER
  2
E---PLNK--------
 70
     0
 62
     7
  6
CONTINUOUS
  0
LAYER
  2
E---PLNR--------
 70
     0
 62
     7
  6
CONTINUOUS
  0
LAYER
  2
D547_ARCHICAD
 70
     0
 62
     7
  6
CONTINUOUS
  0
LAYER
  2
D547_E---TEXT--------
 70
     0
 62
     7
  6
CONTINUOUS
  0
LAYER
  2
E---LEGD--------
 70
     0
 62
     7
  6
CONTINUOUS
  0
LAYER
  2
D43_ARCHICAD
 70
     0
 62
     7
  6
CONTINUOUS
  0
LAYER
  2
D43_FENSTER_VON_B---FASS--
 70
     0
 62
     7
  6
CONTINUOUS
  0
LAYER
  2
D43_E---SCHN--------
 70
     0
 62
     7
  6
CONTINUOUS
  0
LAYER
  2
D43_B---MW-N--------
 70
     0
 62
     7
  6
CONTINUOUS
  0
LAYER
  2
D43_B---DECK--------
 70
     0
 62
     7
  6
CONTINUOUS
  0
LAYER
  2
D43_B---MW-S--------
 70
     0
 62
     7
  6
CONTINUOUS
  0
LAYER
  2
D43_B---MW----------
 70
     0
 62
     7
  6
CONTINUOUS
  0
LAYER
  2
D43_B---FASS--------
 70
     0
 62
     7
  6
CONTINUOUS
  0
LAYER
  2
D43_E---RASG--------
 70
     0
 62
     7
  6
CONTINUOUS
  0
LAYER
  2
D40_ARCHICAD
 70
     0
 62
     7
  6
CONTINUOUS
  0
LAYER
  2
D40_E---MW--------
 70
     0
 62
     7
  6
CONTINUOUS
  0
LAYER
  2
D40_E---FASSKON-----
 70
     0
 62
     7
  6
CONTINUOUS
  0
LAYER
  2
D40_TÜREN_VON_B---MW-N----
 70
     0
 62
     7
  6
CONTINUOUS
  0
LAYER
  2
D40_E---MW-L------
 70
     0
 62
     7
  6
CONTINUOUS
  0
LAYER
  2
D40_TÜREN_VON_B---MW------
 70
     0
 62
     7
  6
CONTINUOUS
  0
LAYER
  2
D40_E---VERM--------
 70
     0
 62
     7
  6
CONTINUOUS
  0
LAYER
  2
D40_FENSTER_VON_E---MW-L--
 70
     0
 62
     7
  6
CONTINUOUS
  0
LAYER
  2
D40_FENSTER_VON_B---MW-N--
 70
     0
 62
     7
  6
CONTINUOUS
  0
LAYER
  2
D40_E---SCHN--------
 70
     0
 62
     7
  6
CONTINUOUS
  0
LAYER
  2
D40_E---AUFZ--------
 70
     0
 62
     7
  6
CONTINUOUS
  0
LAYER
  2
D40_E---DECK--------
 70
     0
 62
     7
  6
CONTINUOUS
  0
LAYER
  2
D40_E---RAUMINF-----
 70
     0
 62
     7
  6
CONTINUOUS
  0
LAYER
  2
D40_E---TEXT--------
 70
     0
 62
     7
  6
CONTINUOUS
  0
LAYER
  2
D40_B---TEXT--------
 70
     0
 62
     7
  6
CONTINUOUS
  0
LAYER
  2
D40_B---MW-N--------
 70
     0
 62
     7
  6
CONTINUOUS
  0
LAYER
  2
D40_B---DECK--------
 70
     0
 62
     7
  6
CONTINUOUS
  0
LAYER
  2
D40_B---AUFZ--------
 70
     0
 62
     7
  6
CONTINUOUS
  0
LAYER
  2
D40_B---MW-S--------
 70
     0
 62
     7
  6
CONTINUOUS
  0
LAYER
  2
D40_B---MW----------
 70
     0
 62
     7
  6
CONTINUOUS
  0
LAYER
  2
D40_E---MOEB--------
 70
     0
 62
     7
  6
CONTINUOUS
  0
LAYER
  2
D40_B---UMGB--------
 70
     0
 62
     7
  6
CONTINUOUS
  0
LAYER
  2
D40_B---FASS--------
 70
     0
 62
     7
  6
CONTINUOUS
  0
LAYER
  2
D40_E---DACH--------
 70
     0
 62
     7
  6
CONTINUOUS
  0
LAYER
  2
D40_E---BODE--------
 70
     0
 62
     7
  6
CONTINUOUS
  0
LAYER
  2
D40_E---TREP--------
 70
     0
 62
     7
  6
CONTINUOUS
  0
LAYER
  2
D40_E---RASG--------
 70
     0
 62
     7
  6
CONTINUOUS
  0
LAYER
  2
D40_B---MW-K--------
 70
     0
 62
     7
  6
CONTINUOUS
  0
LAYER
  2
D40_E---FASSGLA-----
 70
     0
 62
     7
  6
CONTINUOUS
  0
LAYER
  2
D40_B---VERM--------
 70
     0
 62
     7
  6
CONTINUOUS
  0
LAYER
  2
D40_E---UMGBGSG-----
 70
     0
 62
     7
  6
CONTINUOUS
  0
LAYER
  2
D40_E---RASF--------
 70
     0
 62
     7
  6
CONTINUOUS
  0
LAYER
  2
D40_E---PFLA--------
 70
     0
 62
     7
  6
CONTINUOUS
  0
LAYER
  2
D40_E---KONS-ST-----
 70
     0
 62
     7
  6
CONTINUOUS
  0
LAYER
  2
D40_E---WERB--------
 70
     0
 62
     7
  6
CONTINUOUS
  0
LAYER
  2
D40_E---TUERINF-----
 70
     0
 62
     7
  6
CONTINUOUS
  0
LAYER
  2
D40_E---WOLK--------
 70
     0
 62
     7
  6
CONTINUOUS
  0
LAYER
  2
D40_B---MW-L--------
 70
     0
 62
     7
  6
CONTINUOUS
  0
LAYER
  2
D40_B---SANI--------
 70
     0
 62
     7
  6
CONTINUOUS
  0
LAYER
  2
D40_E---SANI--------
 70
     0
 62
     7
  6
CONTINUOUS
  0
LAYER
  2
D40_E---MW-K------
 70
     0
 62
     7
  6
CONTINUOUS
  0
LAYER
  2
D40_E---OBJE--------
 70
     0
 62
     7
  6
CONTINUOUS
  0
LAYER
  2
D40_E---ASPR--------
 70
     0
 62
     7
  6
CONTINUOUS
  0
LAYER
  2
D40_E---VERMTGA-----
 70
     0
 62
     7
  6
CONTINUOUS
  0
LAYER
  2
D40_E---PARK--------
 70
     0
 62
     7
  6
CONTINUOUS
  0
LAYER
  2
D40_E---ISOL--------
 70
     0
 62
     7
  6
CONTINUOUS
  0
LAYER
  2
D40_E---TUER--------
 70
     0
 62
     7
  6
CONTINUOUS
  0
LAYER
  2
D40_E---MW--BRA---
 70
     0
 62
     7
  6
CONTINUOUS
  0
LAYER
  2
D41_ARCHICAD
 70
     0
 62
     7
  6
CONTINUOUS
  0
LAYER
  2
D41_E---MW--------
 70
     0
 62
     7
  6
CONTINUOUS
  0
LAYER
  2
D41_E---FASSKON-----
 70
     0
 62
     7
  6
CONTINUOUS
  0
LAYER
  2
D41_TÜREN_VON_B---MW-N----
 70
     0
 62
     7
  6
CONTINUOUS
  0
LAYER
  2
D41_E---MW-L------
 70
     0
 62
     7
  6
CONTINUOUS
  0
LAYER
  2
D41_TÜREN_VON_B---MW------
 70
     0
 62
     7
  6
CONTINUOUS
  0
LAYER
  2
D41_E---VERM--------
 70
     0
 62
     7
  6
CONTINUOUS
  0
LAYER
  2
D41_FENSTER_VON_E---MW-L--
 70
     0
 62
     7
  6
CONTINUOUS
  0
LAYER
  2
D41_FENSTER_VON_B---MW-N--
 70
     0
 62
     7
  6
CONTINUOUS
  0
LAYER
  2
D41_E---SCHN--------
 70
     0
 62
     7
  6
CONTINUOUS
  0
LAYER
  2
D41_E---AUFZ--------
 70
     0
 62
     7
  6
CONTINUOUS
  0
LAYER
  2
D41_E---DECK--------
 70
     0
 62
     7
  6
CONTINUOUS
  0
LAYER
  2
D41_E---RAUMINF-----
 70
     0
 62
     7
  6
CONTINUOUS
  0
LAYER
  2
D41_E---TEXT--------
 70
     0
 62
     7
  6
CONTINUOUS
  0
LAYER
  2
D41_B---TEXT--------
 70
     0
 62
     7
  6
CONTINUOUS
  0
LAYER
  2
D41_B---MW-N--------
 70
     0
 62
     7
  6
CONTINUOUS
  0
LAYER
  2
D41_B---DECK--------
 70
     0
 62
     7
  6
CONTINUOUS
  0
LAYER
  2
D41_B---AUFZ--------
 70
     0
 62
     7
  6
CONTINUOUS
  0
LAYER
  2
D41_B---MW-S--------
 70
     0
 62
     7
  6
CONTINUOUS
  0
LAYER
  2
D41_B---MW----------
 70
     0
 62
     7
  6
CONTINUOUS
  0
LAYER
  2
D41_E---MOEB--------
 70
     0
 62
     7
  6
CONTINUOUS
  0
LAYER
  2
D41_B---UMGB--------
 70
     0
 62
     7
  6
CONTINUOUS
  0
LAYER
  2
D41_B---FASS--------
 70
     0
 62
     7
  6
CONTINUOUS
  0
LAYER
  2
D41_E---DACH--------
 70
     0
 62
     7
  6
CONTINUOUS
  0
LAYER
  2
D41_E---BODE--------
 70
     0
 62
     7
  6
CONTINUOUS
  0
LAYER
  2
D41_E---TREP--------
 70
     0
 62
     7
  6
CONTINUOUS
  0
LAYER
  2
D41_E---RASG--------
 70
     0
 62
     7
  6
CONTINUOUS
  0
LAYER
  2
D41_B---MW-K--------
 70
     0
 62
     7
  6
CONTINUOUS
  0
LAYER
  2
D41_E---FASSGLA-----
 70
     0
 62
     7
  6
CONTINUOUS
  0
LAYER
  2
D41_B---VERM--------
 70
     0
 62
     7
  6
CONTINUOUS
  0
LAYER
  2
D41_E---UMGBGSG-----
 70
     0
 62
     7
  6
CONTINUOUS
  0
LAYER
  2
D41_E---RASF--------
 70
     0
 62
     7
  6
CONTINUOUS
  0
LAYER
  2
D41_E---PFLA--------
 70
     0
 62
     7
  6
CONTINUOUS
  0
LAYER
  2
D41_E---KONS-ST-----
 70
     0
 62
     7
  6
CONTINUOUS
  0
LAYER
  2
D41_E---WERB--------
 70
     0
 62
     7
  6
CONTINUOUS
  0
LAYER
  2
D41_E---TUERINF-----
 70
     0
 62
     7
  6
CONTINUOUS
  0
LAYER
  2
D41_E---WOLK--------
 70
     0
 62
     7
  6
CONTINUOUS
  0
LAYER
  2
D41_B---MW-L--------
 70
     0
 62
     7
  6
CONTINUOUS
  0
LAYER
  2
D41_B---SANI--------
 70
     0
 62
     7
  6
CONTINUOUS
  0
LAYER
  2
D41_E---SANI--------
 70
     0
 62
     7
  6
CONTINUOUS
  0
LAYER
  2
D41_E---MW-K------
 70
     0
 62
     7
  6
CONTINUOUS
  0
LAYER
  2
D41_E---OBJE--------
 70
     0
 62
     7
  6
CONTINUOUS
  0
LAYER
  2
D41_E---ASPR--------
 70
     0
 62
     7
  6
CONTINUOUS
  0
LAYER
  2
D41_E---VERMTGA-----
 70
     0
 62
     7
  6
CONTINUOUS
  0
LAYER
  2
D41_E---PARK--------
 70
     0
 62
     7
  6
CONTINUOUS
  0
LAYER
  2
D41_E---ISOL--------
 70
     0
 62
     7
  6
CONTINUOUS
  0
LAYER
  2
D41_E---TUER--------
 70
     0
 62
     7
  6
CONTINUOUS
  0
LAYER
  2
D41_E---MW--BRA---
 70
     0
 62
     7
  6
CONTINUOUS
  0
LAYER
  2
D42_ARCHICAD
 70
     0
 62
     7
  6
CONTINUOUS
  0
LAYER
  2
D42_FENSTER_VON_B---FASS--
 70
     0
 62
     7
  6
CONTINUOUS
  0
LAYER
  2
D42_E---SCHN--------
 70
     0
 62
     7
  6
CONTINUOUS
  0
LAYER
  2
D42_B---MW-N--------
 70
     0
 62
     7
  6
CONTINUOUS
  0
LAYER
  2
D42_B---DECK--------
 70
     0
 62
     7
  6
CONTINUOUS
  0
LAYER
  2
D42_B---MW-S--------
 70
     0
 62
     7
  6
CONTINUOUS
  0
LAYER
  2
D42_B---MW----------
 70
     0
 62
     7
  6
CONTINUOUS
  0
LAYER
  2
D42_B---FASS--------
 70
     0
 62
     7
  6
CONTINUOUS
  0
LAYER
  2
D42_E---RASG--------
 70
     0
 62
     7
  6
CONTINUOUS
  0
LAYER
  2
CONSTRUCTION_CLASS
 70
     0
 62
     7
  6
CONTINUOUS
  0
LAYER
  2
PATTERN_CLASS
 70
     0
 62
     7
  6
CONTINUOUS
  0
LAYER
  2
KONSTRUKTION
 70
     0
 62
     7
  6
CONTINUOUS
  0
LAYER
  2
BEMAßUNG
 70
     0
 62
     7
  6
CONTINUOUS
  0
LAYER
  2
HILFSGEOMETRIE
 70
     0
 62
     7
  6
CONTINUOUS
  0
LAYER
  2
UNSICHTBAR
 70
     0
 62
     7
  6
CONTINUOUS
  0
LAYER
  2
LOGO
 70
     0
 62
     7
  6
CONTINUOUS
  0
LAYER
  2
VERWALTUNG
 70
     0
 62
     7
  6
CONTINUOUS
  0
LAYER
  2
UNSICHTBARE_GEWINDE
 70
     0
 62
     7
  6
CONTINUOUS
  0
LAYER
  2
SICHTBARE_GEWINDE
 70
     0
 62
     7
  6
CONTINUOUS
  0
LAYER
  2
DEFPOINTS
 70
     0
 62
     7
  6
CONTINUOUS
  0
LAYER
  2
THICK
 70
     0
 62
     7
  6
CONTINUOUS
  0
LAYER
  2
HIDDEN
 70
     0
 62
     7
  6
CONTINUOUS
  0
LAYER
  2
SCHRAFFURGRUNDRISS
 70
     0
 62
     7
  6
CONTINUOUS
  0
LAYER
  2
BEMASSUNG_GRUNDRISS
 70
     0
 62
     7
  6
CONTINUOUS
  0
LAYER
  2
STATIK
 70
     0
 62
     7
  6
CONTINUOUS
  0
LAYER
  2
TÜREN
 70
     0
 62
     7
  6
CONTINUOUS
  0
LAYER
  2
SANITÄR
 70
     0
 62
     7
  6
CONTINUOUS
  0
LAYER
  2
BEMASSUNG_GIPSKARTON
 70
     0
 62
     7
  6
CONTINUOUS
  0
LAYER
  2
EINRICHTUNGEN
 70
     0
 62
     7
  6
CONTINUOUS
  0
LAYER
  2
BECKEN
 70
     0
 62
     7
  6
CONTINUOUS
  0
LAYER
  2
BELEUCHTUNG
 70
     0
 62
     7
  6
CONTINUOUS
  0
LAYER
  2
BESCHRIFTUNGEN
 70
     0
 62
     7
  6
CONTINUOUS
  0
LAYER
  2
ELEKTRO_1__DOSEN_SCHALTER
 70
     0
 62
     7
  6
CONTINUOUS
  0
LAYER
  2
DEFAULT_1
 70
     0
 62
     7
  6
CONTINUOUS
  0
LAYER
  2
AM_0
 70
     0
 62
     7
  6
CONTINUOUS
  0
LAYER
  2
FRAME0_7
 70
     0
 62
     7
  6
CONTINUOUS
  0
LAYER
  2
AM_BOR
 70
     0
 62
     7
  6
CONTINUOUS
  0
LAYER
  2
RAHM2
 70
     0
 62
     7
  6
CONTINUOUS
  0
LAYER
  2
RAHM3
 70
     0
 62
     7
  6
CONTINUOUS
  0
LAYER
  2
FRAME0_5
 70
     0
 62
     7
  6
CONTINUOUS
  0
LAYER
  2
8
 70
     0
 62
     7
  6
CONTINUOUS
  0
LAYER
  2
AM_5
 70
     0
 62
     7
  6
CONTINUOUS
  0
LAYER
  2
AM_7
 70
     0
 62
     7
  6
CONTINUOUS
  0
LAYER
  2
HILFSLINIEN
 70
     0
 62
     7
  6
CONTINUOUS
  0
LAYER
  2
DRAWING_TEMPLATE
 70
     0
 62
     7
  6
CONTINUOUS
  0
LAYER
  2
TECHNOBOX_EXTERNALREFSYMBO
 70
     0
 62
     7
  6
CONTINUOUS
  0
LAYER
  2
TECHNOBOX_POLYCLIPSYMBOL_L
 70
     0
 62
     7
  6
CONTINUOUS
  0
LAYER
  2
100
 70
     0
 62
     7
  6
CONTINUOUS
  0
LAYER
  2
101
 70
     0
 62
     7
  6
CONTINUOUS
  0
LAYER
  2
KONTUR
 70
     0
 62
     7
  6
CONTINUOUS
  0
LAYER
  2
MITTELLINIE
 70
     0
 62
     7
  6
CONTINUOUS
  0
LAYER
  2
GESTRICHELT
 70
     0
 62
     7
  6
CONTINUOUS
  0
LAYER
  2
HILFSLINIE
 70
     0
 62
     7
  6
CONTINUOUS
  0
LAYER
  2
TEXT-25
 70
     0
 62
     7
  6
CONTINUOUS
  0
LAYER
  2
TEXT35
 70
     0
 62
     7
  6
CONTINUOUS
  0
LAYER
  2
TEXT-50
 70
     0
 62
     7
  6
CONTINUOUS
  0
LAYER
  2
TEXT-70
 70
     0
 62
     7
  6
CONTINUOUS
  0
LAYER
  2
ANSICHTSFENSTER
 70
     0
 62
     7
  6
CONTINUOUS
  0
LAYER
  2
KERA0
 70
     0
 62
     7
  6
CONTINUOUS
  0
LAYER
  2
KERA1
 70
     0
 62
     7
  6
CONTINUOUS
  0
LAYER
  2
KERA2
 70
     0
 62
     7
  6
CONTINUOUS
  0
LAYER
  2
KERA3
 70
     0
 62
     7
  6
CONTINUOUS
  0
LAYER
  2
KERA4
 70
     0
 62
     7
  6
CONTINUOUS
  0
LAYER
  2
KERA5
 70
     0
 62
     7
  6
CONTINUOUS
  0
LAYER
  2
KERA6
 70
     0
 62
     7
  6
CONTINUOUS
  0
LAYER
  2
KERA7
 70
     0
 62
     7
  6
CONTINUOUS
  0
LAYER
  2
20
 70
     0
 62
     7
  6
CONTINUOUS
  0
LAYER
  2
50
 70
     0
 62
     7
  6
CONTINUOUS
  0
LAYER
  2
EBENE_1
 70
     0
 62
     7
  6
CONTINUOUS
  0
LAYER
  2
EBENE_2
 70
     0
 62
     7
  6
CONTINUOUS
  0
LAYER
  2
EBENE_5
 70
     0
 62
     7
  6
CONTINUOUS
  0
LAYER
  2
3
 70
     0
 62
     7
  6
CONTINUOUS
  0
LAYER
  2
GEB-KONTUR-A
 70
     0
 62
     7
  6
CONTINUOUS
  0
LAYER
  2
GEB-SYMETRIE
 70
     0
 62
     7
  6
CONTINUOUS
  0
LAYER
  2
GEB-ART-NR
 70
     0
 62
     7
  6
CONTINUOUS
  0
LAYER
  2
PROJECTION
 70
     0
 62
     7
  6
CONTINUOUS
  0
LAYER
  2
KERA4___1
 70
     0
 62
     1
  6
CONTINUOUS
  0
ENDTAB
  0
TABLE
  2
STYLE
 70
     3
  0
STYLE
  2
STANDARD
 70
     0
 40
0.0
 41
1.0
 50
0.0
 71
     0
 42
0.0
  3
txt
  4

  0
STYLE
  2
ANNOTATIVE
 70
     0
 40
0.0
 41
1.0
 50
0.0
 71
     0
 42
0.2
  3
txt
  4

  0
STYLE
  2
SIMPLEX
 70
     0
 40
0.0
 41
1.0
 50
0.0
 71
     0
 42
0.0
  3
simplex
  4

  0
ENDTAB
  0
TABLE
  2
VIEW
 70
     0
  0
ENDTAB
  0
TABLE
  2
UCS
 70
     0
  0
ENDTAB
  0
TABLE
  2
APPID
 70
     3
  0
APPID
  2
ACAD
 70
     0
  0
APPID
  2
ACADANNOTATIVE
 70
     0
  0
APPID
  2
ACAD_MLEADERVER
 70
     0
  0
ENDTAB
  0
TABLE
  2
DIMSTYLE
 70
     2
  0
DIMSTYLE
  2
STANDARD
 70
     0
  3

  4

  5

  6

  7

 40
1.0
 41
0.18
 42
0.0625
 43
0.38
 44
0.18
 45
0.0
 46
0.0
 47
0.0
 48
0.0
140
0.18
141
0.09
142
0.0
143
25.399999999999999
144
1.0
145
0.0
146
1.0
147
0.09
 71
     0
 72
     0
 73
     1
 74
     1
 75
     0
 76
     0
 77
     0
 78
     0
170
     0
171
     2
172
     0
173
     0
174
     0
175
     0
176
     0
177
     0
178
     0
  0
DIMSTYLE
  2
ANNOTATIVE
 70
     0
  3

  4

  5

  6

  7

 40
1.0
 41
0.18
 42
0.0625
 43
0.38
 44
0.18
 45
0.0
 46
0.0
 47
0.0
 48
0.0
140
0.18
141
0.09
142
0.0
143
25.399999999999999
144
1.0
145
0.0
146
1.0
147
0.09
 71
     0
 72
     0
 73
     1
 74
     1
 75
     0
 76
     0
 77
     0
 78
     0
170
     0
171
     2
172
     0
173
     0
174
     0
175
     0
176
     0
177
     0
178
     0
  0
ENDTAB
  0
ENDSEC
  0
SECTION
  2
BLOCKS
  0
BLOCK
  8
0
  2
$MODEL_SPACE
 70
     0
 10
0.0
 20
0.0
 30
0.0
  3
$MODEL_SPACE
  1

  0
ENDBLK
  5
76
  8
0
  0
BLOCK
 67
     1
  8
0
  2
$PAPER_SPACE
 70
     0
 10
0.0
 20
0.0
 30
0.0
  3
$PAPER_SPACE
  1

  0
ENDBLK
  5
72
 67
     1
  8
0
  0
BLOCK
  8
0
  2
*D0
 70
     1
 10
0.0
 20
0.0
 30
0.0
  3
*D0
  1

  0
LINE
  5
185
  8
LAYER01
 62
     7
 10
420.12550299999998
 20
-358.35134599999998
 30
0.0
 11
420.12550299999998
 21
-453.35134599999992
 31
0.0
  0
LINE
  5
186
  8
LAYER01
 62
     7
 10
502.46480099999991
 20
-358.35134599999998
 30
0.0
 11
405.12550299999998
 21
-358.35134599999998
 31
0.0
  0
LINE
  5
187
  8
LAYER01
 62
     7
 10
502.46480099999991
 20
-453.35134599999992
 30
0.0
 11
405.12550299999998
 21
-453.35134599999992
 31
0.0
  0
SOLID
  5
188
  8
LAYER01
 62
     7
 10
416.12566299999992
 20
-382.35134599999998
 30
0.0
 11
420.12550299999998
 21
-358.35134599999998
 31
0.0
 12
424.12534299999987
 22
-382.35134599999998
 32
0.0
 13
424.12534299999987
 23
-382.35134599999998
 33
0.0
  0
SOLID
  5
189
  8
LAYER01
 62
     7
 10
416.12566299999992
 20
-429.35134599999992
 30
0.0
 11
420.12550299999998
 21
-453.35134599999992
 31
0.0
 12
424.12534299999987
 22
-429.35134599999992
 32
0.0
 13
424.12534299999987
 23
-429.35134599999992
 33
0.0
  0
TEXT
  5
18A
  8
LAYER01
  6
STRICHPUNKTIERT
 62
     7
 10
405.12550299999998
 20
-421.13906700000001
 30
0.0
 40
30.0
  1
95
 50
90.0
  0
POINT
  5
18B
  8
LAYER01
 62
     7
 10
514.46480099999997
 20
-358.35134599999998
 30
0.0
  0
POINT
  5
18C
  8
LAYER01
 62
     7
 10
514.46480099999997
 20
-453.35134599999992
 30
0.0
  0
POINT
  5
18D
  8
LAYER01
 62
     7
 10
420.12550299999998
 20
-453.35134599999992
 30
0.0
  0
ENDBLK
  5
18E
  8
0
  0
BLOCK
  8
0
  2
*D1
 70
     1
 10
0.0
 20
0.0
 30
0.0
  3
*D1
  1

  0
LINE
  5
191
  8
LAYER01
 62
     7
 10
59.740875000000003
 20
-26.537313999999999
 30
0.0
 11
-148.06594000000001
 21
-26.537313999999999
 31
0.0
  0
LINE
  5
192
  8
LAYER01
 62
     7
 10
59.740875000000003
 20
68.634749999999997
 30
0.0
 11
59.740875000000003
 21
-41.537314000000002
 31
0.0
  0
LINE
  5
193
  8
LAYER01
 62
     7
 10
-148.06594000000001
 20
68.634749999999997
 30
0.0
 11
-148.06594000000001
 21
-41.537314000000002
 31
0.0
  0
SOLID
  5
194
  8
LAYER01
 62
     7
 10
35.740875000000003
 20
-22.537474
 30
0.0
 11
59.740875000000003
 21
-26.537313999999999
 31
0.0
 12
35.740875000000003
 22
-30.537154000000001
 32
0.0
 13
35.740875000000003
 23
-30.537154000000001
 33
0.0
  0
SOLID
  5
195
  8
LAYER01
 62
     7
 10
-124.06594
 20
-22.537474
 30
0.0
 11
-148.06594000000001
 21
-26.537313999999999
 31
0.0
 12
-124.06594
 22
-30.537154000000001
 32
0.0
 13
-124.06594
 23
-30.537154000000001
 33
0.0
  0
TEXT
  5
196
  8
LAYER01
  6
CONTINUOUS
 62
     7
 10
-68.452186999999995
 20
-11.537314
 30
0.0
 40
30.0
  1
208
  0
POINT
  5
197
  8
LAYER01
 62
     7
 10
59.740875000000003
 20
80.634749999999997
 30
0.0
  0
POINT
  5
198
  8
LAYER01
 62
     7
 10
-148.06594000000001
 20
80.634749999999997
 30
0.0
  0
POINT
  5
199
  8
LAYER01
 62
     7
 10
-148.06594000000001
 20
-26.537313999999999
 30
0.0
  0
ENDBLK
  5
19A
  8
0
  0
BLOCK
  8
0
  2
*D2
 70
     1
 10
0.0
 20
0.0
 30
0.0
  3
*D2
  1

  0
LINE
  5
19D
  8
LAYER01
 62
     7
 10
-240.25912500000001
 20
-761.09544400000004
 30
0.0
 11
-690.25912500000004
 21
-761.09544400000004
 31
0.0
  0
LINE
  5
19E
  8
LAYER01
 62
     7
 10
-240.25912500000001
 20
-670.35134600000004
 30
0.0
 11
-240.25912500000001
 21
-776.09544400000004
 31
0.0
  0
LINE
  5
19F
  8
LAYER01
 62
     7
 10
-690.25912500000004
 20
-670.35134600000004
 30
0.0
 11
-690.25912500000004
 21
-776.09544400000004
 31
0.0
  0
SOLID
  5
1A0
  8
LAYER01
 62
     7
 10
-264.25912499999998
 20
-757.09560399999987
 30
0.0
 11
-240.25912500000001
 21
-761.09544400000004
 31
0.0
 12
-264.25912499999998
 22
-765.09528399999999
 32
0.0
 13
-264.25912499999998
 23
-765.09528399999999
 33
0.0
  0
SOLID
  5
1A1
  8
LAYER01
 62
     7
 10
-666.25912500000004
 20
-757.09560399999987
 30
0.0
 11
-690.25912500000004
 21
-761.09544400000004
 31
0.0
 12
-666.25912500000004
 22
-765.09528399999999
 32
0.0
 13
-666.25912500000004
 23
-765.09528399999999
 33
0.0
  0
TEXT
  5
1A2
  8
LAYER01
  6
VERDECKT
 62
     7
 10
-488.491761
 20
-746.09544400000004
 30
0.0
 40
30.0
  1
450
  0
POINT
  5
1A3
  8
LAYER01
 62
     7
 10
-240.25912500000001
 20
-658.35134600000004
 30
0.0
  0
POINT
  5
1A4
  8
LAYER01
 62
     7
 10
-690.25912500000004
 20
-658.35134600000004
 30
0.0
  0
POINT
  5
1A5
  8
LAYER01
 62
     7
 10
-690.25912500000004
 20
-761.09544400000004
 30
0.0
  0
ENDBLK
  5
1A6
  8
0
  0
BLOCK
  8
0
  2
*D3
 70
     1
 10
0.0
 20
0.0
 30
0.0
  3
*D3
  1

  0
LINE
  5
1A9
  8
LAYER01
 62
     7
 10
-794.19043399999987
 20
-358.35134599999998
 30
0.0
 11
-794.19043399999987
 21
-478.35134599999992
 31
0.0
  0
LINE
  5
1AA
  8
LAYER01
 62
     7
 10
-702.25912500000004
 20
-358.35134599999998
 30
0.0
 11
-809.19043399999987
 21
-358.35134599999998
 31
0.0
  0
LINE
  5
1AB
  8
LAYER01
 62
     7
 10
-702.25912500000004
 20
-478.35134599999992
 30
0.0
 11
-809.19043399999987
 21
-478.35134599999992
 31
0.0
  0
SOLID
  5
1AC
  8
LAYER01
 62
     7
 10
-798.19027400000004
 20
-382.35134599999998
 30
0.0
 11
-794.19043399999987
 21
-358.35134599999998
 31
0.0
 12
-790.19059400000003
 22
-382.35134599999998
 32
0.0
 13
-790.19059400000003
 23
-382.35134599999998
 33
0.0
  0
SOLID
  5
1AD
  8
LAYER01
 62
     7
 10
-798.19027400000004
 20
-454.35134599999992
 30
0.0
 11
-794.19043399999987
 21
-478.35134599999992
 31
0.0
 12
-790.19059400000003
 22
-454.35134599999992
 32
0.0
 13
-790.19059400000003
 23
-454.35134599999992
 33
0.0
  0
TEXT
  5
1AE
  8
LAYER01
  6
CONTINUOUS
 62
     7
 10
-809.19043399999987
 20
-443.07474400000012
 30
0.0
 40
30.0
  1
120
 50
90.0
  0
POINT
  5
1AF
  8
LAYER01
 62
     7
 10
-690.25912500000004
 20
-358.35134599999998
 30
0.0
  0
POINT
  5
1B0
  8
LAYER01
 62
     7
 10
-690.25912500000004
 20
-478.35134599999992
 30
0.0
  0
POINT
  5
1B1
  8
LAYER01
 62
     7
 10
-794.19043399999987
 20
-478.35134599999992
 30
0.0
  0
ENDBLK
  5
1B2
  8
0
  0
BLOCK
  8
0
  2
*D4
 70
     1
 10
0.0
 20
0.0
 30
0.0
  3
*D4
  1

  0
LINE
  5
1B5
  8
LAYER01
 62
     7
 10
59.740875000000003
 20
-761.09544400000004
 30
0.0
 11
-240.25912500000001
 21
-761.09544400000004
 31
0.0
  0
LINE
  5
1B6
  8
LAYER01
 62
     7
 10
59.740875000000003
 20
-670.35134600000004
 30
0.0
 11
59.740875000000003
 21
-776.09544400000004
 31
0.0
  0
LINE
  5
1B7
  8
LAYER01
 62
     7
 10
-240.25912500000001
 20
-670.35134600000004
 30
0.0
 11
-240.25912500000001
 21
-776.09544400000004
 31
0.0
  0
SOLID
  5
1B8
  8
LAYER01
 62
     7
 10
35.740875000000003
 20
-757.09560399999987
 30
0.0
 11
59.740875000000003
 21
-761.09544400000004
 31
0.0
 12
35.740875000000003
 22
-765.09528399999999
 32
0.0
 13
35.740875000000003
 23
-765.09528399999999
 33
0.0
  0
SOLID
  5
1B9
  8
LAYER01
 62
     7
 10
-216.25912500000001
 20
-757.09560399999987
 30
0.0
 11
-240.25912500000001
 21
-761.09544400000004
 31
0.0
 12
-216.25912500000001
 22
-765.09528399999999
 32
0.0
 13
-216.25912500000001
 23
-765.09528399999999
 33
0.0
  0
TEXT
  5
1BA
  8
LAYER01
  6
VERDECKT
 62
     7
 10
-113.491761
 20
-746.09544400000004
 30
0.0
 40
30.0
  1
300
  0
POINT
  5
1BB
  8
LAYER01
 62
     7
 10
59.740875000000003
 20
-658.35134600000004
 30
0.0
  0
POINT
  5
1BC
  8
LAYER01
 62
     7
 10
-240.25912500000001
 20
-658.35134600000004
 30
0.0
  0
POINT
  5
1BD
  8
LAYER01
 62
     7
 10
-240.25912500000001
 20
-761.09544400000004
 30
0.0
  0
ENDBLK
  5
1BE
  8
0
  0
BLOCK
  8
0
  2
*D5
 70
     1
 10
0.0
 20
0.0
 30
0.0
  3
*D5
  1

  0
LINE
  5
1C1
  8
LAYER01
 62
     7
 10
209.49279300000001
 20
-358.35134599999998
 30
0.0
 11
209.49279300000001
 21
-658.35134600000004
 31
0.0
  0
LINE
  5
1C2
  8
LAYER01
 62
     7
 10
71.740875000000003
 20
-358.35134599999998
 30
0.0
 11
224.49279300000001
 21
-358.35134599999998
 31
0.0
  0
LINE
  5
1C3
  8
LAYER01
 62
     7
 10
71.740875000000003
 20
-658.35134600000004
 30
0.0
 11
224.49279300000001
 21
-658.35134600000004
 31
0.0
  0
SOLID
  5
1C4
  8
LAYER01
 62
     7
 10
205.492953
 20
-382.35134599999998
 30
0.0
 11
209.49279300000001
 21
-358.35134599999998
 31
0.0
 12
213.49263300000001
 22
-382.35134599999998
 32
0.0
 13
213.49263300000001
 23
-382.35134599999998
 33
0.0
  0
SOLID
  5
1C5
  8
LAYER01
 62
     7
 10
205.492953
 20
-634.35134600000004
 30
0.0
 11
209.49279300000001
 21
-658.35134600000004
 31
0.0
 12
213.49263300000001
 22
-634.35134600000004
 32
0.0
 13
213.49263300000001
 23
-634.35134600000004
 33
0.0
  0
TEXT
  5
1C6
  8
LAYER01
  6
CONTINUOUS
 62
     7
 10
194.49279300000001
 20
-533.07474400000001
 30
0.0
 40
30.0
  1
300
 50
90.0
  0
POINT
  5
1C7
  8
LAYER01
 62
     7
 10
59.740875000000003
 20
-358.35134599999998
 30
0.0
  0
POINT
  5
1C8
  8
LAYER01
 62
     7
 10
59.740875000000003
 20
-658.35134600000004
 30
0.0
  0
POINT
  5
1C9
  8
LAYER01
 62
     7
 10
209.49279300000001
 20
-658.35134600000004
 30
0.0
  0
ENDBLK
  5
1CA
  8
0
  0
BLOCK
  8
0
  2
*D6
 70
     1
 10
0.0
 20
0.0
 30
0.0
  3
*D6
  1

  0
LINE
  5
1CD
  8
LAYER01
 62
     7
 10
59.740875000000003
 20
655.88631499999997
 30
0.0
 11
-690.25912500000004
 21
655.88631499999997
 31
0.0
  0
LINE
  5
1CE
  8
LAYER01
 62
     7
 10
59.740875000000003
 20
522.63475000000005
 30
0.0
 11
59.740875000000003
 21
670.88631499999997
 31
0.0
  0
LINE
  5
1CF
  8
LAYER01
 62
     7
 10
-690.25912500000004
 20
522.63475000000005
 30
0.0
 11
-690.25912500000004
 21
670.88631499999997
 31
0.0
  0
SOLID
  5
1D0
  8
LAYER01
 62
     7
 10
35.740875000000003
 20
659.88615500000003
 30
0.0
 11
59.740875000000003
 21
655.88631499999997
 31
0.0
 12
35.740875000000003
 22
651.88647500000002
 32
0.0
 13
35.740875000000003
 23
651.88647500000002
 33
0.0
  0
SOLID
  5
1D1
  8
LAYER01
 62
     7
 10
-666.25912500000004
 20
659.88615500000003
 30
0.0
 11
-690.25912500000004
 21
655.88631499999997
 31
0.0
 12
-666.25912500000004
 22
651.88647500000002
 32
0.0
 13
-666.25912500000004
 23
651.88647500000002
 33
0.0
  0
TEXT
  5
1D2
  8
LAYER01
  6
CONTINUOUS
 62
     7
 10
-339.54878000000002
 20
670.88631499999997
 30
0.0
 40
30.0
  1
750
  0
POINT
  5
1D3
  8
LAYER01
 62
     7
 10
59.740875000000003
 20
510.63475
 30
0.0
  0
POINT
  5
1D4
  8
LAYER01
 62
     7
 10
-690.25912500000004
 20
510.63475
 30
0.0
  0
POINT
  5
1D5
  8
LAYER01
 62
     7
 10
-690.25912500000004
 20
655.88631499999997
 30
0.0
  0
ENDBLK
  5
1D6
  8
0
  0
BLOCK
  8
0
  2
*D7
 70
     1
 10
0.0
 20
0.0
 30
0.0
  3
*D7
  1

  0
LINE
  5
1D9
  8
LAYER01
 62
     7
 10
-89.997202999999985
 20
565.667598
 30
0.0
 11
-589.9972029999999
 21
565.667598
 31
0.0
  0
LINE
  5
1DA
  8
LAYER01
 62
     7
 10
-89.997202999999985
 20
522.63475000000005
 30
0.0
 11
-89.997202999999985
 21
580.667598
 31
0.0
  0
LINE
  5
1DB
  8
LAYER01
 62
     7
 10
-589.9972029999999
 20
522.63475000000005
 30
0.0
 11
-589.9972029999999
 21
580.667598
 31
0.0
  0
SOLID
  5
1DC
  8
LAYER01
 62
     7
 10
-113.997203
 20
569.66743799999995
 30
0.0
 11
-89.997202999999985
 21
565.667598
 31
0.0
 12
-113.997203
 22
561.66775800000005
 32
0.0
 13
-113.997203
 23
561.66775800000005
 33
0.0
  0
SOLID
  5
1DD
  8
LAYER01
 62
     7
 10
-565.99720300000001
 20
569.66743799999995
 30
0.0
 11
-589.9972029999999
 21
565.667598
 31
0.0
 12
-565.99720300000001
 22
561.66775800000005
 32
0.0
 13
-565.99720300000001
 23
561.66775800000005
 33
0.0
  0
TEXT
  5
1DE
  8
LAYER01
  6
CONTINUOUS
 62
     7
 10
-364.286858
 20
580.667598
 30
0.0
 40
30.0
  1
500
  0
POINT
  5
1DF
  8
LAYER01
 62
     7
 10
-89.997202999999985
 20
510.63475
 30
0.0
  0
POINT
  5
1E0
  8
LAYER01
 62
     7
 10
-589.9972029999999
 20
510.63475
 30
0.0
  0
POINT
  5
1E1
  8
LAYER01
 62
     7
 10
-589.9972029999999
 20
565.667598
 30
0.0
  0
ENDBLK
  5
1E2
  8
0
  0
BLOCK
  8
0
  2
*D8
 70
     1
 10
0.0
 20
0.0
 30
0.0
  3
*D8
  1

  0
LINE
  5
1E5
  8
LAYER01
 62
     7
 10
-829.17910300000005
 20
510.63475
 30
0.0
 11
-829.17910300000005
 21
80.634749999999997
 31
0.0
  0
LINE
  5
1E6
  8
LAYER01
 62
     7
 10
-702.25912500000004
 20
510.63475
 30
0.0
 11
-844.17910299999994
 21
510.63475
 31
0.0
  0
LINE
  5
1E7
  8
LAYER01
 62
     7
 10
-702.25912500000004
 20
80.634749999999997
 30
0.0
 11
-844.17910299999994
 21
80.634749999999997
 31
0.0
  0
SOLID
  5
1E8
  8
LAYER01
 62
     7
 10
-833.178943
 20
486.63474999999988
 30
0.0
 11
-829.17910300000005
 21
510.63475
 31
0.0
 12
-825.17926299999999
 22
486.63474999999988
 32
0.0
 13
-825.17926299999999
 23
486.63474999999988
 33
0.0
  0
SOLID
  5
1E9
  8
LAYER01
 62
     7
 10
-833.178943
 20
104.63475
 30
0.0
 11
-829.17910300000005
 21
80.634749999999997
 31
0.0
 12
-825.17926299999999
 22
104.63475
 32
0.0
 13
-825.17926299999999
 23
104.63475
 33
0.0
  0
TEXT
  5
1EA
  8
LAYER01
  6
CONTINUOUS
 62
     7
 10
-844.17910299999994
 20
271.34509500000001
 30
0.0
 40
30.0
  1
430
 50
90.0
  0
POINT
  5
1EB
  8
LAYER01
 62
     7
 10
-690.25912500000004
 20
510.63475
 30
0.0
  0
POINT
  5
1EC
  8
LAYER01
 62
     7
 10
-690.25912500000004
 20
80.634749999999997
 30
0.0
  0
POINT
  5
1ED
  8
LAYER01
 62
     7
 10
-829.17910300000005
 20
80.634749999999997
 30
0.0
  0
ENDBLK
  5
1EE
  8
0
  0
BLOCK
  8
0
  2
*D9
 70
     1
 10
0.0
 20
0.0
 30
0.0
  3
*D9
  1

  0
LINE
  5
1F1
  8
LAYER01
 62
     7
 10
-759.78009000000009
 20
469.76781199999988
 30
0.0
 11
-759.78009000000009
 21
119.76781200000001
 31
0.0
  0
LINE
  5
1F2
  8
LAYER01
 62
     7
 10
-702.25912500000004
 20
469.76781199999988
 30
0.0
 11
-774.78009000000009
 21
469.76781199999988
 31
0.0
  0
LINE
  5
1F3
  8
LAYER01
 62
     7
 10
-702.25912500000004
 20
119.76781200000001
 30
0.0
 11
-774.78009000000009
 21
119.76781200000001
 31
0.0
  0
SOLID
  5
1F4
  8
LAYER01
 62
     7
 10
-763.77993000000004
 20
445.76781199999988
 30
0.0
 11
-759.78009000000009
 21
469.76781199999988
 31
0.0
 12
-755.78025000000002
 22
445.76781199999988
 32
0.0
 13
-755.78025000000002
 23
445.76781199999988
 33
0.0
  0
SOLID
  5
1F5
  8
LAYER01
 62
     7
 10
-763.77993000000004
 20
143.76781199999999
 30
0.0
 11
-759.78009000000009
 21
119.76781200000001
 31
0.0
 12
-755.78025000000002
 22
143.76781199999999
 32
0.0
 13
-755.78025000000002
 23
143.76781199999999
 33
0.0
  0
TEXT
  5
1F6
  8
LAYER01
  6
CONTINUOUS
 62
     7
 10
-774.78009000000009
 20
270.47815800000001
 30
0.0
 40
30.0
  1
350
 50
90.0
  0
POINT
  5
1F7
  8
LAYER01
 62
     7
 10
-690.25912500000004
 20
469.76781199999988
 30
0.0
  0
POINT
  5
1F8
  8
LAYER01
 62
     7
 10
-690.25912500000004
 20
119.76781200000001
 30
0.0
  0
POINT
  5
1F9
  8
LAYER01
 62
     7
 10
-759.78009000000009
 20
119.76781200000001
 30
0.0
  0
ENDBLK
  5
1FA
  8
0
  0
BLOCK
  8
0
  2
*D10
 70
     1
 10
0.0
 20
0.0
 30
0.0
  3
*D10
  1

  0
LINE
  5
1FD
  8
LAYER01
 62
     7
 10
-759.78009000000009
 20
469.76781199999988
 30
0.0
 11
-759.78009000000009
 21
421.76781199999999
 31
0.0
  0
LINE
  5
1FE
  8
LAYER01
 62
     7
 10
-759.78009000000009
 20
510.63475
 30
0.0
 11
-759.78009000000009
 21
558.63475000000005
 31
0.0
  0
LINE
  5
1FF
  8
LAYER01
 62
     7
 10
-702.25912500000004
 20
469.76781199999988
 30
0.0
 11
-774.78009000000009
 21
469.76781199999988
 31
0.0
  0
LINE
  5
200
  8
LAYER01
 62
     7
 10
-702.25912500000004
 20
510.63475
 30
0.0
 11
-774.78009000000009
 21
510.63475
 31
0.0
  0
SOLID
  5
201
  8
LAYER01
 62
     7
 10
-755.78025000000002
 20
445.76781199999988
 30
0.0
 11
-759.78009000000009
 21
469.76781199999988
 31
0.0
 12
-763.77993000000004
 22
445.76781199999988
 32
0.0
 13
-763.77993000000004
 23
445.76781199999988
 33
0.0
  0
SOLID
  5
202
  8
LAYER01
 62
     7
 10
-755.78025000000002
 20
534.63475000000005
 30
0.0
 11
-759.78009000000009
 21
510.63475
 31
0.0
 12
-763.77993000000004
 22
534.63475000000005
 32
0.0
 13
-763.77993000000004
 23
534.63475000000005
 33
0.0
  0
TEXT
  5
203
  8
LAYER01
  6
CONTINUOUS
 62
     7
 10
-774.78009000000009
 20
573.63475000000005
 30
0.0
 40
30.0
  1
40
 50
90.0
  0
POINT
  5
204
  8
LAYER01
 62
     7
 10
-690.25912500000004
 20
469.76781199999988
 30
0.0
  0
POINT
  5
205
  8
LAYER01
 62
     7
 10
-690.25912500000004
 20
510.63475
 30
0.0
  0
POINT
  5
206
  8
LAYER01
 62
     7
 10
-759.78009000000009
 20
510.63475
 30
0.0
  0
ENDBLK
  5
207
  8
0
  0
BLOCK
  8
0
  2
*D11
 70
     1
 10
0.0
 20
0.0
 30
0.0
  3
*D11
  1

  0
LINE
  5
20A
  8
LAYER01
 62
     7
 10
-589.9972029999999
 20
565.40674000000001
 30
0.0
 11
-690.25912500000004
 21
565.40674000000001
 31
0.0
  0
LINE
  5
20B
  8
LAYER01
 62
     7
 10
-589.9972029999999
 20
522.63475000000005
 30
0.0
 11
-589.9972029999999
 21
580.40674000000001
 31
0.0
  0
LINE
  5
20C
  8
LAYER01
 62
     7
 10
-690.25912500000004
 20
522.63475000000005
 30
0.0
 11
-690.25912500000004
 21
580.40674000000001
 31
0.0
  0
SOLID
  5
20D
  8
LAYER01
 62
     7
 10
-613.99720300000001
 20
569.40657999999985
 30
0.0
 11
-589.9972029999999
 21
565.40674000000001
 31
0.0
 12
-613.99720300000001
 22
561.40689999999995
 32
0.0
 13
-613.99720300000001
 23
561.40689999999995
 33
0.0
  0
SOLID
  5
20E
  8
LAYER01
 62
     7
 10
-666.25912500000004
 20
569.40657999999985
 30
0.0
 11
-690.25912500000004
 21
565.40674000000001
 31
0.0
 12
-666.25912500000004
 22
561.40689999999995
 32
0.0
 13
-666.25912500000004
 23
561.40689999999995
 33
0.0
  0
TEXT
  5
20F
  8
LAYER01
  6
VERDECKT
 62
     7
 10
-662.67096800000002
 20
580.40674000000001
 30
0.0
 40
30.0
  1
100
  0
POINT
  5
210
  8
LAYER01
 62
     7
 10
-589.9972029999999
 20
510.63475
 30
0.0
  0
POINT
  5
211
  8
LAYER01
 62
     7
 10
-690.25912500000004
 20
510.63475
 30
0.0
  0
POINT
  5
212
  8
LAYER01
 62
     7
 10
-690.25912500000004
 20
565.40674000000001
 30
0.0
  0
ENDBLK
  5
213
  8
0
  0
BLOCK
  8
0
  2
*D12
 70
     1
 10
0.0
 20
0.0
 30
0.0
  3
*D12
  1

  0
LINE
  5
216
  8
LAYER01
 62
     7
 10
59.740875000000003
 20
565.667598
 30
0.0
 11
-89.997202999999985
 21
565.667598
 31
0.0
  0
LINE
  5
217
  8
LAYER01
 62
     7
 10
59.740875000000003
 20
522.63475000000005
 30
0.0
 11
59.740875000000003
 21
580.667598
 31
0.0
  0
LINE
  5
218
  8
LAYER01
 62
     7
 10
-89.997202999999985
 20
522.63475000000005
 30
0.0
 11
-89.997202999999985
 21
580.667598
 31
0.0
  0
SOLID
  5
219
  8
LAYER01
 62
     7
 10
35.740875000000003
 20
569.66743799999995
 30
0.0
 11
59.740875000000003
 21
565.667598
 31
0.0
 12
35.740875000000003
 22
561.66775800000005
 32
0.0
 13
35.740875000000003
 23
561.66775800000005
 33
0.0
  0
SOLID
  5
21A
  8
LAYER01
 62
     7
 10
-65.997202999999999
 20
569.66743799999995
 30
0.0
 11
-89.997202999999985
 21
565.667598
 31
0.0
 12
-65.997202999999999
 22
561.66775800000005
 32
0.0
 13
-65.997202999999999
 23
561.66775800000005
 33
0.0
  0
TEXT
  5
21B
  8
LAYER01
  6
CONTINUOUS
 62
     7
 10
-39.417819000000001
 20
580.667598
 30
0.0
 40
30.0
  1
150
  0
POINT
  5
21C
  8
LAYER01
 62
     7
 10
59.740875000000003
 20
510.63475
 30
0.0
  0
POINT
  5
21D
  8
LAYER01
 62
     7
 10
-89.997202999999985
 20
510.63475
 30
0.0
  0
POINT
  5
21E
  8
LAYER01
 62
     7
 10
-89.997202999999985
 20
565.667598
 30
0.0
  0
ENDBLK
  5
21F
  8
0
  0
BLOCK
  8
0
  2
*D13
 70
     1
 10
0.0
 20
0.0
 30
0.0
  3
*D13
  1

  0
LINE
  5
222
  8
LAYER01
 62
     7
 10
-51.498789000000002
 20
308.62346000000002
 30
0.0
 11
-103.56194000000001
 21
368.32723399999998
 31
0.0
  0
LINE
  5
223
  8
LAYER01
 62
     7
 10
-103.56194000000001
 20
368.32723399999998
 30
0.0
 11
-91.825693000000001
 21
368.32723399999998
 31
0.0
  0
SOLID
  5
224
  8
LAYER01
 62
     7
 10
-64.257766000000004
 20
329.340778
 30
0.0
 11
-51.498789000000002
 21
308.62346000000002
 31
0.0
 12
-70.287020999999996
 22
324.08312000000001
 32
0.0
 13
-70.287020999999996
 23
324.08312000000001
 33
0.0
  0
TEXT
  5
225
  8
LAYER01
  6
VERDECKT
 62
     7
 10
-76.825693000000001
 20
353.32723399999998
 30
0.0
 40
30.0
  1
%%c35
  0
POINT
  5
226
  8
LAYER01
 62
     7
 10
-39.997203000000013
 20
295.43393700000001
 30
0.0
  0
POINT
  5
227
  8
LAYER01
 62
     7
 10
-103.56194000000001
 20
368.32723399999998
 30
0.0
  0
ENDBLK
  5
228
  8
0
  0
BLOCK
  8
0
  2
*D14
 70
     1
 10
0.0
 20
0.0
 30
0.0
  3
*D14
  1

  0
LINE
  5
22B
  8
LAYER01
 62
     7
 10
-39.997203000000013
 20
212.327338
 30
0.0
 11
-89.997202999999985
 21
212.327338
 31
0.0
  0
LINE
  5
22C
  8
LAYER01
 62
     7
 10
-39.997203000000013
 20
257.62539600000002
 30
0.0
 11
-39.997203000000013
 21
197.327338
 31
0.0
  0
LINE
  5
22D
  8
LAYER01
 62
     7
 10
-89.997202999999985
 20
257.62539600000002
 30
0.0
 11
-89.997202999999985
 21
197.327338
 31
0.0
  0
SOLID
  5
22E
  8
LAYER01
 62
     7
 10
-63.997203000000013
 20
216.327178
 30
0.0
 11
-39.997203000000013
 21
212.327338
 31
0.0
 12
-63.997203000000013
 22
208.32749799999999
 32
0.0
 13
-63.997203000000013
 23
208.32749799999999
 33
0.0
  0
SOLID
  5
22F
  8
LAYER01
 62
     7
 10
-65.997202999999999
 20
216.327178
 30
0.0
 11
-89.997202999999985
 21
212.327338
 31
0.0
 12
-65.997202999999999
 22
208.32749799999999
 32
0.0
 13
-65.997202999999999
 23
208.32749799999999
 33
0.0
  0
TEXT
  5
230
  8
LAYER01
  6
VERDECKT
 62
     7
 10
-80.737797000000015
 20
227.327338
 30
0.0
 40
30.0
  1
50
  0
POINT
  5
231
  8
LAYER01
 62
     7
 10
-39.997203000000013
 20
269.62539600000002
 30
0.0
  0
POINT
  5
232
  8
LAYER01
 62
     7
 10
-89.997202999999985
 20
269.62539600000002
 30
0.0
  0
POINT
  5
233
  8
LAYER01
 62
     7
 10
-89.997202999999985
 20
212.327338
 30
0.0
  0
ENDBLK
  5
234
  8
0
  0
BLOCK
  8
0
  2
*D15
 70
     1
 10
0.0
 20
0.0
 30
0.0
  3
*D15
  1

  0
LINE
  5
237
  8
LAYER01
 62
     7
 10
156.56033500000001
 20
510.63475
 30
0.0
 11
156.56033500000001
 21
295.63475
 31
0.0
  0
LINE
  5
238
  8
LAYER01
 62
     7
 10
71.740875000000003
 20
510.63475
 30
0.0
 11
171.56033500000001
 21
510.63475
 31
0.0
  0
LINE
  5
239
  8
LAYER01
 62
     7
 10
71.740875000000003
 20
295.63475
 30
0.0
 11
171.56033500000001
 21
295.63475
 31
0.0
  0
SOLID
  5
23A
  8
LAYER01
 62
     7
 10
152.560495
 20
486.63474999999988
 30
0.0
 11
156.56033500000001
 21
510.63475
 31
0.0
 12
160.56017499999999
 22
486.63474999999988
 32
0.0
 13
160.56017499999999
 23
486.63474999999988
 33
0.0
  0
SOLID
  5
23B
  8
LAYER01
 62
     7
 10
152.560495
 20
319.63475
 30
0.0
 11
156.56033500000001
 21
295.63475
 31
0.0
 12
160.56017499999999
 22
319.63475
 32
0.0
 13
160.56017499999999
 23
319.63475
 33
0.0
  0
TEXT
  5
23C
  8
LAYER01
  6
VERDECKT
 62
     7
 10
141.56033500000001
 20
379.9021140000001
 30
0.0
 40
30.0
  1
215
 50
90.0
  0
POINT
  5
23D
  8
LAYER01
 62
     7
 10
59.740875000000003
 20
510.63475
 30
0.0
  0
POINT
  5
23E
  8
LAYER01
 62
     7
 10
59.740875000000003
 20
295.63475
 30
0.0
  0
POINT
  5
23F
  8
LAYER01
 62
     7
 10
156.56033500000001
 20
295.63475
 30
0.0
  0
ENDBLK
  5
240
  8
0
  0
BLOCK
  8
0
  2
*D16
 70
     1
 10
0.0
 20
0.0
 30
0.0
  3
*D16
  1

  0
LINE
  5
243
  8
LAYER01
 62
     7
 10
158.77296699999999
 20
295.63475
 30
0.0
 11
158.77296699999999
 21
80.634749999999997
 31
0.0
  0
LINE
  5
244
  8
LAYER01
 62
     7
 10
71.740875000000003
 20
295.63475
 30
0.0
 11
173.77296699999999
 21
295.63475
 31
0.0
  0
LINE
  5
245
  8
LAYER01
 62
     7
 10
71.740875000000003
 20
80.634749999999997
 30
0.0
 11
173.77296699999999
 21
80.634749999999997
 31
0.0
  0
SOLID
  5
246
  8
LAYER01
 62
     7
 10
154.77312699999999
 20
271.63475
 30
0.0
 11
158.77296699999999
 21
295.63475
 31
0.0
 12
162.772807
 22
271.63475
 32
0.0
 13
162.772807
 23
271.63475
 33
0.0
  0
SOLID
  5
247
  8
LAYER01
 62
     7
 10
154.77312699999999
 20
104.63475
 30
0.0
 11
158.77296699999999
 21
80.634749999999997
 31
0.0
 12
162.772807
 22
104.63475
 32
0.0
 13
162.772807
 23
104.63475
 33
0.0
  0
TEXT
  5
248
  8
LAYER01
  6
VERDECKT
 62
     7
 10
143.77296699999999
 20
164.90211400000001
 30
0.0
 40
30.0
  1
215
 50
90.0
  0
POINT
  5
249
  8
LAYER01
 62
     7
 10
59.740875000000003
 20
295.63475
 30
0.0
  0
POINT
  5
24A
  8
LAYER01
 62
     7
 10
59.740875000000003
 20
80.634749999999997
 30
0.0
  0
POINT
  5
24B
  8
LAYER01
 62
     7
 10
158.77296699999999
 20
80.634749999999997
 30
0.0
  0
ENDBLK
  5
24C
  8
0
  0
BLOCK
  8
0
  2
PLEYEL-G19
 70
     0
 10
0.0
 20
0.0
 30
0.0
  3
PLEYEL-G19
  1

  0
TEXT
  5
24F
  8
LAYER01
  6
VERDECKT
 62
     1
 10
1141.471018
 20
-1018.511491
 30
0.0
 40
12.0
  1
A. Sprenger GmbH
  7
SIMPLEX
  0
TEXT
  5
250
  8
LAYER01
  6
VERDECKT
 62
     1
 10
1141.471018
 20
-1039.0829200000001
 30
0.0
 40
12.0
  1
Berner Str. 10
  7
SIMPLEX
  0
TEXT
  5
251
  8
LAYER01
  6
VERDECKT
 62
     1
 10
1141.471018
 20
-1059.654348
 30
0.0
 40
12.0
  1
60437 Frankfurt
  7
SIMPLEX
  0
TEXT
  5
252
  8
LAYER01
  6
VERDECKT
 62
     1
 10
1141.471018
 20
-1080.2257770000001
 30
0.0
 40
12.0
  1
Tel.: 069 - 507 27 41
  7
SIMPLEX
  0
TEXT
  5
253
  8
LAYER01
  6
VERDECKT
 62
     1
 10
1141.471018
 20
-1100.7972050000001
 30
0.0
 40
12.0
  1
Fax: 069 - 507 72 91
  7
SIMPLEX
  0
TEXT
  5
254
  8
LAYER01
  6
VERDECKT
 62
     1
 10
1141.471018
 20
-1121.3686339999999
 30
0.0
 40
12.0
  1
info@varicor.org
  7
SIMPLEX
  0
ENDBLK
  5
255
  8
0
  0
BLOCK
  8
0
  2
PLEYEL-G18
 70
     0
 10
0.0
 20
0.0
 30
0.0
  3
PLEYEL-G18
  1

  0
TEXT
  5
258
  8
LAYER01
  6
CONTINUOUS
 62
     1
 10
2402.453164
 20
-1300.607716
 30
0.0
 40
12.0
  1
Blatt
  7
SIMPLEX
  0
LINE
  5
259
  8
LAYER01
  6
CONTINUOUS
 62
     1
 10
1124.453164
 20
-1216.607716
 30
0.0
 11
1844.453164
 21
-1216.607716
 31
0.0
  0
LINE
  5
25A
  8
LAYER01
  6
CONTINUOUS
 62
     1
 10
1124.453164
 20
-1246.607716
 30
0.0
 11
1844.453164
 21
-1246.607716
 31
0.0
  0
LINE
  5
25B
  8
LAYER01
  6
CONTINUOUS
 62
     1
 10
1124.453164
 20
-1276.607716
 30
0.0
 11
2480.453164
 21
-1276.607716
 31
0.0
  0
LINE
  5
25C
  8
LAYER01
  6
CONTINUOUS
 62
     1
 10
1124.453164
 20
-1366.607716
 30
0.0
 11
2480.453164
 21
-1366.607716
 31
0.0
  0
LINE
  5
25D
  8
LAYER01
  6
CONTINUOUS
 62
     1
 10
1124.453164
 20
-1126.607716
 30
0.0
 11
2480.453164
 21
-1126.607716
 31
0.0
  0
POLYLINE
  5
25E
  8
LAYER01
  6
CONTINUOUS
 62
     1
 66
     1
 10
0.0
 20
0.0
 30
0.0
 70
     1
  0
VERTEX
  5
665
  8
LAYER01
  6
CONTINUOUS
 62
     1
 10
1124.453164
 20
-1402.607716
 30
0.0
  0
VERTEX
  5
666
  8
LAYER01
  6
CONTINUOUS
 62
     1
 10
1124.453164
 20
-1000.607716
 30
0.0
  0
VERTEX
  5
667
  8
LAYER01
  6
CONTINUOUS
 62
     1
 10
2480.453164
 20
-1000.607716
 30
0.0
  0
VERTEX
  5
668
  8
LAYER01
  6
CONTINUOUS
 62
     1
 10
2480.453164
 20
-1402.607716
 30
0.0
  0
SEQEND
  5
669
  8
LAYER01
  6
CONTINUOUS
 62
     1
  0
LINE
  5
264
  8
LAYER01
  6
CONTINUOUS
 62
     1
 10
1124.453164
 20
-1156.607716
 30
0.0
 11
1844.453164
 21
-1156.607716
 31
0.0
  0
LINE
  5
265
  8
LAYER01
  6
CONTINUOUS
 62
     1
 10
1124.453164
 20
-1186.607716
 30
0.0
 11
1844.453164
 21
-1186.607716
 31
0.0
  0
LINE
  5
266
  8
LAYER01
  6
CONTINUOUS
 62
     1
 10
1514.453164
 20
-1000.607716
 30
0.0
 11
1514.453164
 21
-1402.607716
 31
0.0
  0
INSERT
  5
267
  8
LAYER01
  2
PLEYEL-G19
 10
0.0
 20
0.0
 30
0.0
  0
LINE
  5
268
  8
LAYER01
  6
CONTINUOUS
 62
     1
 10
1124.453164
 20
-1336.607716
 30
0.0
 11
1514.453164
 21
-1336.607716
 31
0.0
  0
LINE
  5
269
  8
LAYER01
  6
CONTINUOUS
 62
     1
 10
1124.453164
 20
-1306.607716
 30
0.0
 11
1514.453164
 21
-1306.607716
 31
0.0
  0
LINE
  5
26A
  8
LAYER01
  6
CONTINUOUS
 62
     1
 10
1178.453164
 20
-1126.607716
 30
0.0
 11
1178.453164
 21
-1402.607716
 31
0.0
  0
TEXT
  5
26B
  8
LAYER01
  6
CONTINUOUS
 62
     1
 10
1134.5322819999999
 20
-1390.607716
 30
0.0
 40
11.4
  1
Zust
  7
SIMPLEX
  0
LINE
  5
26C
  8
LAYER01
  6
CONTINUOUS
 62
     1
 10
1367.7947019999999
 20
-1402.607716
 30
0.0
 11
1367.7947019999999
 21
-1126.607716
 31
0.0
  0
LINE
  5
26D
  8
LAYER01
  6
CONTINUOUS
 62
     1
 10
1460.453164
 20
-1126.607716
 30
0.0
 11
1460.453164
 21
-1402.607716
 31
0.0
  0
TEXT
  5
26E
  8
LAYER01
  6
CONTINUOUS
 62
     1
 10
1231.407414
 20
-1390.607716
 30
0.0
 40
11.4
  1
Änderung
  7
SIMPLEX
  0
TEXT
  5
26F
  8
LAYER01
  6
CONTINUOUS
 62
     1
 10
1384.6781370000001
 20
-1390.607716
 30
0.0
 40
11.4
  1
Datum
  7
SIMPLEX
  0
TEXT
  5
270
  8
LAYER01
  6
CONTINUOUS
 62
     1
 10
1464.969848
 20
-1390.607716
 30
0.0
 40
11.4
  1
Name
  7
SIMPLEX
  0
LINE
  5
271
  8
LAYER01
  6
CONTINUOUS
 62
     1
 10
2480.453164
 20
-1048.607716
 30
0.0
 11
1844.453164
 21
-1048.607716
 31
0.0
  0
LINE
  5
272
  8
LAYER01
  6
CONTINUOUS
 62
     1
 10
1592.453164
 20
-1246.607716
 30
0.0
 11
1592.453164
 21
-1126.607716
 31
0.0
  0
TEXT
  5
273
  8
LAYER01
  6
CONTINUOUS
 62
     1
 10
1526.453164
 20
-1180.607716
 30
0.0
 40
12.0
  1
Bearb.
  7
SIMPLEX
  0
TEXT
  5
274
  8
LAYER01
  6
CONTINUOUS
 62
     1
 10
1526.453164
 20
-1240.607716
 30
0.0
 40
12.0
  1
Norm
  7
SIMPLEX
  0
TEXT
  5
275
  8
LAYER01
  6
CONTINUOUS
 62
     1
 10
1526.453164
 20
-1210.607716
 30
0.0
 40
12.0
  1
Gepr.
  7
SIMPLEX
  0
TEXT
  5
276
  8
LAYER01
  6
CONTINUOUS
 62
     1
 10
1622.453164
 20
-1150.607716
 30
0.0
 40
12.0
  1
Datum
  7
SIMPLEX
  0
TEXT
  5
277
  8
LAYER01
  6
CONTINUOUS
 62
     1
 10
1742.453164
 20
-1150.607716
 30
0.0
 40
12.0
  1
Name
  7
SIMPLEX
  0
TEXT
  5
278
  8
LAYER01
  6
CONTINUOUS
 62
     1
 10
2450.453164
 20
-1360.607716
 30
0.0
 40
12.0
  1
Bl.
  7
SIMPLEX
  0
LINE
  5
279
  8
LAYER01
  6
CONTINUOUS
 62
     1
 10
1844.453164
 20
-1402.607716
 30
0.0
 11
1844.453164
 21
-1000.607716
 31
0.0
  0
LINE
  5
27A
  8
LAYER01
  6
CONTINUOUS
 62
     1
 10
1706.453164
 20
-1276.607716
 30
0.0
 11
1706.453164
 21
-1000.607716
 31
0.0
  0
LINE
  5
27B
  8
LAYER01
  6
CONTINUOUS
 62
     1
 10
2222.453164
 20
-1000.607716
 30
0.0
 11
2222.453164
 21
-1048.607716
 31
0.0
  0
TEXT
  5
27C
  8
LAYER01
  6
CONTINUOUS
 62
     1
 10
1857.525963
 20
-1031.2437179999999
 30
0.0
 40
12.0
  1
Maßstab
  7
SIMPLEX
  0
LINE
  5
27D
  8
LAYER01
  6
CONTINUOUS
 62
     1
 10
2390.453164
 20
-1276.607716
 30
0.0
 11
2390.453164
 21
-1366.607716
 31
0.0
  0
LINE
  5
27E
  8
LAYER01
  6
CONTINUOUS
 62
     1
 10
2390.453164
 20
-1336.607716
 30
0.0
 11
2480.453164
 21
-1336.607716
 31
0.0
  0
ENDBLK
  5
27F
  8
0
  0
BLOCK
  8
0
  2
PLEYEL-G20
 70
     0
 10
0.0
 20
0.0
 30
0.0
  3
PLEYEL-G20
  1

  0
ENDBLK
  5
282
  8
0
  0
BLOCK
  8
0
  2
*D20
 70
     1
 10
0.0
 20
0.0
 30
0.0
  3
*D20
  1

  0
LINE
  5
285
  8
LAYER01
 62
     7
 10
729.29115000000002
 20
-733.369055
 30
0.0
 11
514.46480099999997
 21
-733.369055
 31
0.0
  0
LINE
  5
286
  8
LAYER01
 62
     7
 10
729.29115000000002
 20
-670.35134600000004
 30
0.0
 11
729.29115000000002
 21
-748.369055
 31
0.0
  0
LINE
  5
287
  8
LAYER01
 62
     7
 10
514.46480099999997
 20
-670.35134600000004
 30
0.0
 11
514.46480099999997
 21
-748.369055
 31
0.0
  0
SOLID
  5
288
  8
LAYER01
 62
     7
 10
705.29115000000002
 20
-729.36921500000005
 30
0.0
 11
729.29115000000002
 21
-733.369055
 31
0.0
 12
705.29115000000002
 22
-737.36889499999995
 32
0.0
 13
705.29115000000002
 23
-737.36889499999995
 33
0.0
  0
SOLID
  5
289
  8
LAYER01
 62
     7
 10
538.46480099999985
 20
-729.36921500000005
 30
0.0
 11
514.46480099999997
 21
-733.369055
 31
0.0
 12
538.46480099999985
 22
-737.36889499999995
 32
0.0
 13
538.46480099999985
 23
-737.36889499999995
 33
0.0
  0
TEXT
  5
28A
  8
LAYER01
  6
STRICHPUNKTIERT
 62
     7
 10
598.94639400000005
 20
-718.369055
 30
0.0
 40
30.0
  1
215
  0
POINT
  5
28B
  8
LAYER01
 62
     7
 10
729.29115000000002
 20
-658.35134600000004
 30
0.0
  0
POINT
  5
28C
  8
LAYER01
 62
     7
 10
514.46480099999997
 20
-658.35134600000004
 30
0.0
  0
POINT
  5
28D
  8
LAYER01
 62
     7
 10
514.46480099999997
 20
-733.369055
 30
0.0
  0
ENDBLK
  5
28E
  8
0
  0
BLOCK
  8
0
  2
*D21
 70
     1
 10
0.0
 20
0.0
 30
0.0
  3
*D21
  1

  0
LINE
  5
291
  8
LAYER01
 62
     7
 10
752.29115000000002
 20
-525.287914
 30
0.0
 11
800.2911499999999
 21
-525.287914
 31
0.0
  0
LINE
  5
292
  8
LAYER01
 62
     7
 10
706.29115000000002
 20
-525.287914
 30
0.0
 11
658.29115000000002
 21
-525.287914
 31
0.0
  0
LINE
  5
293
  8
LAYER01
 62
     7
 10
752.29115000000002
 20
-487.27483000000001
 30
0.0
 11
752.29115000000002
 21
-540.287914
 31
0.0
  0
LINE
  5
294
  8
LAYER01
 62
     7
 10
706.29115000000002
 20
-487.27483000000001
 30
0.0
 11
706.29115000000002
 21
-540.287914
 31
0.0
  0
SOLID
  5
295
  8
LAYER01
 62
     7
 10
776.29115000000002
 20
-521.28807400000005
 30
0.0
 11
752.29115000000002
 21
-525.287914
 31
0.0
 12
776.29115000000002
 22
-529.28775399999995
 32
0.0
 13
776.29115000000002
 23
-529.28775399999995
 33
0.0
  0
SOLID
  5
296
  8
LAYER01
 62
     7
 10
682.29115000000002
 20
-521.28807400000005
 30
0.0
 11
706.29115000000002
 21
-525.287914
 31
0.0
 12
682.29115000000002
 22
-529.28775399999995
 32
0.0
 13
682.29115000000002
 23
-529.28775399999995
 33
0.0
  0
TEXT
  5
297
  8
LAYER01
  6
VERDECKT
 62
     7
 10
815.29115000000002
 20
-510.28791399999989
 30
0.0
 40
30.0
  1
46
  0
POINT
  5
298
  8
LAYER01
 62
     7
 10
752.29115000000002
 20
-475.27483000000001
 30
0.0
  0
POINT
  5
299
  8
LAYER01
 62
     7
 10
706.29115000000002
 20
-475.27483000000001
 30
0.0
  0
POINT
  5
29A
  8
LAYER01
 62
     7
 10
706.29115000000002
 20
-525.287914
 30
0.0
  0
ENDBLK
  5
29B
  8
0
  0
BLOCK
  8
0
  2
*D22
 70
     1
 10
0.0
 20
0.0
 30
0.0
  3
*D22
  1

  0
LINE
  5
29E
  8
LAYER01
 62
     7
 10
904.11749799999996
 20
-309.80924700000003
 30
0.0
 11
554.46480099999985
 21
-309.80924700000003
 31
0.0
  0
LINE
  5
29F
  8
LAYER01
 62
     7
 10
904.11749799999996
 20
-346.35134599999998
 30
0.0
 11
904.11749799999996
 21
-294.80924700000003
 31
0.0
  0
LINE
  5
2A0
  8
LAYER01
 62
     7
 10
554.46480099999985
 20
-346.35134599999998
 30
0.0
 11
554.46480099999985
 21
-294.80924700000003
 31
0.0
  0
SOLID
  5
2A1
  8
LAYER01
 62
     7
 10
880.11749799999996
 20
-305.80940700000002
 30
0.0
 11
904.11749799999996
 21
-309.80924700000003
 31
0.0
 12
880.11749799999996
 22
-313.80908699999998
 32
0.0
 13
880.11749799999996
 23
-313.80908699999998
 33
0.0
  0
SOLID
  5
2A2
  8
LAYER01
 62
     7
 10
578.46480099999985
 20
-305.80940700000002
 30
0.0
 11
554.46480099999985
 21
-309.80924700000003
 31
0.0
 12
578.46480099999985
 22
-313.80908699999998
 32
0.0
 13
578.46480099999985
 23
-313.80908699999998
 33
0.0
  0
TEXT
  5
2A3
  8
LAYER01
  6
STRICHPUNKTIERT
 62
     7
 10
706.35956799999985
 20
-294.80924700000003
 30
0.0
 40
30.0
  1
350
  0
POINT
  5
2A4
  8
LAYER01
 62
     7
 10
904.11749799999996
 20
-358.35134599999998
 30
0.0
  0
POINT
  5
2A5
  8
LAYER01
 62
     7
 10
554.46480099999985
 20
-358.35134599999998
 30
0.0
  0
POINT
  5
2A6
  8
LAYER01
 62
     7
 10
554.46480099999985
 20
-309.80924700000003
 30
0.0
  0
ENDBLK
  5
2A7
  8
0
  0
BLOCK
  8
0
  2
*D23
 70
     1
 10
0.0
 20
0.0
 30
0.0
  3
*D23
  1

  0
LINE
  5
2AA
  8
LAYER01
 62
     7
 10
514.46480099999997
 20
-226.17641800000001
 30
0.0
 11
944.11749800000007
 21
-226.17641800000001
 31
0.0
  0
LINE
  5
2AB
  8
LAYER01
 62
     7
 10
514.46480099999997
 20
-346.35134599999998
 30
0.0
 11
514.46480099999997
 21
-211.17641800000001
 31
0.0
  0
LINE
  5
2AC
  8
LAYER01
 62
     7
 10
944.11749800000007
 20
-346.35134599999998
 30
0.0
 11
944.11749800000007
 21
-211.17641800000001
 31
0.0
  0
SOLID
  5
2AD
  8
LAYER01
 62
     7
 10
538.46480099999985
 20
-230.17625799999999
 30
0.0
 11
514.46480099999997
 21
-226.17641800000001
 31
0.0
 12
538.46480099999985
 22
-222.17657800000001
 32
0.0
 13
538.46480099999985
 23
-222.17657800000001
 33
0.0
  0
SOLID
  5
2AE
  8
LAYER01
 62
     7
 10
920.11749800000007
 20
-230.17625799999999
 30
0.0
 11
944.11749800000007
 21
-226.17641800000001
 31
0.0
 12
920.11749800000007
 22
-222.17657800000001
 32
0.0
 13
920.11749800000007
 23
-222.17657800000001
 33
0.0
  0
TEXT
  5
2AF
  8
LAYER01
  6
STRICHPUNKTIERT
 62
     7
 10
706.35956799999985
 20
-211.17641800000001
 30
0.0
 40
30.0
  1
430
  0
POINT
  5
2B0
  8
LAYER01
 62
     7
 10
514.46480099999997
 20
-358.35134599999998
 30
0.0
  0
POINT
  5
2B1
  8
LAYER01
 62
     7
 10
944.11749800000007
 20
-358.35134599999998
 30
0.0
  0
POINT
  5
2B2
  8
LAYER01
 62
     7
 10
944.11749800000007
 20
-226.17641800000001
 30
0.0
  0
ENDBLK
  5
2B3
  8
0
  0
BLOCK
  8
0
 62
     7
  2
WMF0
 70
     0
 10
0.0
 20
0.0
 30
0.0
  3
WMF0
  1

  0
POLYLINE
  5
417
  8
LAYER01
 62
     7
 66
     1
 10
0.0
 20
0.0
 30
0.0
 70
     1
  0
VERTEX
  5
77D
  8
LAYER01
 62
     7
 10
2458.2645046842372
 20
7351.0038575557674
 30
0.0
  0
VERTEX
  5
77E
  8
LAYER01
 62
     7
 10
2628.7570429123371
 20
7351.0038575557674
 30
0.0
  0
VERTEX
  5
77F
  8
LAYER01
 62
     7
 10
2842.8639513848352
 20
6863.3158993684092
 30
0.0
  0
VERTEX
  5
780
  8
LAYER01
 62
     7
 10
3056.9708598573329
 20
7351.0038575557674
 30
0.0
  0
VERTEX
  5
781
  8
LAYER01
 62
     7
 10
3235.3932835844162
 20
7351.0038575557674
 30
0.0
  0
VERTEX
  5
782
  8
LAYER01
 62
     7
 10
2842.8639513848352
 20
6478.7164526678098
 30
0.0
  0
VERTEX
  5
783
  8
LAYER01
 62
     7
 10
2458.2645046842372
 20
7351.0038575557674
 30
0.0
  0
VERTEX
  5
784
  8
LAYER01
 62
     7
 10
2458.2645046842372
 20
7351.0038575557674
 30
0.0
  0
SEQEND
  5
785
  8
LAYER01
 62
     7
  0
POLYLINE
  5
418
  8
LAYER01
 62
     7
 66
     1
 10
0.0
 20
0.0
 30
0.0
 70
     1
  0
VERTEX
  5
786
  8
LAYER01
 62
     7
 10
3041.1110888593689
 20
6756.2624451321599
 30
0.0
  0
VERTEX
  5
787
  8
LAYER01
 62
     7
 10
3100.5852301017312
 20
6895.0354413643372
 30
0.0
  0
VERTEX
  5
788
  8
LAYER01
 62
     7
 10
3358.3065088186272
 20
6895.0354413643372
 30
0.0
  0
VERTEX
  5
789
  8
LAYER01
 62
     7
 10
3227.4633980854328
 20
7180.5113193276648
 30
0.0
  0
VERTEX
  5
78A
  8
LAYER01
 62
     7
 10
3302.7973103257568
 20
7362.8986858042381
 30
0.0
  0
VERTEX
  5
78B
  8
LAYER01
 62
     7
 10
3655.67721503043
 20
6617.4894488999853
 30
0.0
  0
VERTEX
  5
78C
  8
LAYER01
 62
     7
 10
3655.67721503043
 20
7351.0038575557674
 30
0.0
  0
VERTEX
  5
78D
  8
LAYER01
 62
     7
 10
4127.5054022198219
 20
7351.0038575557674
 30
0.0
  0
VERTEX
  5
78E
  8
LAYER01
 62
     7
 10
4127.5054022198219
 20
7351.0038575557674
 30
0.0
  0
VERTEX
  5
78F
  8
LAYER01
 62
     7
 10
4171.1197724642179
 20
7343.0739720567844
 30
0.0
  0
VERTEX
  5
790
  8
LAYER01
 62
     7
 10
4210.7691999591279
 20
7327.2142010588213
 30
0.0
  0
VERTEX
  5
791
  8
LAYER01
 62
     7
 10
4246.4536847045429
 20
7299.4596018123866
 30
0.0
  0
VERTEX
  5
792
  8
LAYER01
 62
     7
 10
4278.1732267004691
 20
7271.705002565951
 30
0.0
  0
VERTEX
  5
793
  8
LAYER01
 62
     7
 10
4305.9278259469047
 20
7236.0205178205333
 30
0.0
  0
VERTEX
  5
794
  8
LAYER01
 62
     7
 10
4325.7525396943593
 20
7196.3710903256278
 30
0.0
  0
VERTEX
  5
795
  8
LAYER01
 62
     7
 10
4341.6123106923224
 20
7148.7917773317413
 30
0.0
  0
VERTEX
  5
796
  8
LAYER01
 62
     7
 10
4345.577253441812
 20
7105.1774070873416
 30
0.0
  0
VERTEX
  5
797
  8
LAYER01
 62
     7
 10
4345.577253441812
 20
7105.1774070873416
 30
0.0
  0
VERTEX
  5
798
  8
LAYER01
 62
     7
 10
4345.577253441812
 20
7057.5980940934542
 30
0.0
  0
VERTEX
  5
799
  8
LAYER01
 62
     7
 10
4337.6473679428309
 20
7017.948666598546
 30
0.0
  0
VERTEX
  5
79A
  8
LAYER01
 62
     7
 10
4321.7875969448678
 20
6978.2992391036396
 30
0.0
  0
VERTEX
  5
79B
  8
LAYER01
 62
     7
 10
4301.9628831974142
 20
6942.6147543582238
 30
0.0
  0
VERTEX
  5
79C
  8
LAYER01
 62
     7
 10
4274.2082839509794
 20
6910.8952123622976
 30
0.0
  0
VERTEX
  5
79D
  8
LAYER01
 62
     7
 10
4242.4887419550541
 20
6883.1406131158628
 30
0.0
  0
VERTEX
  5
79E
  8
LAYER01
 62
     7
 10
4206.8042572096356
 20
6863.3158993684092
 30
0.0
  0
VERTEX
  5
79F
  8
LAYER01
 62
     7
 10
4163.1898869652387
 20
6847.4561283704461
 30
0.0
  0
VERTEX
  5
7A0
  8
LAYER01
 62
     7
 10
4416.9462229326446
 20
6510.4359946637369
 30
0.0
  0
VERTEX
  5
7A1
  8
LAYER01
 62
     7
 10
4416.9462229326446
 20
7351.0038575557674
 30
0.0
  0
VERTEX
  5
7A2
  8
LAYER01
 62
     7
 10
4583.4738184112539
 20
7351.0038575557674
 30
0.0
  0
VERTEX
  5
7A3
  8
LAYER01
 62
     7
 10
4583.4738184112539
 20
6502.5061091647531
 30
0.0
  0
VERTEX
  5
7A4
  8
LAYER01
 62
     7
 10
4226.628970957091
 20
6502.5061091647531
 30
0.0
  0
VERTEX
  5
7A5
  8
LAYER01
 62
     7
 10
3881.6789517513998
 20
6942.6147543582238
 30
0.0
  0
VERTEX
  5
7A6
  8
LAYER01
 62
     7
 10
4056.1364327289889
 20
6942.6147543582238
 30
0.0
  0
VERTEX
  5
7A7
  8
LAYER01
 62
     7
 10
4056.1364327289889
 20
6942.6147543582238
 30
0.0
  0
VERTEX
  5
7A8
  8
LAYER01
 62
     7
 10
4079.926089225934
 20
6946.5796971077143
 30
0.0
  0
VERTEX
  5
7A9
  8
LAYER01
 62
     7
 10
4103.7157457228786
 20
6954.5095826066963
 30
0.0
  0
VERTEX
  5
7AA
  8
LAYER01
 62
     7
 10
4123.5404594703332
 20
6966.4044108551689
 30
0.0
  0
VERTEX
  5
7AB
  8
LAYER01
 62
     7
 10
4143.3651732177859
 20
6982.264181853131
 30
0.0
  0
VERTEX
  5
7AC
  8
LAYER01
 62
     7
 10
4155.2600014662594
 20
7002.0888956005829
 30
0.0
  0
VERTEX
  5
7AD
  8
LAYER01
 62
     7
 10
4167.1548297147283
 20
7025.878552097528
 30
0.0
  0
VERTEX
  5
7AE
  8
LAYER01
 62
     7
 10
4175.0847152137121
 20
7049.6682085944713
 30
0.0
  0
VERTEX
  5
7AF
  8
LAYER01
 62
     7
 10
4175.0847152137121
 20
7077.4228078409069
 30
0.0
  0
VERTEX
  5
7B0
  8
LAYER01
 62
     7
 10
4175.0847152137121
 20
7077.4228078409069
 30
0.0
  0
VERTEX
  5
7B1
  8
LAYER01
 62
     7
 10
4175.0847152137121
 20
7101.212464337852
 30
0.0
  0
VERTEX
  5
7B2
  8
LAYER01
 62
     7
 10
4167.1548297147283
 20
7125.0021208347962
 30
0.0
  0
VERTEX
  5
7B3
  8
LAYER01
 62
     7
 10
4159.224944215749
 20
7148.7917773317413
 30
0.0
  0
VERTEX
  5
7B4
  8
LAYER01
 62
     7
 10
4143.3651732177859
 20
7168.6164910791931
 30
0.0
  0
VERTEX
  5
7B5
  8
LAYER01
 62
     7
 10
4127.5054022198219
 20
7184.4762620771562
 30
0.0
  0
VERTEX
  5
7B6
  8
LAYER01
 62
     7
 10
4103.7157457228786
 20
7196.3710903256278
 30
0.0
  0
VERTEX
  5
7B7
  8
LAYER01
 62
     7
 10
4079.926089225934
 20
7204.3009758246117
 30
0.0
  0
VERTEX
  5
7B8
  8
LAYER01
 62
     7
 10
4056.1364327289889
 20
7208.2659185741013
 30
0.0
  0
VERTEX
  5
7B9
  8
LAYER01
 62
     7
 10
3834.099638757511
 20
7208.2659185741013
 30
0.0
  0
VERTEX
  5
7BA
  8
LAYER01
 62
     7
 10
3834.099638757511
 20
6502.5061091647531
 30
0.0
  0
VERTEX
  5
7BB
  8
LAYER01
 62
     7
 10
3548.6237607941812
 20
6502.5061091647531
 30
0.0
  0
VERTEX
  5
7BC
  8
LAYER01
 62
     7
 10
3429.6754783094589
 20
6756.2624451321599
 30
0.0
  0
VERTEX
  5
7BD
  8
LAYER01
 62
     7
 10
3041.1110888593689
 20
6756.2624451321599
 30
0.0
  0
VERTEX
  5
7BE
  8
LAYER01
 62
     7
 10
3041.1110888593689
 20
6756.2624451321599
 30
0.0
  0
SEQEND
  5
7BF
  8
LAYER01
 62
     7
  0
POLYLINE
  5
419
  8
LAYER01
 62
     7
 66
     1
 10
0.0
 20
0.0
 30
0.0
 70
     1
  0
VERTEX
  5
7C0
  8
LAYER01
 62
     7
 10
5352.6727118124491
 20
7295.4946590628952
 30
0.0
  0
VERTEX
  5
7C1
  8
LAYER01
 62
     7
 10
5245.6192575762007
 20
7160.6866055802111
 30
0.0
  0
VERTEX
  5
7C2
  8
LAYER01
 62
     7
 10
5245.6192575762007
 20
7160.6866055802111
 30
0.0
  0
VERTEX
  5
7C3
  8
LAYER01
 62
     7
 10
5209.9347728307857
 20
7184.4762620771562
 30
0.0
  0
VERTEX
  5
7C4
  8
LAYER01
 62
     7
 10
5174.250288085369
 20
7204.3009758246117
 30
0.0
  0
VERTEX
  5
7C5
  8
LAYER01
 62
     7
 10
5134.6008605904626
 20
7216.1958040730824
 30
0.0
  0
VERTEX
  5
7C6
  8
LAYER01
 62
     7
 10
5090.9864903460648
 20
7216.1958040730824
 30
0.0
  0
VERTEX
  5
7C7
  8
LAYER01
 62
     7
 10
5090.9864903460648
 20
7216.1958040730824
 30
0.0
  0
VERTEX
  5
7C8
  8
LAYER01
 62
     7
 10
5063.2318910996291
 20
7216.1958040730824
 30
0.0
  0
VERTEX
  5
7C9
  8
LAYER01
 62
     7
 10
5035.4772918531944
 20
7212.2308613235937
 30
0.0
  0
VERTEX
  5
7CA
  8
LAYER01
 62
     7
 10
5007.7226926067578
 20
7204.3009758246117
 30
0.0
  0
VERTEX
  5
7CB
  8
LAYER01
 62
     7
 10
4979.9680933603249
 20
7192.4061475761382
 30
0.0
  0
VERTEX
  5
7CC
  8
LAYER01
 62
     7
 10
4956.1784368633807
 20
7180.5113193276648
 30
0.0
  0
VERTEX
  5
7CD
  8
LAYER01
 62
     7
 10
4936.3537231159271
 20
7164.6515483297017
 30
0.0
  0
VERTEX
  5
7CE
  8
LAYER01
 62
     7
 10
4912.5640666189829
 20
7148.7917773317413
 30
0.0
  0
VERTEX
  5
7CF
  8
LAYER01
 62
     7
 10
4896.7042956210198
 20
7128.9670635842867
 30
0.0
  0
VERTEX
  5
7D0
  8
LAYER01
 62
     7
 10
4876.8795818735662
 20
7105.1774070873416
 30
0.0
  0
VERTEX
  5
7D1
  8
LAYER01
 62
     7
 10
4864.9847536250936
 20
7081.3877505903993
 30
0.0
  0
VERTEX
  5
7D2
  8
LAYER01
 62
     7
 10
4849.1249826271314
 20
7057.5980940934542
 30
0.0
  0
VERTEX
  5
7D3
  8
LAYER01
 62
     7
 10
4837.2301543786589
 20
7033.8084375965091
 30
0.0
  0
VERTEX
  5
7D4
  8
LAYER01
 62
     7
 10
4829.3002688796769
 20
7006.0538383500743
 30
0.0
  0
VERTEX
  5
7D5
  8
LAYER01
 62
     7
 10
4825.3353261301863
 20
6978.2992391036396
 30
0.0
  0
VERTEX
  5
7D6
  8
LAYER01
 62
     7
 10
4821.3703833806958
 20
6950.5446398572049
 30
0.0
  0
VERTEX
  5
7D7
  8
LAYER01
 62
     7
 10
4817.4054406312061
 20
6918.8250978612787
 30
0.0
  0
VERTEX
  5
7D8
  8
LAYER01
 62
     7
 10
4817.4054406312061
 20
6918.8250978612787
 30
0.0
  0
VERTEX
  5
7D9
  8
LAYER01
 62
     7
 10
4821.3703833806958
 20
6891.0704986148439
 30
0.0
  0
VERTEX
  5
7DA
  8
LAYER01
 62
     7
 10
4825.3353261301863
 20
6863.3158993684092
 30
0.0
  0
VERTEX
  5
7DB
  8
LAYER01
 62
     7
 10
4829.3002688796769
 20
6835.5613001219781
 30
0.0
  0
VERTEX
  5
7DC
  8
LAYER01
 62
     7
 10
4841.1950971281503
 20
6811.7716436250303
 30
0.0
  0
VERTEX
  5
7DD
  8
LAYER01
 62
     7
 10
4849.1249826271314
 20
6787.9819871280861
 30
0.0
  0
VERTEX
  5
7DE
  8
LAYER01
 62
     7
 10
4864.9847536250936
 20
6764.1923306311428
 30
0.0
  0
VERTEX
  5
7DF
  8
LAYER01
 62
     7
 10
4880.8445246230567
 20
6740.4026741341977
 30
0.0
  0
VERTEX
  5
7E0
  8
LAYER01
 62
     7
 10
4896.7042956210198
 20
6720.5779603867441
 30
0.0
  0
VERTEX
  5
7E1
  8
LAYER01
 62
     7
 10
4916.5290093684744
 20
6700.7532466392904
 30
0.0
  0
VERTEX
  5
7E2
  8
LAYER01
 62
     7
 10
4936.3537231159271
 20
6684.8934756413273
 30
0.0
  0
VERTEX
  5
7E3
  8
LAYER01
 62
     7
 10
4960.1433796128722
 20
6672.9986473928557
 30
0.0
  0
VERTEX
  5
7E4
  8
LAYER01
 62
     7
 10
4983.9330361098146
 20
6661.103819144384
 30
0.0
  0
VERTEX
  5
7E5
  8
LAYER01
 62
     7
 10
5011.6876353562502
 20
6649.2089908959097
 30
0.0
  0
VERTEX
  5
7E6
  8
LAYER01
 62
     7
 10
5035.4772918531944
 20
6641.2791053969304
 30
0.0
  0
VERTEX
  5
7E7
  8
LAYER01
 62
     7
 10
5063.2318910996291
 20
6637.3141626474389
 30
0.0
  0
VERTEX
  5
7E8
  8
LAYER01
 62
     7
 10
5094.9514330955544
 20
6637.3141626474389
 30
0.0
  0
VERTEX
  5
7E9
  8
LAYER01
 62
     7
 10
5094.9514330955544
 20
6637.3141626474389
 30
0.0
  0
VERTEX
  5
7EA
  8
LAYER01
 62
     7
 10
5138.5658033399532
 20
6641.2791053969304
 30
0.0
  0
VERTEX
  5
7EB
  8
LAYER01
 62
     7
 10
5174.250288085369
 20
6649.2089908959097
 30
0.0
  0
VERTEX
  5
7EC
  8
LAYER01
 62
     7
 10
5209.9347728307857
 20
6669.0337046433651
 30
0.0
  0
VERTEX
  5
7ED
  8
LAYER01
 62
     7
 10
5245.6192575762007
 20
6692.8233611403102
 30
0.0
  0
VERTEX
  5
7EE
  8
LAYER01
 62
     7
 10
5348.7077690629603
 20
6554.0503649081338
 30
0.0
  0
VERTEX
  5
7EF
  8
LAYER01
 62
     7
 10
5348.7077690629603
 20
6554.0503649081338
 30
0.0
  0
VERTEX
  5
7F0
  8
LAYER01
 62
     7
 10
5289.2336278206003
 20
6518.365880162718
 30
0.0
  0
VERTEX
  5
7F1
  8
LAYER01
 62
     7
 10
5257.5140858246741
 20
6506.4710519142454
 30
0.0
  0
VERTEX
  5
7F2
  8
LAYER01
 62
     7
 10
5229.7594865782394
 20
6494.5762236657738
 30
0.0
  0
VERTEX
  5
7F3
  8
LAYER01
 62
     7
 10
5198.0399445823132
 20
6486.6463381667909
 30
0.0
  0
VERTEX
  5
7F4
  8
LAYER01
 62
     7
 10
5166.3204025863879
 20
6482.6813954173012
 30
0.0
  0
VERTEX
  5
7F5
  8
LAYER01
 62
     7
 10
5094.9514330955544
 20
6478.7164526678098
 30
0.0
  0
VERTEX
  5
7F6
  8
LAYER01
 62
     7
 10
5094.9514330955544
 20
6478.7164526678098
 30
0.0
  0
VERTEX
  5
7F7
  8
LAYER01
 62
     7
 10
5047.372120101667
 20
6482.6813954173012
 30
0.0
  0
VERTEX
  5
7F8
  8
LAYER01
 62
     7
 10
5003.7577498572691
 20
6490.6112809162832
 30
0.0
  0
VERTEX
  5
7F9
  8
LAYER01
 62
     7
 10
4960.1433796128722
 20
6498.5411664152653
 30
0.0
  0
VERTEX
  5
7FA
  8
LAYER01
 62
     7
 10
4920.493952117964
 20
6514.4009374132283
 30
0.0
  0
VERTEX
  5
7FB
  8
LAYER01
 62
     7
 10
4880.8445246230567
 20
6534.2256511606811
 30
0.0
  0
VERTEX
  5
7FC
  8
LAYER01
 62
     7
 10
4845.16003987764
 20
6554.0503649081338
 30
0.0
  0
VERTEX
  5
7FD
  8
LAYER01
 62
     7
 10
4809.4755551322241
 20
6581.8049641545704
 30
0.0
  0
VERTEX
  5
7FE
  8
LAYER01
 62
     7
 10
4777.756013136298
 20
6609.5595634010042
 30
0.0
  0
VERTEX
  5
7FF
  8
LAYER01
 62
     7
 10
4746.0364711403727
 20
6641.2791053969304
 30
0.0
  0
VERTEX
  5
800
  8
LAYER01
 62
     7
 10
4722.2468146434294
 20
6676.9635901423471
 30
0.0
  0
VERTEX
  5
801
  8
LAYER01
 62
     7
 10
4698.4571581464834
 20
6712.648074887763
 30
0.0
  0
VERTEX
  5
802
  8
LAYER01
 62
     7
 10
4678.6324443990288
 20
6752.2975023826693
 30
0.0
  0
VERTEX
  5
803
  8
LAYER01
 62
     7
 10
4666.737616150559
 20
6791.9469298775748
 30
0.0
  0
VERTEX
  5
804
  8
LAYER01
 62
     7
 10
4654.8427879020883
 20
6835.5613001219781
 30
0.0
  0
VERTEX
  5
805
  8
LAYER01
 62
     7
 10
4646.9129024031063
 20
6879.1756703663723
 30
0.0
  0
VERTEX
  5
806
  8
LAYER01
 62
     7
 10
4642.947959653613
 20
6926.7549833602607
 30
0.0
  0
VERTEX
  5
807
  8
LAYER01
 62
     7
 10
4642.947959653613
 20
6926.7549833602607
 30
0.0
  0
VERTEX
  5
808
  8
LAYER01
 62
     7
 10
4646.9129024031063
 20
6970.3693536046603
 30
0.0
  0
VERTEX
  5
809
  8
LAYER01
 62
     7
 10
4654.8427879020883
 20
7017.948666598546
 30
0.0
  0
VERTEX
  5
80A
  8
LAYER01
 62
     7
 10
4662.7726734010676
 20
7057.5980940934542
 30
0.0
  0
VERTEX
  5
80B
  8
LAYER01
 62
     7
 10
4678.6324443990288
 20
7101.212464337852
 30
0.0
  0
VERTEX
  5
80C
  8
LAYER01
 62
     7
 10
4698.4571581464834
 20
7140.8618918327593
 30
0.0
  0
VERTEX
  5
80D
  8
LAYER01
 62
     7
 10
4718.2818718939379
 20
7176.5463765781742
 30
0.0
  0
VERTEX
  5
80E
  8
LAYER01
 62
     7
 10
4746.0364711403727
 20
7212.2308613235937
 30
0.0
  0
VERTEX
  5
80F
  8
LAYER01
 62
     7
 10
4773.7910703868083
 20
7243.950403319518
 30
0.0
  0
VERTEX
  5
810
  8
LAYER01
 62
     7
 10
4805.5106123827327
 20
7271.705002565951
 30
0.0
  0
VERTEX
  5
811
  8
LAYER01
 62
     7
 10
4841.1950971281503
 20
7299.4596018123866
 30
0.0
  0
VERTEX
  5
812
  8
LAYER01
 62
     7
 10
4876.8795818735662
 20
7319.2843155598421
 30
0.0
  0
VERTEX
  5
813
  8
LAYER01
 62
     7
 10
4916.5290093684744
 20
7339.1090293072939
 30
0.0
  0
VERTEX
  5
814
  8
LAYER01
 62
     7
 10
4956.1784368633807
 20
7354.9688003052588
 30
0.0
  0
VERTEX
  5
815
  8
LAYER01
 62
     7
 10
4999.7928071077777
 20
7366.8636285537268
 30
0.0
  0
VERTEX
  5
816
  8
LAYER01
 62
     7
 10
5047.372120101667
 20
7370.8285713032201
 30
0.0
  0
VERTEX
  5
817
  8
LAYER01
 62
     7
 10
5090.9864903460648
 20
7374.7935140527079
 30
0.0
  0
VERTEX
  5
818
  8
LAYER01
 62
     7
 10
5090.9864903460648
 20
7374.7935140527079
 30
0.0
  0
VERTEX
  5
819
  8
LAYER01
 62
     7
 10
5162.3554598368992
 20
7370.8285713032201
 30
0.0
  0
VERTEX
  5
81A
  8
LAYER01
 62
     7
 10
5198.0399445823132
 20
7366.8636285537268
 30
0.0
  0
VERTEX
  5
81B
  8
LAYER01
 62
     7
 10
5229.7594865782394
 20
7358.9337430547457
 30
0.0
  0
VERTEX
  5
81C
  8
LAYER01
 62
     7
 10
5257.5140858246741
 20
7347.0389148062732
 30
0.0
  0
VERTEX
  5
81D
  8
LAYER01
 62
     7
 10
5289.2336278206003
 20
7335.1440865578052
 30
0.0
  0
VERTEX
  5
81E
  8
LAYER01
 62
     7
 10
5320.9531698165256
 20
7315.3193728103488
 30
0.0
  0
VERTEX
  5
81F
  8
LAYER01
 62
     7
 10
5352.6727118124491
 20
7295.4946590628952
 30
0.0
  0
VERTEX
  5
820
  8
LAYER01
 62
     7
 10
5352.6727118124491
 20
7295.4946590628952
 30
0.0
  0
SEQEND
  5
821
  8
LAYER01
 62
     7
  0
POLYLINE
  5
41A
  8
LAYER01
 62
     7
 66
     1
 10
0.0
 20
0.0
 30
0.0
 70
     1
  0
VERTEX
  5
822
  8
LAYER01
 62
     7
 10
5737.2721585130503
 20
7370.8285713032201
 30
0.0
  0
VERTEX
  5
823
  8
LAYER01
 62
     7
 10
5737.2721585130503
 20
7370.8285713032201
 30
0.0
  0
VERTEX
  5
824
  8
LAYER01
 62
     7
 10
5693.6577882686533
 20
7366.8636285537268
 30
0.0
  0
VERTEX
  5
825
  8
LAYER01
 62
     7
 10
5646.0784752747632
 20
7362.8986858042381
 30
0.0
  0
VERTEX
  5
826
  8
LAYER01
 62
     7
 10
5606.429047779855
 20
7351.0038575557674
 30
0.0
  0
VERTEX
  5
827
  8
LAYER01
 62
     7
 10
5562.814677535458
 20
7335.1440865578052
 30
0.0
  0
VERTEX
  5
828
  8
LAYER01
 62
     7
 10
5523.1652500405517
 20
7319.2843155598421
 30
0.0
  0
VERTEX
  5
829
  8
LAYER01
 62
     7
 10
5487.4807652951349
 20
7295.4946590628952
 30
0.0
  0
VERTEX
  5
82A
  8
LAYER01
 62
     7
 10
5451.7962805497182
 20
7271.705002565951
 30
0.0
  0
VERTEX
  5
82B
  8
LAYER01
 62
     7
 10
5420.0767385537929
 20
7239.9854605700248
 30
0.0
  0
VERTEX
  5
82C
  8
LAYER01
 62
     7
 10
5392.3221393073582
 20
7208.2659185741013
 30
0.0
  0
VERTEX
  5
82D
  8
LAYER01
 62
     7
 10
5364.5675400609243
 20
7176.5463765781742
 30
0.0
  0
VERTEX
  5
82E
  8
LAYER01
 62
     7
 10
5340.7778835639801
 20
7140.8618918327593
 30
0.0
  0
VERTEX
  5
82F
  8
LAYER01
 62
     7
 10
5320.9531698165256
 20
7101.212464337852
 30
0.0
  0
VERTEX
  5
830
  8
LAYER01
 62
     7
 10
5309.0583415680539
 20
7057.5980940934542
 30
0.0
  0
VERTEX
  5
831
  8
LAYER01
 62
     7
 10
5297.1635133195814
 20
7017.948666598546
 30
0.0
  0
VERTEX
  5
832
  8
LAYER01
 62
     7
 10
5289.2336278206003
 20
6970.3693536046603
 30
0.0
  0
VERTEX
  5
833
  8
LAYER01
 62
     7
 10
5285.2686850711088
 20
6926.7549833602607
 30
0.0
  0
VERTEX
  5
834
  8
LAYER01
 62
     7
 10
5285.2686850711088
 20
6926.7549833602607
 30
0.0
  0
VERTEX
  5
835
  8
LAYER01
 62
     7
 10
5289.2336278206003
 20
6879.1756703663723
 30
0.0
  0
VERTEX
  5
836
  8
LAYER01
 62
     7
 10
5293.1985705700909
 20
6835.5613001219781
 30
0.0
  0
VERTEX
  5
837
  8
LAYER01
 62
     7
 10
5305.0933988185634
 20
6791.9469298775748
 30
0.0
  0
VERTEX
  5
838
  8
LAYER01
 62
     7
 10
5320.9531698165256
 20
6752.2975023826693
 30
0.0
  0
VERTEX
  5
839
  8
LAYER01
 62
     7
 10
5336.8129408144878
 20
6712.648074887763
 30
0.0
  0
VERTEX
  5
83A
  8
LAYER01
 62
     7
 10
5360.602597311432
 20
6676.9635901423471
 30
0.0
  0
VERTEX
  5
83B
  8
LAYER01
 62
     7
 10
5384.3922538083762
 20
6641.2791053969304
 30
0.0
  0
VERTEX
  5
83C
  8
LAYER01
 62
     7
 10
5412.1468530548118
 20
6609.5595634010042
 30
0.0
  0
VERTEX
  5
83D
  8
LAYER01
 62
     7
 10
5443.8663950507362
 20
6577.8400214050789
 30
0.0
  0
VERTEX
  5
83E
  8
LAYER01
 62
     7
 10
5479.5508797961529
 20
6554.0503649081338
 30
0.0
  0
VERTEX
  5
83F
  8
LAYER01
 62
     7
 10
5515.2353645415697
 20
6530.2607084111914
 30
0.0
  0
VERTEX
  5
840
  8
LAYER01
 62
     7
 10
5554.8847920364769
 20
6510.4359946637369
 30
0.0
  0
VERTEX
  5
841
  8
LAYER01
 62
     7
 10
5594.5342195313842
 20
6494.5762236657738
 30
0.0
  0
VERTEX
  5
842
  8
LAYER01
 62
     7
 10
5638.1485897757821
 20
6486.6463381667909
 30
0.0
  0
VERTEX
  5
843
  8
LAYER01
 62
     7
 10
5681.762960020179
 20
6478.7164526678098
 30
0.0
  0
VERTEX
  5
844
  8
LAYER01
 62
     7
 10
5725.3773302645768
 20
6474.7515099183202
 30
0.0
  0
VERTEX
  5
845
  8
LAYER01
 62
     7
 10
5725.3773302645768
 20
6474.7515099183202
 30
0.0
  0
VERTEX
  5
846
  8
LAYER01
 62
     7
 10
5772.9566432584652
 20
6478.7164526678098
 30
0.0
  0
VERTEX
  5
847
  8
LAYER01
 62
     7
 10
5816.5710135028621
 20
6486.6463381667909
 30
0.0
  0
VERTEX
  5
848
  8
LAYER01
 62
     7
 10
5860.1853837472609
 20
6498.5411664152653
 30
0.0
  0
VERTEX
  5
849
  8
LAYER01
 62
     7
 10
5899.8348112421681
 20
6514.4009374132283
 30
0.0
  0
VERTEX
  5
84A
  8
LAYER01
 62
     7
 10
5939.4842387370763
 20
6534.2256511606811
 30
0.0
  0
VERTEX
  5
84B
  8
LAYER01
 62
     7
 10
5975.1687234824913
 20
6558.0153076576235
 30
0.0
  0
VERTEX
  5
84C
  8
LAYER01
 62
     7
 10
6010.853208227908
 20
6581.8049641545704
 30
0.0
  0
VERTEX
  5
84D
  8
LAYER01
 62
     7
 10
6042.5727502238333
 20
6613.5245061504938
 30
0.0
  0
VERTEX
  5
84E
  8
LAYER01
 62
     7
 10
6070.3273494702689
 20
6645.2440481464209
 30
0.0
  0
VERTEX
  5
84F
  8
LAYER01
 62
     7
 10
6094.1170059672131
 20
6680.9285328918368
 30
0.0
  0
VERTEX
  5
850
  8
LAYER01
 62
     7
 10
6113.9417197146659
 20
6716.6130176372544
 30
0.0
  0
VERTEX
  5
851
  8
LAYER01
 62
     7
 10
6133.7664334621204
 20
6756.2624451321599
 30
0.0
  0
VERTEX
  5
852
  8
LAYER01
 62
     7
 10
6149.6262044600817
 20
6799.8768153765577
 30
0.0
  0
VERTEX
  5
853
  8
LAYER01
 62
     7
 10
6157.5560899590637
 20
6843.4911856209546
 30
0.0
  0
VERTEX
  5
854
  8
LAYER01
 62
     7
 10
6161.5210327085533
 20
6887.1055558653534
 30
0.0
  0
VERTEX
  5
855
  8
LAYER01
 62
     7
 10
6165.4859754580457
 20
6934.6848688592418
 30
0.0
  0
VERTEX
  5
856
  8
LAYER01
 62
     7
 10
6165.4859754580457
 20
6934.6848688592418
 30
0.0
  0
VERTEX
  5
857
  8
LAYER01
 62
     7
 10
6161.5210327085533
 20
6978.2992391036396
 30
0.0
  0
VERTEX
  5
858
  8
LAYER01
 62
     7
 10
6153.5911472095731
 20
7021.9136093480374
 30
0.0
  0
VERTEX
  5
859
  8
LAYER01
 62
     7
 10
6141.6963189611024
 20
7061.5630368429456
 30
0.0
  0
VERTEX
  5
85A
  8
LAYER01
 62
     7
 10
6129.8014907126289
 20
7101.212464337852
 30
0.0
  0
VERTEX
  5
85B
  8
LAYER01
 62
     7
 10
6109.9767769651762
 20
7136.8969490832678
 30
0.0
  0
VERTEX
  5
85C
  8
LAYER01
 62
     7
 10
6090.1520632177217
 20
7172.5814338286846
 30
0.0
  0
VERTEX
  5
85D
  8
LAYER01
 62
     7
 10
6066.3624067207766
 20
7208.2659185741013
 30
0.0
  0
VERTEX
  5
85E
  8
LAYER01
 62
     7
 10
6038.6078074743446
 20
7236.0205178205333
 30
0.0
  0
VERTEX
  5
85F
  8
LAYER01
 62
     7
 10
6006.8882654784184
 20
7263.7751170669708
 30
0.0
  0
VERTEX
  5
860
  8
LAYER01
 62
     7
 10
5975.1687234824913
 20
7291.5297163134037
 30
0.0
  0
VERTEX
  5
861
  8
LAYER01
 62
     7
 10
5939.4842387370763
 20
7311.3544300608592
 30
0.0
  0
VERTEX
  5
862
  8
LAYER01
 62
     7
 10
5903.7997539916578
 20
7331.1791438083146
 30
0.0
  0
VERTEX
  5
863
  8
LAYER01
 62
     7
 10
5864.1503264967514
 20
7347.0389148062732
 30
0.0
  0
VERTEX
  5
864
  8
LAYER01
 62
     7
 10
5824.5008990018441
 20
7358.9337430547457
 30
0.0
  0
VERTEX
  5
865
  8
LAYER01
 62
     7
 10
5780.8865287574472
 20
7366.8636285537268
 30
0.0
  0
VERTEX
  5
866
  8
LAYER01
 62
     7
 10
5737.2721585130503
 20
7370.8285713032201
 30
0.0
  0
VERTEX
  5
867
  8
LAYER01
 62
     7
 10
5737.2721585130503
 20
7370.8285713032201
 30
0.0
  0
SEQEND
  5
868
  8
LAYER01
 62
     7
  0
POLYLINE
  5
41B
  8
LAYER01
 62
     7
 66
     1
 10
0.0
 20
0.0
 30
0.0
 70
     1
  0
VERTEX
  5
869
  8
LAYER01
 62
     7
 10
5725.3773302645768
 20
6637.3141626474389
 30
0.0
  0
VERTEX
  5
86A
  8
LAYER01
 62
     7
 10
5725.3773302645768
 20
6637.3141626474389
 30
0.0
  0
VERTEX
  5
86B
  8
LAYER01
 62
     7
 10
5697.6227310181421
 20
6641.2791053969304
 30
0.0
  0
VERTEX
  5
86C
  8
LAYER01
 62
     7
 10
5669.8681317717073
 20
6645.2440481464209
 30
0.0
  0
VERTEX
  5
86D
  8
LAYER01
 62
     7
 10
5642.1135325252717
 20
6649.2089908959097
 30
0.0
  0
VERTEX
  5
86E
  8
LAYER01
 62
     7
 10
5614.3589332788379
 20
6661.103819144384
 30
0.0
  0
VERTEX
  5
86F
  8
LAYER01
 62
     7
 10
5590.56927678189
 20
6672.9986473928557
 30
0.0
  0
VERTEX
  5
870
  8
LAYER01
 62
     7
 10
5566.7796202849486
 20
6688.8584183908179
 30
0.0
  0
VERTEX
  5
871
  8
LAYER01
 62
     7
 10
5546.9549065374968
 20
6704.718189388781
 30
0.0
  0
VERTEX
  5
872
  8
LAYER01
 62
     7
 10
5527.1301927900431
 20
6724.5429031362328
 30
0.0
  0
VERTEX
  5
873
  8
LAYER01
 62
     7
 10
5507.3054790425886
 20
6744.3676168836892
 30
0.0
  0
VERTEX
  5
874
  8
LAYER01
 62
     7
 10
5491.4457080446264
 20
6764.1923306311428
 30
0.0
  0
VERTEX
  5
875
  8
LAYER01
 62
     7
 10
5479.5508797961529
 20
6787.9819871280861
 30
0.0
  0
VERTEX
  5
876
  8
LAYER01
 62
     7
 10
5467.6560515476813
 20
6815.7365863745208
 30
0.0
  0
VERTEX
  5
877
  8
LAYER01
 62
     7
 10
5455.7612232992096
 20
6839.5262428714632
 30
0.0
  0
VERTEX
  5
878
  8
LAYER01
 62
     7
 10
5451.7962805497182
 20
6867.2808421178988
 30
0.0
  0
VERTEX
  5
879
  8
LAYER01
 62
     7
 10
5443.8663950507362
 20
6895.0354413643372
 30
0.0
  0
VERTEX
  5
87A
  8
LAYER01
 62
     7
 10
5443.8663950507362
 20
6926.7549833602607
 30
0.0
  0
VERTEX
  5
87B
  8
LAYER01
 62
     7
 10
5443.8663950507362
 20
6926.7549833602607
 30
0.0
  0
VERTEX
  5
87C
  8
LAYER01
 62
     7
 10
5447.8313378002258
 20
6954.5095826066963
 30
0.0
  0
VERTEX
  5
87D
  8
LAYER01
 62
     7
 10
5451.7962805497182
 20
6982.264181853131
 30
0.0
  0
VERTEX
  5
87E
  8
LAYER01
 62
     7
 10
5459.7261660486993
 20
7010.0187810995658
 30
0.0
  0
VERTEX
  5
87F
  8
LAYER01
 62
     7
 10
5467.6560515476813
 20
7037.7733803459996
 30
0.0
  0
VERTEX
  5
880
  8
LAYER01
 62
     7
 10
5479.5508797961529
 20
7061.5630368429456
 30
0.0
  0
VERTEX
  5
881
  8
LAYER01
 62
     7
 10
5495.410650794116
 20
7085.3526933398889
 30
0.0
  0
VERTEX
  5
882
  8
LAYER01
 62
     7
 10
5511.27042179208
 20
7105.1774070873416
 30
0.0
  0
VERTEX
  5
883
  8
LAYER01
 62
     7
 10
5531.0951355395327
 20
7125.0021208347962
 30
0.0
  0
VERTEX
  5
884
  8
LAYER01
 62
     7
 10
5550.9198492869864
 20
7144.826834582248
 30
0.0
  0
VERTEX
  5
885
  8
LAYER01
 62
     7
 10
5570.74456303444
 20
7160.6866055802111
 30
0.0
  0
VERTEX
  5
886
  8
LAYER01
 62
     7
 10
5594.5342195313842
 20
7176.5463765781742
 30
0.0
  0
VERTEX
  5
887
  8
LAYER01
 62
     7
 10
5622.288818777819
 20
7188.4412048266468
 30
0.0
  0
VERTEX
  5
888
  8
LAYER01
 62
     7
 10
5646.0784752747632
 20
7196.3710903256278
 30
0.0
  0
VERTEX
  5
889
  8
LAYER01
 62
     7
 10
5673.8330745211979
 20
7204.3009758246117
 30
0.0
  0
VERTEX
  5
88A
  8
LAYER01
 62
     7
 10
5701.5876737676326
 20
7208.2659185741013
 30
0.0
  0
VERTEX
  5
88B
  8
LAYER01
 62
     7
 10
5733.3072157635588
 20
7208.2659185741013
 30
0.0
  0
VERTEX
  5
88C
  8
LAYER01
 62
     7
 10
5733.3072157635588
 20
7208.2659185741013
 30
0.0
  0
VERTEX
  5
88D
  8
LAYER01
 62
     7
 10
5761.0618150099936
 20
7204.3009758246117
 30
0.0
  0
VERTEX
  5
88E
  8
LAYER01
 62
     7
 10
5788.8164142564283
 20
7200.3360330751193
 30
0.0
  0
VERTEX
  5
88F
  8
LAYER01
 62
     7
 10
5812.6060707533707
 20
7192.4061475761382
 30
0.0
  0
VERTEX
  5
890
  8
LAYER01
 62
     7
 10
5840.3606699998072
 20
7184.4762620771562
 30
0.0
  0
VERTEX
  5
891
  8
LAYER01
 62
     7
 10
5860.1853837472609
 20
7172.5814338286846
 30
0.0
  0
VERTEX
  5
892
  8
LAYER01
 62
     7
 10
5883.975040244205
 20
7156.7216628307224
 30
0.0
  0
VERTEX
  5
893
  8
LAYER01
 62
     7
 10
5903.7997539916578
 20
7140.8618918327593
 30
0.0
  0
VERTEX
  5
894
  8
LAYER01
 62
     7
 10
5923.6244677391132
 20
7125.0021208347962
 30
0.0
  0
VERTEX
  5
895
  8
LAYER01
 62
     7
 10
5939.4842387370763
 20
7105.1774070873416
 30
0.0
  0
VERTEX
  5
896
  8
LAYER01
 62
     7
 10
5955.3440097350358
 20
7081.3877505903993
 30
0.0
  0
VERTEX
  5
897
  8
LAYER01
 62
     7
 10
5971.2037807329998
 20
7061.5630368429456
 30
0.0
  0
VERTEX
  5
898
  8
LAYER01
 62
     7
 10
5983.0986089814751
 20
7037.7733803459996
 30
0.0
  0
VERTEX
  5
899
  8
LAYER01
 62
     7
 10
5991.0284944804544
 20
7010.0187810995658
 30
0.0
  0
VERTEX
  5
89A
  8
LAYER01
 62
     7
 10
5998.9583799794336
 20
6986.2291246026198
 30
0.0
  0
VERTEX
  5
89B
  8
LAYER01
 62
     7
 10
6002.923322728926
 20
6958.4745253561869
 30
0.0
  0
VERTEX
  5
89C
  8
LAYER01
 62
     7
 10
6002.923322728926
 20
6930.7199261097512
 30
0.0
  0
VERTEX
  5
89D
  8
LAYER01
 62
     7
 10
6002.923322728926
 20
6930.7199261097512
 30
0.0
  0
VERTEX
  5
89E
  8
LAYER01
 62
     7
 10
6002.923322728926
 20
6899.0003841138259
 30
0.0
  0
VERTEX
  5
89F
  8
LAYER01
 62
     7
 10
5998.9583799794336
 20
6871.2457848673903
 30
0.0
  0
VERTEX
  5
8A0
  8
LAYER01
 62
     7
 10
5994.9934372299449
 20
6843.4911856209546
 30
0.0
  0
VERTEX
  5
8A1
  8
LAYER01
 62
     7
 10
5983.0986089814751
 20
6819.7015291240123
 30
0.0
  0
VERTEX
  5
8A2
  8
LAYER01
 62
     7
 10
5975.1687234824913
 20
6791.9469298775748
 30
0.0
  0
VERTEX
  5
8A3
  8
LAYER01
 62
     7
 10
5959.3089524845291
 20
6768.1572733806324
 30
0.0
  0
VERTEX
  5
8A4
  8
LAYER01
 62
     7
 10
5943.449181486566
 20
6744.3676168836892
 30
0.0
  0
VERTEX
  5
8A5
  8
LAYER01
 62
     7
 10
5923.6244677391132
 20
6724.5429031362328
 30
0.0
  0
VERTEX
  5
8A6
  8
LAYER01
 62
     7
 10
5903.7997539916578
 20
6704.718189388781
 30
0.0
  0
VERTEX
  5
8A7
  8
LAYER01
 62
     7
 10
5883.975040244205
 20
6688.8584183908179
 30
0.0
  0
VERTEX
  5
8A8
  8
LAYER01
 62
     7
 10
5860.1853837472609
 20
6672.9986473928557
 30
0.0
  0
VERTEX
  5
8A9
  8
LAYER01
 62
     7
 10
5836.3957272503194
 20
6661.103819144384
 30
0.0
  0
VERTEX
  5
8AA
  8
LAYER01
 62
     7
 10
5808.6411280038801
 20
6653.173933645402
 30
0.0
  0
VERTEX
  5
8AB
  8
LAYER01
 62
     7
 10
5780.8865287574472
 20
6645.2440481464209
 30
0.0
  0
VERTEX
  5
8AC
  8
LAYER01
 62
     7
 10
5753.1319295110097
 20
6641.2791053969304
 30
0.0
  0
VERTEX
  5
8AD
  8
LAYER01
 62
     7
 10
5725.3773302645768
 20
6637.3141626474389
 30
0.0
  0
VERTEX
  5
8AE
  8
LAYER01
 62
     7
 10
5725.3773302645768
 20
6637.3141626474389
 30
0.0
  0
SEQEND
  5
8AF
  8
LAYER01
 62
     7
  0
POLYLINE
  5
41C
  8
LAYER01
 62
     7
 66
     1
 10
0.0
 20
0.0
 30
0.0
 70
     1
  0
VERTEX
  5
8B0
  8
LAYER01
 62
     7
 10
6042.5727502238333
 20
7351.0038575557674
 30
0.0
  0
VERTEX
  5
8B1
  8
LAYER01
 62
     7
 10
6462.8566816698476
 20
7351.0038575557674
 30
0.0
  0
VERTEX
  5
8B2
  8
LAYER01
 62
     7
 10
6462.8566816698476
 20
7351.0038575557674
 30
0.0
  0
VERTEX
  5
8B3
  8
LAYER01
 62
     7
 10
6510.4359946637369
 20
7343.0739720567844
 30
0.0
  0
VERTEX
  5
8B4
  8
LAYER01
 62
     7
 10
6554.0503649081338
 20
7323.2492583093299
 30
0.0
  0
VERTEX
  5
8B5
  8
LAYER01
 62
     7
 10
6589.7348496535496
 20
7299.4596018123866
 30
0.0
  0
VERTEX
  5
8B6
  8
LAYER01
 62
     7
 10
6621.4543916494758
 20
7267.7400598164604
 30
0.0
  0
VERTEX
  5
8B7
  8
LAYER01
 62
     7
 10
6649.2089908959097
 20
7236.0205178205333
 30
0.0
  0
VERTEX
  5
8B8
  8
LAYER01
 62
     7
 10
6669.0337046433651
 20
7196.3710903256278
 30
0.0
  0
VERTEX
  5
8B9
  8
LAYER01
 62
     7
 10
6680.9285328918368
 20
7148.7917773317413
 30
0.0
  0
VERTEX
  5
8BA
  8
LAYER01
 62
     7
 10
6684.8934756413273
 20
7105.1774070873416
 30
0.0
  0
VERTEX
  5
8BB
  8
LAYER01
 62
     7
 10
6684.8934756413273
 20
7105.1774070873416
 30
0.0
  0
VERTEX
  5
8BC
  8
LAYER01
 62
     7
 10
6680.9285328918368
 20
7057.5980940934542
 30
0.0
  0
VERTEX
  5
8BD
  8
LAYER01
 62
     7
 10
6672.9986473928557
 20
7017.948666598546
 30
0.0
  0
VERTEX
  5
8BE
  8
LAYER01
 62
     7
 10
6657.1388763948926
 20
6978.2992391036396
 30
0.0
  0
VERTEX
  5
8BF
  8
LAYER01
 62
     7
 10
6637.3141626474389
 20
6942.6147543582238
 30
0.0
  0
VERTEX
  5
8C0
  8
LAYER01
 62
     7
 10
6609.5595634010042
 20
6910.8952123622976
 30
0.0
  0
VERTEX
  5
8C1
  8
LAYER01
 62
     7
 10
6581.8049641545704
 20
6887.1055558653534
 30
0.0
  0
VERTEX
  5
8C2
  8
LAYER01
 62
     7
 10
6542.1555366596622
 20
6863.3158993684092
 30
0.0
  0
VERTEX
  5
8C3
  8
LAYER01
 62
     7
 10
6502.5061091647531
 20
6847.4561283704461
 30
0.0
  0
VERTEX
  5
8C4
  8
LAYER01
 62
     7
 10
6760.2273878816522
 20
6502.5061091647531
 30
0.0
  0
VERTEX
  5
8C5
  8
LAYER01
 62
     7
 10
6561.9802504071158
 20
6502.5061091647531
 30
0.0
  0
VERTEX
  5
8C6
  8
LAYER01
 62
     7
 10
6217.0302312014246
 20
6942.6147543582238
 30
0.0
  0
VERTEX
  5
8C7
  8
LAYER01
 62
     7
 10
6411.3124259264687
 20
6942.6147543582238
 30
0.0
  0
VERTEX
  5
8C8
  8
LAYER01
 62
     7
 10
6411.3124259264687
 20
6942.6147543582238
 30
0.0
  0
VERTEX
  5
8C9
  8
LAYER01
 62
     7
 10
6435.102082423412
 20
6950.5446398572049
 30
0.0
  0
VERTEX
  5
8CA
  8
LAYER01
 62
     7
 10
6454.9267961708647
 20
6958.4745253561869
 30
0.0
  0
VERTEX
  5
8CB
  8
LAYER01
 62
     7
 10
6470.7865671688287
 20
6974.334296354149
 30
0.0
  0
VERTEX
  5
8CC
  8
LAYER01
 62
     7
 10
6486.6463381667909
 20
6990.1940673521131
 30
0.0
  0
VERTEX
  5
8CD
  8
LAYER01
 62
     7
 10
6498.5411664152653
 20
7010.0187810995658
 30
0.0
  0
VERTEX
  5
8CE
  8
LAYER01
 62
     7
 10
6510.4359946637369
 20
7029.8434948470176
 30
0.0
  0
VERTEX
  5
8CF
  8
LAYER01
 62
     7
 10
6514.4009374132283
 20
7053.6331513439627
 30
0.0
  0
VERTEX
  5
8D0
  8
LAYER01
 62
     7
 10
6514.4009374132283
 20
7077.4228078409069
 30
0.0
  0
VERTEX
  5
8D1
  8
LAYER01
 62
     7
 10
6514.4009374132283
 20
7077.4228078409069
 30
0.0
  0
VERTEX
  5
8D2
  8
LAYER01
 62
     7
 10
6514.4009374132283
 20
7101.212464337852
 30
0.0
  0
VERTEX
  5
8D3
  8
LAYER01
 62
     7
 10
6506.4710519142454
 20
7121.0371780853047
 30
0.0
  0
VERTEX
  5
8D4
  8
LAYER01
 62
     7
 10
6498.5411664152653
 20
7140.8618918327593
 30
0.0
  0
VERTEX
  5
8D5
  8
LAYER01
 62
     7
 10
6486.6463381667909
 20
7160.6866055802111
 30
0.0
  0
VERTEX
  5
8D6
  8
LAYER01
 62
     7
 10
6470.7865671688287
 20
7176.5463765781742
 30
0.0
  0
VERTEX
  5
8D7
  8
LAYER01
 62
     7
 10
6454.9267961708647
 20
7188.4412048266468
 30
0.0
  0
VERTEX
  5
8D8
  8
LAYER01
 62
     7
 10
6431.1371396739214
 20
7200.3360330751193
 30
0.0
  0
VERTEX
  5
8D9
  8
LAYER01
 62
     7
 10
6411.3124259264687
 20
7208.2659185741013
 30
0.0
  0
VERTEX
  5
8DA
  8
LAYER01
 62
     7
 10
6185.3106892055002
 20
7208.2659185741013
 30
0.0
  0
VERTEX
  5
8DB
  8
LAYER01
 62
     7
 10
6042.5727502238333
 20
7351.0038575557674
 30
0.0
  0
VERTEX
  5
8DC
  8
LAYER01
 62
     7
 10
6042.5727502238333
 20
7351.0038575557674
 30
0.0
  0
SEQEND
  5
8DD
  8
LAYER01
 62
     7
  0
POLYLINE
  5
41D
  8
LAYER01
 62
     7
 66
     1
 10
0.0
 20
0.0
 30
0.0
 70
     1
  0
VERTEX
  5
8DE
  8
LAYER01
 62
     7
 10
6867.2808421178988
 20
7140.8618918327593
 30
0.0
  0
VERTEX
  5
8DF
  8
LAYER01
 62
     7
 10
6867.2808421178988
 20
7140.8618918327593
 30
0.0
  0
VERTEX
  5
8E0
  8
LAYER01
 62
     7
 10
6887.1055558653534
 20
7144.826834582248
 30
0.0
  0
VERTEX
  5
8E1
  8
LAYER01
 62
     7
 10
6906.9302696128061
 20
7148.7917773317413
 30
0.0
  0
VERTEX
  5
8E2
  8
LAYER01
 62
     7
 10
6926.7549833602607
 20
7160.6866055802111
 30
0.0
  0
VERTEX
  5
8E3
  8
LAYER01
 62
     7
 10
6942.6147543582238
 20
7172.5814338286846
 30
0.0
  0
VERTEX
  5
8E4
  8
LAYER01
 62
     7
 10
6954.5095826066963
 20
7188.4412048266468
 30
0.0
  0
VERTEX
  5
8E5
  8
LAYER01
 62
     7
 10
6962.4394681056774
 20
7204.3009758246117
 30
0.0
  0
VERTEX
  5
8E6
  8
LAYER01
 62
     7
 10
6970.3693536046603
 20
7224.1256895720644
 30
0.0
  0
VERTEX
  5
8E7
  8
LAYER01
 62
     7
 10
6970.3693536046603
 20
7247.9153460690077
 30
0.0
  0
VERTEX
  5
8E8
  8
LAYER01
 62
     7
 10
6970.3693536046603
 20
7247.9153460690077
 30
0.0
  0
VERTEX
  5
8E9
  8
LAYER01
 62
     7
 10
6970.3693536046603
 20
7267.7400598164604
 30
0.0
  0
VERTEX
  5
8EA
  8
LAYER01
 62
     7
 10
6962.4394681056774
 20
7287.5647735639131
 30
0.0
  0
VERTEX
  5
8EB
  8
LAYER01
 62
     7
 10
6954.5095826066963
 20
7303.4245445618772
 30
0.0
  0
VERTEX
  5
8EC
  8
LAYER01
 62
     7
 10
6942.6147543582238
 20
7319.2843155598421
 30
0.0
  0
VERTEX
  5
8ED
  8
LAYER01
 62
     7
 10
6926.7549833602607
 20
7331.1791438083146
 30
0.0
  0
VERTEX
  5
8EE
  8
LAYER01
 62
     7
 10
6906.9302696128061
 20
7343.0739720567844
 30
0.0
  0
VERTEX
  5
8EF
  8
LAYER01
 62
     7
 10
6887.1055558653534
 20
7347.0389148062732
 30
0.0
  0
VERTEX
  5
8F0
  8
LAYER01
 62
     7
 10
6867.2808421178988
 20
7351.0038575557674
 30
0.0
  0
VERTEX
  5
8F1
  8
LAYER01
 62
     7
 10
6867.2808421178988
 20
7351.0038575557674
 30
0.0
  0
VERTEX
  5
8F2
  8
LAYER01
 62
     7
 10
6847.4561283704461
 20
7347.0389148062732
 30
0.0
  0
VERTEX
  5
8F3
  8
LAYER01
 62
     7
 10
6827.6314146229952
 20
7343.0739720567844
 30
0.0
  0
VERTEX
  5
8F4
  8
LAYER01
 62
     7
 10
6807.8067008755397
 20
7331.1791438083146
 30
0.0
  0
VERTEX
  5
8F5
  8
LAYER01
 62
     7
 10
6791.9469298775748
 20
7319.2843155598421
 30
0.0
  0
VERTEX
  5
8F6
  8
LAYER01
 62
     7
 10
6780.0521016291041
 20
7303.4245445618772
 30
0.0
  0
VERTEX
  5
8F7
  8
LAYER01
 62
     7
 10
6772.122216130123
 20
7287.5647735639131
 30
0.0
  0
VERTEX
  5
8F8
  8
LAYER01
 62
     7
 10
6764.1923306311428
 20
7267.7400598164604
 30
0.0
  0
VERTEX
  5
8F9
  8
LAYER01
 62
     7
 10
6764.1923306311428
 20
7247.9153460690077
 30
0.0
  0
VERTEX
  5
8FA
  8
LAYER01
 62
     7
 10
6764.1923306311428
 20
7247.9153460690077
 30
0.0
  0
VERTEX
  5
8FB
  8
LAYER01
 62
     7
 10
6764.1923306311428
 20
7224.1256895720644
 30
0.0
  0
VERTEX
  5
8FC
  8
LAYER01
 62
     7
 10
6772.122216130123
 20
7204.3009758246117
 30
0.0
  0
VERTEX
  5
8FD
  8
LAYER01
 62
     7
 10
6780.0521016291041
 20
7188.4412048266468
 30
0.0
  0
VERTEX
  5
8FE
  8
LAYER01
 62
     7
 10
6791.9469298775748
 20
7172.5814338286846
 30
0.0
  0
VERTEX
  5
8FF
  8
LAYER01
 62
     7
 10
6807.8067008755397
 20
7160.6866055802111
 30
0.0
  0
VERTEX
  5
900
  8
LAYER01
 62
     7
 10
6827.6314146229952
 20
7148.7917773317413
 30
0.0
  0
VERTEX
  5
901
  8
LAYER01
 62
     7
 10
6847.4561283704461
 20
7144.826834582248
 30
0.0
  0
VERTEX
  5
902
  8
LAYER01
 62
     7
 10
6867.2808421178988
 20
7140.8618918327593
 30
0.0
  0
VERTEX
  5
903
  8
LAYER01
 62
     7
 10
6867.2808421178988
 20
7140.8618918327593
 30
0.0
  0
SEQEND
  5
904
  8
LAYER01
 62
     7
  0
POLYLINE
  5
41E
  8
LAYER01
 62
     7
 66
     1
 10
0.0
 20
0.0
 30
0.0
 70
     1
  0
VERTEX
  5
905
  8
LAYER01
 62
     7
 10
6867.2808421178988
 20
7335.1440865578052
 30
0.0
  0
VERTEX
  5
906
  8
LAYER01
 62
     7
 10
6867.2808421178988
 20
7335.1440865578052
 30
0.0
  0
VERTEX
  5
907
  8
LAYER01
 62
     7
 10
6883.1406131158628
 20
7331.1791438083146
 30
0.0
  0
VERTEX
  5
908
  8
LAYER01
 62
     7
 10
6899.0003841138259
 20
7327.2142010588213
 30
0.0
  0
VERTEX
  5
909
  8
LAYER01
 62
     7
 10
6914.8601551117881
 20
7319.2843155598421
 30
0.0
  0
VERTEX
  5
90A
  8
LAYER01
 62
     7
 10
6926.7549833602607
 20
7307.3894873113659
 30
0.0
  0
VERTEX
  5
90B
  8
LAYER01
 62
     7
 10
6938.6498116087314
 20
7295.4946590628952
 30
0.0
  0
VERTEX
  5
90C
  8
LAYER01
 62
     7
 10
6946.5796971077143
 20
7279.634888064933
 30
0.0
  0
VERTEX
  5
90D
  8
LAYER01
 62
     7
 10
6954.5095826066963
 20
7263.7751170669708
 30
0.0
  0
VERTEX
  5
90E
  8
LAYER01
 62
     7
 10
6954.5095826066963
 20
7247.9153460690077
 30
0.0
  0
VERTEX
  5
90F
  8
LAYER01
 62
     7
 10
6954.5095826066963
 20
7247.9153460690077
 30
0.0
  0
VERTEX
  5
910
  8
LAYER01
 62
     7
 10
6954.5095826066963
 20
7228.0906323215549
 30
0.0
  0
VERTEX
  5
911
  8
LAYER01
 62
     7
 10
6946.5796971077143
 20
7212.2308613235937
 30
0.0
  0
VERTEX
  5
912
  8
LAYER01
 62
     7
 10
6938.6498116087314
 20
7196.3710903256278
 30
0.0
  0
VERTEX
  5
913
  8
LAYER01
 62
     7
 10
6926.7549833602607
 20
7184.4762620771562
 30
0.0
  0
VERTEX
  5
914
  8
LAYER01
 62
     7
 10
6914.8601551117881
 20
7172.5814338286846
 30
0.0
  0
VERTEX
  5
915
  8
LAYER01
 62
     7
 10
6899.0003841138259
 20
7164.6515483297017
 30
0.0
  0
VERTEX
  5
916
  8
LAYER01
 62
     7
 10
6883.1406131158628
 20
7160.6866055802111
 30
0.0
  0
VERTEX
  5
917
  8
LAYER01
 62
     7
 10
6867.2808421178988
 20
7160.6866055802111
 30
0.0
  0
VERTEX
  5
918
  8
LAYER01
 62
     7
 10
6867.2808421178988
 20
7160.6866055802111
 30
0.0
  0
VERTEX
  5
919
  8
LAYER01
 62
     7
 10
6851.4210711199376
 20
7160.6866055802111
 30
0.0
  0
VERTEX
  5
91A
  8
LAYER01
 62
     7
 10
6831.5963573724839
 20
7164.6515483297017
 30
0.0
  0
VERTEX
  5
91B
  8
LAYER01
 62
     7
 10
6819.7015291240123
 20
7172.5814338286846
 30
0.0
  0
VERTEX
  5
91C
  8
LAYER01
 62
     7
 10
6803.8417581260492
 20
7184.4762620771562
 30
0.0
  0
VERTEX
  5
91D
  8
LAYER01
 62
     7
 10
6795.9118726270653
 20
7196.3710903256278
 30
0.0
  0
VERTEX
  5
91E
  8
LAYER01
 62
     7
 10
6787.9819871280861
 20
7212.2308613235937
 30
0.0
  0
VERTEX
  5
91F
  8
LAYER01
 62
     7
 10
6780.0521016291041
 20
7228.0906323215549
 30
0.0
  0
VERTEX
  5
920
  8
LAYER01
 62
     7
 10
6780.0521016291041
 20
7247.9153460690077
 30
0.0
  0
VERTEX
  5
921
  8
LAYER01
 62
     7
 10
6780.0521016291041
 20
7247.9153460690077
 30
0.0
  0
VERTEX
  5
922
  8
LAYER01
 62
     7
 10
6780.0521016291041
 20
7263.7751170669708
 30
0.0
  0
VERTEX
  5
923
  8
LAYER01
 62
     7
 10
6787.9819871280861
 20
7279.634888064933
 30
0.0
  0
VERTEX
  5
924
  8
LAYER01
 62
     7
 10
6795.9118726270653
 20
7295.4946590628952
 30
0.0
  0
VERTEX
  5
925
  8
LAYER01
 62
     7
 10
6803.8417581260492
 20
7307.3894873113659
 30
0.0
  0
VERTEX
  5
926
  8
LAYER01
 62
     7
 10
6819.7015291240123
 20
7319.2843155598421
 30
0.0
  0
VERTEX
  5
927
  8
LAYER01
 62
     7
 10
6831.5963573724839
 20
7327.2142010588213
 30
0.0
  0
VERTEX
  5
928
  8
LAYER01
 62
     7
 10
6851.4210711199376
 20
7331.1791438083146
 30
0.0
  0
VERTEX
  5
929
  8
LAYER01
 62
     7
 10
6867.2808421178988
 20
7335.1440865578052
 30
0.0
  0
VERTEX
  5
92A
  8
LAYER01
 62
     7
 10
6867.2808421178988
 20
7335.1440865578052
 30
0.0
  0
SEQEND
  5
92B
  8
LAYER01
 62
     7
  0
POLYLINE
  5
41F
  8
LAYER01
 62
     7
 66
     1
 10
0.0
 20
0.0
 30
0.0
 70
     1
  0
VERTEX
  5
92C
  8
LAYER01
 62
     7
 10
6883.1406131158628
 20
7239.9854605700248
 30
0.0
  0
VERTEX
  5
92D
  8
LAYER01
 62
     7
 10
6883.1406131158628
 20
7239.9854605700248
 30
0.0
  0
VERTEX
  5
92E
  8
LAYER01
 62
     7
 10
6895.0354413643372
 20
7243.950403319518
 30
0.0
  0
VERTEX
  5
92F
  8
LAYER01
 62
     7
 10
6906.9302696128061
 20
7247.9153460690077
 30
0.0
  0
VERTEX
  5
930
  8
LAYER01
 62
     7
 10
6914.8601551117881
 20
7259.8101743174784
 30
0.0
  0
VERTEX
  5
931
  8
LAYER01
 62
     7
 10
6914.8601551117881
 20
7271.705002565951
 30
0.0
  0
VERTEX
  5
932
  8
LAYER01
 62
     7
 10
6914.8601551117881
 20
7271.705002565951
 30
0.0
  0
VERTEX
  5
933
  8
LAYER01
 62
     7
 10
6914.8601551117881
 20
7287.5647735639131
 30
0.0
  0
VERTEX
  5
934
  8
LAYER01
 62
     7
 10
6902.9653268633147
 20
7299.4596018123866
 30
0.0
  0
VERTEX
  5
935
  8
LAYER01
 62
     7
 10
6891.0704986148439
 20
7303.4245445618772
 30
0.0
  0
VERTEX
  5
936
  8
LAYER01
 62
     7
 10
6875.2107276168808
 20
7303.4245445618772
 30
0.0
  0
VERTEX
  5
937
  8
LAYER01
 62
     7
 10
6827.6314146229952
 20
7303.4245445618772
 30
0.0
  0
VERTEX
  5
938
  8
LAYER01
 62
     7
 10
6827.6314146229952
 20
7188.4412048266468
 30
0.0
  0
VERTEX
  5
939
  8
LAYER01
 62
     7
 10
6843.4911856209546
 20
7188.4412048266468
 30
0.0
  0
VERTEX
  5
93A
  8
LAYER01
 62
     7
 10
6843.4911856209546
 20
7239.9854605700248
 30
0.0
  0
VERTEX
  5
93B
  8
LAYER01
 62
     7
 10
6867.2808421178988
 20
7239.9854605700248
 30
0.0
  0
VERTEX
  5
93C
  8
LAYER01
 62
     7
 10
6895.0354413643372
 20
7188.4412048266468
 30
0.0
  0
VERTEX
  5
93D
  8
LAYER01
 62
     7
 10
6914.8601551117881
 20
7188.4412048266468
 30
0.0
  0
VERTEX
  5
93E
  8
LAYER01
 62
     7
 10
6883.1406131158628
 20
7239.9854605700248
 30
0.0
  0
VERTEX
  5
93F
  8
LAYER01
 62
     7
 10
6883.1406131158628
 20
7239.9854605700248
 30
0.0
  0
SEQEND
  5
940
  8
LAYER01
 62
     7
  0
POLYLINE
  5
420
  8
LAYER01
 62
     7
 66
     1
 10
0.0
 20
0.0
 30
0.0
 70
     1
  0
VERTEX
  5
941
  8
LAYER01
 62
     7
 10
6871.2457848673903
 20
7287.5647735639131
 30
0.0
  0
VERTEX
  5
942
  8
LAYER01
 62
     7
 10
6871.2457848673903
 20
7287.5647735639131
 30
0.0
  0
VERTEX
  5
943
  8
LAYER01
 62
     7
 10
6891.0704986148439
 20
7283.5998308144244
 30
0.0
  0
VERTEX
  5
944
  8
LAYER01
 62
     7
 10
6899.0003841138259
 20
7279.634888064933
 30
0.0
  0
VERTEX
  5
945
  8
LAYER01
 62
     7
 10
6899.0003841138259
 20
7271.705002565951
 30
0.0
  0
VERTEX
  5
946
  8
LAYER01
 62
     7
 10
6899.0003841138259
 20
7271.705002565951
 30
0.0
  0
VERTEX
  5
947
  8
LAYER01
 62
     7
 10
6895.0354413643372
 20
7263.7751170669708
 30
0.0
  0
VERTEX
  5
948
  8
LAYER01
 62
     7
 10
6887.1055558653534
 20
7259.8101743174784
 30
0.0
  0
VERTEX
  5
949
  8
LAYER01
 62
     7
 10
6863.3158993684092
 20
7255.8452315679897
 30
0.0
  0
VERTEX
  5
94A
  8
LAYER01
 62
     7
 10
6843.4911856209546
 20
7255.8452315679897
 30
0.0
  0
VERTEX
  5
94B
  8
LAYER01
 62
     7
 10
6843.4911856209546
 20
7287.5647735639131
 30
0.0
  0
VERTEX
  5
94C
  8
LAYER01
 62
     7
 10
6871.2457848673903
 20
7287.5647735639131
 30
0.0
  0
VERTEX
  5
94D
  8
LAYER01
 62
     7
 10
6871.2457848673903
 20
7287.5647735639131
 30
0.0
  0
SEQEND
  5
94E
  8
LAYER01
 62
     7
  0
ENDBLK
  5
421
  8
0
 62
     7
  0
BLOCK
  8
0
  2
*U25
 70
     1
 10
0.0
 20
0.0
 30
0.0
  3
*U25
  1

  0
TEXT
  5
424
  8
KERA4___1
 62
   250
 10
-3087.4324907162932
 20
-368.73522580536002
 30
0.0
 40
80.0
  1
http://www.varicor.org
  0
ENDBLK
  5
425
  8
0
  0
BLOCK
  8
0
  2
*U27
 70
     1
 10
0.0
 20
0.0
 30
0.0
  3
*U27
  1

  0
TEXT
  5
432
  8
KERA4___1
 62
   250
 10
-3087.4324907162932
 20
-368.73522580536002
 30
0.0
 40
80.0
  1
http://www.varicor.org
  0
ENDBLK
  5
433
  8
0
  0
BLOCK
  8
0
  2
*U29
 70
     1
 10
0.0
 20
0.0
 30
0.0
  3
*U29
  1

  0
TEXT
  5
43E
  8
KERA4___1
 62
   250
 10
-3087.4324907162932
 20
-368.73522580536002
 30
0.0
 40
80.0
  1
http://www.varicor.org
  0
ENDBLK
  5
43F
  8
0
  0
ENDSEC
  0
SECTION
  2
ENTITIES
  0
DIMENSION
  5
2B4
  8
LAYER01
 62
     7
  2
*D0
 10
420.12550299999998
 20
-453.35134599999992
 30
0.0
 11
390.12550299999998
 21
-405.65064299999989
 31
0.0
 53
90.0
 13
514.46480099999997
 23
-358.35134599999998
 33
0.0
 14
514.46480099999997
 24
-453.35134599999992
 34
0.0
 50
90.0
  0
POLYLINE
  5
2B5
  8
LAYER01
  6
CONTINUOUS
 62
     7
 66
     1
 10
0.0
 20
0.0
 30
0.0
 70
     1
  0
VERTEX
  5
66A
  8
LAYER01
  6
CONTINUOUS
 62
     7
 10
-1492.3650809999999
 20
-1402.607716
 30
0.0
  0
VERTEX
  5
66B
  8
LAYER01
  6
CONTINUOUS
 62
     7
 10
-1492.3650809999999
 20
1331.469873
 30
0.0
  0
VERTEX
  5
66C
  8
LAYER01
  6
CONTINUOUS
 62
     7
 10
2480.453164
 20
1331.469873
 30
0.0
  0
VERTEX
  5
66D
  8
LAYER01
  6
CONTINUOUS
 62
     7
 10
2480.453164
 20
-1402.607716
 30
0.0
  0
SEQEND
  5
66E
  8
LAYER01
  6
CONTINUOUS
 62
     7
  0
DIMENSION
  5
2BB
  8
LAYER01
 62
     7
  2
*D1
 10
-148.06594000000001
 20
-26.537313999999999
 30
0.0
 11
-45.219551000000003
 21
3.4626860000000002
 31
0.0
 13
59.740875000000003
 23
80.634749999999997
 33
0.0
 14
-148.06594000000001
 24
80.634749999999997
 34
0.0
  0
LINE
  5
2BC
  8
LAYER01
  6
CONTINUOUS
 62
     7
 10
-690.25912500000004
 20
-358.35134599999998
 30
0.0
 11
59.740875000000003
 21
-358.35134599999998
 31
0.0
  0
LINE
  5
2BD
  8
LAYER01
  6
CONTINUOUS
 62
     7
 10
-690.25912500000004
 20
-478.35134599999992
 30
0.0
 11
-240.25912500000001
 21
-478.35134599999992
 31
0.0
  0
DIMENSION
  5
2BE
  8
LAYER01
 62
     7
  2
*D2
 10
-690.25912500000004
 20
-761.09544400000004
 30
0.0
 11
-465.25912499999993
 21
-731.09544400000004
 31
0.0
 13
-240.25912500000001
 23
-658.35134600000004
 33
0.0
 14
-690.25912500000004
 24
-658.35134600000004
 34
0.0
  0
DIMENSION
  5
2BF
  8
LAYER01
 62
     7
  2
*D3
 10
-794.19043399999987
 20
-478.35134599999992
 30
0.0
 11
-824.19043399999987
 21
-419.842108
 31
0.0
 53
90.0
 13
-690.25912500000004
 23
-358.35134599999998
 33
0.0
 14
-690.25912500000004
 24
-478.35134599999992
 34
0.0
 50
90.0
  0
LINE
  5
2C0
  8
LAYER01
  6
CONTINUOUS
 62
     7
 10
-690.25912500000004
 20
-358.35134599999998
 30
0.0
 11
-690.25912500000004
 21
-478.35134599999992
 31
0.0
  0
LINE
  5
2C1
  8
LAYER01
  6
CONTINUOUS
 62
     7
 10
-240.25912500000001
 20
-658.35134600000004
 30
0.0
 11
59.740875000000003
 21
-658.35134600000004
 31
0.0
  0
DIMENSION
  5
2C2
  8
LAYER01
 62
     7
  2
*D4
 10
-240.25912500000001
 20
-761.09544400000004
 30
0.0
 11
-90.259124999999997
 21
-731.09544400000004
 31
0.0
 13
59.740875000000003
 23
-658.35134600000004
 33
0.0
 14
-240.25912500000001
 24
-658.35134600000004
 34
0.0
  0
LINE
  5
2C3
  8
LAYER01
  6
CONTINUOUS
 62
     7
 10
-240.25912500000001
 20
-478.35134599999992
 30
0.0
 11
-240.25912500000001
 21
-658.35134600000004
 31
0.0
  0
DIMENSION
  5
2C4
  8
LAYER01
 62
     7
  2
*D5
 10
209.49279300000001
 20
-658.35134600000004
 30
0.0
 11
179.49279300000001
 21
-509.842108
 31
0.0
 53
90.0
 13
59.740875000000003
 23
-358.35134599999998
 33
0.0
 14
59.740875000000003
 24
-658.35134600000004
 34
0.0
 50
90.0
  0
LINE
  5
2C5
  8
LAYER01
  6
CONTINUOUS
 62
     7
 10
59.740875000000003
 20
-358.35134599999998
 30
0.0
 11
59.740875000000003
 21
-658.35134600000004
 31
0.0
  0
POLYLINE
  5
2C6
  8
0
  6
CONTINUOUS
 62
     7
 66
     1
 10
0.0
 20
0.0
 30
0.0
 70
     1
  0
VERTEX
  5
66F
  8
0
  6
CONTINUOUS
 62
     7
 10
59.740875000000003
 20
80.634749999999997
 30
0.0
  0
VERTEX
  5
670
  8
0
  6
CONTINUOUS
 62
     7
 10
-690.25912500000004
 20
80.634749999999997
 30
0.0
  0
VERTEX
  5
671
  8
0
  6
CONTINUOUS
 62
     7
 10
-690.25912500000004
 20
510.63475
 30
0.0
  0
VERTEX
  5
672
  8
0
  6
CONTINUOUS
 62
     7
 10
59.740875000000003
 20
510.63475
 30
0.0
  0
SEQEND
  5
673
  8
0
  6
CONTINUOUS
 62
     7
  0
DIMENSION
  5
2CC
  8
LAYER01
 62
     7
  2
*D6
 10
-690.25912500000004
 20
655.88631499999997
 30
0.0
 11
-316.31614300000001
 21
685.88631500000008
 31
0.0
 13
59.740875000000003
 23
510.63475
 33
0.0
 14
-690.25912500000004
 24
510.63475
 34
0.0
  0
POLYLINE
  5
2CD
  8
0
  6
CONTINUOUS
 62
     7
 66
     1
 10
0.0
 20
0.0
 30
0.0
 70
     1
  0
VERTEX
  5
674
  8
0
  6
CONTINUOUS
 62
     7
 10
-589.9972029999999
 20
119.76781200000001
 30
0.0
  0
VERTEX
  5
675
  8
0
  6
CONTINUOUS
 62
     7
 10
-89.997202999999985
 20
119.76781200000001
 30
0.0
  0
VERTEX
  5
676
  8
0
  6
CONTINUOUS
 62
     7
 10
-89.997202999999985
 20
469.76781199999988
 30
0.0
  0
VERTEX
  5
677
  8
0
  6
CONTINUOUS
 62
     7
 10
-589.9972029999999
 20
469.76781199999988
 30
0.0
  0
SEQEND
  5
678
  8
0
  6
CONTINUOUS
 62
     7
  0
DIMENSION
  5
2D3
  8
LAYER01
 62
     7
  2
*D7
 10
-589.9972029999999
 20
565.667598
 30
0.0
 11
-341.05422099999998
 21
595.66759799999988
 31
0.0
 13
-89.997202999999985
 23
510.63475
 33
0.0
 14
-589.9972029999999
 24
510.63475
 34
0.0
  0
LINE
  5
2D4
  8
LAYER01
  6
VERDECKT
 62
     7
 10
47.740875000000003
 20
92.634749999999997
 30
0.0
 11
-678.25912500000004
 21
92.634749999999997
 31
0.0
  0
DIMENSION
  5
2D5
  8
LAYER01
 62
     7
  2
*D8
 10
-829.17910300000005
 20
80.634749999999997
 30
0.0
 11
-859.17910299999994
 21
294.57773200000003
 31
0.0
 53
90.0
 13
-690.25912500000004
 23
510.63475
 33
0.0
 14
-690.25912500000004
 24
80.634749999999997
 34
0.0
 50
90.0
  0
DIMENSION
  5
2D6
  8
LAYER01
 62
     7
  2
*D9
 10
-759.78009000000009
 20
119.76781200000001
 30
0.0
 11
-789.78008999999997
 21
293.71079400000002
 31
0.0
 53
90.0
 13
-690.25912500000004
 23
469.76781199999988
 33
0.0
 14
-690.25912500000004
 24
119.76781200000001
 34
0.0
 50
90.0
  0
LINE
  5
2D7
  8
LAYER01
  6
VERDECKT
 62
     7
 10
-678.25912500000004
 20
510.63475
 30
0.0
 11
-678.25912500000004
 21
92.634749999999997
 31
0.0
  0
DIMENSION
  5
2D8
  8
LAYER01
 62
     7
  2
*D10
 10
-759.78009000000009
 20
510.63475
 30
0.0
 11
-789.78008999999997
 21
588.01685799999996
 31
0.0
 53
90.0
 13
-690.25912500000004
 23
469.76781199999988
 33
0.0
 14
-690.25912500000004
 24
510.63475
 34
0.0
 50
90.0
  0
DIMENSION
  5
2D9
  8
LAYER01
 62
     7
  2
*D11
 10
-690.25912500000004
 20
565.40674000000001
 30
0.0
 11
-639.43833099999995
 21
595.40674000000001
 31
0.0
 13
-589.9972029999999
 23
510.63475
 33
0.0
 14
-690.25912500000004
 24
510.63475
 34
0.0
  0
DIMENSION
  5
2DA
  8
LAYER01
 62
     7
  2
*D12
 10
-89.997202999999985
 20
565.667598
 30
0.0
 11
-16.185182000000001
 21
595.66759799999988
 31
0.0
 13
59.740875000000003
 23
510.63475
 33
0.0
 14
-89.997202999999985
 24
510.63475
 34
0.0
  0
DIMENSION
  5
2DB
  8
LAYER01
 62
     7
  2
*D13
 10
-103.56194000000001
 20
368.32723399999998
 30
0.0
 11
-52.486741000000002
 21
368.32723399999998
 31
0.0
 70
     3
 15
-51.498789000000002
 25
308.62346000000002
 35
0.0
 40
79.215606000000008
  0
CIRCLE
  5
2DC
  8
0
  6
CONTINUOUS
 62
     7
 10
-39.997203000000013
 20
295.43393700000001
 30
0.0
 40
17.5
  0
LINE
  5
2DD
  8
LAYER01
  6
STRICHPUNKTIERT
 62
     6
 10
-64.002763000000002
 20
295.43393700000001
 30
0.0
 11
-16.155704
 21
295.43393700000001
 31
0.0
  0
CIRCLE
  5
2DE
  8
0
  6
CONTINUOUS
 62
     7
 10
-148.06594000000001
 20
295.63475
 30
0.0
 40
35.0
  0
LINE
  5
2DF
  8
LAYER01
  6
STRICHPUNKTIERT
 62
     6
 10
-148.06594000000001
 20
335.34065099999998
 30
0.0
 11
-148.06594000000001
 21
254.13962599999991
 31
0.0
  0
CIRCLE
  5
2E0
  8
0
  6
CONTINUOUS
 62
     7
 10
-148.24165099999999
 20
295.567812
 30
0.0
 40
23.0
  0
LINE
  5
2E1
  8
LAYER01
  6
STRICHPUNKTIERT
 62
     6
 10
-106.03359
 20
295.63475
 30
0.0
 11
-188.62436299999999
 21
295.63475
 31
0.0
  0
LINE
  5
2E2
  8
LAYER01
  6
STRICHPUNKTIERT
 62
     6
 10
-39.997203000000013
 20
269.62539600000002
 30
0.0
 11
-39.997203000000013
 21
319.259274
 31
0.0
  0
DIMENSION
  5
2E3
  8
LAYER01
 62
     7
  2
*D14
 10
-89.997202999999985
 20
212.327338
 30
0.0
 11
-65.249371999999994
 21
242.327338
 31
0.0
 13
-39.997203000000013
 23
269.62539600000002
 33
0.0
 14
-89.997202999999985
 24
269.62539600000002
 34
0.0
  0
LINE
  5
2E4
  8
LAYER01
  6
VERDECKT
 62
     7
 10
47.740875000000003
 20
510.63475
 30
0.0
 11
47.740875000000003
 21
92.634749999999997
 31
0.0
  0
DIMENSION
  5
2E5
  8
LAYER01
 62
     7
  2
*D15
 10
156.56033500000001
 20
295.63475
 30
0.0
 11
126.56033499999999
 21
403.13474999999988
 31
0.0
 53
90.0
 13
59.740875000000003
 23
510.63475
 33
0.0
 14
59.740875000000003
 24
295.63475
 34
0.0
 50
90.0
  0
DIMENSION
  5
2E6
  8
LAYER01
 62
     7
  2
*D16
 10
158.77296699999999
 20
80.634749999999997
 30
0.0
 11
128.77296699999999
 21
188.13475
 31
0.0
 53
90.0
 13
59.740875000000003
 23
295.63475
 33
0.0
 14
59.740875000000003
 24
80.634749999999997
 34
0.0
 50
90.0
  0
INSERT
  5
2E7
  8
LAYER01
  2
PLEYEL-G18
 10
0.0
 20
0.0
 30
0.0
  0
INSERT
  5
2E9
  8
LAYER01
  2
PLEYEL-G20
 10
0.0
 20
0.0
 30
0.0
  0
LINE
  5
2EA
  8
0
  6
CONTINUOUS
 62
     7
 10
514.46480099999997
 20
-358.35134599999998
 30
0.0
 11
514.46480099999997
 21
-658.35134600000004
 31
0.0
  0
POLYLINE
  5
2EB
  8
0
  6
CONTINUOUS
 62
     7
 66
     1
 10
0.0
 20
0.0
 30
0.0
  0
VERTEX
  5
679
  8
0
  6
CONTINUOUS
 62
     7
 10
684.29115000000002
 20
-475.27483000000001
 30
0.0
  0
VERTEX
  5
67A
  8
0
  6
CONTINUOUS
 62
     7
 10
684.29115000000002
 20
-470.103274
 30
0.0
 42
0.404026
  0
VERTEX
  5
67B
  8
0
  6
CONTINUOUS
 62
     7
 10
679.46564699999988
 20
-465.10631999999998
 30
0.0
  0
VERTEX
  5
67C
  8
0
  6
CONTINUOUS
 62
     7
 10
551.76748099999986
 20
-460.64700199999987
 30
0.0
 42
-0.388879
  0
VERTEX
  5
67D
  8
0
  6
CONTINUOUS
 62
     7
 10
546.94883099999993
 20
-455.91172699999993
 30
0.0
  0
VERTEX
  5
67E
  8
0
  6
CONTINUOUS
 62
     7
 10
542.71312599999999
 20
-375.08966600000002
 30
0.0
 42
0.39896
  0
VERTEX
  5
67F
  8
0
  6
CONTINUOUS
 62
     7
 10
537.71997899999985
 20
-370.35134599999998
 30
0.0
  0
VERTEX
  5
680
  8
0
  6
CONTINUOUS
 62
     7
 10
531.46480099999985
 20
-370.35134599999998
 30
0.0
 42
0.4142140000000001
  0
VERTEX
  5
681
  8
0
  6
CONTINUOUS
 62
     7
 10
526.46480099999997
 20
-375.35134599999998
 30
0.0
  0
VERTEX
  5
682
  8
0
  6
CONTINUOUS
 62
     7
 10
526.46480099999997
 20
-658.35134600000004
 30
0.0
  0
SEQEND
  5
683
  8
0
  6
CONTINUOUS
 62
     7
  0
POLYLINE
  5
2F7
  8
0
  6
CONTINUOUS
 62
     7
 66
     1
 10
0.0
 20
0.0
 30
0.0
 70
     1
  0
VERTEX
  5
684
  8
0
  6
CONTINUOUS
 62
     7
 10
546.94883099999993
 20
-455.91172699999993
 30
0.0
  0
VERTEX
  5
685
  8
0
  6
CONTINUOUS
 62
     7
 10
542.71312599999999
 20
-375.08966600000002
 30
0.0
  0
VERTEX
  5
686
  8
0
  6
CONTINUOUS
 62
     7
 10
542.67889500000001
 20
-374.71169500000002
 30
0.0
  0
VERTEX
  5
687
  8
0
  6
CONTINUOUS
 62
     7
 10
542.61609299999986
 20
-374.33740899999998
 30
0.0
  0
VERTEX
  5
688
  8
0
  6
CONTINUOUS
 62
     7
 10
542.525083
 20
-373.96896500000003
 30
0.0
  0
VERTEX
  5
689
  8
0
  6
CONTINUOUS
 62
     7
 10
542.40638899999999
 20
-373.60848500000009
 30
0.0
  0
VERTEX
  5
68A
  8
0
  6
CONTINUOUS
 62
     7
 10
542.26069500000006
 20
-373.25804699999998
 30
0.0
  0
VERTEX
  5
68B
  8
0
  6
CONTINUOUS
 62
     7
 10
542.08883999999989
 20
-372.919669
 30
0.0
  0
VERTEX
  5
68C
  8
0
  6
CONTINUOUS
 62
     7
 10
541.89181399999995
 20
-372.59530000000001
 30
0.0
  0
VERTEX
  5
68D
  8
0
  6
CONTINUOUS
 62
     7
 10
541.67075399999987
 20
-372.28681
 30
0.0
  0
VERTEX
  5
68E
  8
0
  6
CONTINUOUS
 62
     7
 10
541.42693099999985
 20
-371.99597599999998
 30
0.0
  0
VERTEX
  5
68F
  8
0
  6
CONTINUOUS
 62
     7
 10
541.16175199999998
 20
-371.72447399999999
 30
0.0
  0
VERTEX
  5
690
  8
0
  6
CONTINUOUS
 62
     7
 10
540.87674299999992
 20
-371.47386699999998
 30
0.0
  0
VERTEX
  5
691
  8
0
  6
CONTINUOUS
 62
     7
 10
540.57354599999985
 20
-371.24559900000003
 30
0.0
  0
VERTEX
  5
692
  8
0
  6
CONTINUOUS
 62
     7
 10
540.25391000000002
 20
-371.04098699999997
 30
0.0
  0
VERTEX
  5
693
  8
0
  6
CONTINUOUS
 62
     7
 10
539.91967399999987
 20
-370.86120799999998
 30
0.0
  0
VERTEX
  5
694
  8
0
  6
CONTINUOUS
 62
     7
 10
539.572766
 20
-370.70729799999998
 30
0.0
  0
VERTEX
  5
695
  8
0
  6
CONTINUOUS
 62
     7
 10
539.21518300000002
 20
-370.58014400000002
 30
0.0
  0
VERTEX
  5
696
  8
0
  6
CONTINUOUS
 62
     7
 10
538.84898499999997
 20
-370.480479
 30
0.0
  0
VERTEX
  5
697
  8
0
  6
CONTINUOUS
 62
     7
 10
538.47628299999985
 20
-370.40887600000002
 30
0.0
  0
VERTEX
  5
698
  8
0
  6
CONTINUOUS
 62
     7
 10
538.09922300000005
 20
-370.36574900000011
 30
0.0
  0
VERTEX
  5
699
  8
0
  6
CONTINUOUS
 62
     7
 10
537.71997899999985
 20
-370.35134599999998
 30
0.0
  0
VERTEX
  5
69A
  8
0
  6
CONTINUOUS
 62
     7
 10
531.46480099999985
 20
-370.35134599999998
 30
0.0
  0
VERTEX
  5
69B
  8
0
  6
CONTINUOUS
 62
     7
 10
531.07250599999998
 20
-370.366759
 30
0.0
  0
VERTEX
  5
69C
  8
0
  6
CONTINUOUS
 62
     7
 10
530.68262900000002
 20
-370.41290400000003
 30
0.0
  0
VERTEX
  5
69D
  8
0
  6
CONTINUOUS
 62
     7
 10
530.29757500000005
 20
-370.48949599999997
 30
0.0
  0
VERTEX
  5
69E
  8
0
  6
CONTINUOUS
 62
     7
 10
529.91971699999999
 20
-370.59606300000002
 30
0.0
  0
VERTEX
  5
69F
  8
0
  6
CONTINUOUS
 62
     7
 10
529.55138399999987
 20
-370.73194799999999
 30
0.0
  0
VERTEX
  5
6A0
  8
0
  6
CONTINUOUS
 62
     7
 10
529.19484899999998
 20
-370.89631300000002
 30
0.0
  0
VERTEX
  5
6A1
  8
0
  6
CONTINUOUS
 62
     7
 10
528.85230899999988
 20
-371.088145
 30
0.0
  0
VERTEX
  5
6A2
  8
0
  6
CONTINUOUS
 62
     7
 10
528.52587500000004
 20
-371.30626100000001
 30
0.0
  0
VERTEX
  5
6A3
  8
0
  6
CONTINUOUS
 62
     7
 10
528.21756100000005
 20
-371.54931599999998
 30
0.0
  0
VERTEX
  5
6A4
  8
0
  6
CONTINUOUS
 62
     7
 10
527.92926799999998
 20
-371.81581199999999
 30
0.0
  0
VERTEX
  5
6A5
  8
0
  6
CONTINUOUS
 62
     7
 10
527.66277200000002
 20
-372.104105
 30
0.0
  0
VERTEX
  5
6A6
  8
0
  6
CONTINUOUS
 62
     7
 10
527.41971699999988
 20
-372.412419
 30
0.0
  0
VERTEX
  5
6A7
  8
0
  6
CONTINUOUS
 62
     7
 10
527.20160099999987
 20
-372.73885300000001
 30
0.0
  0
VERTEX
  5
6A8
  8
0
  6
CONTINUOUS
 62
     7
 10
527.00976900000001
 20
-373.08139299999999
 30
0.0
  0
VERTEX
  5
6A9
  8
0
  6
CONTINUOUS
 62
     7
 10
526.84540400000003
 20
-373.437928
 30
0.0
  0
VERTEX
  5
6AA
  8
0
  6
CONTINUOUS
 62
     7
 10
526.709519
 20
-373.80626100000001
 30
0.0
  0
VERTEX
  5
6AB
  8
0
  6
CONTINUOUS
 62
     7
 10
526.60295199999996
 20
-374.18411900000001
 30
0.0
  0
VERTEX
  5
6AC
  8
0
  6
CONTINUOUS
 62
     7
 10
526.52635999999995
 20
-374.56917299999998
 30
0.0
  0
VERTEX
  5
6AD
  8
0
  6
CONTINUOUS
 62
     7
 10
526.48021500000004
 20
-374.95904999999999
 30
0.0
  0
VERTEX
  5
6AE
  8
0
  6
CONTINUOUS
 62
     7
 10
526.46480099999997
 20
-375.35134599999998
 30
0.0
  0
VERTEX
  5
6AF
  8
0
  6
CONTINUOUS
 62
     7
 10
526.46480099999997
 20
-658.35134600000004
 30
0.0
  0
VERTEX
  5
6B0
  8
0
  6
CONTINUOUS
 62
     7
 10
514.46480099999997
 20
-658.35134600000004
 30
0.0
  0
VERTEX
  5
6B1
  8
0
  6
CONTINUOUS
 62
     7
 10
514.46480099999997
 20
-358.35134599999998
 30
0.0
  0
VERTEX
  5
6B2
  8
0
  6
CONTINUOUS
 62
     7
 10
554.46480099999985
 20
-358.35134599999998
 30
0.0
  0
VERTEX
  5
6B3
  8
0
  6
CONTINUOUS
 62
     7
 10
559.03405999999995
 20
-439.52655900000002
 30
0.0
  0
VERTEX
  5
6B4
  8
0
  6
CONTINUOUS
 62
     7
 10
559.10291199999995
 20
-440.26300900000001
 30
0.0
  0
VERTEX
  5
6B5
  8
0
  6
CONTINUOUS
 62
     7
 10
559.22601099999997
 20
-440.99235499999998
 30
0.0
  0
VERTEX
  5
6B6
  8
0
  6
CONTINUOUS
 62
     7
 10
559.40268300000002
 20
-441.71060699999998
 30
0.0
  0
VERTEX
  5
6B7
  8
0
  6
CONTINUOUS
 62
     7
 10
559.63196200000004
 20
-442.41383499999989
 30
0.0
  0
VERTEX
  5
6B8
  8
0
  6
CONTINUOUS
 62
     7
 10
559.91259300000002
 20
-443.09819299999992
 30
0.0
  0
VERTEX
  5
6B9
  8
0
  6
CONTINUOUS
 62
     7
 10
560.24304100000006
 20
-443.75993499999998
 30
0.0
  0
VERTEX
  5
6BA
  8
0
  6
CONTINUOUS
 62
     7
 10
560.62149799999997
 20
-444.39544199999989
 30
0.0
  0
VERTEX
  5
6BB
  8
0
  6
CONTINUOUS
 62
     7
 10
561.04589399999998
 20
-445.001237
 30
0.0
  0
VERTEX
  5
6BC
  8
0
  6
CONTINUOUS
 62
     7
 10
561.51390700000002
 20
-445.574005
 30
0.0
  0
VERTEX
  5
6BD
  8
0
  6
CONTINUOUS
 62
     7
 10
562.02297599999986
 20
-446.110613
 30
0.0
  0
VERTEX
  5
6BE
  8
0
  6
CONTINUOUS
 62
     7
 10
562.57031500000005
 20
-446.60812399999998
 30
0.0
  0
VERTEX
  5
6BF
  8
0
  6
CONTINUOUS
 62
     7
 10
563.15293200000008
 20
-447.06381799999991
 30
0.0
  0
VERTEX
  5
6C0
  8
0
  6
CONTINUOUS
 62
     7
 10
563.76763800000003
 20
-447.47520099999991
 30
0.0
  0
VERTEX
  5
6C1
  8
0
  6
CONTINUOUS
 62
     7
 10
564.41106899999988
 20
-447.84002299999997
 30
0.0
  0
VERTEX
  5
6C2
  8
0
  6
CONTINUOUS
 62
     7
 10
565.07970699999998
 20
-448.15628700000002
 30
0.0
  0
VERTEX
  5
6C3
  8
0
  6
CONTINUOUS
 62
     7
 10
565.76989200000003
 20
-448.42226299999987
 30
0.0
  0
VERTEX
  5
6C4
  8
0
  6
CONTINUOUS
 62
     7
 10
566.47784899999988
 20
-448.63649600000002
 30
0.0
  0
VERTEX
  5
6C5
  8
0
  6
CONTINUOUS
 62
     7
 10
567.19970499999988
 20
-448.79781400000002
 30
0.0
  0
VERTEX
  5
6C6
  8
0
  6
CONTINUOUS
 62
     7
 10
567.93151
 20
-448.90533399999993
 30
0.0
  0
VERTEX
  5
6C7
  8
0
  6
CONTINUOUS
 62
     7
 10
568.66925999999989
 20
-448.95846799999998
 30
0.0
  0
VERTEX
  5
6C8
  8
0
  6
CONTINUOUS
 62
     7
 10
694.46480099999985
 20
-453.35134599999992
 30
0.0
  0
VERTEX
  5
6C9
  8
0
  6
CONTINUOUS
 62
     7
 10
706.29115000000002
 20
-463.27483000000001
 30
0.0
  0
VERTEX
  5
6CA
  8
0
  6
CONTINUOUS
 62
     7
 10
706.29115000000002
 20
-475.27483000000001
 30
0.0
  0
VERTEX
  5
6CB
  8
0
  6
CONTINUOUS
 62
     7
 10
684.29115000000002
 20
-475.27483000000001
 30
0.0
  0
VERTEX
  5
6CC
  8
0
  6
CONTINUOUS
 62
     7
 10
684.29115000000002
 20
-470.103274
 30
0.0
  0
VERTEX
  5
6CD
  8
0
  6
CONTINUOUS
 62
     7
 10
684.27641399999993
 20
-469.71967899999993
 30
0.0
  0
VERTEX
  5
6CE
  8
0
  6
CONTINUOUS
 62
     7
 10
684.23229200000003
 20
-469.33834499999989
 30
0.0
  0
VERTEX
  5
6CF
  8
0
  6
CONTINUOUS
 62
     7
 10
684.15904399999999
 20
-468.96152000000001
 30
0.0
  0
VERTEX
  5
6D0
  8
0
  6
CONTINUOUS
 62
     7
 10
684.05710299999987
 20
-468.59142500000002
 30
0.0
  0
VERTEX
  5
6D1
  8
0
  6
CONTINUOUS
 62
     7
 10
683.92706900000007
 20
-468.23024099999998
 30
0.0
  0
VERTEX
  5
6D2
  8
0
  6
CONTINUOUS
 62
     7
 10
683.76970900000003
 20
-467.88009799999998
 30
0.0
  0
VERTEX
  5
6D3
  8
0
  6
CONTINUOUS
 62
     7
 10
683.58594900000003
 20
-467.54305999999991
 30
0.0
  0
VERTEX
  5
6D4
  8
0
  6
CONTINUOUS
 62
     7
 10
683.37687400000004
 20
-467.22111200000001
 30
0.0
  0
VERTEX
  5
6D5
  8
0
  6
CONTINUOUS
 62
     7
 10
683.14371600000004
 20
-466.91615400000001
 30
0.0
  0
VERTEX
  5
6D6
  8
0
  6
CONTINUOUS
 62
     7
 10
682.88784900000007
 20
-466.62998199999998
 30
0.0
  0
VERTEX
  5
6D7
  8
0
  6
CONTINUOUS
 62
     7
 10
682.61078099999986
 20
-466.364284
 30
0.0
  0
VERTEX
  5
6D8
  8
0
  6
CONTINUOUS
 62
     7
 10
682.31414500000005
 20
-466.12062400000002
 30
0.0
  0
VERTEX
  5
6D9
  8
0
  6
CONTINUOUS
 62
     7
 10
681.99969099999998
 20
-465.900441
 30
0.0
  0
VERTEX
  5
6DA
  8
0
  6
CONTINUOUS
 62
     7
 10
681.66927099999987
 20
-465.70503099999991
 30
0.0
  0
VERTEX
  5
6DB
  8
0
  6
CONTINUOUS
 62
     7
 10
681.32483300000001
 20
-465.53554699999989
 30
0.0
  0
VERTEX
  5
6DC
  8
0
  6
CONTINUOUS
 62
     7
 10
680.96840799999995
 20
-465.39298699999989
 30
0.0
  0
VERTEX
  5
6DD
  8
0
  6
CONTINUOUS
 62
     7
 10
680.60209599999985
 20
-465.27819199999988
 30
0.0
  0
VERTEX
  5
6DE
  8
0
  6
CONTINUOUS
 62
     7
 10
680.22805599999992
 20
-465.1918379999999
 30
0.0
  0
VERTEX
  5
6DF
  8
0
  6
CONTINUOUS
 62
     7
 10
679.84849499999996
 20
-465.134434
 30
0.0
  0
VERTEX
  5
6E0
  8
0
  6
CONTINUOUS
 62
     7
 10
679.46564699999988
 20
-465.10631999999998
 30
0.0
  0
VERTEX
  5
6E1
  8
0
  6
CONTINUOUS
 62
     7
 10
551.76748099999986
 20
-460.64700199999987
 30
0.0
  0
VERTEX
  5
6E2
  8
0
  6
CONTINUOUS
 62
     7
 10
551.39764400000001
 20
-460.62032900000003
 30
0.0
  0
VERTEX
  5
6E3
  8
0
  6
CONTINUOUS
 62
     7
 10
551.030801
 20
-460.5663219999999
 30
0.0
  0
VERTEX
  5
6E4
  8
0
  6
CONTINUOUS
 62
     7
 10
550.66896899999995
 20
-460.48527699999988
 30
0.0
  0
VERTEX
  5
6E5
  8
0
  6
CONTINUOUS
 62
     7
 10
550.31413799999984
 20
-460.37763999999999
 30
0.0
  0
VERTEX
  5
6E6
  8
0
  6
CONTINUOUS
 62
     7
 10
549.96825899999988
 20
-460.24400400000002
 30
0.0
  0
VERTEX
  5
6E7
  8
0
  6
CONTINUOUS
 62
     7
 10
549.63323600000001
 20
-460.08510199999989
 30
0.0
  0
VERTEX
  5
6E8
  8
0
  6
CONTINUOUS
 62
     7
 10
549.31090900000004
 20
-459.9018089999999
 30
0.0
  0
VERTEX
  5
6E9
  8
0
  6
CONTINUOUS
 62
     7
 10
549.00305199999991
 20
-459.695132
 30
0.0
  0
VERTEX
  5
6EA
  8
0
  6
CONTINUOUS
 62
     7
 10
548.7113589999999
 20
-459.46620999999988
 30
0.0
  0
VERTEX
  5
6EB
  8
0
  6
CONTINUOUS
 62
     7
 10
548.43743199999994
 20
-459.21629999999999
 30
0.0
  0
VERTEX
  5
6EC
  8
0
  6
CONTINUOUS
 62
     7
 10
548.18277999999987
 20
-458.94677699999988
 30
0.0
  0
VERTEX
  5
6ED
  8
0
  6
CONTINUOUS
 62
     7
 10
547.94880099999989
 20
-458.65912300000002
 30
0.0
  0
VERTEX
  5
6EE
  8
0
  6
CONTINUOUS
 62
     7
 10
547.73678399999994
 20
-458.35491999999999
 30
0.0
  0
VERTEX
  5
6EF
  8
0
  6
CONTINUOUS
 62
     7
 10
547.54789299999993
 20
-458.035841
 30
0.0
  0
VERTEX
  5
6F0
  8
0
  6
CONTINUOUS
 62
     7
 10
547.38316899999995
 20
-457.70364199999989
 30
0.0
  0
VERTEX
  5
6F1
  8
0
  6
CONTINUOUS
 62
     7
 10
547.24351599999989
 20
-457.36014799999998
 30
0.0
  0
VERTEX
  5
6F2
  8
0
  6
CONTINUOUS
 62
     7
 10
547.12970299999995
 20
-457.00725
 30
0.0
  0
VERTEX
  5
6F3
  8
0
  6
CONTINUOUS
 62
     7
 10
547.04235499999993
 20
-456.64688699999999
 30
0.0
  0
VERTEX
  5
6F4
  8
0
  6
CONTINUOUS
 62
     7
 10
546.98195399999986
 20
-456.2810419999999
 30
0.0
  0
SEQEND
  5
6F5
  8
0
  6
CONTINUOUS
 62
     7
  0
LINE
  5
36A
  8
0
  6
CONTINUOUS
 62
     7
 10
944.11749800000007
 20
-358.35134599999998
 30
0.0
 11
944.11749800000007
 21
-658.35134600000004
 31
0.0
  0
POLYLINE
  5
36B
  8
0
  6
CONTINUOUS
 62
     7
 66
     1
 10
0.0
 20
0.0
 30
0.0
  0
VERTEX
  5
6F6
  8
0
  6
CONTINUOUS
 62
     7
 10
774.2911499999999
 20
-475.27483000000001
 30
0.0
  0
VERTEX
  5
6F7
  8
0
  6
CONTINUOUS
 62
     7
 10
774.2911499999999
 20
-470.103274
 30
0.0
 42
-0.404026
  0
VERTEX
  5
6F8
  8
0
  6
CONTINUOUS
 62
     7
 10
779.11665199999993
 20
-465.10631999999998
 30
0.0
  0
VERTEX
  5
6F9
  8
0
  6
CONTINUOUS
 62
     7
 10
906.81481799999995
 20
-460.64700199999987
 30
0.0
 42
0.388879
  0
VERTEX
  5
6FA
  8
0
  6
CONTINUOUS
 62
     7
 10
911.63346899999999
 20
-455.91172699999993
 30
0.0
  0
VERTEX
  5
6FB
  8
0
  6
CONTINUOUS
 62
     7
 10
915.86917300000005
 20
-375.08966600000002
 30
0.0
 42
-0.39896
  0
VERTEX
  5
6FC
  8
0
  6
CONTINUOUS
 62
     7
 10
920.86232099999995
 20
-370.35134599999998
 30
0.0
  0
VERTEX
  5
6FD
  8
0
  6
CONTINUOUS
 62
     7
 10
927.11749800000007
 20
-370.35134599999998
 30
0.0
 42
-0.4142140000000001
  0
VERTEX
  5
6FE
  8
0
  6
CONTINUOUS
 62
     7
 10
932.11749799999996
 20
-375.35134599999998
 30
0.0
  0
VERTEX
  5
6FF
  8
0
  6
CONTINUOUS
 62
     7
 10
932.11749799999996
 20
-658.35134600000004
 30
0.0
  0
SEQEND
  5
700
  8
0
  6
CONTINUOUS
 62
     7
  0
POLYLINE
  5
377
  8
0
  6
CONTINUOUS
 62
     7
 66
     1
 10
0.0
 20
0.0
 30
0.0
 70
     1
  0
VERTEX
  5
701
  8
0
  6
CONTINUOUS
 62
     7
 10
764.11749799999996
 20
-453.35134599999992
 30
0.0
  0
VERTEX
  5
702
  8
0
  6
CONTINUOUS
 62
     7
 10
889.91304000000002
 20
-448.95846799999998
 30
0.0
  0
VERTEX
  5
703
  8
0
  6
CONTINUOUS
 62
     7
 10
890.65079000000014
 20
-448.90533399999993
 30
0.0
  0
VERTEX
  5
704
  8
0
  6
CONTINUOUS
 62
     7
 10
891.38259499999992
 20
-448.79781400000002
 30
0.0
  0
VERTEX
  5
705
  8
0
  6
CONTINUOUS
 62
     7
 10
892.10445099999993
 20
-448.63649600000002
 30
0.0
  0
VERTEX
  5
706
  8
0
  6
CONTINUOUS
 62
     7
 10
892.81240799999989
 20
-448.42226299999987
 30
0.0
  0
VERTEX
  5
707
  8
0
  6
CONTINUOUS
 62
     7
 10
893.50259300000005
 20
-448.15628700000002
 30
0.0
  0
VERTEX
  5
708
  8
0
  6
CONTINUOUS
 62
     7
 10
894.17123000000004
 20
-447.84002299999997
 30
0.0
  0
VERTEX
  5
709
  8
0
  6
CONTINUOUS
 62
     7
 10
894.81466199999988
 20
-447.47520099999991
 30
0.0
  0
VERTEX
  5
70A
  8
0
  6
CONTINUOUS
 62
     7
 10
895.42936799999995
 20
-447.06381799999991
 30
0.0
  0
VERTEX
  5
70B
  8
0
  6
CONTINUOUS
 62
     7
 10
896.01198399999998
 20
-446.60812399999998
 30
0.0
  0
VERTEX
  5
70C
  8
0
  6
CONTINUOUS
 62
     7
 10
896.55932399999995
 20
-446.110613
 30
0.0
  0
VERTEX
  5
70D
  8
0
  6
CONTINUOUS
 62
     7
 10
897.0683929999999
 20
-445.574005
 30
0.0
  0
VERTEX
  5
70E
  8
0
  6
CONTINUOUS
 62
     7
 10
897.53640500000006
 20
-445.001237
 30
0.0
  0
VERTEX
  5
70F
  8
0
  6
CONTINUOUS
 62
     7
 10
897.96080099999995
 20
-444.39544199999989
 30
0.0
  0
VERTEX
  5
710
  8
0
  6
CONTINUOUS
 62
     7
 10
898.33925899999986
 20
-443.75993499999998
 30
0.0
  0
VERTEX
  5
711
  8
0
  6
CONTINUOUS
 62
     7
 10
898.6697069999999
 20
-443.09819299999992
 30
0.0
  0
VERTEX
  5
712
  8
0
  6
CONTINUOUS
 62
     7
 10
898.95033799999999
 20
-442.41383499999989
 30
0.0
  0
VERTEX
  5
713
  8
0
  6
CONTINUOUS
 62
     7
 10
899.17961700000001
 20
-441.71060699999998
 30
0.0
  0
VERTEX
  5
714
  8
0
  6
CONTINUOUS
 62
     7
 10
899.35628900000006
 20
-440.99235499999998
 30
0.0
  0
VERTEX
  5
715
  8
0
  6
CONTINUOUS
 62
     7
 10
899.47938800000009
 20
-440.26300900000001
 30
0.0
  0
VERTEX
  5
716
  8
0
  6
CONTINUOUS
 62
     7
 10
899.54823999999996
 20
-439.52655900000002
 30
0.0
  0
VERTEX
  5
717
  8
0
  6
CONTINUOUS
 62
     7
 10
904.11749799999996
 20
-358.35134599999998
 30
0.0
  0
VERTEX
  5
718
  8
0
  6
CONTINUOUS
 62
     7
 10
944.11749800000007
 20
-358.35134599999998
 30
0.0
  0
VERTEX
  5
719
  8
0
  6
CONTINUOUS
 62
     7
 10
944.11749800000007
 20
-658.35134600000004
 30
0.0
  0
VERTEX
  5
71A
  8
0
  6
CONTINUOUS
 62
     7
 10
932.11749799999996
 20
-658.35134600000004
 30
0.0
  0
VERTEX
  5
71B
  8
0
  6
CONTINUOUS
 62
     7
 10
932.11749799999996
 20
-375.35134599999998
 30
0.0
  0
VERTEX
  5
71C
  8
0
  6
CONTINUOUS
 62
     7
 10
932.10208499999999
 20
-374.95904999999999
 30
0.0
  0
VERTEX
  5
71D
  8
0
  6
CONTINUOUS
 62
     7
 10
932.05593999999996
 20
-374.56917299999998
 30
0.0
  0
VERTEX
  5
71E
  8
0
  6
CONTINUOUS
 62
     7
 10
931.97934800000007
 20
-374.18411900000001
 30
0.0
  0
VERTEX
  5
71F
  8
0
  6
CONTINUOUS
 62
     7
 10
931.87278100000003
 20
-373.80626100000001
 30
0.0
  0
VERTEX
  5
720
  8
0
  6
CONTINUOUS
 62
     7
 10
931.73689600000012
 20
-373.437928
 30
0.0
  0
VERTEX
  5
721
  8
0
  6
CONTINUOUS
 62
     7
 10
931.57253100000014
 20
-373.08139299999999
 30
0.0
  0
VERTEX
  5
722
  8
0
  6
CONTINUOUS
 62
     7
 10
931.38069900000005
 20
-372.73885300000001
 30
0.0
  0
VERTEX
  5
723
  8
0
  6
CONTINUOUS
 62
     7
 10
931.16258300000004
 20
-372.412419
 30
0.0
  0
VERTEX
  5
724
  8
0
  6
CONTINUOUS
 62
     7
 10
930.9195279999999
 20
-372.104105
 30
0.0
  0
VERTEX
  5
725
  8
0
  6
CONTINUOUS
 62
     7
 10
930.65303200000005
 20
-371.81581199999999
 30
0.0
  0
VERTEX
  5
726
  8
0
  6
CONTINUOUS
 62
     7
 10
930.3647380000001
 20
-371.54931599999998
 30
0.0
  0
VERTEX
  5
727
  8
0
  6
CONTINUOUS
 62
     7
 10
930.05642499999999
 20
-371.30626100000001
 30
0.0
  0
VERTEX
  5
728
  8
0
  6
CONTINUOUS
 62
     7
 10
929.72999100000015
 20
-371.088145
 30
0.0
  0
VERTEX
  5
729
  8
0
  6
CONTINUOUS
 62
     7
 10
929.38745100000006
 20
-370.89631300000002
 30
0.0
  0
VERTEX
  5
72A
  8
0
  6
CONTINUOUS
 62
     7
 10
929.03091500000005
 20
-370.73194799999999
 30
0.0
  0
VERTEX
  5
72B
  8
0
  6
CONTINUOUS
 62
     7
 10
928.66258300000004
 20
-370.59606300000002
 30
0.0
  0
VERTEX
  5
72C
  8
0
  6
CONTINUOUS
 62
     7
 10
928.28472499999987
 20
-370.48949599999997
 30
0.0
  0
VERTEX
  5
72D
  8
0
  6
CONTINUOUS
 62
     7
 10
927.89967100000013
 20
-370.41290400000003
 30
0.0
  0
VERTEX
  5
72E
  8
0
  6
CONTINUOUS
 62
     7
 10
927.50979400000006
 20
-370.366759
 30
0.0
  0
VERTEX
  5
72F
  8
0
  6
CONTINUOUS
 62
     7
 10
927.11749800000007
 20
-370.35134599999998
 30
0.0
  0
VERTEX
  5
730
  8
0
  6
CONTINUOUS
 62
     7
 10
920.86232099999995
 20
-370.35134599999998
 30
0.0
  0
VERTEX
  5
731
  8
0
  6
CONTINUOUS
 62
     7
 10
920.48307699999987
 20
-370.36574900000011
 30
0.0
  0
VERTEX
  5
732
  8
0
  6
CONTINUOUS
 62
     7
 10
920.10601699999995
 20
-370.40887600000002
 30
0.0
  0
VERTEX
  5
733
  8
0
  6
CONTINUOUS
 62
     7
 10
919.73331499999995
 20
-370.480479
 30
0.0
  0
VERTEX
  5
734
  8
0
  6
CONTINUOUS
 62
     7
 10
919.36711700000001
 20
-370.58014400000002
 30
0.0
  0
VERTEX
  5
735
  8
0
  6
CONTINUOUS
 62
     7
 10
919.00953400000003
 20
-370.70729799999998
 30
0.0
  0
VERTEX
  5
736
  8
0
  6
CONTINUOUS
 62
     7
 10
918.66262500000005
 20
-370.86120799999998
 30
0.0
  0
VERTEX
  5
737
  8
0
  6
CONTINUOUS
 62
     7
 10
918.32839000000013
 20
-371.04098699999997
 30
0.0
  0
VERTEX
  5
738
  8
0
  6
CONTINUOUS
 62
     7
 10
918.00875299999996
 20
-371.24559900000003
 30
0.0
  0
VERTEX
  5
739
  8
0
  6
CONTINUOUS
 62
     7
 10
917.705557
 20
-371.47386699999998
 30
0.0
  0
VERTEX
  5
73A
  8
0
  6
CONTINUOUS
 62
     7
 10
917.42054800000005
 20
-371.72447399999999
 30
0.0
  0
VERTEX
  5
73B
  8
0
  6
CONTINUOUS
 62
     7
 10
917.15536899999995
 20
-371.99597599999998
 30
0.0
  0
VERTEX
  5
73C
  8
0
  6
CONTINUOUS
 62
     7
 10
916.91154600000004
 20
-372.28681
 30
0.0
  0
VERTEX
  5
73D
  8
0
  6
CONTINUOUS
 62
     7
 10
916.69048499999985
 20
-372.59530000000001
 30
0.0
  0
VERTEX
  5
73E
  8
0
  6
CONTINUOUS
 62
     7
 10
916.4934599999998
 20
-372.919669
 30
0.0
  0
VERTEX
  5
73F
  8
0
  6
CONTINUOUS
 62
     7
 10
916.32160499999998
 20
-373.25804699999998
 30
0.0
  0
VERTEX
  5
740
  8
0
  6
CONTINUOUS
 62
     7
 10
916.17591100000004
 20
-373.60848500000009
 30
0.0
  0
VERTEX
  5
741
  8
0
  6
CONTINUOUS
 62
     7
 10
916.05721700000004
 20
-373.96896500000003
 30
0.0
  0
VERTEX
  5
742
  8
0
  6
CONTINUOUS
 62
     7
 10
915.96620700000005
 20
-374.33740899999998
 30
0.0
  0
VERTEX
  5
743
  8
0
  6
CONTINUOUS
 62
     7
 10
915.90340500000002
 20
-374.71169500000002
 30
0.0
  0
VERTEX
  5
744
  8
0
  6
CONTINUOUS
 62
     7
 10
915.86917300000005
 20
-375.08966600000002
 30
0.0
  0
VERTEX
  5
745
  8
0
  6
CONTINUOUS
 62
     7
 10
911.63346899999999
 20
-455.91172699999993
 30
0.0
  0
VERTEX
  5
746
  8
0
  6
CONTINUOUS
 62
     7
 10
911.60034599999994
 20
-456.2810419999999
 30
0.0
  0
VERTEX
  5
747
  8
0
  6
CONTINUOUS
 62
     7
 10
911.53994399999999
 20
-456.64688699999999
 30
0.0
  0
VERTEX
  5
748
  8
0
  6
CONTINUOUS
 62
     7
 10
911.45259699999997
 20
-457.00725
 30
0.0
  0
VERTEX
  5
749
  8
0
  6
CONTINUOUS
 62
     7
 10
911.33878399999992
 20
-457.36014799999998
 30
0.0
  0
VERTEX
  5
74A
  8
0
  6
CONTINUOUS
 62
     7
 10
911.19913099999997
 20
-457.70364199999989
 30
0.0
  0
VERTEX
  5
74B
  8
0
  6
CONTINUOUS
 62
     7
 10
911.03440699999999
 20
-458.035841
 30
0.0
  0
VERTEX
  5
74C
  8
0
  6
CONTINUOUS
 62
     7
 10
910.84551599999998
 20
-458.35491999999999
 30
0.0
  0
VERTEX
  5
74D
  8
0
  6
CONTINUOUS
 62
     7
 10
910.63349900000003
 20
-458.65912300000002
 30
0.0
  0
VERTEX
  5
74E
  8
0
  6
CONTINUOUS
 62
     7
 10
910.39951999999994
 20
-458.94677699999988
 30
0.0
  0
VERTEX
  5
74F
  8
0
  6
CONTINUOUS
 62
     7
 10
910.14486699999986
 20
-459.21629999999999
 30
0.0
  0
VERTEX
  5
750
  8
0
  6
CONTINUOUS
 62
     7
 10
909.8709409999999
 20
-459.46620999999988
 30
0.0
  0
VERTEX
  5
751
  8
0
  6
CONTINUOUS
 62
     7
 10
909.57924700000012
 20
-459.695132
 30
0.0
  0
VERTEX
  5
752
  8
0
  6
CONTINUOUS
 62
     7
 10
909.27139099999999
 20
-459.9018089999999
 30
0.0
  0
VERTEX
  5
753
  8
0
  6
CONTINUOUS
 62
     7
 10
908.94906400000013
 20
-460.08510199999989
 30
0.0
  0
VERTEX
  5
754
  8
0
  6
CONTINUOUS
 62
     7
 10
908.61404000000005
 20
-460.24400400000002
 30
0.0
  0
VERTEX
  5
755
  8
0
  6
CONTINUOUS
 62
     7
 10
908.26816199999996
 20
-460.37763999999999
 30
0.0
  0
VERTEX
  5
756
  8
0
  6
CONTINUOUS
 62
     7
 10
907.91333100000008
 20
-460.48527699999988
 30
0.0
  0
VERTEX
  5
757
  8
0
  6
CONTINUOUS
 62
     7
 10
907.55149900000004
 20
-460.5663219999999
 30
0.0
  0
VERTEX
  5
758
  8
0
  6
CONTINUOUS
 62
     7
 10
907.18465500000002
 20
-460.62032900000003
 30
0.0
  0
VERTEX
  5
759
  8
0
  6
CONTINUOUS
 62
     7
 10
906.81481799999995
 20
-460.64700199999987
 30
0.0
  0
VERTEX
  5
75A
  8
0
  6
CONTINUOUS
 62
     7
 10
779.11665199999993
 20
-465.10631999999998
 30
0.0
  0
VERTEX
  5
75B
  8
0
  6
CONTINUOUS
 62
     7
 10
778.73380499999985
 20
-465.134434
 30
0.0
  0
VERTEX
  5
75C
  8
0
  6
CONTINUOUS
 62
     7
 10
778.35424299999988
 20
-465.1918379999999
 30
0.0
  0
VERTEX
  5
75D
  8
0
  6
CONTINUOUS
 62
     7
 10
777.98020399999984
 20
-465.27819199999988
 30
0.0
  0
VERTEX
  5
75E
  8
0
  6
CONTINUOUS
 62
     7
 10
777.61389199999996
 20
-465.39298699999989
 30
0.0
  0
VERTEX
  5
75F
  8
0
  6
CONTINUOUS
 62
     7
 10
777.25746700000002
 20
-465.53554699999989
 30
0.0
  0
VERTEX
  5
760
  8
0
  6
CONTINUOUS
 62
     7
 10
776.91302900000005
 20
-465.70503099999991
 30
0.0
  0
VERTEX
  5
761
  8
0
  6
CONTINUOUS
 62
     7
 10
776.58260899999993
 20
-465.900441
 30
0.0
  0
VERTEX
  5
762
  8
0
  6
CONTINUOUS
 62
     7
 10
776.26815399999987
 20
-466.12062400000002
 30
0.0
  0
VERTEX
  5
763
  8
0
  6
CONTINUOUS
 62
     7
 10
775.97151899999994
 20
-466.364284
 30
0.0
  0
VERTEX
  5
764
  8
0
  6
CONTINUOUS
 62
     7
 10
775.69445099999984
 20
-466.62998199999998
 30
0.0
  0
VERTEX
  5
765
  8
0
  6
CONTINUOUS
 62
     7
 10
775.43858399999999
 20
-466.91615400000001
 30
0.0
  0
VERTEX
  5
766
  8
0
  6
CONTINUOUS
 62
     7
 10
775.20542499999999
 20
-467.22111200000001
 30
0.0
  0
VERTEX
  5
767
  8
0
  6
CONTINUOUS
 62
     7
 10
774.99635000000001
 20
-467.54305999999991
 30
0.0
  0
VERTEX
  5
768
  8
0
  6
CONTINUOUS
 62
     7
 10
774.81259099999988
 20
-467.88009799999998
 30
0.0
  0
VERTEX
  5
769
  8
0
  6
CONTINUOUS
 62
     7
 10
774.65523099999984
 20
-468.23024099999998
 30
0.0
  0
VERTEX
  5
76A
  8
0
  6
CONTINUOUS
 62
     7
 10
774.52519699999993
 20
-468.59142500000002
 30
0.0
  0
VERTEX
  5
76B
  8
0
  6
CONTINUOUS
 62
     7
 10
774.42325499999993
 20
-468.96152000000001
 30
0.0
  0
VERTEX
  5
76C
  8
0
  6
CONTINUOUS
 62
     7
 10
774.350008
 20
-469.33834499999989
 30
0.0
  0
VERTEX
  5
76D
  8
0
  6
CONTINUOUS
 62
     7
 10
774.30588599999987
 20
-469.71967899999993
 30
0.0
  0
VERTEX
  5
76E
  8
0
  6
CONTINUOUS
 62
     7
 10
774.2911499999999
 20
-470.103274
 30
0.0
  0
VERTEX
  5
76F
  8
0
  6
CONTINUOUS
 62
     7
 10
774.2911499999999
 20
-475.27483000000001
 30
0.0
  0
VERTEX
  5
770
  8
0
  6
CONTINUOUS
 62
     7
 10
752.29115000000002
 20
-475.27483000000001
 30
0.0
  0
VERTEX
  5
771
  8
0
  6
CONTINUOUS
 62
     7
 10
752.29115000000002
 20
-463.27483000000001
 30
0.0
  0
SEQEND
  5
772
  8
0
  6
CONTINUOUS
 62
     7
  0
POLYLINE
  5
3EA
  8
0
  6
CONTINUOUS
 62
     7
 66
     1
 10
0.0
 20
0.0
 30
0.0
  0
VERTEX
  5
773
  8
0
  6
CONTINUOUS
 62
     7
 10
694.46480099999985
 20
-453.35134599999992
 30
0.0
  0
VERTEX
  5
774
  8
0
  6
CONTINUOUS
 62
     7
 10
568.66925999999989
 20
-448.95846799999998
 30
0.0
 42
-0.387765
  0
VERTEX
  5
775
  8
0
  6
CONTINUOUS
 62
     7
 10
559.03405999999995
 20
-439.52655900000002
 30
0.0
  0
VERTEX
  5
776
  8
0
  6
CONTINUOUS
 62
     7
 10
554.46480099999985
 20
-358.35134599999998
 30
0.0
  0
SEQEND
  5
777
  8
0
  6
CONTINUOUS
 62
     7
  0
POLYLINE
  5
3F0
  8
0
  6
CONTINUOUS
 62
     7
 66
     1
 10
0.0
 20
0.0
 30
0.0
  0
VERTEX
  5
778
  8
0
  6
CONTINUOUS
 62
     7
 10
764.11749799999996
 20
-453.35134599999992
 30
0.0
  0
VERTEX
  5
779
  8
0
  6
CONTINUOUS
 62
     7
 10
889.91304000000002
 20
-448.95846799999998
 30
0.0
 42
0.387765
  0
VERTEX
  5
77A
  8
0
  6
CONTINUOUS
 62
     7
 10
899.54823999999996
 20
-439.52655900000002
 30
0.0
  0
VERTEX
  5
77B
  8
0
  6
CONTINUOUS
 62
     7
 10
904.11749799999996
 20
-358.35134599999998
 30
0.0
  0
SEQEND
  5
77C
  8
0
  6
CONTINUOUS
 62
     7
  0
LINE
  5
3F6
  8
0
  6
CONTINUOUS
 62
     7
 10
706.29115000000002
 20
-463.27483000000001
 30
0.0
 11
752.29115000000002
 21
-463.27483000000001
 31
0.0
  0
LINE
  5
3F7
  8
0
  6
CONTINUOUS
 62
     7
 10
694.46480099999985
 20
-453.35134599999992
 30
0.0
 11
764.11749799999996
 21
-453.35134599999992
 31
0.0
  0
LINE
  5
3F8
  8
0
  6
CONTINUOUS
 62
     7
 10
706.29115000000002
 20
-475.27483000000001
 30
0.0
 11
752.29115000000002
 21
-475.27483000000001
 31
0.0
  0
LINE
  5
3F9
  8
0
  6
CONTINUOUS
 62
     7
 10
526.46480099999997
 20
-658.35134600000004
 30
0.0
 11
932.11749799999996
 21
-658.35134600000004
 31
0.0
  0
LINE
  5
3FA
  8
0
  6
CONTINUOUS
 62
     7
 10
514.46480099999997
 20
-658.35134600000004
 30
0.0
 11
526.46480099999997
 21
-658.35134600000004
 31
0.0
  0
LINE
  5
3FB
  8
0
  6
CONTINUOUS
 62
     7
 10
944.11749800000007
 20
-658.35134600000004
 30
0.0
 11
932.11749799999996
 21
-658.35134600000004
 31
0.0
  0
LINE
  5
3FC
  8
0
  6
CONTINUOUS
 62
     7
 10
706.29115000000002
 20
-463.27483000000001
 30
0.0
 11
694.46480099999985
 21
-453.35134599999992
 31
0.0
  0
LINE
  5
3FD
  8
0
  6
CONTINUOUS
 62
     7
 10
706.29115000000002
 20
-463.27483000000001
 30
0.0
 11
706.29115000000002
 21
-475.27483000000001
 31
0.0
  0
LINE
  5
3FE
  8
0
  6
CONTINUOUS
 62
     7
 10
706.29115000000002
 20
-475.27483000000001
 30
0.0
 11
684.29115000000002
 21
-475.27483000000001
 31
0.0
  0
LINE
  5
3FF
  8
0
  6
CONTINUOUS
 62
     7
 10
752.29115000000002
 20
-463.27483000000001
 30
0.0
 11
764.11749799999996
 21
-453.35134599999992
 31
0.0
  0
LINE
  5
400
  8
0
  6
CONTINUOUS
 62
     7
 10
752.29115000000002
 20
-463.27483000000001
 30
0.0
 11
752.29115000000002
 21
-475.27483000000001
 31
0.0
  0
LINE
  5
401
  8
0
  6
CONTINUOUS
 62
     7
 10
752.29115000000002
 20
-475.27483000000001
 30
0.0
 11
774.2911499999999
 21
-475.27483000000001
 31
0.0
  0
DIMENSION
  5
402
  8
LAYER01
 62
     7
  2
*D20
 10
514.46480099999997
 20
-733.369055
 30
0.0
 11
622.17903000000001
 21
-703.369055
 31
0.0
 13
729.29115000000002
 23
-658.35134600000004
 33
0.0
 14
514.46480099999997
 24
-658.35134600000004
 34
0.0
  0
LINE
  5
403
  8
LAYER01
  6
STRICHPUNKTIERT
 62
     6
 10
729.29115000000002
 20
-482.02093100000002
 30
0.0
 11
729.29115000000002
 21
-421.76932399999998
 31
0.0
  0
DIMENSION
  5
404
  8
LAYER01
 62
     7
  2
*D21
 10
706.29115000000002
 20
-525.287914
 30
0.0
 11
830.77957399999991
 21
-495.28791399999989
 31
0.0
 13
752.29115000000002
 23
-475.27483000000001
 33
0.0
 14
706.29115000000002
 24
-475.27483000000001
 34
0.0
  0
LINE
  5
405
  8
0
  6
CONTINUOUS
 62
     7
 10
554.46480099999985
 20
-358.35134599999998
 30
0.0
 11
904.11749799999996
 21
-358.35134599999998
 31
0.0
  0
LINE
  5
406
  8
0
  6
CONTINUOUS
 62
     7
 10
554.46480099999985
 20
-358.35134599999998
 30
0.0
 11
514.46480099999997
 21
-358.35134599999998
 31
0.0
  0
LINE
  5
407
  8
0
  6
CONTINUOUS
 62
     7
 10
904.11749799999996
 20
-358.35134599999998
 30
0.0
 11
944.11749800000007
 21
-358.35134599999998
 31
0.0
  0
DIMENSION
  5
408
  8
LAYER01
 62
     7
  2
*D22
 10
554.46480099999985
 20
-309.80924700000003
 30
0.0
 11
729.59220400000004
 21
-279.80924700000003
 31
0.0
 13
904.11749799999996
 23
-358.35134599999998
 33
0.0
 14
554.46480099999985
 24
-358.35134599999998
 34
0.0
  0
DIMENSION
  5
409
  8
LAYER01
 62
     7
  2
*D23
 10
944.11749800000007
 20
-226.17641800000001
 30
0.0
 11
729.59220400000004
 21
-196.17641800000001
 31
0.0
 13
514.46480099999997
 23
-358.35134599999998
 33
0.0
 14
944.11749800000007
 24
-358.35134599999998
 34
0.0
  0
TEXT
  5
40A
  8
LAYER01
  6
VERDECKT
 62
     1
 10
1881.015883
 20
-1109.1845040000001
 30
0.0
 40
30.0
  1
A. Sprenger GmbH
  7
SIMPLEX
  0
TEXT
  5
40B
  8
LAYER01
  6
CONTINUOUS
 62
     7
 10
1871.283696
 20
-923.3985009999999
 30
0.0
 40
9.0
  1
Diese Zeichnung ist geistiges Eigentum der A. Sprenger GmbH
  7
SIMPLEX
  0
TEXT
  5
40C
  8
LAYER01
  6
CONTINUOUS
 62
     7
 10
1871.283696
 20
-938.82707200000004
 30
0.0
 40
9.0
  1
und urheberrechtlich geschützt. Ohne unsere Zustimmung darf 
  7
SIMPLEX
  0
TEXT
  5
40D
  8
LAYER01
  6
CONTINUOUS
 62
     7
 10
1871.283696
 20
-954.25564399999996
 30
0.0
 40
9.0
  1
sie in keiner Form verwendet oder Dritten zugänglich gemacht
  7
SIMPLEX
  0
TEXT
  5
40E
  8
LAYER01
  6
CONTINUOUS
 62
     7
 10
1871.283696
 20
-969.68421499999999
 30
0.0
 40
9.0
  1
werden. (§106 Urheberrecht)
  7
SIMPLEX
  0
TEXT
  5
40F
  8
LAYER01
  6
VERDECKT
 62
     1
 10
1960.148357
 20
-1031.8105290000001
 30
0.0
 40
12.0
  1
1 : 10 (DIN A3)
  7
SIMPLEX
  0
TEXT
  5
410
  8
LAYER01
  6
VERDECKT
 62
     1
 10
1879.257384
 20
-1346.5819240000001
 30
0.0
 40
30.0
  1
VARICOR-Waschtisch
  7
SIMPLEX
  0
TEXT
  5
411
  8
LAYER01
  6
VERDECKT
 62
     1
 10
1603.0166079999999
 20
-1178.6462610000001
 30
0.0
 40
12.0
  1
24.2.2015
  7
SIMPLEX
  0
TEXT
  5
412
  8
LAYER01
  6
VERDECKT
 62
     1
 10
1718.405195
 20
-1178.6901049999999
 30
0.0
 40
12.0
  1
b.s.
  7
SIMPLEX
  0
TEXT
  5
413
  8
LAYER01
  6
VERDECKT
 62
     1
 10
1881.015883
 20
-1227.003964
 30
0.0
 40
42.0
  1
Pleyel
  7
SIMPLEX
  0
TEXT
  5
414
  8
LAYER01
  6
VERDECKT
 62
     1
 10
2269.4226699999999
 20
-1031.8105290000001
 30
0.0
 40
12.0
  1
pleyel.skd
  7
SIMPLEX
  0
INSERT
  5
446
  8
LAYER01
  6
CONTINUOUS
 62
     7
  2
WMF0
 10
575.11835771185815
 20
-2293.4602849925732
 30
0.0
 41
0.25
 42
0.25
 43
0.25
  0
INSERT
  5
447
  8
KERA4
  2
*U29
 10
3450.1452469162591
 20
-495.02656431346543
 30
0.0
 41
0.7199999999997999
 42
0.7200000000000273
 43
0.7200000000000001
  0
ENDSEC
  0
EOF
