  0
SECTION
  2
HEADER
  9
$ACADVER
  1
AC1009
  9
$INSBASE
 10
0.0
 20
0.0
 30
0.0
  9
$EXTMIN
 10
-4277.0279090000004
 20
1444.5101950000001
 30
0.0
  9
$EXTMAX
 10
3675.5795440000002
 20
6949.2429810000012
 30
0.0
  9
$LIMMIN
 10
-4488.2714180000003
 20
1228.4687879999999
  9
$LIMMAX
 10
3911.7285820000002
 20
7168.4687880000001
  9
$ORTHOMODE
 70
     1
  9
$REGENMODE
 70
     1
  9
$FILLMODE
 70
     1
  9
$QTEXTMODE
 70
     0
  9
$MIRRTEXT
 70
     0
  9
$DRAGMODE
 70
     2
  9
$LTSCALE
 40
5.0
  9
$OSMODE
 70
    37
  9
$ATTMODE
 70
     1
  9
$TEXTSIZE
 40
0.2
  9
$TRACEWID
 40
0.05
  9
$TEXTSTYLE
  7
STANDARD
  9
$CLAYER
  8
LAYER01
  9
$CELTYPE
  6
CONTINUOUS
  9
$CECOLOR
 62
     7
  9
$DIMSCALE
 40
1.0
  9
$DIMASZ
 40
0.18
  9
$DIMEXO
 40
0.0625
  9
$DIMDLI
 40
0.38
  9
$DIMRND
 40
0.0
  9
$DIMDLE
 40
0.0
  9
$DIMEXE
 40
0.18
  9
$DIMTP
 40
0.0
  9
$DIMTM
 40
0.0
  9
$DIMTXT
 40
0.18
  9
$DIMCEN
 40
0.09
  9
$DIMTSZ
 40
0.0
  9
$DIMTOL
 70
     0
  9
$DIMLIM
 70
     0
  9
$DIMTIH
 70
     1
  9
$DIMTOH
 70
     1
  9
$DIMSE1
 70
     0
  9
$DIMSE2
 70
     0
  9
$DIMTAD
 70
     0
  9
$DIMZIN
 70
     0
  9
$DIMBLK
  1

  9
$DIMASO
 70
     1
  9
$DIMSHO
 70
     1
  9
$DIMPOST
  1

  9
$DIMAPOST
  1

  9
$DIMALT
 70
     0
  9
$DIMALTD
 70
     2
  9
$DIMALTF
 40
25.399999999999999
  9
$DIMLFAC
 40
1.0
  9
$DIMTOFL
 70
     0
  9
$DIMTVP
 40
0.0
  9
$DIMTIX
 70
     0
  9
$DIMSOXD
 70
     0
  9
$DIMSAH
 70
     0
  9
$DIMBLK1
  1

  9
$DIMBLK2
  1

  9
$DIMSTYLE
  2
STANDARD
  9
$DIMCLRD
 70
     0
  9
$DIMCLRE
 70
     0
  9
$DIMCLRT
 70
     0
  9
$DIMTFAC
 40
1.0
  9
$DIMGAP
 40
0.09
  9
$LUNITS
 70
     2
  9
$LUPREC
 70
     4
  9
$SKETCHINC
 40
0.1
  9
$FILLETRAD
 40
11.0
  9
$AUNITS
 70
     0
  9
$AUPREC
 70
     0
  9
$MENU
  1
acad
  9
$ELEVATION
 40
0.0
  9
$PELEVATION
 40
0.0
  9
$THICKNESS
 40
0.0
  9
$LIMCHECK
 70
     0
  9
$BLIPMODE
 70
     0
  9
$CHAMFERA
 40
0.0
  9
$CHAMFERB
 40
0.0
  9
$SKPOLY
 70
     0
  9
$TDCREATE
 40
2305814.0419469099
  9
$TDUPDATE
 40
2456352.7321221759
  9
$TDINDWG
 40
0.0006429398
  9
$TDUSRTIMER
 40
0.0006426389
  9
$USRTIMER
 70
     1
  9
$ANGBASE
 50
0.0
  9
$ANGDIR
 70
     0
  9
$PDMODE
 70
     0
  9
$PDSIZE
 40
0.0
  9
$PLINEWID
 40
0.0
  9
$COORDS
 70
     1
  9
$SPLFRAME
 70
     0
  9
$SPLINETYPE
 70
     6
  9
$SPLINESEGS
 70
    10
  9
$ATTDIA
 70
     0
  9
$ATTREQ
 70
     1
  9
$HANDLING
 70
     1
  9
$HANDSEED
  5
D70
  9
$SURFTAB1
 70
     6
  9
$SURFTAB2
 70
     6
  9
$SURFTYPE
 70
     6
  9
$SURFU
 70
     6
  9
$SURFV
 70
     6
  9
$UCSNAME
  2

  9
$UCSORG
 10
0.0
 20
0.0
 30
0.0
  9
$UCSXDIR
 10
1.0
 20
0.0
 30
0.0
  9
$UCSYDIR
 10
0.0
 20
1.0
 30
0.0
  9
$PUCSNAME
  2

  9
$PUCSORG
 10
0.0
 20
0.0
 30
0.0
  9
$PUCSXDIR
 10
1.0
 20
0.0
 30
0.0
  9
$PUCSYDIR
 10
0.0
 20
1.0
 30
0.0
  9
$USERI1
 70
     0
  9
$USERI2
 70
     0
  9
$USERI3
 70
     0
  9
$USERI4
 70
     0
  9
$USERI5
 70
     0
  9
$USERR1
 40
0.0
  9
$USERR2
 40
0.0
  9
$USERR3
 40
0.0
  9
$USERR4
 40
0.0
  9
$USERR5
 40
0.0
  9
$WORLDVIEW
 70
     1
  9
$SHADEDGE
 70
     3
  9
$SHADEDIF
 70
    70
  9
$TILEMODE
 70
     1
  9
$MAXACTVP
 70
    64
  9
$PLIMCHECK
 70
     0
  9
$PEXTMIN
 10
1.0000000000000000E+020
 20
1.0000000000000000E+020
 30
1.0000000000000000E+020
  9
$PEXTMAX
 10
-1.0000000000000000E+020
 20
-1.0000000000000000E+020
 30
-1.0000000000000000E+020
  9
$PLIMMIN
 10
0.0
 20
0.0
  9
$PLIMMAX
 10
12.0
 20
9.0
  9
$UNITMODE
 70
     0
  9
$VISRETAIN
 70
     1
  9
$PLINEGEN
 70
     0
  9
$PSLTSCALE
 70
     1
  0
ENDSEC
  0
SECTION
  2
TABLES
  0
TABLE
  2
VPORT
 70
     1
  0
VPORT
  2
*ACTIVE
 70
     0
 10
0.0
 20
0.0
 11
1.0
 21
1.0
 12
-288.27141800000038
 22
4198.4687879999992
 13
0.0
 23
0.0
 14
1.0
 24
1.0
 15
0.0
 25
0.0
 16
0.0
 26
0.0
 36
1.0
 17
0.0
 27
0.0
 37
0.0
 40
5973.2793082779899
 41
1.527675276752767
 42
50.0
 43
0.0
 44
0.0
 50
0.0
 51
0.0
 71
     0
 72
   100
 73
     1
 74
     1
 75
     0
 76
     0
 77
     0
 78
     0
  0
ENDTAB
  0
TABLE
  2
LTYPE
 70
    11
  0
LTYPE
  2
CONTINUOUS
 70
     0
  3
Solid line
 72
    65
 73
     0
 40
0.0
  0
LTYPE
  2
GESTRICHELT
 70
     0
  3
__ __ __ __ __ __ __ __ __ __ __ __ __ __ __
 72
    65
 73
     2
 40
0.75
 49
0.5
 49
-0.25
  0
LTYPE
  2
VERDECKT
 70
     0
  3
_ _ _ _ _ _ _ _ _ _ _ _ _ _ _ _ _ _ _ _ _ _ 
 72
    65
 73
     2
 40
0.25
 49
0.125
 49
-0.125
  0
LTYPE
  2
MITTELLINIE
 70
     0
  3
____ _ ____ _ ____ _ ____ _ ____ _ ____ _ __
 72
    65
 73
     4
 40
2.0
 49
1.25
 49
-0.25
 49
0.25
 49
-0.25
  0
LTYPE
  2
PHANTOM
 70
     0
  3
_____ _ _ _____ _ _ _____ _ _ _____ _ _ ____
 72
    65
 73
     6
 40
2.5
 49
1.25
 49
-0.25
 49
0.25
 49
-0.25
 49
0.25
 49
-0.25
  0
LTYPE
  2
PUNKTIERT
 70
     0
  3
............................................
 72
    65
 73
     2
 40
0.25
 49
0.0
 49
-0.25
  0
LTYPE
  2
STRICHPUNKTIERT
 70
     0
  3
__ . __ . __ . __ . __ . __ . __ . __ . __ .
 72
    65
 73
     4
 40
1.0
 49
0.5
 49
-0.25
 49
0.0
 49
-0.25
  0
LTYPE
  2
RAND
 70
     0
  3
__ __ . __ __ . __ __ . __ __ . __ __ . __ _
 72
    65
 73
     6
 40
1.75
 49
0.5
 49
-0.25
 49
0.5
 49
-0.25
 49
0.0
 49
-0.25
  0
LTYPE
  2
TRENNLINIE
 70
     0
  3
__ . . __ . . __ . . __ . . __ . . __ . . __
 72
    65
 73
     6
 40
1.25
 49
0.5
 49
-0.25
 49
0.0
 49
-0.25
 49
0.0
 49
-0.25
  0
LTYPE
  2
ENG_PUNKTIERT
 70
     0
  3
Schließen                                   
 72
    65
 73
     2
 40
0.1
 49
0.05
 49
-0.05
  0
LTYPE
  2
CLOSE
 70
     0
  3
                                            
 72
    65
 73
     0
 40
0.0
  0
ENDTAB
  0
TABLE
  2
LAYER
 70
   258
  0
LAYER
  2
0
 70
     0
 62
     7
  6
CONTINUOUS
  0
LAYER
  2
LAYER01
 70
     0
 62
     7
  6
CONTINUOUS
  0
LAYER
  2
LAYER02
 70
     0
 62
     7
  6
CONTINUOUS
  0
LAYER
  2
LAYER03
 70
     0
 62
     7
  6
CONTINUOUS
  0
LAYER
  2
LAYER04
 70
     0
 62
     7
  6
CONTINUOUS
  0
LAYER
  2
LAYER05
 70
     0
 62
     7
  6
CONTINUOUS
  0
LAYER
  2
LAYER06
 70
     0
 62
     7
  6
CONTINUOUS
  0
LAYER
  2
LAYER07
 70
     0
 62
     7
  6
CONTINUOUS
  0
LAYER
  2
LAYER08
 70
     0
 62
     7
  6
CONTINUOUS
  0
LAYER
  2
LAYER09
 70
     0
 62
     7
  6
CONTINUOUS
  0
LAYER
  2
LAYER10
 70
     0
 62
     7
  6
CONTINUOUS
  0
LAYER
  2
2
 70
     0
 62
     7
  6
CONTINUOUS
  0
LAYER
  2
5
 70
     0
 62
     7
  6
CONTINUOUS
  0
LAYER
  2
RAUMAUFM
 70
     0
 62
     7
  6
CONTINUOUS
  0
LAYER
  2
EINRICHT
 70
     0
 62
     7
  6
CONTINUOUS
  0
LAYER
  2
HILFE
 70
     0
 62
     7
  6
CONTINUOUS
  0
LAYER
  2
SCHNITTE
 70
     0
 62
     7
  6
CONTINUOUS
  0
LAYER
  2
SCHRAFF1
 70
     0
 62
     7
  6
CONTINUOUS
  0
LAYER
  2
SCHRAFF2
 70
     0
 62
     7
  6
CONTINUOUS
  0
LAYER
  2
BEMASS-1
 70
     0
 62
     7
  6
CONTINUOUS
  0
LAYER
  2
BEMASS-2
 70
     0
 62
     7
  6
CONTINUOUS
  0
LAYER
  2
TEXT
 70
     0
 62
     7
  6
CONTINUOUS
  0
LAYER
  2
SYMBOLE
 70
     0
 62
     7
  6
CONTINUOUS
  0
LAYER
  2
RAHMEN
 70
     0
 62
     7
  6
CONTINUOUS
  0
LAYER
  2
SCHRIFTF
 70
     0
 62
     7
  6
CONTINUOUS
  0
LAYER
  2
ACHSEN
 70
     0
 62
     7
  6
CONTINUOUS
  0
LAYER
  2
ZEICHN
 70
     0
 62
     7
  6
CONTINUOUS
  0
LAYER
  2
7
 70
     0
 62
     7
  6
CONTINUOUS
  0
LAYER
  2
1
 70
     0
 62
     7
  6
CONTINUOUS
  0
LAYER
  2
6
 70
     0
 62
     7
  6
CONTINUOUS
  0
LAYER
  2
4
 70
     0
 62
     7
  6
CONTINUOUS
  0
LAYER
  2
GRUNDEBENE
 70
     0
 62
     7
  6
CONTINUOUS
  0
LAYER
  2
GRUNDRISS
 70
     0
 62
     7
  6
CONTINUOUS
  0
LAYER
  2
BEMASSUNGGRUNDRISS
 70
     0
 62
     7
  6
CONTINUOUS
  0
LAYER
  2
WANDELEMENTE
 70
     0
 62
     7
  6
CONTINUOUS
  0
LAYER
  2
KUECHE
 70
     0
 62
     7
  6
CONTINUOUS
  0
LAYER
  2
THEKEBROETCHEN
 70
     0
 62
     7
  6
CONTINUOUS
  0
LAYER
  2
CENTERLINIE
 70
     0
 62
     7
  6
CONTINUOUS
  0
LAYER
  2
UMRISSE
 70
     0
 62
     7
  6
CONTINUOUS
  0
LAYER
  2
MAUER
 70
     0
 62
     7
  6
CONTINUOUS
  0
LAYER
  2
SCHRAFFUR
 70
     0
 62
     7
  6
CONTINUOUS
  0
LAYER
  2
MASSLINIE
 70
     0
 62
     7
  6
CONTINUOUS
  0
LAYER
  2
PV
 70
     0
 62
     7
  6
CONTINUOUS
  0
LAYER
  2
BESCHRIFTUNG
 70
     0
 62
     7
  6
CONTINUOUS
  0
LAYER
  2
AS
 70
     0
 62
     7
  6
CONTINUOUS
  0
LAYER
  2
PL
 70
     0
 62
     7
  6
CONTINUOUS
  0
LAYER
  2
UK
 70
     0
 62
     7
  6
CONTINUOUS
  0
LAYER
  2
TEXT3
 70
     0
 62
     7
  6
CONTINUOUS
  0
LAYER
  2
TEXT7
 70
     0
 62
     7
  6
CONTINUOUS
  0
LAYER
  2
BEPL1
 70
     0
 62
     7
  6
CONTINUOUS
  0
LAYER
  2
BEPL2
 70
     0
 62
     7
  6
CONTINUOUS
  0
LAYER
  2
BEPL2V
 70
     0
 62
     7
  6
CONTINUOUS
  0
LAYER
  2
BEPL4
 70
     0
 62
     7
  6
CONTINUOUS
  0
LAYER
  2
BEPL
 70
     0
 62
     7
  6
CONTINUOUS
  0
LAYER
  2
UK1
 70
     0
 62
     7
  6
CONTINUOUS
  0
LAYER
  2
UK2
 70
     0
 62
     7
  6
CONTINUOUS
  0
LAYER
  2
UK2V
 70
     0
 62
     7
  6
CONTINUOUS
  0
LAYER
  2
UK3
 70
     0
 62
     7
  6
CONTINUOUS
  0
LAYER
  2
TEXT2
 70
     0
 62
     7
  6
CONTINUOUS
  0
LAYER
  2
HILF2S
 70
     0
 62
     7
  6
CONTINUOUS
  0
LAYER
  2
UK1V
 70
     0
 62
     7
  6
CONTINUOUS
  0
LAYER
  2
GAIN_ZRA
 70
     0
 62
     7
  6
CONTINUOUS
  0
LAYER
  2
GAIN_ZSF
 70
     0
 62
     7
  6
CONTINUOUS
  0
LAYER
  2
RAHM4
 70
     0
 62
     7
  6
CONTINUOUS
  0
LAYER
  2
KORPUSBAND
 70
     0
 62
     7
  6
CONTINUOUS
  0
LAYER
  2
E---LGPL--------
 70
     0
 62
     7
  6
CONTINUOUS
  0
LAYER
  2
E---NPFL--------
 70
     0
 62
     7
  6
CONTINUOUS
  0
LAYER
  2
E---PLNKTXT-----
 70
     0
 62
     7
  6
CONTINUOUS
  0
LAYER
  2
E---PLNK--------
 70
     0
 62
     7
  6
CONTINUOUS
  0
LAYER
  2
E---PLNR--------
 70
     0
 62
     7
  6
CONTINUOUS
  0
LAYER
  2
D547_ARCHICAD
 70
     0
 62
     7
  6
CONTINUOUS
  0
LAYER
  2
D547_E---TEXT--------
 70
     0
 62
     7
  6
CONTINUOUS
  0
LAYER
  2
E---LEGD--------
 70
     0
 62
     7
  6
CONTINUOUS
  0
LAYER
  2
D43_ARCHICAD
 70
     0
 62
     7
  6
CONTINUOUS
  0
LAYER
  2
D43_FENSTER_VON_B---FASS--
 70
     0
 62
     7
  6
CONTINUOUS
  0
LAYER
  2
D43_E---SCHN--------
 70
     0
 62
     7
  6
CONTINUOUS
  0
LAYER
  2
D43_B---MW-N--------
 70
     0
 62
     7
  6
CONTINUOUS
  0
LAYER
  2
D43_B---DECK--------
 70
     0
 62
     7
  6
CONTINUOUS
  0
LAYER
  2
D43_B---MW-S--------
 70
     0
 62
     7
  6
CONTINUOUS
  0
LAYER
  2
D43_B---MW----------
 70
     0
 62
     7
  6
CONTINUOUS
  0
LAYER
  2
D43_B---FASS--------
 70
     0
 62
     7
  6
CONTINUOUS
  0
LAYER
  2
D43_E---RASG--------
 70
     0
 62
     7
  6
CONTINUOUS
  0
LAYER
  2
D40_ARCHICAD
 70
     0
 62
     7
  6
CONTINUOUS
  0
LAYER
  2
D40_E---MW--------
 70
     0
 62
     7
  6
CONTINUOUS
  0
LAYER
  2
D40_E---FASSKON-----
 70
     0
 62
     7
  6
CONTINUOUS
  0
LAYER
  2
D40_TÜREN_VON_B---MW-N----
 70
     0
 62
     7
  6
CONTINUOUS
  0
LAYER
  2
D40_E---MW-L------
 70
     0
 62
     7
  6
CONTINUOUS
  0
LAYER
  2
D40_TÜREN_VON_B---MW------
 70
     0
 62
     7
  6
CONTINUOUS
  0
LAYER
  2
D40_E---VERM--------
 70
     0
 62
     7
  6
CONTINUOUS
  0
LAYER
  2
D40_FENSTER_VON_E---MW-L--
 70
     0
 62
     7
  6
CONTINUOUS
  0
LAYER
  2
D40_FENSTER_VON_B---MW-N--
 70
     0
 62
     7
  6
CONTINUOUS
  0
LAYER
  2
D40_E---SCHN--------
 70
     0
 62
     7
  6
CONTINUOUS
  0
LAYER
  2
D40_E---AUFZ--------
 70
     0
 62
     7
  6
CONTINUOUS
  0
LAYER
  2
D40_E---DECK--------
 70
     0
 62
     7
  6
CONTINUOUS
  0
LAYER
  2
D40_E---RAUMINF-----
 70
     0
 62
     7
  6
CONTINUOUS
  0
LAYER
  2
D40_E---TEXT--------
 70
     0
 62
     7
  6
CONTINUOUS
  0
LAYER
  2
D40_B---TEXT--------
 70
     0
 62
     7
  6
CONTINUOUS
  0
LAYER
  2
D40_B---MW-N--------
 70
     0
 62
     7
  6
CONTINUOUS
  0
LAYER
  2
D40_B---DECK--------
 70
     0
 62
     7
  6
CONTINUOUS
  0
LAYER
  2
D40_B---AUFZ--------
 70
     0
 62
     7
  6
CONTINUOUS
  0
LAYER
  2
D40_B---MW-S--------
 70
     0
 62
     7
  6
CONTINUOUS
  0
LAYER
  2
D40_B---MW----------
 70
     0
 62
     7
  6
CONTINUOUS
  0
LAYER
  2
D40_E---MOEB--------
 70
     0
 62
     7
  6
CONTINUOUS
  0
LAYER
  2
D40_B---UMGB--------
 70
     0
 62
     7
  6
CONTINUOUS
  0
LAYER
  2
D40_B---FASS--------
 70
     0
 62
     7
  6
CONTINUOUS
  0
LAYER
  2
D40_E---DACH--------
 70
     0
 62
     7
  6
CONTINUOUS
  0
LAYER
  2
D40_E---BODE--------
 70
     0
 62
     7
  6
CONTINUOUS
  0
LAYER
  2
D40_E---TREP--------
 70
     0
 62
     7
  6
CONTINUOUS
  0
LAYER
  2
D40_E---RASG--------
 70
     0
 62
     7
  6
CONTINUOUS
  0
LAYER
  2
D40_B---MW-K--------
 70
     0
 62
     7
  6
CONTINUOUS
  0
LAYER
  2
D40_E---FASSGLA-----
 70
     0
 62
     7
  6
CONTINUOUS
  0
LAYER
  2
D40_B---VERM--------
 70
     0
 62
     7
  6
CONTINUOUS
  0
LAYER
  2
D40_E---UMGBGSG-----
 70
     0
 62
     7
  6
CONTINUOUS
  0
LAYER
  2
D40_E---RASF--------
 70
     0
 62
     7
  6
CONTINUOUS
  0
LAYER
  2
D40_E---PFLA--------
 70
     0
 62
     7
  6
CONTINUOUS
  0
LAYER
  2
D40_E---KONS-ST-----
 70
     0
 62
     7
  6
CONTINUOUS
  0
LAYER
  2
D40_E---WERB--------
 70
     0
 62
     7
  6
CONTINUOUS
  0
LAYER
  2
D40_E---TUERINF-----
 70
     0
 62
     7
  6
CONTINUOUS
  0
LAYER
  2
D40_E---WOLK--------
 70
     0
 62
     7
  6
CONTINUOUS
  0
LAYER
  2
D40_B---MW-L--------
 70
     0
 62
     7
  6
CONTINUOUS
  0
LAYER
  2
D40_B---SANI--------
 70
     0
 62
     7
  6
CONTINUOUS
  0
LAYER
  2
D40_E---SANI--------
 70
     0
 62
     7
  6
CONTINUOUS
  0
LAYER
  2
D40_E---MW-K------
 70
     0
 62
     7
  6
CONTINUOUS
  0
LAYER
  2
D40_E---OBJE--------
 70
     0
 62
     7
  6
CONTINUOUS
  0
LAYER
  2
D40_E---ASPR--------
 70
     0
 62
     7
  6
CONTINUOUS
  0
LAYER
  2
D40_E---VERMTGA-----
 70
     0
 62
     7
  6
CONTINUOUS
  0
LAYER
  2
D40_E---PARK--------
 70
     0
 62
     7
  6
CONTINUOUS
  0
LAYER
  2
D40_E---ISOL--------
 70
     0
 62
     7
  6
CONTINUOUS
  0
LAYER
  2
D40_E---TUER--------
 70
     0
 62
     7
  6
CONTINUOUS
  0
LAYER
  2
D40_E---MW--BRA---
 70
     0
 62
     7
  6
CONTINUOUS
  0
LAYER
  2
D41_ARCHICAD
 70
     0
 62
     7
  6
CONTINUOUS
  0
LAYER
  2
D41_E---MW--------
 70
     0
 62
     7
  6
CONTINUOUS
  0
LAYER
  2
D41_E---FASSKON-----
 70
     0
 62
     7
  6
CONTINUOUS
  0
LAYER
  2
D41_TÜREN_VON_B---MW-N----
 70
     0
 62
     7
  6
CONTINUOUS
  0
LAYER
  2
D41_E---MW-L------
 70
     0
 62
     7
  6
CONTINUOUS
  0
LAYER
  2
D41_TÜREN_VON_B---MW------
 70
     0
 62
     7
  6
CONTINUOUS
  0
LAYER
  2
D41_E---VERM--------
 70
     0
 62
     7
  6
CONTINUOUS
  0
LAYER
  2
D41_FENSTER_VON_E---MW-L--
 70
     0
 62
     7
  6
CONTINUOUS
  0
LAYER
  2
D41_FENSTER_VON_B---MW-N--
 70
     0
 62
     7
  6
CONTINUOUS
  0
LAYER
  2
D41_E---SCHN--------
 70
     0
 62
     7
  6
CONTINUOUS
  0
LAYER
  2
D41_E---AUFZ--------
 70
     0
 62
     7
  6
CONTINUOUS
  0
LAYER
  2
D41_E---DECK--------
 70
     0
 62
     7
  6
CONTINUOUS
  0
LAYER
  2
D41_E---RAUMINF-----
 70
     0
 62
     7
  6
CONTINUOUS
  0
LAYER
  2
D41_E---TEXT--------
 70
     0
 62
     7
  6
CONTINUOUS
  0
LAYER
  2
D41_B---TEXT--------
 70
     0
 62
     7
  6
CONTINUOUS
  0
LAYER
  2
D41_B---MW-N--------
 70
     0
 62
     7
  6
CONTINUOUS
  0
LAYER
  2
D41_B---DECK--------
 70
     0
 62
     7
  6
CONTINUOUS
  0
LAYER
  2
D41_B---AUFZ--------
 70
     0
 62
     7
  6
CONTINUOUS
  0
LAYER
  2
D41_B---MW-S--------
 70
     0
 62
     7
  6
CONTINUOUS
  0
LAYER
  2
D41_B---MW----------
 70
     0
 62
     7
  6
CONTINUOUS
  0
LAYER
  2
D41_E---MOEB--------
 70
     0
 62
     7
  6
CONTINUOUS
  0
LAYER
  2
D41_B---UMGB--------
 70
     0
 62
     7
  6
CONTINUOUS
  0
LAYER
  2
D41_B---FASS--------
 70
     0
 62
     7
  6
CONTINUOUS
  0
LAYER
  2
D41_E---DACH--------
 70
     0
 62
     7
  6
CONTINUOUS
  0
LAYER
  2
D41_E---BODE--------
 70
     0
 62
     7
  6
CONTINUOUS
  0
LAYER
  2
D41_E---TREP--------
 70
     0
 62
     7
  6
CONTINUOUS
  0
LAYER
  2
D41_E---RASG--------
 70
     0
 62
     7
  6
CONTINUOUS
  0
LAYER
  2
D41_B---MW-K--------
 70
     0
 62
     7
  6
CONTINUOUS
  0
LAYER
  2
D41_E---FASSGLA-----
 70
     0
 62
     7
  6
CONTINUOUS
  0
LAYER
  2
D41_B---VERM--------
 70
     0
 62
     7
  6
CONTINUOUS
  0
LAYER
  2
D41_E---UMGBGSG-----
 70
     0
 62
     7
  6
CONTINUOUS
  0
LAYER
  2
D41_E---RASF--------
 70
     0
 62
     7
  6
CONTINUOUS
  0
LAYER
  2
D41_E---PFLA--------
 70
     0
 62
     7
  6
CONTINUOUS
  0
LAYER
  2
D41_E---KONS-ST-----
 70
     0
 62
     7
  6
CONTINUOUS
  0
LAYER
  2
D41_E---WERB--------
 70
     0
 62
     7
  6
CONTINUOUS
  0
LAYER
  2
D41_E---TUERINF-----
 70
     0
 62
     7
  6
CONTINUOUS
  0
LAYER
  2
D41_E---WOLK--------
 70
     0
 62
     7
  6
CONTINUOUS
  0
LAYER
  2
D41_B---MW-L--------
 70
     0
 62
     7
  6
CONTINUOUS
  0
LAYER
  2
D41_B---SANI--------
 70
     0
 62
     7
  6
CONTINUOUS
  0
LAYER
  2
D41_E---SANI--------
 70
     0
 62
     7
  6
CONTINUOUS
  0
LAYER
  2
D41_E---MW-K------
 70
     0
 62
     7
  6
CONTINUOUS
  0
LAYER
  2
D41_E---OBJE--------
 70
     0
 62
     7
  6
CONTINUOUS
  0
LAYER
  2
D41_E---ASPR--------
 70
     0
 62
     7
  6
CONTINUOUS
  0
LAYER
  2
D41_E---VERMTGA-----
 70
     0
 62
     7
  6
CONTINUOUS
  0
LAYER
  2
D41_E---PARK--------
 70
     0
 62
     7
  6
CONTINUOUS
  0
LAYER
  2
D41_E---ISOL--------
 70
     0
 62
     7
  6
CONTINUOUS
  0
LAYER
  2
D41_E---TUER--------
 70
     0
 62
     7
  6
CONTINUOUS
  0
LAYER
  2
D41_E---MW--BRA---
 70
     0
 62
     7
  6
CONTINUOUS
  0
LAYER
  2
D42_ARCHICAD
 70
     0
 62
     7
  6
CONTINUOUS
  0
LAYER
  2
D42_FENSTER_VON_B---FASS--
 70
     0
 62
     7
  6
CONTINUOUS
  0
LAYER
  2
D42_E---SCHN--------
 70
     0
 62
     7
  6
CONTINUOUS
  0
LAYER
  2
D42_B---MW-N--------
 70
     0
 62
     7
  6
CONTINUOUS
  0
LAYER
  2
D42_B---DECK--------
 70
     0
 62
     7
  6
CONTINUOUS
  0
LAYER
  2
D42_B---MW-S--------
 70
     0
 62
     7
  6
CONTINUOUS
  0
LAYER
  2
D42_B---MW----------
 70
     0
 62
     7
  6
CONTINUOUS
  0
LAYER
  2
D42_B---FASS--------
 70
     0
 62
     7
  6
CONTINUOUS
  0
LAYER
  2
D42_E---RASG--------
 70
     0
 62
     7
  6
CONTINUOUS
  0
LAYER
  2
CONSTRUCTION_CLASS
 70
     0
 62
     7
  6
CONTINUOUS
  0
LAYER
  2
PATTERN_CLASS
 70
     0
 62
     7
  6
CONTINUOUS
  0
LAYER
  2
KONSTRUKTION
 70
     0
 62
     7
  6
CONTINUOUS
  0
LAYER
  2
BEMAßUNG
 70
     0
 62
     7
  6
CONTINUOUS
  0
LAYER
  2
HILFSGEOMETRIE
 70
     0
 62
     7
  6
CONTINUOUS
  0
LAYER
  2
UNSICHTBAR
 70
     0
 62
     7
  6
CONTINUOUS
  0
LAYER
  2
LOGO
 70
     0
 62
     7
  6
CONTINUOUS
  0
LAYER
  2
VERWALTUNG
 70
     0
 62
     7
  6
CONTINUOUS
  0
LAYER
  2
UNSICHTBARE_GEWINDE
 70
     0
 62
     7
  6
CONTINUOUS
  0
LAYER
  2
SICHTBARE_GEWINDE
 70
     0
 62
     7
  6
CONTINUOUS
  0
LAYER
  2
DEFPOINTS
 70
     0
 62
     7
  6
CONTINUOUS
  0
LAYER
  2
THICK
 70
     0
 62
     7
  6
CONTINUOUS
  0
LAYER
  2
HIDDEN
 70
     0
 62
     7
  6
CONTINUOUS
  0
LAYER
  2
SCHRAFFURGRUNDRISS
 70
     0
 62
     7
  6
CONTINUOUS
  0
LAYER
  2
BEMASSUNG_GRUNDRISS
 70
     0
 62
     7
  6
CONTINUOUS
  0
LAYER
  2
STATIK
 70
     0
 62
     7
  6
CONTINUOUS
  0
LAYER
  2
TÜREN
 70
     0
 62
     7
  6
CONTINUOUS
  0
LAYER
  2
SANITÄR
 70
     0
 62
     7
  6
CONTINUOUS
  0
LAYER
  2
BEMASSUNG_GIPSKARTON
 70
     0
 62
     7
  6
CONTINUOUS
  0
LAYER
  2
EINRICHTUNGEN
 70
     0
 62
     7
  6
CONTINUOUS
  0
LAYER
  2
BECKEN
 70
     0
 62
     7
  6
CONTINUOUS
  0
LAYER
  2
BELEUCHTUNG
 70
     0
 62
     7
  6
CONTINUOUS
  0
LAYER
  2
BESCHRIFTUNGEN
 70
     0
 62
     7
  6
CONTINUOUS
  0
LAYER
  2
ELEKTRO_1__DOSEN_SCHALTER
 70
     0
 62
     7
  6
CONTINUOUS
  0
LAYER
  2
DEFAULT_1
 70
     0
 62
     7
  6
CONTINUOUS
  0
LAYER
  2
AM_0
 70
     0
 62
     7
  6
CONTINUOUS
  0
LAYER
  2
FRAME0_7
 70
     0
 62
     7
  6
CONTINUOUS
  0
LAYER
  2
AM_BOR
 70
     0
 62
     7
  6
CONTINUOUS
  0
LAYER
  2
RAHM2
 70
     0
 62
     7
  6
CONTINUOUS
  0
LAYER
  2
RAHM3
 70
     0
 62
     7
  6
CONTINUOUS
  0
LAYER
  2
FRAME0_5
 70
     0
 62
     7
  6
CONTINUOUS
  0
LAYER
  2
8
 70
     0
 62
     7
  6
CONTINUOUS
  0
LAYER
  2
AM_5
 70
     0
 62
     7
  6
CONTINUOUS
  0
LAYER
  2
AM_7
 70
     0
 62
     7
  6
CONTINUOUS
  0
LAYER
  2
HILFSLINIEN
 70
     0
 62
     7
  6
CONTINUOUS
  0
LAYER
  2
DRAWING_TEMPLATE
 70
     0
 62
     7
  6
CONTINUOUS
  0
LAYER
  2
TECHNOBOX_EXTERNALREFSYMBO
 70
     0
 62
     7
  6
CONTINUOUS
  0
LAYER
  2
TECHNOBOX_POLYCLIPSYMBOL_L
 70
     0
 62
     7
  6
CONTINUOUS
  0
LAYER
  2
100
 70
     0
 62
     7
  6
CONTINUOUS
  0
LAYER
  2
101
 70
     0
 62
     7
  6
CONTINUOUS
  0
LAYER
  2
KONTUR
 70
     0
 62
     7
  6
CONTINUOUS
  0
LAYER
  2
MITTELLINIE
 70
     0
 62
     7
  6
CONTINUOUS
  0
LAYER
  2
GESTRICHELT
 70
     0
 62
     7
  6
CONTINUOUS
  0
LAYER
  2
HILFSLINIE
 70
     0
 62
     7
  6
CONTINUOUS
  0
LAYER
  2
TEXT-25
 70
     0
 62
     7
  6
CONTINUOUS
  0
LAYER
  2
TEXT35
 70
     0
 62
     7
  6
CONTINUOUS
  0
LAYER
  2
TEXT-50
 70
     0
 62
     7
  6
CONTINUOUS
  0
LAYER
  2
TEXT-70
 70
     0
 62
     7
  6
CONTINUOUS
  0
LAYER
  2
ANSICHTSFENSTER
 70
     0
 62
     7
  6
CONTINUOUS
  0
LAYER
  2
KERA0
 70
     0
 62
     7
  6
CONTINUOUS
  0
LAYER
  2
KERA1
 70
     0
 62
     7
  6
CONTINUOUS
  0
LAYER
  2
KERA2
 70
     0
 62
     7
  6
CONTINUOUS
  0
LAYER
  2
KERA3
 70
     0
 62
     7
  6
CONTINUOUS
  0
LAYER
  2
KERA4
 70
     0
 62
     7
  6
CONTINUOUS
  0
LAYER
  2
KERA5
 70
     0
 62
     7
  6
CONTINUOUS
  0
LAYER
  2
KERA6
 70
     0
 62
     7
  6
CONTINUOUS
  0
LAYER
  2
KERA7
 70
     0
 62
     7
  6
CONTINUOUS
  0
LAYER
  2
20
 70
     0
 62
     7
  6
CONTINUOUS
  0
LAYER
  2
50
 70
     0
 62
     7
  6
CONTINUOUS
  0
LAYER
  2
AM_4
 70
     0
 62
     7
  6
CONTINUOUS
  0
LAYER
  2
AM_8
 70
     0
 62
     7
  6
CONTINUOUS
  0
LAYER
  2
WAND
 70
     0
 62
     7
  6
CONTINUOUS
  0
LAYER
  2
S
 70
     0
 62
     7
  6
CONTINUOUS
  0
LAYER
  2
EBENE_1
 70
     0
 62
     7
  6
CONTINUOUS
  0
LAYER
  2
EBENE_2
 70
     0
 62
     7
  6
CONTINUOUS
  0
LAYER
  2
EBENE_5
 70
     0
 62
     7
  6
CONTINUOUS
  0
LAYER
  2
3
 70
     0
 62
     7
  6
CONTINUOUS
  0
LAYER
  2
GEB-KONTUR-A
 70
     0
 62
     7
  6
CONTINUOUS
  0
LAYER
  2
GEB-SYMETRIE
 70
     0
 62
     7
  6
CONTINUOUS
  0
LAYER
  2
GEB-ART-NR
 70
     0
 62
     7
  6
CONTINUOUS
  0
LAYER
  2
PROJECTION
 70
     0
 62
     7
  6
CONTINUOUS
  0
ENDTAB
  0
TABLE
  2
STYLE
 70
     3
  0
STYLE
  2
STANDARD
 70
     0
 40
0.0
 41
1.0
 50
0.0
 71
     0
 42
0.2
  3
txt
  4

  0
STYLE
  2
ANNOTATIVE
 70
     0
 40
0.0
 41
1.0
 50
0.0
 71
     0
 42
0.2
  3
txt
  4

  0
STYLE
  2
SIMPLEX
 70
     0
 40
0.0
 41
1.0
 50
0.0
 71
     0
 42
0.0
  3
simplex
  4

  0
ENDTAB
  0
TABLE
  2
VIEW
 70
     0
  0
ENDTAB
  0
TABLE
  2
UCS
 70
     0
  0
ENDTAB
  0
TABLE
  2
APPID
 70
     3
  0
APPID
  2
ACAD
 70
     0
  0
APPID
  2
ACADANNOTATIVE
 70
     0
  0
APPID
  2
ACAD_MLEADERVER
 70
     0
  0
ENDTAB
  0
TABLE
  2
DIMSTYLE
 70
     2
  0
DIMSTYLE
  2
STANDARD
 70
     0
  3

  4

  5

  6

  7

 40
1.0
 41
0.18
 42
0.0625
 43
0.38
 44
0.18
 45
0.0
 46
0.0
 47
0.0
 48
0.0
140
0.18
141
0.09
142
0.0
143
25.399999999999999
144
1.0
145
0.0
146
1.0
147
0.09
 71
     0
 72
     0
 73
     1
 74
     1
 75
     0
 76
     0
 77
     0
 78
     0
170
     0
171
     2
172
     0
173
     0
174
     0
175
     0
176
     0
177
     0
178
     0
  0
DIMSTYLE
  2
ANNOTATIVE
 70
     0
  3

  4

  5

  6

  7

 40
1.0
 41
0.18
 42
0.0625
 43
0.38
 44
0.18
 45
0.0
 46
0.0
 47
0.0
 48
0.0
140
0.18
141
0.09
142
0.0
143
25.399999999999999
144
1.0
145
0.0
146
1.0
147
0.09
 71
     0
 72
     0
 73
     1
 74
     1
 75
     0
 76
     0
 77
     0
 78
     0
170
     0
171
     2
172
     0
173
     0
174
     0
175
     0
176
     0
177
     0
178
     0
  0
ENDTAB
  0
ENDSEC
  0
SECTION
  2
BLOCKS
  0
BLOCK
  8
0
  2
$MODEL_SPACE
 70
     0
 10
0.0
 20
0.0
 30
0.0
  3
$MODEL_SPACE
  1

  0
ENDBLK
  5
76
  8
0
  0
BLOCK
 67
     1
  8
0
  2
$PAPER_SPACE
 70
     0
 10
0.0
 20
0.0
 30
0.0
  3
$PAPER_SPACE
  1

  0
ENDBLK
  5
72
 67
     1
  8
0
  0
BLOCK
  8
0
  2
PRIVO-G1
 70
     0
 10
0.0
 20
0.0
 30
0.0
  3
PRIVO-G1
  1

  0
ENDBLK
  5
189
  8
0
  0
BLOCK
  8
0
  2
PRIVO-G2
 70
     0
 10
0.0
 20
0.0
 30
0.0
  3
PRIVO-G2
  1

  0
TEXT
  5
18C
  8
LAYER01
  6
VERDECKT
 62
     1
 10
1220.7789439999999
 20
2148.6866070000001
 30
0.0
 40
22.0
  1
A. Sprenger GmbH
  7
SIMPLEX
  0
TEXT
  5
18D
  8
LAYER01
  6
VERDECKT
 62
     1
 10
1220.7789439999999
 20
2110.9723210000002
 30
0.0
 40
22.0
  1
Berner Str. 10
  7
SIMPLEX
  0
TEXT
  5
18E
  8
LAYER01
  6
VERDECKT
 62
     1
 10
1220.7789439999999
 20
2073.2580349999998
 30
0.0
 40
22.0
  1
60437 Frankfurt
  7
SIMPLEX
  0
TEXT
  5
18F
  8
LAYER01
  6
VERDECKT
 62
     1
 10
1220.7789439999999
 20
2035.54375
 30
0.0
 40
22.0
  1
Tel.: 069 - 507 27 41
  7
SIMPLEX
  0
TEXT
  5
190
  8
LAYER01
  6
VERDECKT
 62
     1
 10
1220.7789439999999
 20
1997.8294639999999
 30
0.0
 40
22.0
  1
Fax: 069 - 507 72 91
  7
SIMPLEX
  0
TEXT
  5
191
  8
LAYER01
  6
VERDECKT
 62
     1
 10
1220.7789439999999
 20
1960.115178
 30
0.0
 40
22.0
  1
info@varicor.org
  7
SIMPLEX
  0
ENDBLK
  5
192
  8
0
  0
BLOCK
  8
0
  2
PRIVO-G4
 70
     0
 10
0.0
 20
0.0
 30
0.0
  3
PRIVO-G4
  1

  0
ARC
  5
195
  8
LAYER01
  6
CONTINUOUS
 62
     5
 10
-1374.8264059999999
 20
2075.2927549999999
 30
0.0
 40
252.91215399999999
 50
302.20304199999998
 51
355.47977200000003
  0
ARC
  5
196
  8
LAYER01
  6
CONTINUOUS
 62
     5
 10
-1127.6142540000001
 20
2056.2873760000002
 30
0.0
 40
5.0
 50
349.31679400000002
 51
90.0
  0
ARC
  5
197
  8
LAYER01
  6
CONTINUOUS
 62
     5
 10
-1242.719824
 20
1865.511213
 30
0.0
 40
5.0
 50
211.45535799999999
 51
302.352979
  0
ARC
  5
198
  8
LAYER01
  6
CONTINUOUS
 62
     5
 10
-1374.0525829999999
 20
2074.2777799999999
 30
0.0
 40
211.639623
 50
302.26892400000003
 51
355.40160800000001
  0
ARC
  5
199
  8
LAYER01
  6
CONTINUOUS
 62
     5
 10
-1158.1999840000001
 20
2056.2873760000002
 30
0.0
 40
5.0
 50
90.0
 51
168.193275
  0
ARC
  5
19A
  8
LAYER01
  6
CONTINUOUS
 62
     5
 10
-1258.3769669999999
 20
1891.10609
 30
0.0
 40
5.0
 50
122.446112
 51
211.45535799999999
  0
LINE
  5
19B
  8
LAYER01
  6
CONTINUOUS
 62
     5
 10
-1127.6142540000001
 20
2061.2873760000011
 30
0.0
 11
-1158.1999840000001
 21
2061.2873760000011
 31
0.0
  0
LINE
  5
19C
  8
LAYER01
  6
CONTINUOUS
 62
     5
 10
-1262.642202
 20
1888.4969199999989
 30
0.0
 11
-1246.9850590000001
 21
1862.902043
 31
0.0
  0
ENDBLK
  5
19D
  8
0
  0
BLOCK
  8
0
  2
PRIVO-G5
 70
     0
 10
0.0
 20
0.0
 30
0.0
  3
PRIVO-G5
  1

  0
ARC
  5
1A0
  8
LAYER01
  6
CONTINUOUS
 62
     5
 10
-1507.671315
 20
2075.2927549999999
 30
0.0
 40
252.91215399999999
 50
184.520228
 51
237.79695799999999
  0
ARC
  5
1A1
  8
LAYER01
  6
CONTINUOUS
 62
     5
 10
-1754.8834670000001
 20
2056.2873760000002
 30
0.0
 40
5.0
 50
90.0
 51
190.68320600000001
  0
ARC
  5
1A2
  8
LAYER01
  6
CONTINUOUS
 62
     5
 10
-1639.7778969999999
 20
1865.511213
 30
0.0
 40
5.0
 50
237.647021
 51
328.54464200000001
  0
ARC
  5
1A3
  8
LAYER01
  6
CONTINUOUS
 62
     5
 10
-1508.445138
 20
2074.2777799999999
 30
0.0
 40
211.639623
 50
184.59839199999999
 51
237.73107599999989
  0
ARC
  5
1A4
  8
LAYER01
  6
CONTINUOUS
 62
     5
 10
-1724.2977370000001
 20
2056.2873760000002
 30
0.0
 40
5.0
 50
11.806725
 51
90.0
  0
ARC
  5
1A5
  8
LAYER01
  6
CONTINUOUS
 62
     5
 10
-1624.1207539999989
 20
1891.10609
 30
0.0
 40
5.0
 50
328.54464200000001
 51
57.553888000000001
  0
LINE
  5
1A6
  8
LAYER01
  6
CONTINUOUS
 62
     5
 10
-1754.8834670000001
 20
2061.2873760000011
 30
0.0
 11
-1724.2977370000001
 21
2061.2873760000011
 31
0.0
  0
LINE
  5
1A7
  8
LAYER01
  6
CONTINUOUS
 62
     5
 10
-1619.855519
 20
1888.4969199999989
 30
0.0
 11
-1635.5126620000001
 21
1862.902043
 31
0.0
  0
ENDBLK
  5
1A8
  8
0
  0
BLOCK
  8
0
  2
PRIVO-G6
 70
     0
 10
0.0
 20
0.0
 30
0.0
  3
PRIVO-G6
  1

  0
LINE
  5
1AB
  8
LAYER01
  6
CONTINUOUS
 62
     5
 10
-1441.248861
 20
2137.9618519999999
 30
0.0
 11
-1441.248861
 21
2054.6129000000001
 31
0.0
  0
LINE
  5
1AC
  8
LAYER01
  6
CONTINUOUS
 62
     5
 10
-1482.9233359999989
 20
2096.2873760000011
 30
0.0
 11
-1399.5743849999999
 21
2096.2873760000011
 31
0.0
  0
POLYLINE
  5
1AD
  8
LAYER01
  6
CONTINUOUS
 62
     5
 66
     1
 10
0.0
 20
0.0
 30
0.0
 70
     1
  0
VERTEX
  5
BC2
  8
LAYER01
  6
CONTINUOUS
 62
     5
 10
-1418.248861
 20
2096.2873760000011
 30
0.0
 42
0.4142140000000001
  0
VERTEX
  5
BC3
  8
LAYER01
  6
CONTINUOUS
 62
     5
 10
-1441.248861
 20
2119.2873760000002
 30
0.0
 42
2.414213999999999
  0
VERTEX
  5
BC4
  8
LAYER01
  6
CONTINUOUS
 62
     5
 10
-1418.248861
 20
2096.2873760000011
 30
0.0
  0
SEQEND
  5
BC5
  8
LAYER01
  6
CONTINUOUS
 62
     5
  0
POLYLINE
  5
1B2
  8
LAYER01
  6
CONTINUOUS
 62
     5
 66
     1
 10
0.0
 20
0.0
 30
0.0
 70
     1
  0
VERTEX
  5
BC6
  8
LAYER01
  6
CONTINUOUS
 62
     5
 10
-1409.248861
 20
2096.2873760000011
 30
0.0
 42
0.4142140000000001
  0
VERTEX
  5
BC7
  8
LAYER01
  6
CONTINUOUS
 62
     5
 10
-1441.248861
 20
2128.2873760000002
 30
0.0
 42
2.414213999999999
  0
VERTEX
  5
BC8
  8
LAYER01
  6
CONTINUOUS
 62
     5
 10
-1409.248861
 20
2096.2873760000011
 30
0.0
  0
SEQEND
  5
BC9
  8
LAYER01
  6
CONTINUOUS
 62
     5
  0
POLYLINE
  5
1B7
  8
LAYER01
  6
CONTINUOUS
 62
     5
 66
     1
 10
0.0
 20
0.0
 30
0.0
 70
     1
  0
VERTEX
  5
BCA
  8
LAYER01
  6
CONTINUOUS
 62
     5
 10
-1263.748861
 20
1993.787376
 30
0.0
 42
0.4142140000000001
  0
VERTEX
  5
BCB
  8
LAYER01
  6
CONTINUOUS
 62
     5
 10
-1441.248861
 20
2171.2873760000002
 30
0.0
 42
2.414213999999999
  0
VERTEX
  5
BCC
  8
LAYER01
  6
CONTINUOUS
 62
     5
 10
-1263.748861
 20
1993.787376
 30
0.0
  0
SEQEND
  5
BCD
  8
LAYER01
  6
CONTINUOUS
 62
     5
  0
ENDBLK
  5
1BC
  8
0
  0
BLOCK
  8
0
  2
PRIVO-G3
 70
     0
 10
0.0
 20
0.0
 30
0.0
  3
PRIVO-G3
  1

  0
POLYLINE
  5
1BF
  8
LAYER01
  6
CONTINUOUS
 62
     5
 66
     1
 10
0.0
 20
0.0
 30
0.0
  0
VERTEX
  5
BCE
  8
LAYER01
  6
CONTINUOUS
 62
     5
 10
-1791.501246
 20
2062.1886669999999
 30
0.0
  0
VERTEX
  5
BCF
  8
LAYER01
  6
CONTINUOUS
 62
     5
 10
-1788.245052
 20
2044.176858
 30
0.0
  0
VERTEX
  5
BD0
  8
LAYER01
  6
CONTINUOUS
 62
     5
 10
-1784.067773
 20
2026.3571449999999
 30
0.0
  0
VERTEX
  5
BD1
  8
LAYER01
  6
CONTINUOUS
 62
     5
 10
-1778.980501
 20
2008.776846
 30
0.0
  0
VERTEX
  5
BD2
  8
LAYER01
  6
CONTINUOUS
 62
     5
 10
-1772.9967449999999
 20
1991.4826459999999
 30
0.0
  0
VERTEX
  5
BD3
  8
LAYER01
  6
CONTINUOUS
 62
     5
 10
-1766.1323950000001
 20
1974.5204679999999
 30
0.0
  0
VERTEX
  5
BD4
  8
LAYER01
  6
CONTINUOUS
 62
     5
 10
-1758.4056780000001
 20
1957.935352
 30
0.0
  0
VERTEX
  5
BD5
  8
LAYER01
  6
CONTINUOUS
 62
     5
 10
-1749.837113
 20
1941.77134
 30
0.0
  0
VERTEX
  5
BD6
  8
LAYER01
  6
CONTINUOUS
 62
     5
 10
-1740.449451
 20
1926.0713539999999
 30
0.0
  0
VERTEX
  5
BD7
  8
LAYER01
  6
CONTINUOUS
 62
     5
 10
-1730.2676220000001
 20
1910.8770830000001
 30
0.0
  0
VERTEX
  5
BD8
  8
LAYER01
  6
CONTINUOUS
 62
     5
 10
-1719.3186619999999
 20
1896.228875
 30
0.0
  0
VERTEX
  5
BD9
  8
LAYER01
  6
CONTINUOUS
 62
     5
 10
-1707.6316449999999
 20
1882.1656270000001
 30
0.0
  0
VERTEX
  5
BDA
  8
LAYER01
  6
CONTINUOUS
 62
     5
 10
-1695.2376059999999
 20
1868.7246829999999
 30
0.0
  0
VERTEX
  5
BDB
  8
LAYER01
  6
CONTINUOUS
 62
     5
 10
-1682.1694560000001
 20
1855.941734
 30
0.0
  0
VERTEX
  5
BDC
  8
LAYER01
  6
CONTINUOUS
 62
     5
 10
-1668.4618949999999
 20
1843.8507239999999
 30
0.0
  0
VERTEX
  5
BDD
  8
LAYER01
  6
CONTINUOUS
 62
     5
 10
-1654.1513239999999
 20
1832.483761
 30
0.0
  0
VERTEX
  5
BDE
  8
LAYER01
  6
CONTINUOUS
 62
     5
 10
-1639.2757429999999
 20
1821.8710269999999
 30
0.0
  0
VERTEX
  5
BDF
  8
LAYER01
  6
CONTINUOUS
 62
     5
 10
-1623.8746530000001
 20
1812.040704
 30
0.0
  0
VERTEX
  5
BE0
  8
LAYER01
  6
CONTINUOUS
 62
     5
 10
-1607.9889499999999
 20
1803.018896
 30
0.0
  0
VERTEX
  5
BE1
  8
LAYER01
  6
CONTINUOUS
 62
     5
 10
-1591.660817
 20
1794.8295599999999
 30
0.0
  0
VERTEX
  5
BE2
  8
LAYER01
  6
CONTINUOUS
 62
     5
 10
-1574.9336129999999
 20
1787.4944410000001
 30
0.0
  0
VERTEX
  5
BE3
  8
LAYER01
  6
CONTINUOUS
 62
     5
 10
-1557.8517549999999
 20
1781.0330180000001
 30
0.0
  0
VERTEX
  5
BE4
  8
LAYER01
  6
CONTINUOUS
 62
     5
 10
-1540.460603
 20
1775.462448
 30
0.0
  0
VERTEX
  5
BE5
  8
LAYER01
  6
CONTINUOUS
 62
     5
 10
-1522.8063360000001
 20
1770.797523
 30
0.0
  0
VERTEX
  5
BE6
  8
LAYER01
  6
CONTINUOUS
 62
     5
 10
-1504.9358360000001
 20
1767.0506310000001
 30
0.0
  0
VERTEX
  5
BE7
  8
LAYER01
  6
CONTINUOUS
 62
     5
 10
-1486.8965559999999
 20
1764.2317210000001
 30
0.0
  0
VERTEX
  5
BE8
  8
LAYER01
  6
CONTINUOUS
 62
     5
 10
-1468.736396
 20
1762.348279
 30
0.0
  0
VERTEX
  5
BE9
  8
LAYER01
  6
CONTINUOUS
 62
     5
 10
-1450.5035809999999
 20
1761.4053060000001
 30
0.0
  0
VERTEX
  5
BEA
  8
LAYER01
  6
CONTINUOUS
 62
     5
 10
-1432.2465259999999
 20
1761.4053060000001
 30
0.0
  0
VERTEX
  5
BEB
  8
LAYER01
  6
CONTINUOUS
 62
     5
 10
-1414.0137110000001
 20
1762.348279
 30
0.0
  0
VERTEX
  5
BEC
  8
LAYER01
  6
CONTINUOUS
 62
     5
 10
-1395.8535509999999
 20
1764.2317210000001
 30
0.0
  0
VERTEX
  5
BED
  8
LAYER01
  6
CONTINUOUS
 62
     5
 10
-1377.814271
 20
1767.0506310000001
 30
0.0
  0
VERTEX
  5
BEE
  8
LAYER01
  6
CONTINUOUS
 62
     5
 10
-1359.9437700000001
 20
1770.797523
 30
0.0
  0
VERTEX
  5
BEF
  8
LAYER01
  6
CONTINUOUS
 62
     5
 10
-1342.2895040000001
 20
1775.462448
 30
0.0
  0
VERTEX
  5
BF0
  8
LAYER01
  6
CONTINUOUS
 62
     5
 10
-1324.8983519999999
 20
1781.0330180000001
 30
0.0
  0
VERTEX
  5
BF1
  8
LAYER01
  6
CONTINUOUS
 62
     5
 10
-1307.8164939999999
 20
1787.4944410000001
 30
0.0
  0
VERTEX
  5
BF2
  8
LAYER01
  6
CONTINUOUS
 62
     5
 10
-1291.089289
 20
1794.8295599999999
 30
0.0
  0
VERTEX
  5
BF3
  8
LAYER01
  6
CONTINUOUS
 62
     5
 10
-1274.7611569999999
 20
1803.018896
 30
0.0
  0
VERTEX
  5
BF4
  8
LAYER01
  6
CONTINUOUS
 62
     5
 10
-1258.875454
 20
1812.040704
 30
0.0
  0
VERTEX
  5
BF5
  8
LAYER01
  6
CONTINUOUS
 62
     5
 10
-1243.474363
 20
1821.8710269999999
 30
0.0
  0
VERTEX
  5
BF6
  8
LAYER01
  6
CONTINUOUS
 62
     5
 10
-1228.598782
 20
1832.483761
 30
0.0
  0
VERTEX
  5
BF7
  8
LAYER01
  6
CONTINUOUS
 62
     5
 10
-1214.288211
 20
1843.8507239999999
 30
0.0
  0
VERTEX
  5
BF8
  8
LAYER01
  6
CONTINUOUS
 62
     5
 10
-1200.580651
 20
1855.941734
 30
0.0
  0
VERTEX
  5
BF9
  8
LAYER01
  6
CONTINUOUS
 62
     5
 10
-1187.5125
 20
1868.7246829999999
 30
0.0
  0
VERTEX
  5
BFA
  8
LAYER01
  6
CONTINUOUS
 62
     5
 10
-1175.118461
 20
1882.1656270000001
 30
0.0
  0
VERTEX
  5
BFB
  8
LAYER01
  6
CONTINUOUS
 62
     5
 10
-1163.4314449999999
 20
1896.228875
 30
0.0
  0
VERTEX
  5
BFC
  8
LAYER01
  6
CONTINUOUS
 62
     5
 10
-1152.482485
 20
1910.8770830000001
 30
0.0
  0
VERTEX
  5
BFD
  8
LAYER01
  6
CONTINUOUS
 62
     5
 10
-1142.3006559999999
 20
1926.0713539999999
 30
0.0
  0
VERTEX
  5
BFE
  8
LAYER01
  6
CONTINUOUS
 62
     5
 10
-1132.912994
 20
1941.77134
 30
0.0
  0
VERTEX
  5
BFF
  8
LAYER01
  6
CONTINUOUS
 62
     5
 10
-1124.3444280000001
 20
1957.935352
 30
0.0
  0
VERTEX
  5
C00
  8
LAYER01
  6
CONTINUOUS
 62
     5
 10
-1116.617712
 20
1974.5204679999999
 30
0.0
  0
VERTEX
  5
C01
  8
LAYER01
  6
CONTINUOUS
 62
     5
 10
-1109.7533619999999
 20
1991.4826459999999
 30
0.0
  0
VERTEX
  5
C02
  8
LAYER01
  6
CONTINUOUS
 62
     5
 10
-1103.7696060000001
 20
2008.776846
 30
0.0
  0
VERTEX
  5
C03
  8
LAYER01
  6
CONTINUOUS
 62
     5
 10
-1098.6823340000001
 20
2026.3571449999999
 30
0.0
  0
VERTEX
  5
C04
  8
LAYER01
  6
CONTINUOUS
 62
     5
 10
-1094.5050550000001
 20
2044.176858
 30
0.0
  0
VERTEX
  5
C05
  8
LAYER01
  6
CONTINUOUS
 62
     5
 10
-1091.248861
 20
2062.1886669999999
 30
0.0
  0
SEQEND
  5
C06
  8
LAYER01
  6
CONTINUOUS
 62
     5
  0
LINE
  5
1F9
  8
LAYER01
  6
CONTINUOUS
 62
     5
 10
-1466.248861
 20
2231.2873760000002
 30
0.0
 11
-1416.248861
 21
2231.2873760000002
 31
0.0
  0
LINE
  5
1FA
  8
LAYER01
  6
CONTINUOUS
 62
     5
 10
-1441.248861
 20
2256.2873760000002
 30
0.0
 11
-1441.248861
 21
2206.2873760000002
 31
0.0
  0
POLYLINE
  5
1FB
  8
LAYER01
  6
CONTINUOUS
 62
     5
 66
     1
 10
0.0
 20
0.0
 30
0.0
 70
     1
  0
VERTEX
  5
C07
  8
LAYER01
  6
CONTINUOUS
 62
     5
 10
-1421.248861
 20
2231.2873760000002
 30
0.0
 42
0.4142140000000001
  0
VERTEX
  5
C08
  8
LAYER01
  6
CONTINUOUS
 62
     5
 10
-1441.248861
 20
2251.2873760000002
 30
0.0
 42
2.414213999999999
  0
VERTEX
  5
C09
  8
LAYER01
  6
CONTINUOUS
 62
     5
 10
-1421.248861
 20
2231.2873760000002
 30
0.0
  0
SEQEND
  5
C0A
  8
LAYER01
  6
CONTINUOUS
 62
     5
  0
LINE
  5
200
  8
LAYER01
  6
CONTINUOUS
 62
     5
 10
-1466.248861
 20
2231.2873760000002
 30
0.0
 11
-1416.248861
 21
2231.2873760000002
 31
0.0
  0
LINE
  5
201
  8
LAYER01
  6
CONTINUOUS
 62
     5
 10
-1441.248861
 20
2256.2873760000002
 30
0.0
 11
-1441.248861
 21
2206.2873760000002
 31
0.0
  0
INSERT
  5
202
  8
LAYER01
  2
PRIVO-G4
 10
0.0
 20
0.0
 30
0.0
  0
INSERT
  5
203
  8
LAYER01
  2
PRIVO-G5
 10
0.0
 20
0.0
 30
0.0
  0
INSERT
  5
204
  8
LAYER01
  2
PRIVO-G6
 10
0.0
 20
0.0
 30
0.0
  0
ENDBLK
  5
205
  8
0
  0
BLOCK
  8
0
  2
PRIVO-G8
 70
     0
 10
0.0
 20
0.0
 30
0.0
  3
PRIVO-G8
  1

  0
ARC
  5
208
  8
LAYER01
  6
CONTINUOUS
 62
     5
 10
-2231.609907
 20
2075.2927549999999
 30
0.0
 40
252.91215399999999
 50
302.20304199999998
 51
355.47977200000003
  0
ARC
  5
209
  8
LAYER01
  6
CONTINUOUS
 62
     5
 10
-1984.3977539999989
 20
2056.2873760000002
 30
0.0
 40
5.0
 50
349.31679400000002
 51
90.0
  0
ARC
  5
20A
  8
LAYER01
  6
CONTINUOUS
 62
     5
 10
-2099.5033239999998
 20
1865.511213
 30
0.0
 40
5.0
 50
211.45535799999999
 51
302.352979
  0
ARC
  5
20B
  8
LAYER01
  6
CONTINUOUS
 62
     5
 10
-2230.836084
 20
2074.2777799999999
 30
0.0
 40
211.639623
 50
302.26892400000003
 51
355.40160800000001
  0
ARC
  5
20C
  8
LAYER01
  6
CONTINUOUS
 62
     5
 10
-2014.9834840000001
 20
2056.2873760000002
 30
0.0
 40
5.0
 50
90.0
 51
168.193275
  0
ARC
  5
20D
  8
LAYER01
  6
CONTINUOUS
 62
     5
 10
-2115.1604670000002
 20
1891.10609
 30
0.0
 40
5.0
 50
122.446112
 51
211.45535799999999
  0
LINE
  5
20E
  8
LAYER01
  6
CONTINUOUS
 62
     5
 10
-1984.3977539999989
 20
2061.2873760000011
 30
0.0
 11
-2014.9834840000001
 21
2061.2873760000011
 31
0.0
  0
LINE
  5
20F
  8
LAYER01
  6
CONTINUOUS
 62
     5
 10
-2119.425702
 20
1888.4969199999989
 30
0.0
 11
-2103.7685590000001
 21
1862.902043
 31
0.0
  0
ENDBLK
  5
210
  8
0
  0
BLOCK
  8
0
  2
PRIVO-G9
 70
     0
 10
0.0
 20
0.0
 30
0.0
  3
PRIVO-G9
  1

  0
ARC
  5
213
  8
LAYER01
  6
CONTINUOUS
 62
     5
 10
-2364.4548150000001
 20
2075.2927549999999
 30
0.0
 40
252.91215399999999
 50
184.520228
 51
237.79695799999999
  0
ARC
  5
214
  8
LAYER01
  6
CONTINUOUS
 62
     5
 10
-2611.666968
 20
2056.2873760000002
 30
0.0
 40
5.0
 50
90.0
 51
190.68320600000001
  0
ARC
  5
215
  8
LAYER01
  6
CONTINUOUS
 62
     5
 10
-2496.5613979999998
 20
1865.511213
 30
0.0
 40
5.0
 50
237.647021
 51
328.54464200000001
  0
ARC
  5
216
  8
LAYER01
  6
CONTINUOUS
 62
     5
 10
-2365.228638
 20
2074.2777799999999
 30
0.0
 40
211.639623
 50
184.59839199999999
 51
237.73107599999989
  0
ARC
  5
217
  8
LAYER01
  6
CONTINUOUS
 62
     5
 10
-2581.0812380000002
 20
2056.2873760000002
 30
0.0
 40
5.0
 50
11.806725
 51
90.0
  0
ARC
  5
218
  8
LAYER01
  6
CONTINUOUS
 62
     5
 10
-2480.9042549999999
 20
1891.10609
 30
0.0
 40
5.0
 50
328.54464200000001
 51
57.553888000000001
  0
LINE
  5
219
  8
LAYER01
  6
CONTINUOUS
 62
     5
 10
-2611.666968
 20
2061.2873760000011
 30
0.0
 11
-2581.0812380000002
 21
2061.2873760000011
 31
0.0
  0
LINE
  5
21A
  8
LAYER01
  6
CONTINUOUS
 62
     5
 10
-2476.6390200000001
 20
1888.4969199999989
 30
0.0
 11
-2492.296163
 21
1862.902043
 31
0.0
  0
ENDBLK
  5
21B
  8
0
  0
BLOCK
  8
0
  2
PRIVO-G10
 70
     0
 10
0.0
 20
0.0
 30
0.0
  3
PRIVO-G10
  1

  0
LINE
  5
21E
  8
LAYER01
  6
CONTINUOUS
 62
     5
 10
-2298.032361
 20
2137.9618519999999
 30
0.0
 11
-2298.032361
 21
2054.6129000000001
 31
0.0
  0
LINE
  5
21F
  8
LAYER01
  6
CONTINUOUS
 62
     5
 10
-2339.7068370000002
 20
2096.2873760000011
 30
0.0
 11
-2256.3578849999999
 21
2096.2873760000011
 31
0.0
  0
POLYLINE
  5
220
  8
LAYER01
  6
CONTINUOUS
 62
     5
 66
     1
 10
0.0
 20
0.0
 30
0.0
 70
     1
  0
VERTEX
  5
C0B
  8
LAYER01
  6
CONTINUOUS
 62
     5
 10
-2275.032361
 20
2096.2873760000011
 30
0.0
 42
0.4142140000000001
  0
VERTEX
  5
C0C
  8
LAYER01
  6
CONTINUOUS
 62
     5
 10
-2298.032361
 20
2119.2873760000002
 30
0.0
 42
2.414213999999999
  0
VERTEX
  5
C0D
  8
LAYER01
  6
CONTINUOUS
 62
     5
 10
-2275.032361
 20
2096.2873760000011
 30
0.0
  0
SEQEND
  5
C0E
  8
LAYER01
  6
CONTINUOUS
 62
     5
  0
POLYLINE
  5
225
  8
LAYER01
  6
CONTINUOUS
 62
     5
 66
     1
 10
0.0
 20
0.0
 30
0.0
 70
     1
  0
VERTEX
  5
C0F
  8
LAYER01
  6
CONTINUOUS
 62
     5
 10
-2266.032361
 20
2096.2873760000011
 30
0.0
 42
0.4142140000000001
  0
VERTEX
  5
C10
  8
LAYER01
  6
CONTINUOUS
 62
     5
 10
-2298.032361
 20
2128.2873760000002
 30
0.0
 42
2.414213999999999
  0
VERTEX
  5
C11
  8
LAYER01
  6
CONTINUOUS
 62
     5
 10
-2266.032361
 20
2096.2873760000011
 30
0.0
  0
SEQEND
  5
C12
  8
LAYER01
  6
CONTINUOUS
 62
     5
  0
POLYLINE
  5
22A
  8
LAYER01
  6
CONTINUOUS
 62
     5
 66
     1
 10
0.0
 20
0.0
 30
0.0
 70
     1
  0
VERTEX
  5
C13
  8
LAYER01
  6
CONTINUOUS
 62
     5
 10
-2120.532361
 20
1993.787376
 30
0.0
 42
0.4142140000000001
  0
VERTEX
  5
C14
  8
LAYER01
  6
CONTINUOUS
 62
     5
 10
-2298.032361
 20
2171.2873760000002
 30
0.0
 42
2.414213999999999
  0
VERTEX
  5
C15
  8
LAYER01
  6
CONTINUOUS
 62
     5
 10
-2120.532361
 20
1993.787376
 30
0.0
  0
SEQEND
  5
C16
  8
LAYER01
  6
CONTINUOUS
 62
     5
  0
ENDBLK
  5
22F
  8
0
  0
BLOCK
  8
0
  2
PRIVO-G7
 70
     0
 10
0.0
 20
0.0
 30
0.0
  3
PRIVO-G7
  1

  0
POLYLINE
  5
232
  8
LAYER01
  6
CONTINUOUS
 62
     5
 66
     1
 10
0.0
 20
0.0
 30
0.0
  0
VERTEX
  5
C17
  8
LAYER01
  6
CONTINUOUS
 62
     5
 10
-2648.2847470000002
 20
2062.1886669999999
 30
0.0
  0
VERTEX
  5
C18
  8
LAYER01
  6
CONTINUOUS
 62
     5
 10
-2645.0285520000002
 20
2044.176858
 30
0.0
  0
VERTEX
  5
C19
  8
LAYER01
  6
CONTINUOUS
 62
     5
 10
-2640.8512730000002
 20
2026.3571449999999
 30
0.0
  0
VERTEX
  5
C1A
  8
LAYER01
  6
CONTINUOUS
 62
     5
 10
-2635.764001
 20
2008.776846
 30
0.0
  0
VERTEX
  5
C1B
  8
LAYER01
  6
CONTINUOUS
 62
     5
 10
-2629.7802449999999
 20
1991.4826459999999
 30
0.0
  0
VERTEX
  5
C1C
  8
LAYER01
  6
CONTINUOUS
 62
     5
 10
-2622.9158950000001
 20
1974.5204679999999
 30
0.0
  0
VERTEX
  5
C1D
  8
LAYER01
  6
CONTINUOUS
 62
     5
 10
-2615.189179
 20
1957.935352
 30
0.0
  0
VERTEX
  5
C1E
  8
LAYER01
  6
CONTINUOUS
 62
     5
 10
-2606.620613
 20
1941.77134
 30
0.0
  0
VERTEX
  5
C1F
  8
LAYER01
  6
CONTINUOUS
 62
     5
 10
-2597.232951
 20
1926.0713539999999
 30
0.0
  0
VERTEX
  5
C20
  8
LAYER01
  6
CONTINUOUS
 62
     5
 10
-2587.0511219999999
 20
1910.8770830000001
 30
0.0
  0
VERTEX
  5
C21
  8
LAYER01
  6
CONTINUOUS
 62
     5
 10
-2576.1021620000001
 20
1896.228875
 30
0.0
  0
VERTEX
  5
C22
  8
LAYER01
  6
CONTINUOUS
 62
     5
 10
-2564.4151459999998
 20
1882.1656270000001
 30
0.0
  0
VERTEX
  5
C23
  8
LAYER01
  6
CONTINUOUS
 62
     5
 10
-2552.021107
 20
1868.7246829999999
 30
0.0
  0
VERTEX
  5
C24
  8
LAYER01
  6
CONTINUOUS
 62
     5
 10
-2538.9529560000001
 20
1855.941734
 30
0.0
  0
VERTEX
  5
C25
  8
LAYER01
  6
CONTINUOUS
 62
     5
 10
-2525.2453960000012
 20
1843.8507239999999
 30
0.0
  0
VERTEX
  5
C26
  8
LAYER01
  6
CONTINUOUS
 62
     5
 10
-2510.9348249999998
 20
1832.483761
 30
0.0
  0
VERTEX
  5
C27
  8
LAYER01
  6
CONTINUOUS
 62
     5
 10
-2496.059244
 20
1821.8710269999999
 30
0.0
  0
VERTEX
  5
C28
  8
LAYER01
  6
CONTINUOUS
 62
     5
 10
-2480.6581540000002
 20
1812.040704
 30
0.0
  0
VERTEX
  5
C29
  8
LAYER01
  6
CONTINUOUS
 62
     5
 10
-2464.7724499999999
 20
1803.018896
 30
0.0
  0
VERTEX
  5
C2A
  8
LAYER01
  6
CONTINUOUS
 62
     5
 10
-2448.4443179999998
 20
1794.8295599999999
 30
0.0
  0
VERTEX
  5
C2B
  8
LAYER01
  6
CONTINUOUS
 62
     5
 10
-2431.717114
 20
1787.4944410000001
 30
0.0
  0
VERTEX
  5
C2C
  8
LAYER01
  6
CONTINUOUS
 62
     5
 10
-2414.6352550000001
 20
1781.0330180000001
 30
0.0
  0
VERTEX
  5
C2D
  8
LAYER01
  6
CONTINUOUS
 62
     5
 10
-2397.244103
 20
1775.462448
 30
0.0
  0
VERTEX
  5
C2E
  8
LAYER01
  6
CONTINUOUS
 62
     5
 10
-2379.589837
 20
1770.797523
 30
0.0
  0
VERTEX
  5
C2F
  8
LAYER01
  6
CONTINUOUS
 62
     5
 10
-2361.719337
 20
1767.0506310000001
 30
0.0
  0
VERTEX
  5
C30
  8
LAYER01
  6
CONTINUOUS
 62
     5
 10
-2343.6800560000001
 20
1764.2317210000001
 30
0.0
  0
VERTEX
  5
C31
  8
LAYER01
  6
CONTINUOUS
 62
     5
 10
-2325.5198970000001
 20
1762.348279
 30
0.0
  0
VERTEX
  5
C32
  8
LAYER01
  6
CONTINUOUS
 62
     5
 10
-2307.2870809999999
 20
1761.4053060000001
 30
0.0
  0
VERTEX
  5
C33
  8
LAYER01
  6
CONTINUOUS
 62
     5
 10
-2289.0300259999999
 20
1761.4053060000001
 30
0.0
  0
VERTEX
  5
C34
  8
LAYER01
  6
CONTINUOUS
 62
     5
 10
-2270.7972110000001
 20
1762.348279
 30
0.0
  0
VERTEX
  5
C35
  8
LAYER01
  6
CONTINUOUS
 62
     5
 10
-2252.637052
 20
1764.2317210000001
 30
0.0
  0
VERTEX
  5
C36
  8
LAYER01
  6
CONTINUOUS
 62
     5
 10
-2234.5977710000002
 20
1767.0506310000001
 30
0.0
  0
VERTEX
  5
C37
  8
LAYER01
  6
CONTINUOUS
 62
     5
 10
-2216.7272710000002
 20
1770.797523
 30
0.0
  0
VERTEX
  5
C38
  8
LAYER01
  6
CONTINUOUS
 62
     5
 10
-2199.0730050000002
 20
1775.462448
 30
0.0
  0
VERTEX
  5
C39
  8
LAYER01
  6
CONTINUOUS
 62
     5
 10
-2181.6818520000002
 20
1781.0330180000001
 30
0.0
  0
VERTEX
  5
C3A
  8
LAYER01
  6
CONTINUOUS
 62
     5
 10
-2164.5999940000002
 20
1787.4944410000001
 30
0.0
  0
VERTEX
  5
C3B
  8
LAYER01
  6
CONTINUOUS
 62
     5
 10
-2147.8727899999999
 20
1794.8295599999999
 30
0.0
  0
VERTEX
  5
C3C
  8
LAYER01
  6
CONTINUOUS
 62
     5
 10
-2131.5446569999999
 20
1803.018896
 30
0.0
  0
VERTEX
  5
C3D
  8
LAYER01
  6
CONTINUOUS
 62
     5
 10
-2115.658954
 20
1812.040704
 30
0.0
  0
VERTEX
  5
C3E
  8
LAYER01
  6
CONTINUOUS
 62
     5
 10
-2100.2578640000002
 20
1821.8710269999999
 30
0.0
  0
VERTEX
  5
C3F
  8
LAYER01
  6
CONTINUOUS
 62
     5
 10
-2085.3822829999999
 20
1832.483761
 30
0.0
  0
VERTEX
  5
C40
  8
LAYER01
  6
CONTINUOUS
 62
     5
 10
-2071.0717119999999
 20
1843.8507239999999
 30
0.0
  0
VERTEX
  5
C41
  8
LAYER01
  6
CONTINUOUS
 62
     5
 10
-2057.3641510000002
 20
1855.941734
 30
0.0
  0
VERTEX
  5
C42
  8
LAYER01
  6
CONTINUOUS
 62
     5
 10
-2044.2960010000011
 20
1868.7246829999999
 30
0.0
  0
VERTEX
  5
C43
  8
LAYER01
  6
CONTINUOUS
 62
     5
 10
-2031.9019619999999
 20
1882.1656270000001
 30
0.0
  0
VERTEX
  5
C44
  8
LAYER01
  6
CONTINUOUS
 62
     5
 10
-2020.2149449999999
 20
1896.228875
 30
0.0
  0
VERTEX
  5
C45
  8
LAYER01
  6
CONTINUOUS
 62
     5
 10
-2009.265985
 20
1910.8770830000001
 30
0.0
  0
VERTEX
  5
C46
  8
LAYER01
  6
CONTINUOUS
 62
     5
 10
-1999.0841559999999
 20
1926.0713539999999
 30
0.0
  0
VERTEX
  5
C47
  8
LAYER01
  6
CONTINUOUS
 62
     5
 10
-1989.6964949999999
 20
1941.77134
 30
0.0
  0
VERTEX
  5
C48
  8
LAYER01
  6
CONTINUOUS
 62
     5
 10
-1981.127929
 20
1957.935352
 30
0.0
  0
VERTEX
  5
C49
  8
LAYER01
  6
CONTINUOUS
 62
     5
 10
-1973.401212
 20
1974.5204679999999
 30
0.0
  0
VERTEX
  5
C4A
  8
LAYER01
  6
CONTINUOUS
 62
     5
 10
-1966.5368619999999
 20
1991.4826459999999
 30
0.0
  0
VERTEX
  5
C4B
  8
LAYER01
  6
CONTINUOUS
 62
     5
 10
-1960.553107
 20
2008.776846
 30
0.0
  0
VERTEX
  5
C4C
  8
LAYER01
  6
CONTINUOUS
 62
     5
 10
-1955.465835
 20
2026.3571449999999
 30
0.0
  0
VERTEX
  5
C4D
  8
LAYER01
  6
CONTINUOUS
 62
     5
 10
-1951.2885550000001
 20
2044.176858
 30
0.0
  0
VERTEX
  5
C4E
  8
LAYER01
  6
CONTINUOUS
 62
     5
 10
-1948.032361
 20
2062.1886669999999
 30
0.0
  0
SEQEND
  5
C4F
  8
LAYER01
  6
CONTINUOUS
 62
     5
  0
LINE
  5
26C
  8
LAYER01
  6
CONTINUOUS
 62
     5
 10
-2323.032361
 20
2231.2873760000002
 30
0.0
 11
-2273.032361
 21
2231.2873760000002
 31
0.0
  0
LINE
  5
26D
  8
LAYER01
  6
CONTINUOUS
 62
     5
 10
-2298.032361
 20
2256.2873760000002
 30
0.0
 11
-2298.032361
 21
2206.2873760000002
 31
0.0
  0
POLYLINE
  5
26E
  8
LAYER01
  6
CONTINUOUS
 62
     5
 66
     1
 10
0.0
 20
0.0
 30
0.0
 70
     1
  0
VERTEX
  5
C50
  8
LAYER01
  6
CONTINUOUS
 62
     5
 10
-2278.032361
 20
2231.2873760000002
 30
0.0
 42
0.4142140000000001
  0
VERTEX
  5
C51
  8
LAYER01
  6
CONTINUOUS
 62
     5
 10
-2298.032361
 20
2251.2873760000002
 30
0.0
 42
2.414213999999999
  0
VERTEX
  5
C52
  8
LAYER01
  6
CONTINUOUS
 62
     5
 10
-2278.032361
 20
2231.2873760000002
 30
0.0
  0
SEQEND
  5
C53
  8
LAYER01
  6
CONTINUOUS
 62
     5
  0
LINE
  5
273
  8
LAYER01
  6
CONTINUOUS
 62
     5
 10
-2323.032361
 20
2231.2873760000002
 30
0.0
 11
-2273.032361
 21
2231.2873760000002
 31
0.0
  0
LINE
  5
274
  8
LAYER01
  6
CONTINUOUS
 62
     5
 10
-2298.032361
 20
2256.2873760000002
 30
0.0
 11
-2298.032361
 21
2206.2873760000002
 31
0.0
  0
INSERT
  5
275
  8
LAYER01
  2
PRIVO-G8
 10
0.0
 20
0.0
 30
0.0
  0
INSERT
  5
276
  8
LAYER01
  2
PRIVO-G9
 10
0.0
 20
0.0
 30
0.0
  0
INSERT
  5
277
  8
LAYER01
  2
PRIVO-G10
 10
0.0
 20
0.0
 30
0.0
  0
ENDBLK
  5
278
  8
0
  0
BLOCK
  8
0
  2
PRIVO-G12
 70
     0
 10
0.0
 20
0.0
 30
0.0
  3
PRIVO-G12
  1

  0
LINE
  5
27B
  8
LAYER01
  6
CONTINUOUS
 62
     5
 10
-1441.5024209999999
 20
3278.7030700000009
 30
0.0
 11
-1441.5024209999999
 21
3195.3541190000001
 31
0.0
  0
LINE
  5
27C
  8
LAYER01
  6
CONTINUOUS
 62
     5
 10
-1483.1768959999999
 20
3237.0285939999999
 30
0.0
 11
-1399.827945
 21
3237.0285939999999
 31
0.0
  0
POLYLINE
  5
27D
  8
LAYER01
  6
CONTINUOUS
 62
     5
 66
     1
 10
0.0
 20
0.0
 30
0.0
 70
     1
  0
VERTEX
  5
C54
  8
LAYER01
  6
CONTINUOUS
 62
     5
 10
-1418.5024209999999
 20
3237.0285939999999
 30
0.0
 42
0.4142140000000001
  0
VERTEX
  5
C55
  8
LAYER01
  6
CONTINUOUS
 62
     5
 10
-1441.5024209999999
 20
3260.0285940000008
 30
0.0
 42
2.414213999999999
  0
VERTEX
  5
C56
  8
LAYER01
  6
CONTINUOUS
 62
     5
 10
-1418.5024209999999
 20
3237.0285939999999
 30
0.0
  0
SEQEND
  5
C57
  8
LAYER01
  6
CONTINUOUS
 62
     5
  0
POLYLINE
  5
282
  8
LAYER01
  6
CONTINUOUS
 62
     5
 66
     1
 10
0.0
 20
0.0
 30
0.0
 70
     1
  0
VERTEX
  5
C58
  8
LAYER01
  6
CONTINUOUS
 62
     5
 10
-1409.5024209999999
 20
3237.0285939999999
 30
0.0
 42
0.4142140000000001
  0
VERTEX
  5
C59
  8
LAYER01
  6
CONTINUOUS
 62
     5
 10
-1441.5024209999999
 20
3269.0285939999999
 30
0.0
 42
2.414213999999999
  0
VERTEX
  5
C5A
  8
LAYER01
  6
CONTINUOUS
 62
     5
 10
-1409.5024209999999
 20
3237.0285939999999
 30
0.0
  0
SEQEND
  5
C5B
  8
LAYER01
  6
CONTINUOUS
 62
     5
  0
POLYLINE
  5
287
  8
LAYER01
  6
CONTINUOUS
 62
     5
 66
     1
 10
0.0
 20
0.0
 30
0.0
 70
     1
  0
VERTEX
  5
C5C
  8
LAYER01
  6
CONTINUOUS
 62
     5
 10
-1264.0024209999999
 20
3134.5285940000008
 30
0.0
 42
0.4142140000000001
  0
VERTEX
  5
C5D
  8
LAYER01
  6
CONTINUOUS
 62
     5
 10
-1441.5024209999999
 20
3312.0285939999999
 30
0.0
 42
2.414213999999999
  0
VERTEX
  5
C5E
  8
LAYER01
  6
CONTINUOUS
 62
     5
 10
-1264.0024209999999
 20
3134.5285940000008
 30
0.0
  0
SEQEND
  5
C5F
  8
LAYER01
  6
CONTINUOUS
 62
     5
  0
ENDBLK
  5
28C
  8
0
  0
BLOCK
  8
0
  2
PRIVO-G11
 70
     0
 10
0.0
 20
0.0
 30
0.0
  3
PRIVO-G11
  1

  0
POLYLINE
  5
28F
  8
LAYER01
  6
CONTINUOUS
 62
     5
 66
     1
 10
0.0
 20
0.0
 30
0.0
  0
VERTEX
  5
C60
  8
LAYER01
  6
CONTINUOUS
 62
     5
 10
-1791.7548059999999
 20
3202.929885
 30
0.0
  0
VERTEX
  5
C61
  8
LAYER01
  6
CONTINUOUS
 62
     5
 10
-1788.4986120000001
 20
3184.9180760000008
 30
0.0
  0
VERTEX
  5
C62
  8
LAYER01
  6
CONTINUOUS
 62
     5
 10
-1784.3213330000001
 20
3167.0983630000001
 30
0.0
  0
VERTEX
  5
C63
  8
LAYER01
  6
CONTINUOUS
 62
     5
 10
-1779.2340610000001
 20
3149.5180650000002
 30
0.0
  0
VERTEX
  5
C64
  8
LAYER01
  6
CONTINUOUS
 62
     5
 10
-1773.250305
 20
3132.2238649999999
 30
0.0
  0
VERTEX
  5
C65
  8
LAYER01
  6
CONTINUOUS
 62
     5
 10
-1766.385955
 20
3115.2616859999998
 30
0.0
  0
VERTEX
  5
C66
  8
LAYER01
  6
CONTINUOUS
 62
     5
 10
-1758.6592390000001
 20
3098.6765700000001
 30
0.0
  0
VERTEX
  5
C67
  8
LAYER01
  6
CONTINUOUS
 62
     5
 10
-1750.0906729999999
 20
3082.5125579999999
 30
0.0
  0
VERTEX
  5
C68
  8
LAYER01
  6
CONTINUOUS
 62
     5
 10
-1740.7030110000001
 20
3066.8125719999998
 30
0.0
  0
VERTEX
  5
C69
  8
LAYER01
  6
CONTINUOUS
 62
     5
 10
-1730.521182
 20
3051.618301
 30
0.0
  0
VERTEX
  5
C6A
  8
LAYER01
  6
CONTINUOUS
 62
     5
 10
-1719.572222
 20
3036.9700929999999
 30
0.0
  0
VERTEX
  5
C6B
  8
LAYER01
  6
CONTINUOUS
 62
     5
 10
-1707.8852059999999
 20
3022.906845
 30
0.0
  0
VERTEX
  5
C6C
  8
LAYER01
  6
CONTINUOUS
 62
     5
 10
-1695.4911669999999
 20
3009.465901
 30
0.0
  0
VERTEX
  5
C6D
  8
LAYER01
  6
CONTINUOUS
 62
     5
 10
-1682.423016
 20
2996.6829520000001
 30
0.0
  0
VERTEX
  5
C6E
  8
LAYER01
  6
CONTINUOUS
 62
     5
 10
-1668.7154559999999
 20
2984.5919429999999
 30
0.0
  0
VERTEX
  5
C6F
  8
LAYER01
  6
CONTINUOUS
 62
     5
 10
-1654.4048849999999
 20
2973.2249790000001
 30
0.0
  0
VERTEX
  5
C70
  8
LAYER01
  6
CONTINUOUS
 62
     5
 10
-1639.5293039999999
 20
2962.6122449999998
 30
0.0
  0
VERTEX
  5
C71
  8
LAYER01
  6
CONTINUOUS
 62
     5
 10
-1624.128213
 20
2952.7819220000001
 30
0.0
  0
VERTEX
  5
C72
  8
LAYER01
  6
CONTINUOUS
 62
     5
 10
-1608.24251
 20
2943.7601140000002
 30
0.0
  0
VERTEX
  5
C73
  8
LAYER01
  6
CONTINUOUS
 62
     5
 10
-1591.9143779999999
 20
2935.5707780000012
 30
0.0
  0
VERTEX
  5
C74
  8
LAYER01
  6
CONTINUOUS
 62
     5
 10
-1575.187173
 20
2928.2356589999999
 30
0.0
  0
VERTEX
  5
C75
  8
LAYER01
  6
CONTINUOUS
 62
     5
 10
-1558.105315
 20
2921.7742360000002
 30
0.0
  0
VERTEX
  5
C76
  8
LAYER01
  6
CONTINUOUS
 62
     5
 10
-1540.7141630000001
 20
2916.2036659999999
 30
0.0
  0
VERTEX
  5
C77
  8
LAYER01
  6
CONTINUOUS
 62
     5
 10
-1523.0598970000001
 20
2911.5387409999998
 30
0.0
  0
VERTEX
  5
C78
  8
LAYER01
  6
CONTINUOUS
 62
     5
 10
-1505.1893970000001
 20
2907.7918490000002
 30
0.0
  0
VERTEX
  5
C79
  8
LAYER01
  6
CONTINUOUS
 62
     5
 10
-1487.150116
 20
2904.9729400000001
 30
0.0
  0
VERTEX
  5
C7A
  8
LAYER01
  6
CONTINUOUS
 62
     5
 10
-1468.9899559999999
 20
2903.0894979999998
 30
0.0
  0
VERTEX
  5
C7B
  8
LAYER01
  6
CONTINUOUS
 62
     5
 10
-1450.757141
 20
2902.1465250000001
 30
0.0
  0
VERTEX
  5
C7C
  8
LAYER01
  6
CONTINUOUS
 62
     5
 10
-1432.500086
 20
2902.1465250000001
 30
0.0
  0
VERTEX
  5
C7D
  8
LAYER01
  6
CONTINUOUS
 62
     5
 10
-1414.2672709999999
 20
2903.0894979999998
 30
0.0
  0
VERTEX
  5
C7E
  8
LAYER01
  6
CONTINUOUS
 62
     5
 10
-1396.1071119999999
 20
2904.9729400000001
 30
0.0
  0
VERTEX
  5
C7F
  8
LAYER01
  6
CONTINUOUS
 62
     5
 10
-1378.0678310000001
 20
2907.7918490000002
 30
0.0
  0
VERTEX
  5
C80
  8
LAYER01
  6
CONTINUOUS
 62
     5
 10
-1360.1973310000001
 20
2911.5387409999998
 30
0.0
  0
VERTEX
  5
C81
  8
LAYER01
  6
CONTINUOUS
 62
     5
 10
-1342.543064
 20
2916.2036659999999
 30
0.0
  0
VERTEX
  5
C82
  8
LAYER01
  6
CONTINUOUS
 62
     5
 10
-1325.151912
 20
2921.7742360000002
 30
0.0
  0
VERTEX
  5
C83
  8
LAYER01
  6
CONTINUOUS
 62
     5
 10
-1308.070054
 20
2928.2356589999999
 30
0.0
  0
VERTEX
  5
C84
  8
LAYER01
  6
CONTINUOUS
 62
     5
 10
-1291.34285
 20
2935.5707780000012
 30
0.0
  0
VERTEX
  5
C85
  8
LAYER01
  6
CONTINUOUS
 62
     5
 10
-1275.014717
 20
2943.7601140000002
 30
0.0
  0
VERTEX
  5
C86
  8
LAYER01
  6
CONTINUOUS
 62
     5
 10
-1259.1290140000001
 20
2952.7819220000001
 30
0.0
  0
VERTEX
  5
C87
  8
LAYER01
  6
CONTINUOUS
 62
     5
 10
-1243.727924
 20
2962.6122449999998
 30
0.0
  0
VERTEX
  5
C88
  8
LAYER01
  6
CONTINUOUS
 62
     5
 10
-1228.852343
 20
2973.2249790000001
 30
0.0
  0
VERTEX
  5
C89
  8
LAYER01
  6
CONTINUOUS
 62
     5
 10
-1214.541772
 20
2984.5919429999999
 30
0.0
  0
VERTEX
  5
C8A
  8
LAYER01
  6
CONTINUOUS
 62
     5
 10
-1200.8342110000001
 20
2996.6829520000001
 30
0.0
  0
VERTEX
  5
C8B
  8
LAYER01
  6
CONTINUOUS
 62
     5
 10
-1187.766061
 20
3009.465901
 30
0.0
  0
VERTEX
  5
C8C
  8
LAYER01
  6
CONTINUOUS
 62
     5
 10
-1175.372022
 20
3022.906845
 30
0.0
  0
VERTEX
  5
C8D
  8
LAYER01
  6
CONTINUOUS
 62
     5
 10
-1163.685005
 20
3036.9700929999999
 30
0.0
  0
VERTEX
  5
C8E
  8
LAYER01
  6
CONTINUOUS
 62
     5
 10
-1152.7360450000001
 20
3051.618301
 30
0.0
  0
VERTEX
  5
C8F
  8
LAYER01
  6
CONTINUOUS
 62
     5
 10
-1142.554216
 20
3066.8125719999998
 30
0.0
  0
VERTEX
  5
C90
  8
LAYER01
  6
CONTINUOUS
 62
     5
 10
-1133.1665539999999
 20
3082.5125579999999
 30
0.0
  0
VERTEX
  5
C91
  8
LAYER01
  6
CONTINUOUS
 62
     5
 10
-1124.5979890000001
 20
3098.6765700000001
 30
0.0
  0
VERTEX
  5
C92
  8
LAYER01
  6
CONTINUOUS
 62
     5
 10
-1116.8712720000001
 20
3115.2616859999998
 30
0.0
  0
VERTEX
  5
C93
  8
LAYER01
  6
CONTINUOUS
 62
     5
 10
-1110.006922
 20
3132.2238649999999
 30
0.0
  0
VERTEX
  5
C94
  8
LAYER01
  6
CONTINUOUS
 62
     5
 10
-1104.0231659999999
 20
3149.5180650000002
 30
0.0
  0
VERTEX
  5
C95
  8
LAYER01
  6
CONTINUOUS
 62
     5
 10
-1098.935894
 20
3167.0983630000001
 30
0.0
  0
VERTEX
  5
C96
  8
LAYER01
  6
CONTINUOUS
 62
     5
 10
-1094.758615
 20
3184.9180760000008
 30
0.0
  0
VERTEX
  5
C97
  8
LAYER01
  6
CONTINUOUS
 62
     5
 10
-1091.5024209999999
 20
3202.929885
 30
0.0
  0
SEQEND
  5
C98
  8
LAYER01
  6
CONTINUOUS
 62
     5
  0
LINE
  5
2C9
  8
LAYER01
  6
CONTINUOUS
 62
     5
 10
-1466.5024209999999
 20
3372.0285939999999
 30
0.0
 11
-1416.5024209999999
 21
3372.0285939999999
 31
0.0
  0
LINE
  5
2CA
  8
LAYER01
  6
CONTINUOUS
 62
     5
 10
-1441.5024209999999
 20
3397.0285939999999
 30
0.0
 11
-1441.5024209999999
 21
3347.0285940000008
 31
0.0
  0
POLYLINE
  5
2CB
  8
LAYER01
  6
CONTINUOUS
 62
     5
 66
     1
 10
0.0
 20
0.0
 30
0.0
 70
     1
  0
VERTEX
  5
C99
  8
LAYER01
  6
CONTINUOUS
 62
     5
 10
-1421.5024209999999
 20
3372.0285939999999
 30
0.0
 42
0.4142140000000001
  0
VERTEX
  5
C9A
  8
LAYER01
  6
CONTINUOUS
 62
     5
 10
-1441.5024209999999
 20
3392.0285939999999
 30
0.0
 42
2.414213999999999
  0
VERTEX
  5
C9B
  8
LAYER01
  6
CONTINUOUS
 62
     5
 10
-1421.5024209999999
 20
3372.0285939999999
 30
0.0
  0
SEQEND
  5
C9C
  8
LAYER01
  6
CONTINUOUS
 62
     5
  0
LINE
  5
2D0
  8
LAYER01
  6
CONTINUOUS
 62
     5
 10
-1466.5024209999999
 20
3372.0285939999999
 30
0.0
 11
-1416.5024209999999
 21
3372.0285939999999
 31
0.0
  0
LINE
  5
2D1
  8
LAYER01
  6
CONTINUOUS
 62
     5
 10
-1441.5024209999999
 20
3397.0285939999999
 30
0.0
 11
-1441.5024209999999
 21
3347.0285940000008
 31
0.0
  0
INSERT
  5
2D2
  8
LAYER01
  2
PRIVO-G12
 10
0.0
 20
0.0
 30
0.0
  0
ENDBLK
  5
2D3
  8
0
  0
BLOCK
  8
0
  2
PRIVO-G14
 70
     0
 10
0.0
 20
0.0
 30
0.0
  3
PRIVO-G14
  1

  0
LINE
  5
2D6
  8
LAYER01
  6
CONTINUOUS
 62
     5
 10
-2298.2859210000001
 20
3278.7030700000009
 30
0.0
 11
-2298.2859210000001
 21
3195.3541190000001
 31
0.0
  0
LINE
  5
2D7
  8
LAYER01
  6
CONTINUOUS
 62
     5
 10
-2339.9603969999998
 20
3237.0285939999999
 30
0.0
 11
-2256.6114459999999
 21
3237.0285939999999
 31
0.0
  0
POLYLINE
  5
2D8
  8
LAYER01
  6
CONTINUOUS
 62
     5
 66
     1
 10
0.0
 20
0.0
 30
0.0
 70
     1
  0
VERTEX
  5
C9D
  8
LAYER01
  6
CONTINUOUS
 62
     5
 10
-2275.2859210000001
 20
3237.0285939999999
 30
0.0
 42
0.4142140000000001
  0
VERTEX
  5
C9E
  8
LAYER01
  6
CONTINUOUS
 62
     5
 10
-2298.2859210000001
 20
3260.0285940000008
 30
0.0
 42
2.414213999999999
  0
VERTEX
  5
C9F
  8
LAYER01
  6
CONTINUOUS
 62
     5
 10
-2275.2859210000001
 20
3237.0285939999999
 30
0.0
  0
SEQEND
  5
CA0
  8
LAYER01
  6
CONTINUOUS
 62
     5
  0
POLYLINE
  5
2DD
  8
LAYER01
  6
CONTINUOUS
 62
     5
 66
     1
 10
0.0
 20
0.0
 30
0.0
 70
     1
  0
VERTEX
  5
CA1
  8
LAYER01
  6
CONTINUOUS
 62
     5
 10
-2266.2859210000001
 20
3237.0285939999999
 30
0.0
 42
0.4142140000000001
  0
VERTEX
  5
CA2
  8
LAYER01
  6
CONTINUOUS
 62
     5
 10
-2298.2859210000001
 20
3269.0285939999999
 30
0.0
 42
2.414213999999999
  0
VERTEX
  5
CA3
  8
LAYER01
  6
CONTINUOUS
 62
     5
 10
-2266.2859210000001
 20
3237.0285939999999
 30
0.0
  0
SEQEND
  5
CA4
  8
LAYER01
  6
CONTINUOUS
 62
     5
  0
POLYLINE
  5
2E2
  8
LAYER01
  6
CONTINUOUS
 62
     5
 66
     1
 10
0.0
 20
0.0
 30
0.0
 70
     1
  0
VERTEX
  5
CA5
  8
LAYER01
  6
CONTINUOUS
 62
     5
 10
-2120.7859210000001
 20
3134.5285940000008
 30
0.0
 42
0.4142140000000001
  0
VERTEX
  5
CA6
  8
LAYER01
  6
CONTINUOUS
 62
     5
 10
-2298.2859210000001
 20
3312.0285939999999
 30
0.0
 42
2.414213999999999
  0
VERTEX
  5
CA7
  8
LAYER01
  6
CONTINUOUS
 62
     5
 10
-2120.7859210000001
 20
3134.5285940000008
 30
0.0
  0
SEQEND
  5
CA8
  8
LAYER01
  6
CONTINUOUS
 62
     5
  0
ENDBLK
  5
2E7
  8
0
  0
BLOCK
  8
0
  2
PRIVO-G13
 70
     0
 10
0.0
 20
0.0
 30
0.0
  3
PRIVO-G13
  1

  0
POLYLINE
  5
2EA
  8
LAYER01
  6
CONTINUOUS
 62
     5
 66
     1
 10
0.0
 20
0.0
 30
0.0
  0
VERTEX
  5
CA9
  8
LAYER01
  6
CONTINUOUS
 62
     5
 10
-2648.5383069999998
 20
3202.929885
 30
0.0
  0
VERTEX
  5
CAA
  8
LAYER01
  6
CONTINUOUS
 62
     5
 10
-2645.2821130000002
 20
3184.9180760000008
 30
0.0
  0
VERTEX
  5
CAB
  8
LAYER01
  6
CONTINUOUS
 62
     5
 10
-2641.1048329999999
 20
3167.0983630000001
 30
0.0
  0
VERTEX
  5
CAC
  8
LAYER01
  6
CONTINUOUS
 62
     5
 10
-2636.0175610000001
 20
3149.5180650000002
 30
0.0
  0
VERTEX
  5
CAD
  8
LAYER01
  6
CONTINUOUS
 62
     5
 10
-2630.0338059999999
 20
3132.2238649999999
 30
0.0
  0
VERTEX
  5
CAE
  8
LAYER01
  6
CONTINUOUS
 62
     5
 10
-2623.1694560000001
 20
3115.2616859999998
 30
0.0
  0
VERTEX
  5
CAF
  8
LAYER01
  6
CONTINUOUS
 62
     5
 10
-2615.442739000001
 20
3098.6765700000001
 30
0.0
  0
VERTEX
  5
CB0
  8
LAYER01
  6
CONTINUOUS
 62
     5
 10
-2606.8741730000002
 20
3082.5125579999999
 30
0.0
  0
VERTEX
  5
CB1
  8
LAYER01
  6
CONTINUOUS
 62
     5
 10
-2597.4865119999999
 20
3066.8125719999998
 30
0.0
  0
VERTEX
  5
CB2
  8
LAYER01
  6
CONTINUOUS
 62
     5
 10
-2587.3046829999998
 20
3051.618301
 30
0.0
  0
VERTEX
  5
CB3
  8
LAYER01
  6
CONTINUOUS
 62
     5
 10
-2576.355723000001
 20
3036.9700929999999
 30
0.0
  0
VERTEX
  5
CB4
  8
LAYER01
  6
CONTINUOUS
 62
     5
 10
-2564.6687059999999
 20
3022.906845
 30
0.0
  0
VERTEX
  5
CB5
  8
LAYER01
  6
CONTINUOUS
 62
     5
 10
-2552.274667000001
 20
3009.465901
 30
0.0
  0
VERTEX
  5
CB6
  8
LAYER01
  6
CONTINUOUS
 62
     5
 10
-2539.2065160000002
 20
2996.6829520000001
 30
0.0
  0
VERTEX
  5
CB7
  8
LAYER01
  6
CONTINUOUS
 62
     5
 10
-2525.4989559999999
 20
2984.5919429999999
 30
0.0
  0
VERTEX
  5
CB8
  8
LAYER01
  6
CONTINUOUS
 62
     5
 10
-2511.1883849999999
 20
2973.2249790000001
 30
0.0
  0
VERTEX
  5
CB9
  8
LAYER01
  6
CONTINUOUS
 62
     5
 10
-2496.3128040000001
 20
2962.6122449999998
 30
0.0
  0
VERTEX
  5
CBA
  8
LAYER01
  6
CONTINUOUS
 62
     5
 10
-2480.9117139999998
 20
2952.7819220000001
 30
0.0
  0
VERTEX
  5
CBB
  8
LAYER01
  6
CONTINUOUS
 62
     5
 10
-2465.0260109999999
 20
2943.7601140000002
 30
0.0
  0
VERTEX
  5
CBC
  8
LAYER01
  6
CONTINUOUS
 62
     5
 10
-2448.6978779999999
 20
2935.5707780000012
 30
0.0
  0
VERTEX
  5
CBD
  8
LAYER01
  6
CONTINUOUS
 62
     5
 10
-2431.9706740000001
 20
2928.2356589999999
 30
0.0
  0
VERTEX
  5
CBE
  8
LAYER01
  6
CONTINUOUS
 62
     5
 10
-2414.8888160000001
 20
2921.7742360000002
 30
0.0
  0
VERTEX
  5
CBF
  8
LAYER01
  6
CONTINUOUS
 62
     5
 10
-2397.4976630000001
 20
2916.2036659999999
 30
0.0
  0
VERTEX
  5
CC0
  8
LAYER01
  6
CONTINUOUS
 62
     5
 10
-2379.8433970000001
 20
2911.5387409999998
 30
0.0
  0
VERTEX
  5
CC1
  8
LAYER01
  6
CONTINUOUS
 62
     5
 10
-2361.9728970000001
 20
2907.7918490000002
 30
0.0
  0
VERTEX
  5
CC2
  8
LAYER01
  6
CONTINUOUS
 62
     5
 10
-2343.9336159999998
 20
2904.9729400000001
 30
0.0
  0
VERTEX
  5
CC3
  8
LAYER01
  6
CONTINUOUS
 62
     5
 10
-2325.7734569999998
 20
2903.0894979999998
 30
0.0
  0
VERTEX
  5
CC4
  8
LAYER01
  6
CONTINUOUS
 62
     5
 10
-2307.5406420000008
 20
2902.1465250000001
 30
0.0
  0
VERTEX
  5
CC5
  8
LAYER01
  6
CONTINUOUS
 62
     5
 10
-2289.283586
 20
2902.1465250000001
 30
0.0
  0
VERTEX
  5
CC6
  8
LAYER01
  6
CONTINUOUS
 62
     5
 10
-2271.0507710000002
 20
2903.0894979999998
 30
0.0
  0
VERTEX
  5
CC7
  8
LAYER01
  6
CONTINUOUS
 62
     5
 10
-2252.8906120000001
 20
2904.9729400000001
 30
0.0
  0
VERTEX
  5
CC8
  8
LAYER01
  6
CONTINUOUS
 62
     5
 10
-2234.8513309999998
 20
2907.7918490000002
 30
0.0
  0
VERTEX
  5
CC9
  8
LAYER01
  6
CONTINUOUS
 62
     5
 10
-2216.9808309999999
 20
2911.5387409999998
 30
0.0
  0
VERTEX
  5
CCA
  8
LAYER01
  6
CONTINUOUS
 62
     5
 10
-2199.3265649999998
 20
2916.2036659999999
 30
0.0
  0
VERTEX
  5
CCB
  8
LAYER01
  6
CONTINUOUS
 62
     5
 10
-2181.9354119999998
 20
2921.7742360000002
 30
0.0
  0
VERTEX
  5
CCC
  8
LAYER01
  6
CONTINUOUS
 62
     5
 10
-2164.8535539999998
 20
2928.2356589999999
 30
0.0
  0
VERTEX
  5
CCD
  8
LAYER01
  6
CONTINUOUS
 62
     5
 10
-2148.12635
 20
2935.5707780000012
 30
0.0
  0
VERTEX
  5
CCE
  8
LAYER01
  6
CONTINUOUS
 62
     5
 10
-2131.798217
 20
2943.7601140000002
 30
0.0
  0
VERTEX
  5
CCF
  8
LAYER01
  6
CONTINUOUS
 62
     5
 10
-2115.9125140000001
 20
2952.7819220000001
 30
0.0
  0
VERTEX
  5
CD0
  8
LAYER01
  6
CONTINUOUS
 62
     5
 10
-2100.5114239999998
 20
2962.6122449999998
 30
0.0
  0
VERTEX
  5
CD1
  8
LAYER01
  6
CONTINUOUS
 62
     5
 10
-2085.635843
 20
2973.2249790000001
 30
0.0
  0
VERTEX
  5
CD2
  8
LAYER01
  6
CONTINUOUS
 62
     5
 10
-2071.325272
 20
2984.5919429999999
 30
0.0
  0
VERTEX
  5
CD3
  8
LAYER01
  6
CONTINUOUS
 62
     5
 10
-2057.6177120000002
 20
2996.6829520000001
 30
0.0
  0
VERTEX
  5
CD4
  8
LAYER01
  6
CONTINUOUS
 62
     5
 10
-2044.549561
 20
3009.465901
 30
0.0
  0
VERTEX
  5
CD5
  8
LAYER01
  6
CONTINUOUS
 62
     5
 10
-2032.155522
 20
3022.906845
 30
0.0
  0
VERTEX
  5
CD6
  8
LAYER01
  6
CONTINUOUS
 62
     5
 10
-2020.4685059999999
 20
3036.9700929999999
 30
0.0
  0
VERTEX
  5
CD7
  8
LAYER01
  6
CONTINUOUS
 62
     5
 10
-2009.519546
 20
3051.618301
 30
0.0
  0
VERTEX
  5
CD8
  8
LAYER01
  6
CONTINUOUS
 62
     5
 10
-1999.337716
 20
3066.8125719999998
 30
0.0
  0
VERTEX
  5
CD9
  8
LAYER01
  6
CONTINUOUS
 62
     5
 10
-1989.950055
 20
3082.5125579999999
 30
0.0
  0
VERTEX
  5
CDA
  8
LAYER01
  6
CONTINUOUS
 62
     5
 10
-1981.3814890000001
 20
3098.6765700000001
 30
0.0
  0
VERTEX
  5
CDB
  8
LAYER01
  6
CONTINUOUS
 62
     5
 10
-1973.654773
 20
3115.2616859999998
 30
0.0
  0
VERTEX
  5
CDC
  8
LAYER01
  6
CONTINUOUS
 62
     5
 10
-1966.790422
 20
3132.2238649999999
 30
0.0
  0
VERTEX
  5
CDD
  8
LAYER01
  6
CONTINUOUS
 62
     5
 10
-1960.8066670000001
 20
3149.5180650000002
 30
0.0
  0
VERTEX
  5
CDE
  8
LAYER01
  6
CONTINUOUS
 62
     5
 10
-1955.7193950000001
 20
3167.0983630000001
 30
0.0
  0
VERTEX
  5
CDF
  8
LAYER01
  6
CONTINUOUS
 62
     5
 10
-1951.5421160000001
 20
3184.9180760000008
 30
0.0
  0
VERTEX
  5
CE0
  8
LAYER01
  6
CONTINUOUS
 62
     5
 10
-1948.2859209999999
 20
3202.929885
 30
0.0
  0
SEQEND
  5
CE1
  8
LAYER01
  6
CONTINUOUS
 62
     5
  0
LINE
  5
324
  8
LAYER01
  6
CONTINUOUS
 62
     5
 10
-2323.2859210000001
 20
3372.0285939999999
 30
0.0
 11
-2273.2859210000001
 21
3372.0285939999999
 31
0.0
  0
LINE
  5
325
  8
LAYER01
  6
CONTINUOUS
 62
     5
 10
-2298.2859210000001
 20
3397.0285939999999
 30
0.0
 11
-2298.2859210000001
 21
3347.0285940000008
 31
0.0
  0
POLYLINE
  5
326
  8
LAYER01
  6
CONTINUOUS
 62
     5
 66
     1
 10
0.0
 20
0.0
 30
0.0
 70
     1
  0
VERTEX
  5
CE2
  8
LAYER01
  6
CONTINUOUS
 62
     5
 10
-2278.2859210000001
 20
3372.0285939999999
 30
0.0
 42
0.4142140000000001
  0
VERTEX
  5
CE3
  8
LAYER01
  6
CONTINUOUS
 62
     5
 10
-2298.2859210000001
 20
3392.0285939999999
 30
0.0
 42
2.414213999999999
  0
VERTEX
  5
CE4
  8
LAYER01
  6
CONTINUOUS
 62
     5
 10
-2278.2859210000001
 20
3372.0285939999999
 30
0.0
  0
SEQEND
  5
CE5
  8
LAYER01
  6
CONTINUOUS
 62
     5
  0
LINE
  5
32B
  8
LAYER01
  6
CONTINUOUS
 62
     5
 10
-2323.2859210000001
 20
3372.0285939999999
 30
0.0
 11
-2273.2859210000001
 21
3372.0285939999999
 31
0.0
  0
LINE
  5
32C
  8
LAYER01
  6
CONTINUOUS
 62
     5
 10
-2298.2859210000001
 20
3397.0285939999999
 30
0.0
 11
-2298.2859210000001
 21
3347.0285940000008
 31
0.0
  0
INSERT
  5
32D
  8
LAYER01
  2
PRIVO-G14
 10
0.0
 20
0.0
 30
0.0
  0
ENDBLK
  5
32E
  8
0
  0
BLOCK
  8
0
  2
*D14
 70
     1
 10
0.0
 20
0.0
 30
0.0
  3
*D14
  1

  0
LINE
  5
331
  8
LAYER01
 62
     7
 10
742.66589599999998
 20
4940.4689850000004
 30
0.0
 11
662.63703299999997
 21
4940.4689850000004
 31
0.0
  0
LINE
  5
332
  8
LAYER01
 62
     7
 10
742.66589599999998
 20
4961.3551129999996
 30
0.0
 11
742.66589599999998
 21
4925.4689850000013
 31
0.0
  0
LINE
  5
333
  8
LAYER01
 62
     7
 10
662.63703299999997
 20
4961.3551129999996
 30
0.0
 11
662.63703299999997
 21
4925.4689850000013
 31
0.0
  0
SOLID
  5
334
  8
LAYER01
 62
     7
 10
702.66589599999986
 20
4947.1353850000014
 30
0.0
 11
742.66589599999998
 21
4940.4689850000004
 31
0.0
 12
702.66589599999986
 22
4933.8025850000013
 32
0.0
 13
702.66589599999986
 23
4933.8025850000013
 33
0.0
  0
SOLID
  5
335
  8
LAYER01
 62
     7
 10
702.63703299999986
 20
4947.1353850000014
 30
0.0
 11
662.63703299999997
 21
4940.4689850000004
 31
0.0
 12
702.63703299999986
 22
4933.8025850000013
 32
0.0
 13
702.63703299999986
 23
4933.8025850000013
 33
0.0
  0
TEXT
  5
336
  8
LAYER01
  6
CONTINUOUS
 62
     7
 10
678.36575000000005
 20
4955.4689850000004
 30
0.0
 40
30.0
  1
80
  7
SIMPLEX
  0
POINT
  5
337
  8
LAYER01
 62
     7
 10
742.66589599999998
 20
4973.3551130000014
 30
0.0
  0
POINT
  5
338
  8
LAYER01
 62
     7
 10
662.63703299999997
 20
4973.3551130000014
 30
0.0
  0
POINT
  5
339
  8
LAYER01
 62
     7
 10
662.63703299999997
 20
4940.4689850000004
 30
0.0
  0
ENDBLK
  5
33A
  8
0
  0
BLOCK
  8
0
  2
*D15
 70
     1
 10
0.0
 20
0.0
 30
0.0
  3
*D15
  1

  0
LINE
  5
33D
  8
LAYER01
 62
     7
 10
595.13753899999995
 20
5011.2577700000002
 30
0.0
 11
742.66589599999998
 21
5011.2577700000002
 31
0.0
  0
LINE
  5
33E
  8
LAYER01
 62
     7
 10
595.13753899999995
 20
4985.3551129999996
 30
0.0
 11
595.13753899999995
 21
5026.2577700000002
 31
0.0
  0
LINE
  5
33F
  8
LAYER01
 62
     7
 10
742.66589599999998
 20
4985.3551129999996
 30
0.0
 11
742.66589599999998
 21
5026.2577700000002
 31
0.0
  0
SOLID
  5
340
  8
LAYER01
 62
     7
 10
635.13753899999995
 20
5004.5913699999992
 30
0.0
 11
595.13753899999995
 21
5011.2577700000002
 31
0.0
 12
635.13753899999995
 22
5017.9241700000002
 32
0.0
 13
635.13753899999995
 23
5017.9241700000002
 33
0.0
  0
SOLID
  5
341
  8
LAYER01
 62
     7
 10
702.66589599999986
 20
5004.5913699999992
 30
0.0
 11
742.66589599999998
 21
5011.2577700000002
 31
0.0
 12
702.66589599999986
 22
5017.9241700000002
 32
0.0
 13
702.66589599999986
 23
5017.9241700000002
 33
0.0
  0
TEXT
  5
342
  8
LAYER01
  6
CONTINUOUS
 62
     7
 10
633.18743199999994
 20
5026.2577700000002
 30
0.0
 40
30.0
  1
140
  7
SIMPLEX
  0
POINT
  5
343
  8
LAYER01
 62
     7
 10
595.13753899999995
 20
4973.3551130000014
 30
0.0
  0
POINT
  5
344
  8
LAYER01
 62
     7
 10
742.66589599999998
 20
4973.3551130000014
 30
0.0
  0
POINT
  5
345
  8
LAYER01
 62
     7
 10
742.66589599999998
 20
5011.2577700000002
 30
0.0
  0
ENDBLK
  5
346
  8
0
  0
BLOCK
  8
0
  2
*D16
 70
     1
 10
0.0
 20
0.0
 30
0.0
  3
*D16
  1

  0
LINE
  5
349
  8
LAYER01
 62
     7
 10
595.13753899999995
 20
5011.2577700000002
 30
0.0
 11
243.75651400000001
 21
5011.2577700000002
 31
0.0
  0
LINE
  5
34A
  8
LAYER01
 62
     7
 10
595.13753899999995
 20
4983.1255449999999
 30
0.0
 11
595.13753899999995
 21
5026.2577700000002
 31
0.0
  0
LINE
  5
34B
  8
LAYER01
 62
     7
 10
243.75651400000001
 20
4983.1255449999999
 30
0.0
 11
243.75651400000001
 21
5026.2577700000002
 31
0.0
  0
SOLID
  5
34C
  8
LAYER01
 62
     7
 10
555.13753899999995
 20
5017.9241700000002
 30
0.0
 11
595.13753899999995
 21
5011.2577700000002
 31
0.0
 12
555.13753899999995
 22
5004.5913699999992
 32
0.0
 13
555.13753899999995
 23
5004.5913699999992
 33
0.0
  0
SOLID
  5
34D
  8
LAYER01
 62
     7
 10
283.75651399999998
 20
5017.9241700000002
 30
0.0
 11
243.75651400000001
 21
5011.2577700000002
 31
0.0
 12
283.75651399999998
 22
5004.5913699999992
 32
0.0
 13
283.75651399999998
 23
5004.5913699999992
 33
0.0
  0
TEXT
  5
34E
  8
LAYER01
  6
CONTINUOUS
 62
     7
 10
387.304169
 20
5026.2577700000002
 30
0.0
 40
30.0
  1
355
  7
SIMPLEX
  0
POINT
  5
34F
  8
LAYER01
 62
     7
 10
595.13753899999995
 20
4971.1255449999999
 30
0.0
  0
POINT
  5
350
  8
LAYER01
 62
     7
 10
243.75651400000001
 20
4971.1255449999999
 30
0.0
  0
POINT
  5
351
  8
LAYER01
 62
     7
 10
243.75651400000001
 20
5011.2577700000002
 30
0.0
  0
ENDBLK
  5
352
  8
0
  0
BLOCK
  8
0
  2
*D17
 70
     1
 10
0.0
 20
0.0
 30
0.0
  3
*D17
  1

  0
LINE
  5
355
  8
LAYER01
 62
     7
 10
7.0914060000000001
 20
4894.4970560000002
 30
0.0
 11
7.0914060000000001
 21
4809.4904470000001
 31
0.0
  0
LINE
  5
356
  8
LAYER01
 62
     7
 10
180.665896
 20
4894.4970560000002
 30
0.0
 11
-7.908593999999999
 21
4894.4970560000002
 31
0.0
  0
LINE
  5
357
  8
LAYER01
 62
     7
 10
180.665896
 20
4809.4904470000001
 30
0.0
 11
-7.908593999999999
 21
4809.4904470000001
 31
0.0
  0
SOLID
  5
358
  8
LAYER01
 62
     7
 10
0.4250060000000001
 20
4854.4970560000002
 30
0.0
 11
7.0914060000000001
 21
4894.4970560000002
 31
0.0
 12
13.757806
 22
4854.4970560000002
 32
0.0
 13
13.757806
 23
4854.4970560000002
 33
0.0
  0
SOLID
  5
359
  8
LAYER01
 62
     7
 10
0.4250060000000001
 20
4849.4904470000001
 30
0.0
 11
7.0914060000000001
 21
4809.4904470000001
 31
0.0
 12
13.757806
 22
4849.4904470000001
 32
0.0
 13
13.757806
 23
4849.4904470000001
 33
0.0
  0
TEXT
  5
35A
  8
LAYER01
  6
CONTINUOUS
 62
     7
 10
-7.908593999999999
 20
4827.7080369999994
 30
0.0
 40
30.0
  1
85
 50
90.0
  7
SIMPLEX
  0
POINT
  5
35B
  8
LAYER01
 62
     7
 10
192.665896
 20
4894.4970560000002
 30
0.0
  0
POINT
  5
35C
  8
LAYER01
 62
     7
 10
192.665896
 20
4809.4904470000001
 30
0.0
  0
POINT
  5
35D
  8
LAYER01
 62
     7
 10
7.0914060000000001
 20
4809.4904470000001
 30
0.0
  0
ENDBLK
  5
35E
  8
0
  0
BLOCK
  8
0
  2
*D18
 70
     1
 10
0.0
 20
0.0
 30
0.0
  3
*D18
  1

  0
LINE
  5
361
  8
LAYER01
 62
     7
 10
95.159343000000007
 20
4894.4970560000002
 30
0.0
 11
95.159343000000007
 21
4974.4970560000002
 31
0.0
  0
LINE
  5
362
  8
LAYER01
 62
     7
 10
95.159343000000007
 20
4880.3859359999988
 30
0.0
 11
95.159343000000007
 21
4800.3859359999997
 31
0.0
  0
LINE
  5
363
  8
LAYER01
 62
     7
 10
180.665896
 20
4894.4970560000002
 30
0.0
 11
80.159343000000007
 21
4894.4970560000002
 31
0.0
  0
LINE
  5
364
  8
LAYER01
 62
     7
 10
180.665896
 20
4880.3859359999988
 30
0.0
 11
80.159343000000007
 21
4880.3859359999988
 31
0.0
  0
SOLID
  5
365
  8
LAYER01
 62
     7
 10
88.492943000000025
 20
4934.4970560000002
 30
0.0
 11
95.159343000000007
 21
4894.4970560000002
 31
0.0
 12
101.825743
 22
4934.4970560000002
 32
0.0
 13
101.825743
 23
4934.4970560000002
 33
0.0
  0
SOLID
  5
366
  8
LAYER01
 62
     7
 10
88.492943000000025
 20
4840.3859359999997
 30
0.0
 11
95.159343000000007
 21
4880.3859359999988
 31
0.0
 12
101.825743
 22
4840.3859359999997
 32
0.0
 13
101.825743
 23
4840.3859359999997
 33
0.0
  0
TEXT
  5
367
  8
LAYER01
  6
CONTINUOUS
 62
     7
 10
80.159343000000007
 20
4989.4970560000011
 30
0.0
 40
30.0
  1
20
 50
90.0
  7
SIMPLEX
  0
POINT
  5
368
  8
LAYER01
 62
     7
 10
192.665896
 20
4894.4970560000002
 30
0.0
  0
POINT
  5
369
  8
LAYER01
 62
     7
 10
192.665896
 20
4880.3859359999988
 30
0.0
  0
POINT
  5
36A
  8
LAYER01
 62
     7
 10
95.159343000000007
 20
4880.3859359999988
 30
0.0
  0
ENDBLK
  5
36B
  8
0
  0
BLOCK
  8
0
  2
*D19
 70
     1
 10
0.0
 20
0.0
 30
0.0
  3
*D19
  1

  0
LINE
  5
36E
  8
LAYER01
 62
     7
 10
828.68722699999989
 20
4904.5466659999993
 30
0.0
 11
828.68722699999989
 21
4984.5466659999993
 31
0.0
  0
LINE
  5
36F
  8
LAYER01
 62
     7
 10
828.68722699999989
 20
4894.5466660000002
 30
0.0
 11
828.68722699999989
 21
4814.5466660000002
 31
0.0
  0
LINE
  5
370
  8
LAYER01
 62
     7
 10
754.66589599999998
 20
4904.5466659999993
 30
0.0
 11
843.68722700000001
 21
4904.5466659999993
 31
0.0
  0
LINE
  5
371
  8
LAYER01
 62
     7
 10
754.66589599999998
 20
4894.5466660000002
 30
0.0
 11
843.68722700000001
 21
4894.5466660000002
 31
0.0
  0
SOLID
  5
372
  8
LAYER01
 62
     7
 10
822.02082699999983
 20
4944.5466659999993
 30
0.0
 11
828.68722699999989
 21
4904.5466659999993
 31
0.0
 12
835.35362699999985
 22
4944.5466659999993
 32
0.0
 13
835.35362699999985
 23
4944.5466659999993
 33
0.0
  0
SOLID
  5
373
  8
LAYER01
 62
     7
 10
822.02082699999983
 20
4854.5466660000002
 30
0.0
 11
828.68722699999989
 21
4894.5466660000002
 31
0.0
 12
835.35362699999985
 22
4854.5466660000002
 32
0.0
 13
835.35362699999985
 23
4854.5466660000002
 33
0.0
  0
TEXT
  5
374
  8
LAYER01
  6
CONTINUOUS
 62
     7
 10
813.68722699999989
 20
4999.5466659999993
 30
0.0
 40
30.0
  1
10
 50
90.0
  7
SIMPLEX
  0
POINT
  5
375
  8
LAYER01
 62
     7
 10
742.66589599999998
 20
4904.5466659999993
 30
0.0
  0
POINT
  5
376
  8
LAYER01
 62
     7
 10
742.66589599999998
 20
4894.5466660000002
 30
0.0
  0
POINT
  5
377
  8
LAYER01
 62
     7
 10
828.68722699999989
 20
4894.5466660000002
 30
0.0
  0
ENDBLK
  5
378
  8
0
  0
BLOCK
  8
0
  2
*D20
 70
     1
 10
0.0
 20
0.0
 30
0.0
  3
*D20
  1

  0
LINE
  5
37B
  8
LAYER01
 62
     7
 10
931.80474800000002
 20
4894.5466660000002
 30
0.0
 11
931.80474800000002
 21
4789.948934
 31
0.0
  0
LINE
  5
37C
  8
LAYER01
 62
     7
 10
754.66589599999998
 20
4894.5466660000002
 30
0.0
 11
946.80474800000002
 21
4894.5466660000002
 31
0.0
  0
LINE
  5
37D
  8
LAYER01
 62
     7
 10
754.66589599999998
 20
4789.948934
 30
0.0
 11
946.80474800000002
 21
4789.948934
 31
0.0
  0
SOLID
  5
37E
  8
LAYER01
 62
     7
 10
925.13834800000006
 20
4854.5466660000002
 30
0.0
 11
931.80474800000002
 21
4894.5466660000002
 31
0.0
 12
938.47114800000008
 22
4854.5466660000002
 32
0.0
 13
938.47114800000008
 23
4854.5466660000002
 33
0.0
  0
SOLID
  5
37F
  8
LAYER01
 62
     7
 10
925.13834800000006
 20
4829.948934
 30
0.0
 11
931.80474800000002
 21
4789.948934
 31
0.0
 12
938.47114800000008
 22
4829.948934
 32
0.0
 13
938.47114800000008
 23
4829.948934
 33
0.0
  0
TEXT
  5
380
  8
LAYER01
  6
CONTINUOUS
 62
     7
 10
916.80474800000002
 20
4806.5335139999997
 30
0.0
 40
30.0
  1
105
 50
90.0
  7
SIMPLEX
  0
POINT
  5
381
  8
LAYER01
 62
     7
 10
742.66589599999998
 20
4894.5466660000002
 30
0.0
  0
POINT
  5
382
  8
LAYER01
 62
     7
 10
742.66589599999998
 20
4789.948934
 30
0.0
  0
POINT
  5
383
  8
LAYER01
 62
     7
 10
931.80474800000002
 20
4789.948934
 30
0.0
  0
ENDBLK
  5
384
  8
0
  0
BLOCK
  8
0
  2
*D21
 70
     1
 10
0.0
 20
0.0
 30
0.0
  3
*D21
  1

  0
LINE
  5
387
  8
LAYER01
 62
     7
 10
550.714561
 20
4732.5617649999986
 30
0.0
 11
630.714561
 21
4732.5617649999986
 31
0.0
  0
LINE
  5
388
  8
LAYER01
 62
     7
 10
505.04959699999989
 20
4732.5617649999986
 30
0.0
 11
425.04959699999989
 21
4732.5617649999986
 31
0.0
  0
LINE
  5
389
  8
LAYER01
 62
     7
 10
550.714561
 20
4777.948934
 30
0.0
 11
550.714561
 21
4717.5617649999986
 31
0.0
  0
LINE
  5
38A
  8
LAYER01
 62
     7
 10
505.04959699999989
 20
4777.948934
 30
0.0
 11
505.04959699999989
 21
4717.5617649999986
 31
0.0
  0
SOLID
  5
38B
  8
LAYER01
 62
     7
 10
590.71456099999989
 20
4739.2281649999986
 30
0.0
 11
550.714561
 21
4732.5617649999986
 31
0.0
 12
590.71456099999989
 22
4725.8953649999994
 32
0.0
 13
590.71456099999989
 23
4725.8953649999994
 33
0.0
  0
SOLID
  5
38C
  8
LAYER01
 62
     7
 10
465.04959699999989
 20
4739.2281649999986
 30
0.0
 11
505.04959699999989
 21
4732.5617649999986
 31
0.0
 12
465.04959699999989
 22
4725.8953649999994
 32
0.0
 13
465.04959699999989
 23
4725.8953649999994
 33
0.0
  0
TEXT
  5
38D
  8
LAYER01
  6
CONTINUOUS
 62
     7
 10
645.714561
 20
4747.5617649999986
 30
0.0
 40
30.0
  1
46
  7
SIMPLEX
  0
POINT
  5
38E
  8
LAYER01
 62
     7
 10
550.714561
 20
4789.948934
 30
0.0
  0
POINT
  5
38F
  8
LAYER01
 62
     7
 10
505.04959699999989
 20
4789.948934
 30
0.0
  0
POINT
  5
390
  8
LAYER01
 62
     7
 10
505.04959699999989
 20
4732.5617649999986
 30
0.0
  0
ENDBLK
  5
391
  8
0
  0
BLOCK
  8
0
  2
*D22
 70
     1
 10
0.0
 20
0.0
 30
0.0
  3
*D22
  1

  0
LINE
  5
394
  8
LAYER01
 62
     7
 10
527.87541500000009
 20
4650.6251400000001
 30
0.0
 11
742.66589599999998
 21
4650.6251400000001
 31
0.0
  0
LINE
  5
395
  8
LAYER01
 62
     7
 10
527.87541500000009
 20
4755.2081959999996
 30
0.0
 11
527.87541500000009
 21
4635.625140000001
 31
0.0
  0
LINE
  5
396
  8
LAYER01
 62
     7
 10
742.66589599999998
 20
4755.2081959999996
 30
0.0
 11
742.66589599999998
 21
4635.625140000001
 31
0.0
  0
SOLID
  5
397
  8
LAYER01
 62
     7
 10
567.87541500000009
 20
4643.95874
 30
0.0
 11
527.87541500000009
 21
4650.6251400000001
 31
0.0
 12
567.87541500000009
 22
4657.2915400000002
 32
0.0
 13
567.87541500000009
 23
4657.2915400000002
 33
0.0
  0
SOLID
  5
398
  8
LAYER01
 62
     7
 10
702.66589599999986
 20
4643.95874
 30
0.0
 11
742.66589599999998
 21
4650.6251400000001
 31
0.0
 12
702.66589599999986
 22
4657.2915400000002
 32
0.0
 13
702.66589599999986
 23
4657.2915400000002
 33
0.0
  0
TEXT
  5
399
  8
LAYER01
  6
CONTINUOUS
 62
     7
 10
599.5563699999999
 20
4665.6251400000001
 30
0.0
 40
30.0
  1
215
  7
SIMPLEX
  0
POINT
  5
39A
  8
LAYER01
 62
     7
 10
527.87541500000009
 20
4767.2081960000014
 30
0.0
  0
POINT
  5
39B
  8
LAYER01
 62
     7
 10
742.66589599999998
 20
4767.2081960000014
 30
0.0
  0
POINT
  5
39C
  8
LAYER01
 62
     7
 10
742.66589599999998
 20
4650.6251400000001
 30
0.0
  0
ENDBLK
  5
39D
  8
0
  0
BLOCK
  8
0
  2
*D23
 70
     1
 10
0.0
 20
0.0
 30
0.0
  3
*D23
  1

  0
LINE
  5
3A0
  8
LAYER01
 62
     7
 10
243.75651400000001
 20
5011.2577700000002
 30
0.0
 11
192.665896
 21
5011.2577700000002
 31
0.0
  0
LINE
  5
3A1
  8
LAYER01
 62
     7
 10
243.75651400000001
 20
4983.1255449999999
 30
0.0
 11
243.75651400000001
 21
5026.2577700000002
 31
0.0
  0
LINE
  5
3A2
  8
LAYER01
 62
     7
 10
192.665896
 20
4983.1255449999999
 30
0.0
 11
192.665896
 21
5026.2577700000002
 31
0.0
  0
SOLID
  5
3A3
  8
LAYER01
 62
     7
 10
218.75651400000001
 20
5015.4242700000004
 30
0.0
 11
243.75651400000001
 21
5011.2577700000002
 31
0.0
 12
218.75651400000001
 22
5007.0912699999999
 32
0.0
 13
218.75651400000001
 23
5007.0912699999999
 33
0.0
  0
SOLID
  5
3A4
  8
LAYER01
 62
     7
 10
217.665896
 20
5015.4242700000004
 30
0.0
 11
192.665896
 21
5011.2577700000002
 31
0.0
 12
217.665896
 22
5007.0912699999999
 32
0.0
 13
217.665896
 23
5007.0912699999999
 33
0.0
  0
TEXT
  5
3A5
  8
LAYER01
  6
CONTINUOUS
 62
     7
 10
200.354062
 20
5026.2577700000002
 30
0.0
 40
30.0
  1
55
  7
SIMPLEX
  0
POINT
  5
3A6
  8
LAYER01
 62
     7
 10
243.75651400000001
 20
4971.1255449999999
 30
0.0
  0
POINT
  5
3A7
  8
LAYER01
 62
     7
 10
192.665896
 20
4971.1255449999999
 30
0.0
  0
POINT
  5
3A8
  8
LAYER01
 62
     7
 10
192.665896
 20
5011.2577700000002
 30
0.0
  0
ENDBLK
  5
3A9
  8
0
  0
BLOCK
  8
0
  2
*D24
 70
     1
 10
0.0
 20
0.0
 30
0.0
  3
*D24
  1

  0
ARC
  5
3AC
  8
LAYER01
 62
     7
 10
-2982.9945010000001
 20
6156.5210870000001
 30
0.0
 40
122.62295899999999
 50
270.0
 51
295.54893499999997
  0
ARC
  5
3AD
  8
LAYER01
 62
     7
 10
-2982.9945010000001
 20
6156.5210870000001
 30
0.0
 40
122.62295899999999
 50
332.62303900000001
 51
0.0
  0
SOLID
  5
3AE
  8
LAYER01
 62
     7
 10
-2944.6174299999998
 20
6046.999323
 30
0.0
 11
-2982.9945010000001
 21
6033.8981279999998
 31
0.0
 12
-2942.4428290000001
 22
6033.8450590000002
 32
0.0
 13
-2942.4428290000001
 23
6033.8450590000002
 33
0.0
  0
SOLID
  5
3AF
  8
LAYER01
 62
     7
 10
-2873.4727370000001
 20
6118.1440159999993
 30
0.0
 11
-2860.371541
 21
6156.5210870000001
 31
0.0
 12
-2860.3184729999998
 22
6115.9694149999996
 32
0.0
 13
-2860.3184729999998
 23
6115.9694149999996
 33
0.0
  0
TEXT
  5
3B0
  8
LAYER01
  6
CONTINUOUS
 62
     7
 10
-2927.7155459999999
 20
6054.8135609999999
 30
0.0
 40
30.0
  1
90%%d
  7
SIMPLEX
  0
ENDBLK
  5
3B1
  8
0
  0
BLOCK
  8
0
  2
*D25
 70
     1
 10
0.0
 20
0.0
 30
0.0
  3
*D25
  1

  0
ARC
  5
3B4
  8
LAYER01
 62
     7
 10
-482.9945009999999
 20
6156.5210870000001
 30
0.0
 40
145.88353799999999
 50
180.0
 51
210.10790900000001
  0
ARC
  5
3B5
  8
LAYER01
 62
     7
 10
-482.9945009999999
 20
6156.5210870000001
 30
0.0
 40
145.88353799999999
 50
241.1584509999999
 51
270.0
  0
SOLID
  5
3B6
  8
LAYER01
 62
     7
 10
-616.79075699999987
 20
6117.8127090000007
 30
0.0
 11
-628.87803799999995
 21
6156.5210870000001
 31
0.0
 12
-629.99766699999986
 22
6115.9848400000001
 32
0.0
 13
-629.99766699999986
 23
6115.9848400000001
 33
0.0
  0
SOLID
  5
3B7
  8
LAYER01
 62
     7
 10
-521.70287900000005
 20
6022.7248300000001
 30
0.0
 11
-482.9945009999999
 21
6010.6375490000009
 31
0.0
 12
-523.53074800000002
 22
6009.5179209999997
 32
0.0
 13
-523.53074800000002
 23
6009.5179209999997
 33
0.0
  0
TEXT
  5
3B8
  8
LAYER01
  6
CONTINUOUS
 62
     7
 10
-617.57831099999999
 20
6038.3658479999986
 30
0.0
 40
30.0
  1
90%%d
  7
SIMPLEX
  0
ENDBLK
  5
3B9
  8
0
  0
BLOCK
  8
0
  2
*D26
 70
     1
 10
0.0
 20
0.0
 30
0.0
  3
*D26
  1

  0
LINE
  5
3BC
  8
LAYER01
 62
     7
 10
-3099.4298920000001
 20
6076.5210870000001
 30
0.0
 11
-3099.4298920000001
 21
6016.5210870000001
 31
0.0
  0
LINE
  5
3BD
  8
LAYER01
 62
     7
 10
-2994.9945010000001
 20
6076.5210870000001
 30
0.0
 11
-3114.4298920000001
 21
6076.5210870000001
 31
0.0
  0
LINE
  5
3BE
  8
LAYER01
 62
     7
 10
-2994.9945010000001
 20
6016.5210870000001
 30
0.0
 11
-3114.4298920000001
 21
6016.5210870000001
 31
0.0
  0
SOLID
  5
3BF
  8
LAYER01
 62
     7
 10
-3103.5963919999999
 20
6051.521087000001
 30
0.0
 11
-3099.4298920000001
 21
6076.5210870000001
 31
0.0
 12
-3095.2633920000012
 22
6051.521087000001
 32
0.0
 13
-3095.2633920000012
 23
6051.521087000001
 33
0.0
  0
SOLID
  5
3C0
  8
LAYER01
 62
     7
 10
-3103.5963919999999
 20
6041.5210870000001
 30
0.0
 11
-3099.4298920000001
 21
6016.5210870000001
 31
0.0
 12
-3095.2633920000012
 22
6041.5210870000001
 32
0.0
 13
-3095.2633920000012
 23
6041.5210870000001
 33
0.0
  0
TEXT
  5
3C1
  8
LAYER01
  6
CONTINUOUS
 62
     7
 10
-3114.4298920000001
 20
6022.2353730000004
 30
0.0
 40
30.0
  1
60
 50
90.0
  7
SIMPLEX
  0
POINT
  5
3C2
  8
LAYER01
 62
     7
 10
-2982.9945010000001
 20
6076.5210870000001
 30
0.0
  0
POINT
  5
3C3
  8
LAYER01
 62
     7
 10
-2982.9945010000001
 20
6016.5210870000001
 30
0.0
  0
POINT
  5
3C4
  8
LAYER01
 62
     7
 10
-3099.4298920000001
 20
6016.5210870000001
 30
0.0
  0
ENDBLK
  5
3C5
  8
0
  0
BLOCK
  8
0
  2
*D27
 70
     1
 10
0.0
 20
0.0
 30
0.0
  3
*D27
  1

  0
LINE
  5
3C8
  8
LAYER01
 62
     7
 10
-3200.5800859999999
 20
6156.5210870000001
 30
0.0
 11
-3200.5800859999999
 21
5906.5210870000001
 31
0.0
  0
LINE
  5
3C9
  8
LAYER01
 62
     7
 10
-2994.9945010000001
 20
6156.5210870000001
 30
0.0
 11
-3215.5800859999999
 21
6156.5210870000001
 31
0.0
  0
LINE
  5
3CA
  8
LAYER01
 62
     7
 10
-2994.9945010000001
 20
5906.5210870000001
 30
0.0
 11
-3215.5800859999999
 21
5906.5210870000001
 31
0.0
  0
SOLID
  5
3CB
  8
LAYER01
 62
     7
 10
-3207.2464860000009
 20
6116.5210870000001
 30
0.0
 11
-3200.5800859999999
 21
6156.5210870000001
 31
0.0
 12
-3193.9136859999999
 22
6116.5210870000001
 32
0.0
 13
-3193.9136859999999
 23
6116.5210870000001
 33
0.0
  0
SOLID
  5
3CC
  8
LAYER01
 62
     7
 10
-3207.2464860000009
 20
5946.5210870000001
 30
0.0
 11
-3200.5800859999999
 21
5906.5210870000001
 31
0.0
 12
-3193.9136859999999
 22
5946.5210870000001
 32
0.0
 13
-3193.9136859999999
 23
5946.5210870000001
 33
0.0
  0
TEXT
  5
3CD
  8
LAYER01
  6
CONTINUOUS
 62
     7
 10
-3215.5800859999999
 20
5992.9496580000005
 30
0.0
 40
30.0
  1
250
 50
90.0
  7
SIMPLEX
  0
POINT
  5
3CE
  8
LAYER01
 62
     7
 10
-2982.9945010000001
 20
6156.5210870000001
 30
0.0
  0
POINT
  5
3CF
  8
LAYER01
 62
     7
 10
-2982.9945010000001
 20
5906.5210870000001
 30
0.0
  0
POINT
  5
3D0
  8
LAYER01
 62
     7
 10
-3200.5800859999999
 20
5906.5210870000001
 30
0.0
  0
ENDBLK
  5
3D1
  8
0
  0
BLOCK
  8
0
  2
*D28
 70
     1
 10
0.0
 20
0.0
 30
0.0
  3
*D28
  1

  0
LINE
  5
3D4
  8
LAYER01
 62
     7
 10
-3279.1433430000011
 20
6156.5210870000001
 30
0.0
 11
-3279.1433430000011
 21
5606.5210870000001
 31
0.0
  0
LINE
  5
3D5
  8
LAYER01
 62
     7
 10
-2994.9945010000001
 20
6156.5210870000001
 30
0.0
 11
-3294.1433430000002
 21
6156.5210870000001
 31
0.0
  0
LINE
  5
3D6
  8
LAYER01
 62
     7
 10
-2994.9945010000001
 20
5606.5210870000001
 30
0.0
 11
-3294.1433430000002
 21
5606.5210870000001
 31
0.0
  0
SOLID
  5
3D7
  8
LAYER01
 62
     7
 10
-3285.8097429999998
 20
6116.5210870000001
 30
0.0
 11
-3279.1433430000011
 21
6156.5210870000001
 31
0.0
 12
-3272.4769430000001
 22
6116.5210870000001
 32
0.0
 13
-3272.4769430000001
 23
6116.5210870000001
 33
0.0
  0
SOLID
  5
3D8
  8
LAYER01
 62
     7
 10
-3285.8097429999998
 20
5646.5210869999992
 30
0.0
 11
-3279.1433430000011
 21
5606.5210870000001
 31
0.0
 12
-3272.4769430000001
 22
5646.5210869999992
 32
0.0
 13
-3272.4769430000001
 23
5646.5210869999992
 33
0.0
  0
TEXT
  5
3D9
  8
LAYER01
  6
CONTINUOUS
 62
     7
 10
-3294.1433430000002
 20
5842.9496580000005
 30
0.0
 40
30.0
  1
550
 50
90.0
  7
SIMPLEX
  0
POINT
  5
3DA
  8
LAYER01
 62
     7
 10
-2982.9945010000001
 20
6156.5210870000001
 30
0.0
  0
POINT
  5
3DB
  8
LAYER01
 62
     7
 10
-2982.9945010000001
 20
5606.5210870000001
 30
0.0
  0
POINT
  5
3DC
  8
LAYER01
 62
     7
 10
-3279.1433430000011
 20
5606.5210870000001
 30
0.0
  0
ENDBLK
  5
3DD
  8
0
  0
BLOCK
  8
0
  2
*D29
 70
     1
 10
0.0
 20
0.0
 30
0.0
  3
*D29
  1

  0
LINE
  5
3E0
  8
LAYER01
 62
     7
 10
-3098.5915230000001
 20
6156.5210870000001
 30
0.0
 11
-3098.5915230000001
 21
6076.5210870000001
 31
0.0
  0
LINE
  5
3E1
  8
LAYER01
 62
     7
 10
-3057.9887779999999
 20
6156.5210870000001
 30
0.0
 11
-3113.5915230000001
 21
6156.5210870000001
 31
0.0
  0
LINE
  5
3E2
  8
LAYER01
 62
     7
 10
-3057.9887779999999
 20
6076.5210870000001
 30
0.0
 11
-3113.5915230000001
 21
6076.5210870000001
 31
0.0
  0
SOLID
  5
3E3
  8
LAYER01
 62
     7
 10
-3102.7580229999999
 20
6131.5210870000001
 30
0.0
 11
-3098.5915230000001
 21
6156.5210870000001
 31
0.0
 12
-3094.4250229999998
 22
6131.5210870000001
 32
0.0
 13
-3094.4250229999998
 23
6131.5210870000001
 33
0.0
  0
SOLID
  5
3E4
  8
LAYER01
 62
     7
 10
-3102.7580229999999
 20
6101.5210870000001
 30
0.0
 11
-3098.5915230000001
 21
6076.5210870000001
 31
0.0
 12
-3094.4250229999998
 22
6101.5210870000001
 32
0.0
 13
-3094.4250229999998
 23
6101.5210870000001
 33
0.0
  0
TEXT
  5
3E5
  8
LAYER01
  6
CONTINUOUS
 62
     7
 10
-3113.5915230000001
 20
6092.2353730000004
 30
0.0
 40
30.0
  1
80
 50
90.0
  7
SIMPLEX
  0
POINT
  5
3E6
  8
LAYER01
 62
     7
 10
-3045.9887779999999
 20
6156.5210870000001
 30
0.0
  0
POINT
  5
3E7
  8
LAYER01
 62
     7
 10
-3045.9887779999999
 20
6076.5210870000001
 30
0.0
  0
POINT
  5
3E8
  8
LAYER01
 62
     7
 10
-3098.5915230000001
 20
6076.5210870000001
 30
0.0
  0
ENDBLK
  5
3E9
  8
0
  0
BLOCK
  8
0
  2
*D30
 70
     1
 10
0.0
 20
0.0
 30
0.0
  3
*D30
  1

  0
LINE
  5
3EC
  8
LAYER01
 62
     7
 10
-3099.4298920000001
 20
3373.1531869999999
 30
0.0
 11
-3099.4298920000001
 21
3313.1531869999999
 31
0.0
  0
LINE
  5
3ED
  8
LAYER01
 62
     7
 10
-2994.9945010000001
 20
3373.1531869999999
 30
0.0
 11
-3114.4298920000001
 21
3373.1531869999999
 31
0.0
  0
LINE
  5
3EE
  8
LAYER01
 62
     7
 10
-2994.9945010000001
 20
3313.1531869999999
 30
0.0
 11
-3114.4298920000001
 21
3313.1531869999999
 31
0.0
  0
SOLID
  5
3EF
  8
LAYER01
 62
     7
 10
-3103.5963919999999
 20
3348.1531869999999
 30
0.0
 11
-3099.4298920000001
 21
3373.1531869999999
 31
0.0
 12
-3095.2633920000012
 22
3348.1531869999999
 32
0.0
 13
-3095.2633920000012
 23
3348.1531869999999
 33
0.0
  0
SOLID
  5
3F0
  8
LAYER01
 62
     7
 10
-3103.5963919999999
 20
3338.1531869999999
 30
0.0
 11
-3099.4298920000001
 21
3313.1531869999999
 31
0.0
 12
-3095.2633920000012
 22
3338.1531869999999
 32
0.0
 13
-3095.2633920000012
 23
3338.1531869999999
 33
0.0
  0
TEXT
  5
3F1
  8
LAYER01
  6
CONTINUOUS
 62
     7
 10
-3114.4298920000001
 20
3318.8674729999998
 30
0.0
 40
30.0
  1
60
 50
90.0
  7
SIMPLEX
  0
POINT
  5
3F2
  8
LAYER01
 62
     7
 10
-2982.9945010000001
 20
3373.1531869999999
 30
0.0
  0
POINT
  5
3F3
  8
LAYER01
 62
     7
 10
-2982.9945010000001
 20
3313.1531869999999
 30
0.0
  0
POINT
  5
3F4
  8
LAYER01
 62
     7
 10
-3099.4298920000001
 20
3313.1531869999999
 30
0.0
  0
ENDBLK
  5
3F5
  8
0
  0
BLOCK
  8
0
  2
*D31
 70
     1
 10
0.0
 20
0.0
 30
0.0
  3
*D31
  1

  0
LINE
  5
3F8
  8
LAYER01
 62
     7
 10
-3200.5800859999999
 20
3453.1531869999999
 30
0.0
 11
-3200.5800859999999
 21
3203.1531869999999
 31
0.0
  0
LINE
  5
3F9
  8
LAYER01
 62
     7
 10
-2994.9945010000001
 20
3453.1531869999999
 30
0.0
 11
-3215.5800859999999
 21
3453.1531869999999
 31
0.0
  0
LINE
  5
3FA
  8
LAYER01
 62
     7
 10
-2994.9945010000001
 20
3203.1531869999999
 30
0.0
 11
-3215.5800859999999
 21
3203.1531869999999
 31
0.0
  0
SOLID
  5
3FB
  8
LAYER01
 62
     7
 10
-3207.2464860000009
 20
3413.1531869999999
 30
0.0
 11
-3200.5800859999999
 21
3453.1531869999999
 31
0.0
 12
-3193.9136859999999
 22
3413.1531869999999
 32
0.0
 13
-3193.9136859999999
 23
3413.1531869999999
 33
0.0
  0
SOLID
  5
3FC
  8
LAYER01
 62
     7
 10
-3207.2464860000009
 20
3243.1531869999999
 30
0.0
 11
-3200.5800859999999
 21
3203.1531869999999
 31
0.0
 12
-3193.9136859999999
 22
3243.1531869999999
 32
0.0
 13
-3193.9136859999999
 23
3243.1531869999999
 33
0.0
  0
TEXT
  5
3FD
  8
LAYER01
  6
CONTINUOUS
 62
     7
 10
-3215.5800859999999
 20
3289.5817590000001
 30
0.0
 40
30.0
  1
250
 50
90.0
  7
SIMPLEX
  0
POINT
  5
3FE
  8
LAYER01
 62
     7
 10
-2982.9945010000001
 20
3453.1531869999999
 30
0.0
  0
POINT
  5
3FF
  8
LAYER01
 62
     7
 10
-2982.9945010000001
 20
3203.1531869999999
 30
0.0
  0
POINT
  5
400
  8
LAYER01
 62
     7
 10
-3200.5800859999999
 20
3203.1531869999999
 30
0.0
  0
ENDBLK
  5
401
  8
0
  0
BLOCK
  8
0
  2
*D32
 70
     1
 10
0.0
 20
0.0
 30
0.0
  3
*D32
  1

  0
LINE
  5
404
  8
LAYER01
 62
     7
 10
-3279.1433430000011
 20
3453.1531869999999
 30
0.0
 11
-3279.1433430000011
 21
2903.1531869999999
 31
0.0
  0
LINE
  5
405
  8
LAYER01
 62
     7
 10
-2994.9945010000001
 20
3453.1531869999999
 30
0.0
 11
-3294.1433430000002
 21
3453.1531869999999
 31
0.0
  0
LINE
  5
406
  8
LAYER01
 62
     7
 10
-2994.9945010000001
 20
2903.1531869999999
 30
0.0
 11
-3294.1433430000002
 21
2903.1531869999999
 31
0.0
  0
SOLID
  5
407
  8
LAYER01
 62
     7
 10
-3285.8097429999998
 20
3413.1531869999999
 30
0.0
 11
-3279.1433430000011
 21
3453.1531869999999
 31
0.0
 12
-3272.4769430000001
 22
3413.1531869999999
 32
0.0
 13
-3272.4769430000001
 23
3413.1531869999999
 33
0.0
  0
SOLID
  5
408
  8
LAYER01
 62
     7
 10
-3285.8097429999998
 20
2943.1531869999999
 30
0.0
 11
-3279.1433430000011
 21
2903.1531869999999
 31
0.0
 12
-3272.4769430000001
 22
2943.1531869999999
 32
0.0
 13
-3272.4769430000001
 23
2943.1531869999999
 33
0.0
  0
TEXT
  5
409
  8
LAYER01
  6
CONTINUOUS
 62
     7
 10
-3294.1433430000002
 20
3139.5817590000001
 30
0.0
 40
30.0
  1
550
 50
90.0
  7
SIMPLEX
  0
POINT
  5
40A
  8
LAYER01
 62
     7
 10
-2982.9945010000001
 20
3453.1531869999999
 30
0.0
  0
POINT
  5
40B
  8
LAYER01
 62
     7
 10
-2982.9945010000001
 20
2903.1531869999999
 30
0.0
  0
POINT
  5
40C
  8
LAYER01
 62
     7
 10
-3279.1433430000011
 20
2903.1531869999999
 30
0.0
  0
ENDBLK
  5
40D
  8
0
  0
BLOCK
  8
0
  2
*D33
 70
     1
 10
0.0
 20
0.0
 30
0.0
  3
*D33
  1

  0
LINE
  5
410
  8
LAYER01
 62
     7
 10
-3098.5915230000001
 20
3453.1531869999999
 30
0.0
 11
-3098.5915230000001
 21
3373.1531869999999
 31
0.0
  0
LINE
  5
411
  8
LAYER01
 62
     7
 10
-3057.9887779999999
 20
3453.1531869999999
 30
0.0
 11
-3113.5915230000001
 21
3453.1531869999999
 31
0.0
  0
LINE
  5
412
  8
LAYER01
 62
     7
 10
-3057.9887779999999
 20
3373.1531869999999
 30
0.0
 11
-3113.5915230000001
 21
3373.1531869999999
 31
0.0
  0
SOLID
  5
413
  8
LAYER01
 62
     7
 10
-3102.7580229999999
 20
3428.1531869999999
 30
0.0
 11
-3098.5915230000001
 21
3453.1531869999999
 31
0.0
 12
-3094.4250229999998
 22
3428.1531869999999
 32
0.0
 13
-3094.4250229999998
 23
3428.1531869999999
 33
0.0
  0
SOLID
  5
414
  8
LAYER01
 62
     7
 10
-3102.7580229999999
 20
3398.1531869999999
 30
0.0
 11
-3098.5915230000001
 21
3373.1531869999999
 31
0.0
 12
-3094.4250229999998
 22
3398.1531869999999
 32
0.0
 13
-3094.4250229999998
 23
3398.1531869999999
 33
0.0
  0
TEXT
  5
415
  8
LAYER01
  6
CONTINUOUS
 62
     7
 10
-3113.5915230000001
 20
3388.8674729999998
 30
0.0
 40
30.0
  1
80
 50
90.0
  7
SIMPLEX
  0
POINT
  5
416
  8
LAYER01
 62
     7
 10
-3045.9887779999999
 20
3453.1531869999999
 30
0.0
  0
POINT
  5
417
  8
LAYER01
 62
     7
 10
-3045.9887779999999
 20
3373.1531869999999
 30
0.0
  0
POINT
  5
418
  8
LAYER01
 62
     7
 10
-3098.5915230000001
 20
3373.1531869999999
 30
0.0
  0
ENDBLK
  5
419
  8
0
  0
BLOCK
  8
0
  2
*D34
 70
     1
 10
0.0
 20
0.0
 30
0.0
  3
*D34
  1

  0
LINE
  5
41C
  8
LAYER01
 62
     7
 10
-3099.4298920000001
 20
2232.4119690000011
 30
0.0
 11
-3099.4298920000001
 21
2172.4119690000002
 31
0.0
  0
LINE
  5
41D
  8
LAYER01
 62
     7
 10
-2994.9945010000001
 20
2232.4119690000011
 30
0.0
 11
-3114.4298920000001
 21
2232.4119690000011
 31
0.0
  0
LINE
  5
41E
  8
LAYER01
 62
     7
 10
-2994.9945010000001
 20
2172.4119690000002
 30
0.0
 11
-3114.4298920000001
 21
2172.4119690000002
 31
0.0
  0
SOLID
  5
41F
  8
LAYER01
 62
     7
 10
-3103.5963919999999
 20
2207.4119690000002
 30
0.0
 11
-3099.4298920000001
 21
2232.4119690000011
 31
0.0
 12
-3095.2633920000012
 22
2207.4119690000002
 32
0.0
 13
-3095.2633920000012
 23
2207.4119690000002
 33
0.0
  0
SOLID
  5
420
  8
LAYER01
 62
     7
 10
-3103.5963919999999
 20
2197.4119690000002
 30
0.0
 11
-3099.4298920000001
 21
2172.4119690000002
 31
0.0
 12
-3095.2633920000012
 22
2197.4119690000002
 32
0.0
 13
-3095.2633920000012
 23
2197.4119690000002
 33
0.0
  0
TEXT
  5
421
  8
LAYER01
  6
CONTINUOUS
 62
     7
 10
-3114.4298920000001
 20
2178.1262550000001
 30
0.0
 40
30.0
  1
60
 50
90.0
  7
SIMPLEX
  0
POINT
  5
422
  8
LAYER01
 62
     7
 10
-2982.9945010000001
 20
2232.4119690000011
 30
0.0
  0
POINT
  5
423
  8
LAYER01
 62
     7
 10
-2982.9945010000001
 20
2172.4119690000002
 30
0.0
  0
POINT
  5
424
  8
LAYER01
 62
     7
 10
-3099.4298920000001
 20
2172.4119690000002
 30
0.0
  0
ENDBLK
  5
425
  8
0
  0
BLOCK
  8
0
  2
*D35
 70
     1
 10
0.0
 20
0.0
 30
0.0
  3
*D35
  1

  0
LINE
  5
428
  8
LAYER01
 62
     7
 10
-3200.5800859999999
 20
2312.4119690000011
 30
0.0
 11
-3200.5800859999999
 21
2062.4119690000011
 31
0.0
  0
LINE
  5
429
  8
LAYER01
 62
     7
 10
-2994.9945010000001
 20
2312.4119690000011
 30
0.0
 11
-3215.5800859999999
 21
2312.4119690000011
 31
0.0
  0
LINE
  5
42A
  8
LAYER01
 62
     7
 10
-2994.9945010000001
 20
2062.4119690000011
 30
0.0
 11
-3215.5800859999999
 21
2062.4119690000011
 31
0.0
  0
SOLID
  5
42B
  8
LAYER01
 62
     7
 10
-3207.2464860000009
 20
2272.4119690000002
 30
0.0
 11
-3200.5800859999999
 21
2312.4119690000011
 31
0.0
 12
-3193.9136859999999
 22
2272.4119690000002
 32
0.0
 13
-3193.9136859999999
 23
2272.4119690000002
 33
0.0
  0
SOLID
  5
42C
  8
LAYER01
 62
     7
 10
-3207.2464860000009
 20
2102.4119690000002
 30
0.0
 11
-3200.5800859999999
 21
2062.4119690000011
 31
0.0
 12
-3193.9136859999999
 22
2102.4119690000002
 32
0.0
 13
-3193.9136859999999
 23
2102.4119690000002
 33
0.0
  0
TEXT
  5
42D
  8
LAYER01
  6
CONTINUOUS
 62
     7
 10
-3215.5800859999999
 20
2148.840541
 30
0.0
 40
30.0
  1
250
 50
90.0
  7
SIMPLEX
  0
POINT
  5
42E
  8
LAYER01
 62
     7
 10
-2982.9945010000001
 20
2312.4119690000011
 30
0.0
  0
POINT
  5
42F
  8
LAYER01
 62
     7
 10
-2982.9945010000001
 20
2062.4119690000011
 30
0.0
  0
POINT
  5
430
  8
LAYER01
 62
     7
 10
-3200.5800859999999
 20
2062.4119690000011
 30
0.0
  0
ENDBLK
  5
431
  8
0
  0
BLOCK
  8
0
  2
*D36
 70
     1
 10
0.0
 20
0.0
 30
0.0
  3
*D36
  1

  0
LINE
  5
434
  8
LAYER01
 62
     7
 10
-3279.1433430000011
 20
2312.4119690000011
 30
0.0
 11
-3279.1433430000011
 21
1762.411969
 31
0.0
  0
LINE
  5
435
  8
LAYER01
 62
     7
 10
-2994.9945010000001
 20
2312.4119690000011
 30
0.0
 11
-3294.1433430000002
 21
2312.4119690000011
 31
0.0
  0
LINE
  5
436
  8
LAYER01
 62
     7
 10
-2994.9945010000001
 20
1762.411969
 30
0.0
 11
-3294.1433430000002
 21
1762.411969
 31
0.0
  0
SOLID
  5
437
  8
LAYER01
 62
     7
 10
-3285.8097429999998
 20
2272.4119690000002
 30
0.0
 11
-3279.1433430000011
 21
2312.4119690000011
 31
0.0
 12
-3272.4769430000001
 22
2272.4119690000002
 32
0.0
 13
-3272.4769430000001
 23
2272.4119690000002
 33
0.0
  0
SOLID
  5
438
  8
LAYER01
 62
     7
 10
-3285.8097429999998
 20
1802.411969
 30
0.0
 11
-3279.1433430000011
 21
1762.411969
 31
0.0
 12
-3272.4769430000001
 22
1802.411969
 32
0.0
 13
-3272.4769430000001
 23
1802.411969
 33
0.0
  0
TEXT
  5
439
  8
LAYER01
  6
CONTINUOUS
 62
     7
 10
-3294.1433430000002
 20
1998.840541
 30
0.0
 40
30.0
  1
550
 50
90.0
  7
SIMPLEX
  0
POINT
  5
43A
  8
LAYER01
 62
     7
 10
-2982.9945010000001
 20
2312.4119690000011
 30
0.0
  0
POINT
  5
43B
  8
LAYER01
 62
     7
 10
-2982.9945010000001
 20
1762.411969
 30
0.0
  0
POINT
  5
43C
  8
LAYER01
 62
     7
 10
-3279.1433430000011
 20
1762.411969
 30
0.0
  0
ENDBLK
  5
43D
  8
0
  0
BLOCK
  8
0
  2
*D37
 70
     1
 10
0.0
 20
0.0
 30
0.0
  3
*D37
  1

  0
LINE
  5
440
  8
LAYER01
 62
     7
 10
-3098.5915230000001
 20
2312.4119690000011
 30
0.0
 11
-3098.5915230000001
 21
2232.4119690000011
 31
0.0
  0
LINE
  5
441
  8
LAYER01
 62
     7
 10
-3057.9887779999999
 20
2312.4119690000011
 30
0.0
 11
-3113.5915230000001
 21
2312.4119690000011
 31
0.0
  0
LINE
  5
442
  8
LAYER01
 62
     7
 10
-3057.9887779999999
 20
2232.4119690000011
 30
0.0
 11
-3113.5915230000001
 21
2232.4119690000011
 31
0.0
  0
SOLID
  5
443
  8
LAYER01
 62
     7
 10
-3102.7580229999999
 20
2287.4119690000002
 30
0.0
 11
-3098.5915230000001
 21
2312.4119690000011
 31
0.0
 12
-3094.4250229999998
 22
2287.4119690000002
 32
0.0
 13
-3094.4250229999998
 23
2287.4119690000002
 33
0.0
  0
SOLID
  5
444
  8
LAYER01
 62
     7
 10
-3102.7580229999999
 20
2257.4119690000002
 30
0.0
 11
-3098.5915230000001
 21
2232.4119690000011
 31
0.0
 12
-3094.4250229999998
 22
2257.4119690000002
 32
0.0
 13
-3094.4250229999998
 23
2257.4119690000002
 33
0.0
  0
TEXT
  5
445
  8
LAYER01
  6
CONTINUOUS
 62
     7
 10
-3113.5915230000001
 20
2248.1262550000001
 30
0.0
 40
30.0
  1
80
 50
90.0
  7
SIMPLEX
  0
POINT
  5
446
  8
LAYER01
 62
     7
 10
-3045.9887779999999
 20
2312.4119690000011
 30
0.0
  0
POINT
  5
447
  8
LAYER01
 62
     7
 10
-3045.9887779999999
 20
2232.4119690000011
 30
0.0
  0
POINT
  5
448
  8
LAYER01
 62
     7
 10
-3098.5915230000001
 20
2232.4119690000011
 30
0.0
  0
ENDBLK
  5
449
  8
0
  0
BLOCK
  8
0
  2
*D38
 70
     1
 10
0.0
 20
0.0
 30
0.0
  3
*D38
  1

  0
LINE
  5
44C
  8
LAYER01
 62
     7
 10
-2082.9945010000001
 20
5440.0651889999999
 30
0.0
 11
-1382.9945009999999
 21
5440.0651889999999
 31
0.0
  0
LINE
  5
44D
  8
LAYER01
 62
     7
 10
-2082.9945010000001
 20
5594.5210870000001
 30
0.0
 11
-2082.9945010000001
 21
5425.0651889999999
 31
0.0
  0
LINE
  5
44E
  8
LAYER01
 62
     7
 10
-1382.9945009999999
 20
5594.5210870000001
 30
0.0
 11
-1382.9945009999999
 21
5425.0651889999999
 31
0.0
  0
SOLID
  5
44F
  8
LAYER01
 62
     7
 10
-2042.9945009999999
 20
5433.3987889999999
 30
0.0
 11
-2082.9945010000001
 21
5440.0651889999999
 31
0.0
 12
-2042.9945009999999
 22
5446.731589
 32
0.0
 13
-2042.9945009999999
 23
5446.731589
 33
0.0
  0
SOLID
  5
450
  8
LAYER01
 62
     7
 10
-1422.9945009999999
 20
5433.3987889999999
 30
0.0
 11
-1382.9945009999999
 21
5440.0651889999999
 31
0.0
 12
-1422.9945009999999
 22
5446.731589
 32
0.0
 13
-1422.9945009999999
 23
5446.731589
 33
0.0
  0
TEXT
  5
451
  8
LAYER01
  6
CONTINUOUS
 62
     7
 10
-1771.5659290000001
 20
5455.065188999999
 30
0.0
 40
30.0
  1
700
  7
SIMPLEX
  0
POINT
  5
452
  8
LAYER01
 62
     7
 10
-2082.9945010000001
 20
5606.5210870000001
 30
0.0
  0
POINT
  5
453
  8
LAYER01
 62
     7
 10
-1382.9945009999999
 20
5606.5210870000001
 30
0.0
  0
POINT
  5
454
  8
LAYER01
 62
     7
 10
-1382.9945009999999
 20
5440.0651889999999
 30
0.0
  0
ENDBLK
  5
455
  8
0
  0
BLOCK
  8
0
  2
*D39
 70
     1
 10
0.0
 20
0.0
 30
0.0
  3
*D39
  1

  0
LINE
  5
458
  8
LAYER01
 62
     7
 10
-1910.4945009999999
 20
5514.5452150000001
 30
0.0
 11
-1555.4945009999999
 21
5514.5452150000001
 31
0.0
  0
LINE
  5
459
  8
LAYER01
 62
     7
 10
-1910.4945009999999
 20
5594.5210870000001
 30
0.0
 11
-1910.4945009999999
 21
5499.545215000001
 31
0.0
  0
LINE
  5
45A
  8
LAYER01
 62
     7
 10
-1555.4945009999999
 20
5594.5210870000001
 30
0.0
 11
-1555.4945009999999
 21
5499.545215000001
 31
0.0
  0
SOLID
  5
45B
  8
LAYER01
 62
     7
 10
-1870.4945009999999
 20
5507.878815
 30
0.0
 11
-1910.4945009999999
 21
5514.5452150000001
 31
0.0
 12
-1870.4945009999999
 22
5521.2116150000002
 32
0.0
 13
-1870.4945009999999
 23
5521.2116150000002
 33
0.0
  0
SOLID
  5
45C
  8
LAYER01
 62
     7
 10
-1595.4945009999999
 20
5507.878815
 30
0.0
 11
-1555.4945009999999
 21
5514.5452150000001
 31
0.0
 12
-1595.4945009999999
 22
5521.2116150000002
 32
0.0
 13
-1595.4945009999999
 23
5521.2116150000002
 33
0.0
  0
TEXT
  5
45D
  8
LAYER01
  6
CONTINUOUS
 62
     7
 10
-1771.5659290000001
 20
5529.5452150000001
 30
0.0
 40
30.0
  1
355
  7
SIMPLEX
  0
POINT
  5
45E
  8
LAYER01
 62
     7
 10
-1910.4945009999999
 20
5606.5210870000001
 30
0.0
  0
POINT
  5
45F
  8
LAYER01
 62
     7
 10
-1555.4945009999999
 20
5606.5210870000001
 30
0.0
  0
POINT
  5
460
  8
LAYER01
 62
     7
 10
-1555.4945009999999
 20
5514.5452150000001
 30
0.0
  0
ENDBLK
  5
461
  8
0
  0
BLOCK
  8
0
  2
*D40
 70
     1
 10
0.0
 20
0.0
 30
0.0
  3
*D40
  1

  0
LINE
  5
464
  8
LAYER01
 62
     7
 10
-482.9945009999999
 20
6389.4691700000003
 30
0.0
 11
-2982.9945010000001
 21
6389.4691700000003
 31
0.0
  0
LINE
  5
465
  8
LAYER01
 62
     7
 10
-482.9945009999999
 20
6168.5210870000001
 30
0.0
 11
-482.9945009999999
 21
6404.4691700000003
 31
0.0
  0
LINE
  5
466
  8
LAYER01
 62
     7
 10
-2982.9945010000001
 20
6168.5210870000001
 30
0.0
 11
-2982.9945010000001
 21
6404.4691700000003
 31
0.0
  0
SOLID
  5
467
  8
LAYER01
 62
     7
 10
-522.99450100000001
 20
6396.1355700000013
 30
0.0
 11
-482.9945009999999
 21
6389.4691700000003
 31
0.0
 12
-522.99450100000001
 22
6382.8027700000011
 32
0.0
 13
-522.99450100000001
 23
6382.8027700000011
 33
0.0
  0
SOLID
  5
468
  8
LAYER01
 62
     7
 10
-2942.9945010000001
 20
6396.1355700000013
 30
0.0
 11
-2982.9945010000001
 21
6389.4691700000003
 31
0.0
 12
-2942.9945010000001
 22
6382.8027700000011
 32
0.0
 13
-2942.9945010000001
 23
6382.8027700000011
 33
0.0
  0
TEXT
  5
469
  8
LAYER01
  6
CONTINUOUS
 62
     7
 10
-1785.8516440000001
 20
6404.4691700000003
 30
0.0
 40
30.0
  1
700-250
  7
SIMPLEX
  0
POINT
  5
46A
  8
LAYER01
 62
     7
 10
-482.9945009999999
 20
6156.5210870000001
 30
0.0
  0
POINT
  5
46B
  8
LAYER01
 62
     7
 10
-2982.9945010000001
 20
6156.5210870000001
 30
0.0
  0
POINT
  5
46C
  8
LAYER01
 62
     7
 10
-2982.9945010000001
 20
6389.4691700000003
 30
0.0
  0
ENDBLK
  5
46D
  8
0
  0
BLOCK
  8
0
  2
*D41
 70
     1
 10
0.0
 20
0.0
 30
0.0
  3
*D41
  1

  0
LINE
  5
470
  8
LAYER01
 62
     7
 10
-2982.9945010000001
 20
6253.6061099999988
 30
0.0
 11
-1732.9945009999999
 21
6253.6061099999988
 31
0.0
  0
LINE
  5
471
  8
LAYER01
 62
     7
 10
-2982.9945010000001
 20
6168.5210870000001
 30
0.0
 11
-2982.9945010000001
 21
6268.6061099999997
 31
0.0
  0
LINE
  5
472
  8
LAYER01
 62
     7
 10
-1732.9945009999999
 20
6168.5210870000001
 30
0.0
 11
-1732.9945009999999
 21
6268.6061099999997
 31
0.0
  0
SOLID
  5
473
  8
LAYER01
 62
     7
 10
-2942.9945010000001
 20
6246.9397100000006
 30
0.0
 11
-2982.9945010000001
 21
6253.6061099999988
 31
0.0
 12
-2942.9945010000001
 22
6260.2725099999998
 32
0.0
 13
-2942.9945010000001
 23
6260.2725099999998
 33
0.0
  0
SOLID
  5
474
  8
LAYER01
 62
     7
 10
-1772.9945009999999
 20
6246.9397100000006
 30
0.0
 11
-1732.9945009999999
 21
6253.6061099999988
 31
0.0
 12
-1772.9945009999999
 22
6260.2725099999998
 32
0.0
 13
-1772.9945009999999
 23
6260.2725099999998
 33
0.0
  0
TEXT
  5
475
  8
LAYER01
  6
CONTINUOUS
 62
     7
 10
-2407.994501000001
 20
6268.6061099999997
 30
0.0
 40
30.0
  1
A=350-1250
  7
SIMPLEX
  0
POINT
  5
476
  8
LAYER01
 62
     7
 10
-2982.9945010000001
 20
6156.5210870000001
 30
0.0
  0
POINT
  5
477
  8
LAYER01
 62
     7
 10
-1732.9945009999999
 20
6156.5210870000001
 30
0.0
  0
POINT
  5
478
  8
LAYER01
 62
     7
 10
-1732.9945009999999
 20
6253.6061099999988
 30
0.0
  0
ENDBLK
  5
479
  8
0
  0
BLOCK
  8
0
  2
*D42
 70
     1
 10
0.0
 20
0.0
 30
0.0
  3
*D42
  1

  0
LINE
  5
47C
  8
LAYER01
 62
     7
 10
-1732.9945009999999
 20
6253.6061099999988
 30
0.0
 11
-482.9945009999999
 21
6253.6061099999988
 31
0.0
  0
LINE
  5
47D
  8
LAYER01
 62
     7
 10
-1732.9945009999999
 20
6168.5210870000001
 30
0.0
 11
-1732.9945009999999
 21
6268.6061099999997
 31
0.0
  0
LINE
  5
47E
  8
LAYER01
 62
     7
 10
-482.9945009999999
 20
6168.5210870000001
 30
0.0
 11
-482.9945009999999
 21
6268.6061099999997
 31
0.0
  0
SOLID
  5
47F
  8
LAYER01
 62
     7
 10
-1692.9945009999999
 20
6246.9397100000006
 30
0.0
 11
-1732.9945009999999
 21
6253.6061099999988
 31
0.0
 12
-1692.9945009999999
 22
6260.2725099999998
 32
0.0
 13
-1692.9945009999999
 23
6260.2725099999998
 33
0.0
  0
SOLID
  5
480
  8
LAYER01
 62
     7
 10
-522.99450100000001
 20
6246.9397100000006
 30
0.0
 11
-482.9945009999999
 21
6253.6061099999988
 31
0.0
 12
-522.99450100000001
 22
6260.2725099999998
 32
0.0
 13
-522.99450100000001
 23
6260.2725099999998
 33
0.0
  0
TEXT
  5
481
  8
LAYER01
  6
CONTINUOUS
 62
     7
 10
-1157.9945009999999
 20
6268.6061099999997
 30
0.0
 40
30.0
  1
B=350-1250
  7
SIMPLEX
  0
POINT
  5
482
  8
LAYER01
 62
     7
 10
-1732.9945009999999
 20
6156.5210870000001
 30
0.0
  0
POINT
  5
483
  8
LAYER01
 62
     7
 10
-482.9945009999999
 20
6156.5210870000001
 30
0.0
  0
POINT
  5
484
  8
LAYER01
 62
     7
 10
-482.9945009999999
 20
6253.6061099999988
 30
0.0
  0
ENDBLK
  5
485
  8
0
  0
BLOCK
  8
0
  2
*D43
 70
     1
 10
0.0
 20
0.0
 30
0.0
  3
*D43
  1

  0
LINE
  5
488
  8
LAYER01
 62
     7
 10
-3099.4298920000001
 20
4769.8122789999989
 30
0.0
 11
-3099.4298920000001
 21
4709.8122789999998
 31
0.0
  0
LINE
  5
489
  8
LAYER01
 62
     7
 10
-2994.9945010000001
 20
4769.8122789999989
 30
0.0
 11
-3114.4298920000001
 21
4769.8122789999989
 31
0.0
  0
LINE
  5
48A
  8
LAYER01
 62
     7
 10
-2994.9945010000001
 20
4709.8122789999998
 30
0.0
 11
-3114.4298920000001
 21
4709.8122789999998
 31
0.0
  0
SOLID
  5
48B
  8
LAYER01
 62
     7
 10
-3103.5963919999999
 20
4744.8122789999998
 30
0.0
 11
-3099.4298920000001
 21
4769.8122789999989
 31
0.0
 12
-3095.2633920000012
 22
4744.8122789999998
 32
0.0
 13
-3095.2633920000012
 23
4744.8122789999998
 33
0.0
  0
SOLID
  5
48C
  8
LAYER01
 62
     7
 10
-3103.5963919999999
 20
4734.8122789999989
 30
0.0
 11
-3099.4298920000001
 21
4709.8122789999998
 31
0.0
 12
-3095.2633920000012
 22
4734.8122789999989
 32
0.0
 13
-3095.2633920000012
 23
4734.8122789999989
 33
0.0
  0
TEXT
  5
48D
  8
LAYER01
  6
CONTINUOUS
 62
     7
 10
-3114.4298920000001
 20
4715.5265650000001
 30
0.0
 40
30.0
  1
60
 50
90.0
  7
SIMPLEX
  0
POINT
  5
48E
  8
LAYER01
 62
     7
 10
-2982.9945010000001
 20
4769.8122789999989
 30
0.0
  0
POINT
  5
48F
  8
LAYER01
 62
     7
 10
-2982.9945010000001
 20
4709.8122789999998
 30
0.0
  0
POINT
  5
490
  8
LAYER01
 62
     7
 10
-3099.4298920000001
 20
4709.8122789999998
 30
0.0
  0
ENDBLK
  5
491
  8
0
  0
BLOCK
  8
0
  2
*D44
 70
     1
 10
0.0
 20
0.0
 30
0.0
  3
*D44
  1

  0
LINE
  5
494
  8
LAYER01
 62
     7
 10
-3200.5800859999999
 20
4849.8122789999998
 30
0.0
 11
-3200.5800859999999
 21
4599.8122789999998
 31
0.0
  0
LINE
  5
495
  8
LAYER01
 62
     7
 10
-2994.9945010000001
 20
4849.8122789999998
 30
0.0
 11
-3215.5800859999999
 21
4849.8122789999998
 31
0.0
  0
LINE
  5
496
  8
LAYER01
 62
     7
 10
-2994.9945010000001
 20
4599.8122789999998
 30
0.0
 11
-3215.5800859999999
 21
4599.8122789999998
 31
0.0
  0
SOLID
  5
497
  8
LAYER01
 62
     7
 10
-3207.2464860000009
 20
4809.8122789999989
 30
0.0
 11
-3200.5800859999999
 21
4849.8122789999998
 31
0.0
 12
-3193.9136859999999
 22
4809.8122789999989
 32
0.0
 13
-3193.9136859999999
 23
4809.8122789999989
 33
0.0
  0
SOLID
  5
498
  8
LAYER01
 62
     7
 10
-3207.2464860000009
 20
4639.8122789999998
 30
0.0
 11
-3200.5800859999999
 21
4599.8122789999998
 31
0.0
 12
-3193.9136859999999
 22
4639.8122789999998
 32
0.0
 13
-3193.9136859999999
 23
4639.8122789999998
 33
0.0
  0
TEXT
  5
499
  8
LAYER01
  6
CONTINUOUS
 62
     7
 10
-3215.5800859999999
 20
4686.2408499999992
 30
0.0
 40
30.0
  1
250
 50
90.0
  7
SIMPLEX
  0
POINT
  5
49A
  8
LAYER01
 62
     7
 10
-2982.9945010000001
 20
4849.8122789999998
 30
0.0
  0
POINT
  5
49B
  8
LAYER01
 62
     7
 10
-2982.9945010000001
 20
4599.8122789999998
 30
0.0
  0
POINT
  5
49C
  8
LAYER01
 62
     7
 10
-3200.5800859999999
 20
4599.8122789999998
 30
0.0
  0
ENDBLK
  5
49D
  8
0
  0
BLOCK
  8
0
  2
*D45
 70
     1
 10
0.0
 20
0.0
 30
0.0
  3
*D45
  1

  0
LINE
  5
4A0
  8
LAYER01
 62
     7
 10
-3279.1433430000011
 20
4849.8122789999998
 30
0.0
 11
-3279.1433430000011
 21
4299.8122789999998
 31
0.0
  0
LINE
  5
4A1
  8
LAYER01
 62
     7
 10
-2994.9945010000001
 20
4849.8122789999998
 30
0.0
 11
-3294.1433430000002
 21
4849.8122789999998
 31
0.0
  0
LINE
  5
4A2
  8
LAYER01
 62
     7
 10
-2994.9945010000001
 20
4299.8122789999998
 30
0.0
 11
-3294.1433430000002
 21
4299.8122789999998
 31
0.0
  0
SOLID
  5
4A3
  8
LAYER01
 62
     7
 10
-3285.8097429999998
 20
4809.8122789999989
 30
0.0
 11
-3279.1433430000011
 21
4849.8122789999998
 31
0.0
 12
-3272.4769430000001
 22
4809.8122789999989
 32
0.0
 13
-3272.4769430000001
 23
4809.8122789999989
 33
0.0
  0
SOLID
  5
4A4
  8
LAYER01
 62
     7
 10
-3285.8097429999998
 20
4339.8122789999989
 30
0.0
 11
-3279.1433430000011
 21
4299.8122789999998
 31
0.0
 12
-3272.4769430000001
 22
4339.8122789999989
 32
0.0
 13
-3272.4769430000001
 23
4339.8122789999989
 33
0.0
  0
TEXT
  5
4A5
  8
LAYER01
  6
CONTINUOUS
 62
     7
 10
-3294.1433430000002
 20
4536.2408500000001
 30
0.0
 40
30.0
  1
550
 50
90.0
  7
SIMPLEX
  0
POINT
  5
4A6
  8
LAYER01
 62
     7
 10
-2982.9945010000001
 20
4849.8122789999998
 30
0.0
  0
POINT
  5
4A7
  8
LAYER01
 62
     7
 10
-2982.9945010000001
 20
4299.8122789999998
 30
0.0
  0
POINT
  5
4A8
  8
LAYER01
 62
     7
 10
-3279.1433430000011
 20
4299.8122789999998
 30
0.0
  0
ENDBLK
  5
4A9
  8
0
  0
BLOCK
  8
0
  2
*D46
 70
     1
 10
0.0
 20
0.0
 30
0.0
  3
*D46
  1

  0
LINE
  5
4AC
  8
LAYER01
 62
     7
 10
-3098.5915230000001
 20
4849.8122789999998
 30
0.0
 11
-3098.5915230000001
 21
4769.8122789999989
 31
0.0
  0
LINE
  5
4AD
  8
LAYER01
 62
     7
 10
-3057.9887779999999
 20
4849.8122789999998
 30
0.0
 11
-3113.5915230000001
 21
4849.8122789999998
 31
0.0
  0
LINE
  5
4AE
  8
LAYER01
 62
     7
 10
-3057.9887779999999
 20
4769.8122789999989
 30
0.0
 11
-3113.5915230000001
 21
4769.8122789999989
 31
0.0
  0
SOLID
  5
4AF
  8
LAYER01
 62
     7
 10
-3102.7580229999999
 20
4824.8122789999989
 30
0.0
 11
-3098.5915230000001
 21
4849.8122789999998
 31
0.0
 12
-3094.4250229999998
 22
4824.8122789999989
 32
0.0
 13
-3094.4250229999998
 23
4824.8122789999989
 33
0.0
  0
SOLID
  5
4B0
  8
LAYER01
 62
     7
 10
-3102.7580229999999
 20
4794.8122789999998
 30
0.0
 11
-3098.5915230000001
 21
4769.8122789999989
 31
0.0
 12
-3094.4250229999998
 22
4794.8122789999998
 32
0.0
 13
-3094.4250229999998
 23
4794.8122789999998
 33
0.0
  0
TEXT
  5
4B1
  8
LAYER01
  6
CONTINUOUS
 62
     7
 10
-3113.5915230000001
 20
4785.5265650000001
 30
0.0
 40
30.0
  1
80
 50
90.0
  7
SIMPLEX
  0
POINT
  5
4B2
  8
LAYER01
 62
     7
 10
-3045.9887779999999
 20
4849.8122789999998
 30
0.0
  0
POINT
  5
4B3
  8
LAYER01
 62
     7
 10
-3045.9887779999999
 20
4769.8122789999989
 30
0.0
  0
POINT
  5
4B4
  8
LAYER01
 62
     7
 10
-3098.5915230000001
 20
4769.8122789999989
 30
0.0
  0
ENDBLK
  5
4B5
  8
0
  0
BLOCK
  8
0
  2
*D47
 70
     1
 10
0.0
 20
0.0
 30
0.0
  3
*D47
  1

  0
LINE
  5
4B8
  8
LAYER01
 62
     7
 10
-482.9945009999999
 20
5052.923945999999
 30
0.0
 11
-2982.9945010000001
 21
5052.923945999999
 31
0.0
  0
LINE
  5
4B9
  8
LAYER01
 62
     7
 10
-482.9945009999999
 20
4831.975864
 30
0.0
 11
-482.9945009999999
 21
5067.9239459999999
 31
0.0
  0
LINE
  5
4BA
  8
LAYER01
 62
     7
 10
-2982.9945010000001
 20
4831.975864
 30
0.0
 11
-2982.9945010000001
 21
5067.9239459999999
 31
0.0
  0
SOLID
  5
4BB
  8
LAYER01
 62
     7
 10
-522.99450100000001
 20
5059.590346
 30
0.0
 11
-482.9945009999999
 21
5052.923945999999
 31
0.0
 12
-522.99450100000001
 22
5046.2575459999989
 32
0.0
 13
-522.99450100000001
 23
5046.2575459999989
 33
0.0
  0
SOLID
  5
4BC
  8
LAYER01
 62
     7
 10
-2942.9945010000001
 20
5059.590346
 30
0.0
 11
-2982.9945010000001
 21
5052.923945999999
 31
0.0
 12
-2942.9945010000001
 22
5046.2575459999989
 32
0.0
 13
-2942.9945010000001
 23
5046.2575459999989
 33
0.0
  0
TEXT
  5
4BD
  8
LAYER01
  6
CONTINUOUS
 62
     7
 10
-1785.8516440000001
 20
5067.9239459999999
 30
0.0
 40
30.0
  1
700-250
  7
SIMPLEX
  0
POINT
  5
4BE
  8
LAYER01
 62
     7
 10
-482.9945009999999
 20
4819.9758639999991
 30
0.0
  0
POINT
  5
4BF
  8
LAYER01
 62
     7
 10
-2982.9945010000001
 20
4819.9758639999991
 30
0.0
  0
POINT
  5
4C0
  8
LAYER01
 62
     7
 10
-2982.9945010000001
 20
5052.923945999999
 30
0.0
  0
ENDBLK
  5
4C1
  8
0
  0
BLOCK
  8
0
  2
*D48
 70
     1
 10
0.0
 20
0.0
 30
0.0
  3
*D48
  1

  0
LINE
  5
4C4
  8
LAYER01
 62
     7
 10
-2982.9945010000001
 20
4917.0608860000002
 30
0.0
 11
-1732.9945009999999
 21
4917.0608860000002
 31
0.0
  0
LINE
  5
4C5
  8
LAYER01
 62
     7
 10
-2982.9945010000001
 20
4831.975864
 30
0.0
 11
-2982.9945010000001
 21
4932.0608860000002
 31
0.0
  0
LINE
  5
4C6
  8
LAYER01
 62
     7
 10
-1732.9945009999999
 20
4831.975864
 30
0.0
 11
-1732.9945009999999
 21
4932.0608860000002
 31
0.0
  0
SOLID
  5
4C7
  8
LAYER01
 62
     7
 10
-2942.9945010000001
 20
4910.3944860000011
 30
0.0
 11
-2982.9945010000001
 21
4917.0608860000002
 31
0.0
 12
-2942.9945010000001
 22
4923.7272860000003
 32
0.0
 13
-2942.9945010000001
 23
4923.7272860000003
 33
0.0
  0
SOLID
  5
4C8
  8
LAYER01
 62
     7
 10
-1772.9945009999999
 20
4910.3944860000011
 30
0.0
 11
-1732.9945009999999
 21
4917.0608860000002
 31
0.0
 12
-1772.9945009999999
 22
4923.7272860000003
 32
0.0
 13
-1772.9945009999999
 23
4923.7272860000003
 33
0.0
  0
TEXT
  5
4C9
  8
LAYER01
  6
CONTINUOUS
 62
     7
 10
-2407.994501000001
 20
4932.0608860000002
 30
0.0
 40
30.0
  1
A=350-1250
  7
SIMPLEX
  0
POINT
  5
4CA
  8
LAYER01
 62
     7
 10
-2982.9945010000001
 20
4819.9758639999991
 30
0.0
  0
POINT
  5
4CB
  8
LAYER01
 62
     7
 10
-1732.9945009999999
 20
4819.9758639999991
 30
0.0
  0
POINT
  5
4CC
  8
LAYER01
 62
     7
 10
-1732.9945009999999
 20
4917.0608860000002
 30
0.0
  0
ENDBLK
  5
4CD
  8
0
  0
BLOCK
  8
0
  2
*D49
 70
     1
 10
0.0
 20
0.0
 30
0.0
  3
*D49
  1

  0
LINE
  5
4D0
  8
LAYER01
 62
     7
 10
-1732.9945009999999
 20
4917.0608860000002
 30
0.0
 11
-482.9945009999999
 21
4917.0608860000002
 31
0.0
  0
LINE
  5
4D1
  8
LAYER01
 62
     7
 10
-1732.9945009999999
 20
4831.975864
 30
0.0
 11
-1732.9945009999999
 21
4932.0608860000002
 31
0.0
  0
LINE
  5
4D2
  8
LAYER01
 62
     7
 10
-482.9945009999999
 20
4831.975864
 30
0.0
 11
-482.9945009999999
 21
4932.0608860000002
 31
0.0
  0
SOLID
  5
4D3
  8
LAYER01
 62
     7
 10
-1692.9945009999999
 20
4910.3944860000011
 30
0.0
 11
-1732.9945009999999
 21
4917.0608860000002
 31
0.0
 12
-1692.9945009999999
 22
4923.7272860000003
 32
0.0
 13
-1692.9945009999999
 23
4923.7272860000003
 33
0.0
  0
SOLID
  5
4D4
  8
LAYER01
 62
     7
 10
-522.99450100000001
 20
4910.3944860000011
 30
0.0
 11
-482.9945009999999
 21
4917.0608860000002
 31
0.0
 12
-522.99450100000001
 22
4923.7272860000003
 32
0.0
 13
-522.99450100000001
 23
4923.7272860000003
 33
0.0
  0
TEXT
  5
4D5
  8
LAYER01
  6
CONTINUOUS
 62
     7
 10
-1157.9945009999999
 20
4932.0608860000002
 30
0.0
 40
30.0
  1
B=350-1250
  7
SIMPLEX
  0
POINT
  5
4D6
  8
LAYER01
 62
     7
 10
-1732.9945009999999
 20
4819.9758639999991
 30
0.0
  0
POINT
  5
4D7
  8
LAYER01
 62
     7
 10
-482.9945009999999
 20
4819.9758639999991
 30
0.0
  0
POINT
  5
4D8
  8
LAYER01
 62
     7
 10
-482.9945009999999
 20
4917.0608860000002
 30
0.0
  0
ENDBLK
  5
4D9
  8
0
  0
BLOCK
  8
0
  2
*D50
 70
     1
 10
0.0
 20
0.0
 30
0.0
  3
*D50
  1

  0
LINE
  5
4DC
  8
LAYER01
 62
     7
 10
-2012.3893050000011
 20
4648.5937969999986
 30
0.0
 11
-1932.3893049999999
 21
4648.5937969999986
 31
0.0
  0
LINE
  5
4DD
  8
LAYER01
 62
     7
 10
-2052.782588
 20
4648.5937969999986
 30
0.0
 11
-2132.782588
 21
4648.5937969999986
 31
0.0
  0
LINE
  5
4DE
  8
LAYER01
 62
     7
 10
-2012.3893050000011
 20
4607.8353340000003
 30
0.0
 11
-2012.3893050000011
 21
4663.5937969999986
 31
0.0
  0
LINE
  5
4DF
  8
LAYER01
 62
     7
 10
-2052.782588
 20
4607.8353340000003
 30
0.0
 11
-2052.782588
 21
4663.5937969999986
 31
0.0
  0
SOLID
  5
4E0
  8
LAYER01
 62
     7
 10
-1972.3893049999999
 20
4655.2601969999987
 30
0.0
 11
-2012.3893050000011
 21
4648.5937969999986
 31
0.0
 12
-1972.3893049999999
 22
4641.9273969999986
 32
0.0
 13
-1972.3893049999999
 23
4641.9273969999986
 33
0.0
  0
SOLID
  5
4E1
  8
LAYER01
 62
     7
 10
-2092.782588
 20
4655.2601969999987
 30
0.0
 11
-2052.782588
 21
4648.5937969999986
 31
0.0
 12
-2092.782588
 22
4641.9273969999986
 32
0.0
 13
-2092.782588
 23
4641.9273969999986
 33
0.0
  0
TEXT
  5
4E2
  8
LAYER01
  6
CONTINUOUS
 62
     7
 10
-1917.3893049999999
 20
4663.5937969999986
 30
0.0
 40
30.0
  1
40
  7
SIMPLEX
  0
POINT
  5
4E3
  8
LAYER01
 62
     7
 10
-2012.3893050000011
 20
4595.8353340000003
 30
0.0
  0
POINT
  5
4E4
  8
LAYER01
 62
     7
 10
-2052.782588
 20
4595.8353340000003
 30
0.0
  0
POINT
  5
4E5
  8
LAYER01
 62
     7
 10
-2052.782588
 20
4648.5937969999986
 30
0.0
  0
ENDBLK
  5
4E6
  8
0
  0
BLOCK
  8
0
  2
*D51
 70
     1
 10
0.0
 20
0.0
 30
0.0
  3
*D51
  1

  0
LINE
  5
4E9
  8
LAYER01
 62
     7
 10
-1384.234645
 20
4648.5937969999986
 30
0.0
 11
-1304.234645
 21
4648.5937969999986
 31
0.0
  0
LINE
  5
4EA
  8
LAYER01
 62
     7
 10
-1415.686702
 20
4648.5937969999986
 30
0.0
 11
-1495.686702
 21
4648.5937969999986
 31
0.0
  0
LINE
  5
4EB
  8
LAYER01
 62
     7
 10
-1384.234645
 20
4611.8122789999998
 30
0.0
 11
-1384.234645
 21
4663.5937969999986
 31
0.0
  0
LINE
  5
4EC
  8
LAYER01
 62
     7
 10
-1415.686702
 20
4611.8122789999998
 30
0.0
 11
-1415.686702
 21
4663.5937969999986
 31
0.0
  0
SOLID
  5
4ED
  8
LAYER01
 62
     7
 10
-1344.234645
 20
4655.2601969999987
 30
0.0
 11
-1384.234645
 21
4648.5937969999986
 31
0.0
 12
-1344.234645
 22
4641.9273969999986
 32
0.0
 13
-1344.234645
 23
4641.9273969999986
 33
0.0
  0
SOLID
  5
4EE
  8
LAYER01
 62
     7
 10
-1455.686702
 20
4655.2601969999987
 30
0.0
 11
-1415.686702
 21
4648.5937969999986
 31
0.0
 12
-1455.686702
 22
4641.9273969999986
 32
0.0
 13
-1455.686702
 23
4641.9273969999986
 33
0.0
  0
TEXT
  5
4EF
  8
LAYER01
  6
CONTINUOUS
 62
     7
 10
-1289.234645
 20
4663.5937969999986
 30
0.0
 40
30.0
  1
30
  7
SIMPLEX
  0
POINT
  5
4F0
  8
LAYER01
 62
     7
 10
-1384.234645
 20
4599.8122789999998
 30
0.0
  0
POINT
  5
4F1
  8
LAYER01
 62
     7
 10
-1415.686702
 20
4599.8122789999998
 30
0.0
  0
POINT
  5
4F2
  8
LAYER01
 62
     7
 10
-1415.686702
 20
4648.5937969999986
 30
0.0
  0
ENDBLK
  5
4F3
  8
0
  0
BLOCK
  8
0
  2
*D52
 70
     1
 10
0.0
 20
0.0
 30
0.0
  3
*D52
  1

  0
LINE
  5
4F6
  8
LAYER01
 62
     7
 10
-2176.5749989999999
 20
4599.8122789999998
 30
0.0
 11
-2176.5749989999999
 21
4399.0361159999993
 31
0.0
  0
LINE
  5
4F7
  8
LAYER01
 62
     7
 10
-2096.234645
 20
4599.8122789999998
 30
0.0
 11
-2191.5749989999999
 21
4599.8122789999998
 31
0.0
  0
LINE
  5
4F8
  8
LAYER01
 62
     7
 10
-2096.234645
 20
4399.0361159999993
 30
0.0
 11
-2191.5749989999999
 21
4399.0361159999993
 31
0.0
  0
SOLID
  5
4F9
  8
LAYER01
 62
     7
 10
-2183.241399
 20
4559.8122789999989
 30
0.0
 11
-2176.5749989999999
 21
4599.8122789999998
 31
0.0
 12
-2169.9085989999999
 22
4559.8122789999989
 32
0.0
 13
-2169.9085989999999
 23
4559.8122789999989
 33
0.0
  0
SOLID
  5
4FA
  8
LAYER01
 62
     7
 10
-2183.241399
 20
4439.0361159999993
 30
0.0
 11
-2176.5749989999999
 21
4399.0361159999993
 31
0.0
 12
-2169.9085989999999
 22
4439.0361159999993
 32
0.0
 13
-2169.9085989999999
 23
4439.0361159999993
 33
0.0
  0
TEXT
  5
4FB
  8
LAYER01
  6
CONTINUOUS
 62
     7
 10
-2191.5749989999999
 20
4467.2813399999986
 30
0.0
 40
30.0
  1
200
 50
90.0
  7
SIMPLEX
  0
POINT
  5
4FC
  8
LAYER01
 62
     7
 10
-2084.234645
 20
4599.8122789999998
 30
0.0
  0
POINT
  5
4FD
  8
LAYER01
 62
     7
 10
-2084.234645
 20
4399.0361159999993
 30
0.0
  0
POINT
  5
4FE
  8
LAYER01
 62
     7
 10
-2176.5749989999999
 20
4399.0361159999993
 30
0.0
  0
ENDBLK
  5
4FF
  8
0
  0
BLOCK
  8
0
  2
*D53
 70
     1
 10
0.0
 20
0.0
 30
0.0
  3
*D53
  1

  0
LINE
  5
502
  8
LAYER01
 62
     7
 10
-2082.9945010000001
 20
4133.3563810000014
 30
0.0
 11
-1382.9945009999999
 21
4133.3563810000014
 31
0.0
  0
LINE
  5
503
  8
LAYER01
 62
     7
 10
-2082.9945010000001
 20
4287.8122789999989
 30
0.0
 11
-2082.9945010000001
 21
4118.3563809999996
 31
0.0
  0
LINE
  5
504
  8
LAYER01
 62
     7
 10
-1382.9945009999999
 20
4287.8122789999989
 30
0.0
 11
-1382.9945009999999
 21
4118.3563809999996
 31
0.0
  0
SOLID
  5
505
  8
LAYER01
 62
     7
 10
-2042.9945009999999
 20
4126.6899810000014
 30
0.0
 11
-2082.9945010000001
 21
4133.3563810000014
 31
0.0
 12
-2042.9945009999999
 22
4140.0227809999997
 32
0.0
 13
-2042.9945009999999
 23
4140.0227809999997
 33
0.0
  0
SOLID
  5
506
  8
LAYER01
 62
     7
 10
-1422.9945009999999
 20
4126.6899810000014
 30
0.0
 11
-1382.9945009999999
 21
4133.3563810000014
 31
0.0
 12
-1422.9945009999999
 22
4140.0227809999997
 32
0.0
 13
-1422.9945009999999
 23
4140.0227809999997
 33
0.0
  0
TEXT
  5
507
  8
LAYER01
  6
CONTINUOUS
 62
     7
 10
-1771.5659290000001
 20
4148.3563810000014
 30
0.0
 40
30.0
  1
700
  7
SIMPLEX
  0
POINT
  5
508
  8
LAYER01
 62
     7
 10
-2082.9945010000001
 20
4299.8122789999998
 30
0.0
  0
POINT
  5
509
  8
LAYER01
 62
     7
 10
-1382.9945009999999
 20
4299.8122789999998
 30
0.0
  0
POINT
  5
50A
  8
LAYER01
 62
     7
 10
-1382.9945009999999
 20
4133.3563810000014
 30
0.0
  0
ENDBLK
  5
50B
  8
0
  0
BLOCK
  8
0
  2
*D54
 70
     1
 10
0.0
 20
0.0
 30
0.0
  3
*D54
  1

  0
LINE
  5
50E
  8
LAYER01
 62
     7
 10
-1910.4945009999999
 20
4207.8364069999998
 30
0.0
 11
-1555.4945009999999
 21
4207.8364069999998
 31
0.0
  0
LINE
  5
50F
  8
LAYER01
 62
     7
 10
-1910.4945009999999
 20
4287.8122789999989
 30
0.0
 11
-1910.4945009999999
 21
4192.8364069999998
 31
0.0
  0
LINE
  5
510
  8
LAYER01
 62
     7
 10
-1555.4945009999999
 20
4287.8122789999989
 30
0.0
 11
-1555.4945009999999
 21
4192.8364069999998
 31
0.0
  0
SOLID
  5
511
  8
LAYER01
 62
     7
 10
-1870.4945009999999
 20
4201.1700069999988
 30
0.0
 11
-1910.4945009999999
 21
4207.8364069999998
 31
0.0
 12
-1870.4945009999999
 22
4214.5028069999998
 32
0.0
 13
-1870.4945009999999
 23
4214.5028069999998
 33
0.0
  0
SOLID
  5
512
  8
LAYER01
 62
     7
 10
-1595.4945009999999
 20
4201.1700069999988
 30
0.0
 11
-1555.4945009999999
 21
4207.8364069999998
 31
0.0
 12
-1595.4945009999999
 22
4214.5028069999998
 32
0.0
 13
-1595.4945009999999
 23
4214.5028069999998
 33
0.0
  0
TEXT
  5
513
  8
LAYER01
  6
CONTINUOUS
 62
     7
 10
-1771.5659290000001
 20
4222.8364069999989
 30
0.0
 40
30.0
  1
355
  7
SIMPLEX
  0
POINT
  5
514
  8
LAYER01
 62
     7
 10
-1910.4945009999999
 20
4299.8122789999998
 30
0.0
  0
POINT
  5
515
  8
LAYER01
 62
     7
 10
-1555.4945009999999
 20
4299.8122789999998
 30
0.0
  0
POINT
  5
516
  8
LAYER01
 62
     7
 10
-1555.4945009999999
 20
4207.8364069999998
 30
0.0
  0
ENDBLK
  5
517
  8
0
  0
BLOCK
  8
0
  2
*D55
 70
     1
 10
0.0
 20
0.0
 30
0.0
  3
*D55
  1

  0
LINE
  5
51A
  8
LAYER01
 62
     7
 10
-2740.372715
 20
2061.2873760000011
 30
0.0
 11
-2740.372715
 21
1860.511213
 31
0.0
  0
LINE
  5
51B
  8
LAYER01
 62
     7
 10
-2660.032361
 20
2061.2873760000011
 30
0.0
 11
-2755.372715
 21
2061.2873760000011
 31
0.0
  0
LINE
  5
51C
  8
LAYER01
 62
     7
 10
-2660.032361
 20
1860.511213
 30
0.0
 11
-2755.372715
 21
1860.511213
 31
0.0
  0
SOLID
  5
51D
  8
LAYER01
 62
     7
 10
-2747.039115
 20
2021.287376
 30
0.0
 11
-2740.372715
 21
2061.2873760000011
 31
0.0
 12
-2733.7063149999999
 22
2021.287376
 32
0.0
 13
-2733.7063149999999
 23
2021.287376
 33
0.0
  0
SOLID
  5
51E
  8
LAYER01
 62
     7
 10
-2747.039115
 20
1900.511213
 30
0.0
 11
-2740.372715
 21
1860.511213
 31
0.0
 12
-2733.7063149999999
 22
1900.511213
 32
0.0
 13
-2733.7063149999999
 23
1900.511213
 33
0.0
  0
TEXT
  5
51F
  8
LAYER01
  6
CONTINUOUS
 62
     7
 10
-2755.372715
 20
1928.756437
 30
0.0
 40
30.0
  1
200
 50
90.0
  7
SIMPLEX
  0
POINT
  5
520
  8
LAYER01
 62
     7
 10
-2648.032361
 20
2061.2873760000011
 30
0.0
  0
POINT
  5
521
  8
LAYER01
 62
     7
 10
-2648.032361
 20
1860.511213
 30
0.0
  0
POINT
  5
522
  8
LAYER01
 62
     7
 10
-2740.372715
 20
1860.511213
 30
0.0
  0
ENDBLK
  5
523
  8
0
  0
BLOCK
  8
0
  2
*D56
 70
     1
 10
0.0
 20
0.0
 30
0.0
  3
*D56
  1

  0
LINE
  5
526
  8
LAYER01
 62
     7
 10
-2474.2922170000002
 20
1669.311504
 30
0.0
 11
-2119.2922170000002
 21
1669.311504
 31
0.0
  0
LINE
  5
527
  8
LAYER01
 62
     7
 10
-2474.2922170000002
 20
1749.287376
 30
0.0
 11
-2474.2922170000002
 21
1654.311504
 31
0.0
  0
LINE
  5
528
  8
LAYER01
 62
     7
 10
-2119.2922170000002
 20
1749.287376
 30
0.0
 11
-2119.2922170000002
 21
1654.311504
 31
0.0
  0
SOLID
  5
529
  8
LAYER01
 62
     7
 10
-2434.2922170000002
 20
1662.6451039999999
 30
0.0
 11
-2474.2922170000002
 21
1669.311504
 31
0.0
 12
-2434.2922170000002
 22
1675.9779039999989
 32
0.0
 13
-2434.2922170000002
 23
1675.9779039999989
 33
0.0
  0
SOLID
  5
52A
  8
LAYER01
 62
     7
 10
-2159.2922170000002
 20
1662.6451039999999
 30
0.0
 11
-2119.2922170000002
 21
1669.311504
 31
0.0
 12
-2159.2922170000002
 22
1675.9779039999989
 32
0.0
 13
-2159.2922170000002
 23
1675.9779039999989
 33
0.0
  0
TEXT
  5
52B
  8
LAYER01
  6
CONTINUOUS
 62
     7
 10
-2335.3636449999999
 20
1684.311504
 30
0.0
 40
30.0
  1
355
  7
SIMPLEX
  0
POINT
  5
52C
  8
LAYER01
 62
     7
 10
-2474.2922170000002
 20
1761.287376
 30
0.0
  0
POINT
  5
52D
  8
LAYER01
 62
     7
 10
-2119.2922170000002
 20
1761.287376
 30
0.0
  0
POINT
  5
52E
  8
LAYER01
 62
     7
 10
-2119.2922170000002
 20
1669.311504
 30
0.0
  0
ENDBLK
  5
52F
  8
0
  0
BLOCK
  8
0
  2
*D57
 70
     1
 10
0.0
 20
0.0
 30
0.0
  3
*D57
  1

  0
LINE
  5
532
  8
LAYER01
 62
     7
 10
-2646.7922170000002
 20
1594.8314780000001
 30
0.0
 11
-1946.7922169999999
 21
1594.8314780000001
 31
0.0
  0
LINE
  5
533
  8
LAYER01
 62
     7
 10
-2646.7922170000002
 20
1749.287376
 30
0.0
 11
-2646.7922170000002
 21
1579.8314780000001
 31
0.0
  0
LINE
  5
534
  8
LAYER01
 62
     7
 10
-1946.7922169999999
 20
1749.287376
 30
0.0
 11
-1946.7922169999999
 21
1579.8314780000001
 31
0.0
  0
SOLID
  5
535
  8
LAYER01
 62
     7
 10
-2606.7922170000011
 20
1588.165078
 30
0.0
 11
-2646.7922170000002
 21
1594.8314780000001
 31
0.0
 12
-2606.7922170000011
 22
1601.4978779999999
 32
0.0
 13
-2606.7922170000011
 23
1601.4978779999999
 33
0.0
  0
SOLID
  5
536
  8
LAYER01
 62
     7
 10
-1986.7922169999999
 20
1588.165078
 30
0.0
 11
-1946.7922169999999
 21
1594.8314780000001
 31
0.0
 12
-1986.7922169999999
 22
1601.4978779999999
 32
0.0
 13
-1986.7922169999999
 23
1601.4978779999999
 33
0.0
  0
TEXT
  5
537
  8
LAYER01
  6
CONTINUOUS
 62
     7
 10
-2335.3636449999999
 20
1609.8314780000001
 30
0.0
 40
30.0
  1
700
  7
SIMPLEX
  0
POINT
  5
538
  8
LAYER01
 62
     7
 10
-2646.7922170000002
 20
1761.287376
 30
0.0
  0
POINT
  5
539
  8
LAYER01
 62
     7
 10
-1946.7922169999999
 20
1761.287376
 30
0.0
  0
POINT
  5
53A
  8
LAYER01
 62
     7
 10
-1946.7922169999999
 20
1594.8314780000001
 30
0.0
  0
ENDBLK
  5
53B
  8
0
  0
BLOCK
  8
0
  2
*D58
 70
     1
 10
0.0
 20
0.0
 30
0.0
  3
*D58
  1

  0
LINE
  5
53E
  8
LAYER01
 62
     7
 10
-1948.032361
 20
2110.068894
 30
0.0
 11
-1868.032361
 21
2110.068894
 31
0.0
  0
LINE
  5
53F
  8
LAYER01
 62
     7
 10
-1979.484418
 20
2110.068894
 30
0.0
 11
-2059.484418
 21
2110.068894
 31
0.0
  0
LINE
  5
540
  8
LAYER01
 62
     7
 10
-1948.032361
 20
2073.2873760000011
 30
0.0
 11
-1948.032361
 21
2125.068894
 31
0.0
  0
LINE
  5
541
  8
LAYER01
 62
     7
 10
-1979.484418
 20
2073.2873760000011
 30
0.0
 11
-1979.484418
 21
2125.068894
 31
0.0
  0
SOLID
  5
542
  8
LAYER01
 62
     7
 10
-1908.032361
 20
2116.7352940000001
 30
0.0
 11
-1948.032361
 21
2110.068894
 31
0.0
 12
-1908.032361
 22
2103.4024939999999
 32
0.0
 13
-1908.032361
 23
2103.4024939999999
 33
0.0
  0
SOLID
  5
543
  8
LAYER01
 62
     7
 10
-2019.484418
 20
2116.7352940000001
 30
0.0
 11
-1979.484418
 21
2110.068894
 31
0.0
 12
-2019.484418
 22
2103.4024939999999
 32
0.0
 13
-2019.484418
 23
2103.4024939999999
 33
0.0
  0
TEXT
  5
544
  8
LAYER01
  6
CONTINUOUS
 62
     7
 10
-1853.032361
 20
2125.068894
 30
0.0
 40
30.0
  1
30
  7
SIMPLEX
  0
POINT
  5
545
  8
LAYER01
 62
     7
 10
-1948.032361
 20
2061.2873760000011
 30
0.0
  0
POINT
  5
546
  8
LAYER01
 62
     7
 10
-1979.484418
 20
2061.2873760000011
 30
0.0
  0
POINT
  5
547
  8
LAYER01
 62
     7
 10
-1979.484418
 20
2110.068894
 30
0.0
  0
ENDBLK
  5
548
  8
0
  0
BLOCK
  8
0
  2
*D59
 70
     1
 10
0.0
 20
0.0
 30
0.0
  3
*D59
  1

  0
LINE
  5
54B
  8
LAYER01
 62
     7
 10
-2576.1870210000002
 20
2110.068894
 30
0.0
 11
-2496.1870210000002
 21
2110.068894
 31
0.0
  0
LINE
  5
54C
  8
LAYER01
 62
     7
 10
-2616.5803040000001
 20
2110.068894
 30
0.0
 11
-2696.5803040000001
 21
2110.068894
 31
0.0
  0
LINE
  5
54D
  8
LAYER01
 62
     7
 10
-2576.1870210000002
 20
2069.3104309999999
 30
0.0
 11
-2576.1870210000002
 21
2125.068894
 31
0.0
  0
LINE
  5
54E
  8
LAYER01
 62
     7
 10
-2616.5803040000001
 20
2069.3104309999999
 30
0.0
 11
-2616.5803040000001
 21
2125.068894
 31
0.0
  0
SOLID
  5
54F
  8
LAYER01
 62
     7
 10
-2536.1870210000002
 20
2116.7352940000001
 30
0.0
 11
-2576.1870210000002
 21
2110.068894
 31
0.0
 12
-2536.1870210000002
 22
2103.4024939999999
 32
0.0
 13
-2536.1870210000002
 23
2103.4024939999999
 33
0.0
  0
SOLID
  5
550
  8
LAYER01
 62
     7
 10
-2656.5803040000001
 20
2116.7352940000001
 30
0.0
 11
-2616.5803040000001
 21
2110.068894
 31
0.0
 12
-2656.5803040000001
 22
2103.4024939999999
 32
0.0
 13
-2656.5803040000001
 23
2103.4024939999999
 33
0.0
  0
TEXT
  5
551
  8
LAYER01
  6
CONTINUOUS
 62
     7
 10
-2481.1870210000002
 20
2125.068894
 30
0.0
 40
30.0
  1
40
  7
SIMPLEX
  0
POINT
  5
552
  8
LAYER01
 62
     7
 10
-2576.1870210000002
 20
2057.3104309999999
 30
0.0
  0
POINT
  5
553
  8
LAYER01
 62
     7
 10
-2616.5803040000001
 20
2057.3104309999999
 30
0.0
  0
POINT
  5
554
  8
LAYER01
 62
     7
 10
-2616.5803040000001
 20
2110.068894
 30
0.0
  0
ENDBLK
  5
555
  8
0
  0
BLOCK
  8
0
  2
*D60
 70
     1
 10
0.0
 20
0.0
 30
0.0
  3
*D60
  1

  0
LINE
  5
558
  8
LAYER01
 62
     7
 10
-2474.2922170000002
 20
2810.0527219999999
 30
0.0
 11
-2119.2922170000002
 21
2810.0527219999999
 31
0.0
  0
LINE
  5
559
  8
LAYER01
 62
     7
 10
-2474.2922170000002
 20
2890.0285939999999
 30
0.0
 11
-2474.2922170000002
 21
2795.0527219999999
 31
0.0
  0
LINE
  5
55A
  8
LAYER01
 62
     7
 10
-2119.2922170000002
 20
2890.0285939999999
 30
0.0
 11
-2119.2922170000002
 21
2795.0527219999999
 31
0.0
  0
SOLID
  5
55B
  8
LAYER01
 62
     7
 10
-2434.2922170000002
 20
2803.3863219999998
 30
0.0
 11
-2474.2922170000002
 21
2810.0527219999999
 31
0.0
 12
-2434.2922170000002
 22
2816.719122
 32
0.0
 13
-2434.2922170000002
 23
2816.719122
 33
0.0
  0
SOLID
  5
55C
  8
LAYER01
 62
     7
 10
-2159.2922170000002
 20
2803.3863219999998
 30
0.0
 11
-2119.2922170000002
 21
2810.0527219999999
 31
0.0
 12
-2159.2922170000002
 22
2816.719122
 32
0.0
 13
-2159.2922170000002
 23
2816.719122
 33
0.0
  0
TEXT
  5
55D
  8
LAYER01
  6
CONTINUOUS
 62
     7
 10
-2335.3636449999999
 20
2825.0527219999999
 30
0.0
 40
30.0
  1
355
  7
SIMPLEX
  0
POINT
  5
55E
  8
LAYER01
 62
     7
 10
-2474.2922170000002
 20
2902.0285940000008
 30
0.0
  0
POINT
  5
55F
  8
LAYER01
 62
     7
 10
-2119.2922170000002
 20
2902.0285940000008
 30
0.0
  0
POINT
  5
560
  8
LAYER01
 62
     7
 10
-2119.2922170000002
 20
2810.0527219999999
 30
0.0
  0
ENDBLK
  5
561
  8
0
  0
BLOCK
  8
0
  2
*D61
 70
     1
 10
0.0
 20
0.0
 30
0.0
  3
*D61
  1

  0
LINE
  5
564
  8
LAYER01
 62
     7
 10
-2646.7922170000002
 20
2735.5726970000001
 30
0.0
 11
-1946.7922169999999
 21
2735.5726970000001
 31
0.0
  0
LINE
  5
565
  8
LAYER01
 62
     7
 10
-2646.7922170000002
 20
2890.0285939999999
 30
0.0
 11
-2646.7922170000002
 21
2720.5726970000001
 31
0.0
  0
LINE
  5
566
  8
LAYER01
 62
     7
 10
-1946.7922169999999
 20
2890.0285939999999
 30
0.0
 11
-1946.7922169999999
 21
2720.5726970000001
 31
0.0
  0
SOLID
  5
567
  8
LAYER01
 62
     7
 10
-2606.7922170000011
 20
2728.906297
 30
0.0
 11
-2646.7922170000002
 21
2735.5726970000001
 31
0.0
 12
-2606.7922170000011
 22
2742.2390970000001
 32
0.0
 13
-2606.7922170000011
 23
2742.2390970000001
 33
0.0
  0
SOLID
  5
568
  8
LAYER01
 62
     7
 10
-1986.7922169999999
 20
2728.906297
 30
0.0
 11
-1946.7922169999999
 21
2735.5726970000001
 31
0.0
 12
-1986.7922169999999
 22
2742.2390970000001
 32
0.0
 13
-1986.7922169999999
 23
2742.2390970000001
 33
0.0
  0
TEXT
  5
569
  8
LAYER01
  6
CONTINUOUS
 62
     7
 10
-2335.3636449999999
 20
2750.5726970000001
 30
0.0
 40
30.0
  1
700
  7
SIMPLEX
  0
POINT
  5
56A
  8
LAYER01
 62
     7
 10
-2646.7922170000002
 20
2902.0285940000008
 30
0.0
  0
POINT
  5
56B
  8
LAYER01
 62
     7
 10
-1946.7922169999999
 20
2902.0285940000008
 30
0.0
  0
POINT
  5
56C
  8
LAYER01
 62
     7
 10
-1946.7922169999999
 20
2735.5726970000001
 30
0.0
  0
ENDBLK
  5
56D
  8
0
  0
BLOCK
  8
0
  2
*D62
 70
     1
 10
0.0
 20
0.0
 30
0.0
  3
*D62
  1

  0
LINE
  5
570
  8
LAYER01
 62
     7
 10
-757.41298600000005
 20
3705.1493700000001
 30
0.0
 11
-2982.6286249999998
 21
3705.1493700000001
 31
0.0
  0
LINE
  5
571
  8
LAYER01
 62
     7
 10
-757.41298600000005
 20
3465.1531869999999
 30
0.0
 11
-757.41298600000005
 21
3720.1493700000001
 31
0.0
  0
LINE
  5
572
  8
LAYER01
 62
     7
 10
-2982.6286249999998
 20
3465.1531869999999
 30
0.0
 11
-2982.6286249999998
 21
3720.1493700000001
 31
0.0
  0
SOLID
  5
573
  8
LAYER01
 62
     7
 10
-797.41298600000005
 20
3711.8157700000011
 30
0.0
 11
-757.41298600000005
 21
3705.1493700000001
 31
0.0
 12
-797.41298600000005
 22
3698.4829700000009
 32
0.0
 13
-797.41298600000005
 23
3698.4829700000009
 33
0.0
  0
SOLID
  5
574
  8
LAYER01
 62
     7
 10
-2942.6286249999998
 20
3711.8157700000011
 30
0.0
 11
-2982.6286249999998
 21
3705.1493700000001
 31
0.0
 12
-2942.6286249999998
 22
3698.4829700000009
 32
0.0
 13
-2942.6286249999998
 23
3698.4829700000009
 33
0.0
  0
TEXT
  5
575
  8
LAYER01
  6
CONTINUOUS
 62
     7
 10
-1922.8779480000001
 20
3720.1493700000001
 30
0.0
 40
30.0
  1
2225
  7
SIMPLEX
  0
POINT
  5
576
  8
LAYER01
 62
     7
 10
-757.41298600000005
 20
3453.1531869999999
 30
0.0
  0
POINT
  5
577
  8
LAYER01
 62
     7
 10
-2982.6286249999998
 20
3453.1531869999999
 30
0.0
  0
POINT
  5
578
  8
LAYER01
 62
     7
 10
-2982.6286249999998
 20
3705.1493700000001
 30
0.0
  0
ENDBLK
  5
579
  8
0
  0
BLOCK
  8
0
  2
*D63
 70
     1
 10
0.0
 20
0.0
 30
0.0
  3
*D63
  1

  0
LINE
  5
57C
  8
LAYER01
 62
     7
 10
-2982.6286249999998
 20
3551.3946980000001
 30
0.0
 11
-2298.2859210000001
 21
3551.3946980000001
 31
0.0
  0
LINE
  5
57D
  8
LAYER01
 62
     7
 10
-2982.6286249999998
 20
3465.1531869999999
 30
0.0
 11
-2982.6286249999998
 21
3566.3946980000001
 31
0.0
  0
LINE
  5
57E
  8
LAYER01
 62
     7
 10
-2298.2859210000001
 20
3465.1531869999999
 30
0.0
 11
-2298.2859210000001
 21
3566.3946980000001
 31
0.0
  0
SOLID
  5
57F
  8
LAYER01
 62
     7
 10
-2942.6286249999998
 20
3544.728298
 30
0.0
 11
-2982.6286249999998
 21
3551.3946980000001
 31
0.0
 12
-2942.6286249999998
 22
3558.0610980000001
 32
0.0
 13
-2942.6286249999998
 23
3558.0610980000001
 33
0.0
  0
SOLID
  5
580
  8
LAYER01
 62
     7
 10
-2338.2859210000001
 20
3544.728298
 30
0.0
 11
-2298.2859210000001
 21
3551.3946980000001
 31
0.0
 12
-2338.2859210000001
 22
3558.0610980000001
 32
0.0
 13
-2338.2859210000001
 23
3558.0610980000001
 33
0.0
  0
TEXT
  5
581
  8
LAYER01
  6
CONTINUOUS
 62
     7
 10
-2679.7429870000001
 20
3566.3946980000001
 30
0.0
 40
30.0
  1
A=350-1250
  7
SIMPLEX
  0
POINT
  5
582
  8
LAYER01
 62
     7
 10
-2982.6286249999998
 20
3453.1531869999999
 30
0.0
  0
POINT
  5
583
  8
LAYER01
 62
     7
 10
-2298.2859210000001
 20
3453.1531869999999
 30
0.0
  0
POINT
  5
584
  8
LAYER01
 62
     7
 10
-2298.2859210000001
 20
3551.3946980000001
 30
0.0
  0
ENDBLK
  5
585
  8
0
  0
BLOCK
  8
0
  2
*D64
 70
     1
 10
0.0
 20
0.0
 30
0.0
  3
*D64
  1

  0
LINE
  5
588
  8
LAYER01
 62
     7
 10
-2298.2859210000001
 20
3551.3946980000001
 30
0.0
 11
-1441.5024209999999
 21
3551.3946980000001
 31
0.0
  0
LINE
  5
589
  8
LAYER01
 62
     7
 10
-2298.2859210000001
 20
3465.1531869999999
 30
0.0
 11
-2298.2859210000001
 21
3566.3946980000001
 31
0.0
  0
LINE
  5
58A
  8
LAYER01
 62
     7
 10
-1441.5024209999999
 20
3465.1531869999999
 30
0.0
 11
-1441.5024209999999
 21
3566.3946980000001
 31
0.0
  0
SOLID
  5
58B
  8
LAYER01
 62
     7
 10
-2258.2859210000001
 20
3544.728298
 30
0.0
 11
-2298.2859210000001
 21
3551.3946980000001
 31
0.0
 12
-2258.2859210000001
 22
3558.0610980000001
 32
0.0
 13
-2258.2859210000001
 23
3558.0610980000001
 33
0.0
  0
SOLID
  5
58C
  8
LAYER01
 62
     7
 10
-1481.5024209999999
 20
3544.728298
 30
0.0
 11
-1441.5024209999999
 21
3551.3946980000001
 31
0.0
 12
-1481.5024209999999
 22
3558.0610980000001
 32
0.0
 13
-1481.5024209999999
 23
3558.0610980000001
 33
0.0
  0
TEXT
  5
58D
  8
LAYER01
  6
CONTINUOUS
 62
     7
 10
-1908.4656
 20
3566.3946980000001
 30
0.0
 40
30.0
  1
C=850-2500
  7
SIMPLEX
  0
POINT
  5
58E
  8
LAYER01
 62
     7
 10
-2298.2859210000001
 20
3453.1531869999999
 30
0.0
  0
POINT
  5
58F
  8
LAYER01
 62
     7
 10
-1441.5024209999999
 20
3453.1531869999999
 30
0.0
  0
POINT
  5
590
  8
LAYER01
 62
     7
 10
-1441.5024209999999
 20
3551.3946980000001
 30
0.0
  0
ENDBLK
  5
591
  8
0
  0
BLOCK
  8
0
  2
*D65
 70
     1
 10
0.0
 20
0.0
 30
0.0
  3
*D65
  1

  0
LINE
  5
594
  8
LAYER01
 62
     7
 10
-1441.5024209999999
 20
3551.3946980000001
 30
0.0
 11
-757.41298600000005
 21
3551.3946980000001
 31
0.0
  0
LINE
  5
595
  8
LAYER01
 62
     7
 10
-1441.5024209999999
 20
3465.1531869999999
 30
0.0
 11
-1441.5024209999999
 21
3566.3946980000001
 31
0.0
  0
LINE
  5
596
  8
LAYER01
 62
     7
 10
-757.41298600000005
 20
3465.1531869999999
 30
0.0
 11
-757.41298600000005
 21
3566.3946980000001
 31
0.0
  0
SOLID
  5
597
  8
LAYER01
 62
     7
 10
-1401.5024209999999
 20
3544.728298
 30
0.0
 11
-1441.5024209999999
 21
3551.3946980000001
 31
0.0
 12
-1401.5024209999999
 22
3558.0610980000001
 32
0.0
 13
-1401.5024209999999
 23
3558.0610980000001
 33
0.0
  0
SOLID
  5
598
  8
LAYER01
 62
     7
 10
-797.41298600000005
 20
3544.728298
 30
0.0
 11
-757.41298600000005
 21
3551.3946980000001
 31
0.0
 12
-797.41298600000005
 22
3558.0610980000001
 32
0.0
 13
-797.41298600000005
 23
3558.0610980000001
 33
0.0
  0
TEXT
  5
599
  8
LAYER01
  6
CONTINUOUS
 62
     7
 10
-1138.743418
 20
3566.3946980000001
 30
0.0
 40
30.0
  1
B=350-1250
  7
SIMPLEX
  0
POINT
  5
59A
  8
LAYER01
 62
     7
 10
-1441.5024209999999
 20
3453.1531869999999
 30
0.0
  0
POINT
  5
59B
  8
LAYER01
 62
     7
 10
-757.41298600000005
 20
3453.1531869999999
 30
0.0
  0
POINT
  5
59C
  8
LAYER01
 62
     7
 10
-757.41298600000005
 20
3551.3946980000001
 30
0.0
  0
ENDBLK
  5
59D
  8
0
  0
BLOCK
  8
0
  2
*D66
 70
     1
 10
0.0
 20
0.0
 30
0.0
  3
*D66
  1

  0
LINE
  5
5A0
  8
LAYER01
 62
     7
 10
-757.41298600000005
 20
2564.408152
 30
0.0
 11
-2982.6286249999998
 21
2564.408152
 31
0.0
  0
LINE
  5
5A1
  8
LAYER01
 62
     7
 10
-757.41298600000005
 20
2324.4119690000002
 30
0.0
 11
-757.41298600000005
 21
2579.408152
 31
0.0
  0
LINE
  5
5A2
  8
LAYER01
 62
     7
 10
-2982.6286249999998
 20
2324.4119690000002
 30
0.0
 11
-2982.6286249999998
 21
2579.408152
 31
0.0
  0
SOLID
  5
5A3
  8
LAYER01
 62
     7
 10
-797.41298600000005
 20
2571.074552
 30
0.0
 11
-757.41298600000005
 21
2564.408152
 31
0.0
 12
-797.41298600000005
 22
2557.7417519999999
 32
0.0
 13
-797.41298600000005
 23
2557.7417519999999
 33
0.0
  0
SOLID
  5
5A4
  8
LAYER01
 62
     7
 10
-2942.6286249999998
 20
2571.074552
 30
0.0
 11
-2982.6286249999998
 21
2564.408152
 31
0.0
 12
-2942.6286249999998
 22
2557.7417519999999
 32
0.0
 13
-2942.6286249999998
 23
2557.7417519999999
 33
0.0
  0
TEXT
  5
5A5
  8
LAYER01
  6
CONTINUOUS
 62
     7
 10
-1922.8779480000001
 20
2579.408152
 30
0.0
 40
30.0
  1
2225
  7
SIMPLEX
  0
POINT
  5
5A6
  8
LAYER01
 62
     7
 10
-757.41298600000005
 20
2312.4119690000011
 30
0.0
  0
POINT
  5
5A7
  8
LAYER01
 62
     7
 10
-2982.6286249999998
 20
2312.4119690000011
 30
0.0
  0
POINT
  5
5A8
  8
LAYER01
 62
     7
 10
-2982.6286249999998
 20
2564.408152
 30
0.0
  0
ENDBLK
  5
5A9
  8
0
  0
BLOCK
  8
0
  2
*D67
 70
     1
 10
0.0
 20
0.0
 30
0.0
  3
*D67
  1

  0
LINE
  5
5AC
  8
LAYER01
 62
     7
 10
-2982.6286249999998
 20
2410.6534799999999
 30
0.0
 11
-2298.2859210000001
 21
2410.6534799999999
 31
0.0
  0
LINE
  5
5AD
  8
LAYER01
 62
     7
 10
-2982.6286249999998
 20
2324.4119690000002
 30
0.0
 11
-2982.6286249999998
 21
2425.6534799999999
 31
0.0
  0
LINE
  5
5AE
  8
LAYER01
 62
     7
 10
-2298.2859210000001
 20
2324.4119690000002
 30
0.0
 11
-2298.2859210000001
 21
2425.6534799999999
 31
0.0
  0
SOLID
  5
5AF
  8
LAYER01
 62
     7
 10
-2942.6286249999998
 20
2403.9870799999999
 30
0.0
 11
-2982.6286249999998
 21
2410.6534799999999
 31
0.0
 12
-2942.6286249999998
 22
2417.31988
 32
0.0
 13
-2942.6286249999998
 23
2417.31988
 33
0.0
  0
SOLID
  5
5B0
  8
LAYER01
 62
     7
 10
-2338.2859210000001
 20
2403.9870799999999
 30
0.0
 11
-2298.2859210000001
 21
2410.6534799999999
 31
0.0
 12
-2338.2859210000001
 22
2417.31988
 32
0.0
 13
-2338.2859210000001
 23
2417.31988
 33
0.0
  0
TEXT
  5
5B1
  8
LAYER01
  6
CONTINUOUS
 62
     7
 10
-2679.7429870000001
 20
2425.6534799999999
 30
0.0
 40
30.0
  1
A=350-1250
  7
SIMPLEX
  0
POINT
  5
5B2
  8
LAYER01
 62
     7
 10
-2982.6286249999998
 20
2312.4119690000011
 30
0.0
  0
POINT
  5
5B3
  8
LAYER01
 62
     7
 10
-2298.2859210000001
 20
2312.4119690000011
 30
0.0
  0
POINT
  5
5B4
  8
LAYER01
 62
     7
 10
-2298.2859210000001
 20
2410.6534799999999
 30
0.0
  0
ENDBLK
  5
5B5
  8
0
  0
BLOCK
  8
0
  2
*D68
 70
     1
 10
0.0
 20
0.0
 30
0.0
  3
*D68
  1

  0
LINE
  5
5B8
  8
LAYER01
 62
     7
 10
-2298.2859210000001
 20
2410.6534799999999
 30
0.0
 11
-1441.5024209999999
 21
2410.6534799999999
 31
0.0
  0
LINE
  5
5B9
  8
LAYER01
 62
     7
 10
-2298.2859210000001
 20
2324.4119690000002
 30
0.0
 11
-2298.2859210000001
 21
2425.6534799999999
 31
0.0
  0
LINE
  5
5BA
  8
LAYER01
 62
     7
 10
-1441.5024209999999
 20
2324.4119690000002
 30
0.0
 11
-1441.5024209999999
 21
2425.6534799999999
 31
0.0
  0
SOLID
  5
5BB
  8
LAYER01
 62
     7
 10
-2258.2859210000001
 20
2403.9870799999999
 30
0.0
 11
-2298.2859210000001
 21
2410.6534799999999
 31
0.0
 12
-2258.2859210000001
 22
2417.31988
 32
0.0
 13
-2258.2859210000001
 23
2417.31988
 33
0.0
  0
SOLID
  5
5BC
  8
LAYER01
 62
     7
 10
-1481.5024209999999
 20
2403.9870799999999
 30
0.0
 11
-1441.5024209999999
 21
2410.6534799999999
 31
0.0
 12
-1481.5024209999999
 22
2417.31988
 32
0.0
 13
-1481.5024209999999
 23
2417.31988
 33
0.0
  0
TEXT
  5
5BD
  8
LAYER01
  6
CONTINUOUS
 62
     7
 10
-1908.4656
 20
2425.6534799999999
 30
0.0
 40
30.0
  1
C=850-2500
  7
SIMPLEX
  0
POINT
  5
5BE
  8
LAYER01
 62
     7
 10
-2298.2859210000001
 20
2312.4119690000011
 30
0.0
  0
POINT
  5
5BF
  8
LAYER01
 62
     7
 10
-1441.5024209999999
 20
2312.4119690000011
 30
0.0
  0
POINT
  5
5C0
  8
LAYER01
 62
     7
 10
-1441.5024209999999
 20
2410.6534799999999
 30
0.0
  0
ENDBLK
  5
5C1
  8
0
  0
BLOCK
  8
0
  2
*D69
 70
     1
 10
0.0
 20
0.0
 30
0.0
  3
*D69
  1

  0
LINE
  5
5C4
  8
LAYER01
 62
     7
 10
-1441.5024209999999
 20
2410.6534799999999
 30
0.0
 11
-757.41298600000005
 21
2410.6534799999999
 31
0.0
  0
LINE
  5
5C5
  8
LAYER01
 62
     7
 10
-1441.5024209999999
 20
2324.4119690000002
 30
0.0
 11
-1441.5024209999999
 21
2425.6534799999999
 31
0.0
  0
LINE
  5
5C6
  8
LAYER01
 62
     7
 10
-757.41298600000005
 20
2324.4119690000002
 30
0.0
 11
-757.41298600000005
 21
2425.6534799999999
 31
0.0
  0
SOLID
  5
5C7
  8
LAYER01
 62
     7
 10
-1401.5024209999999
 20
2403.9870799999999
 30
0.0
 11
-1441.5024209999999
 21
2410.6534799999999
 31
0.0
 12
-1401.5024209999999
 22
2417.31988
 32
0.0
 13
-1401.5024209999999
 23
2417.31988
 33
0.0
  0
SOLID
  5
5C8
  8
LAYER01
 62
     7
 10
-797.41298600000005
 20
2403.9870799999999
 30
0.0
 11
-757.41298600000005
 21
2410.6534799999999
 31
0.0
 12
-797.41298600000005
 22
2417.31988
 32
0.0
 13
-797.41298600000005
 23
2417.31988
 33
0.0
  0
TEXT
  5
5C9
  8
LAYER01
  6
CONTINUOUS
 62
     7
 10
-1138.743418
 20
2425.6534799999999
 30
0.0
 40
30.0
  1
B=350-1250
  7
SIMPLEX
  0
POINT
  5
5CA
  8
LAYER01
 62
     7
 10
-1441.5024209999999
 20
2312.4119690000011
 30
0.0
  0
POINT
  5
5CB
  8
LAYER01
 62
     7
 10
-757.41298600000005
 20
2312.4119690000011
 30
0.0
  0
POINT
  5
5CC
  8
LAYER01
 62
     7
 10
-757.41298600000005
 20
2410.6534799999999
 30
0.0
  0
ENDBLK
  5
5CD
  8
0
  0
BLOCK
  8
0
 62
     7
  2
WMF0
 70
     0
 10
0.0
 20
0.0
 30
0.0
  3
WMF0
  1

  0
POLYLINE
  5
7BB
  8
LAYER01
 62
     7
 66
     1
 10
0.0
 20
0.0
 30
0.0
 70
     1
  0
VERTEX
  5
7BC
  8
LAYER01
 62
     7
 10
2458.2645046842372
 20
7351.0038575557664
 30
0.0
  0
VERTEX
  5
7BD
  8
LAYER01
 62
     7
 10
2628.7570429123371
 20
7351.0038575557664
 30
0.0
  0
VERTEX
  5
7BE
  8
LAYER01
 62
     7
 10
2842.8639513848352
 20
6863.3158993684092
 30
0.0
  0
VERTEX
  5
7BF
  8
LAYER01
 62
     7
 10
3056.9708598573329
 20
7351.0038575557664
 30
0.0
  0
VERTEX
  5
7C0
  8
LAYER01
 62
     7
 10
3235.3932835844148
 20
7351.0038575557664
 30
0.0
  0
VERTEX
  5
7C1
  8
LAYER01
 62
     7
 10
2842.8639513848352
 20
6478.7164526678107
 30
0.0
  0
VERTEX
  5
7C2
  8
LAYER01
 62
     7
 10
2458.2645046842372
 20
7351.0038575557664
 30
0.0
  0
VERTEX
  5
7C3
  8
LAYER01
 62
     7
 10
2458.2645046842372
 20
7351.0038575557664
 30
0.0
  0
SEQEND
  5
7C4
  8
LAYER01
 62
     7
  0
POLYLINE
  5
7C5
  8
LAYER01
 62
     7
 66
     1
 10
0.0
 20
0.0
 30
0.0
 70
     1
  0
VERTEX
  5
7C6
  8
LAYER01
 62
     7
 10
3041.1110888593698
 20
6756.2624451321599
 30
0.0
  0
VERTEX
  5
7C7
  8
LAYER01
 62
     7
 10
3100.5852301017312
 20
6895.0354413643354
 30
0.0
  0
VERTEX
  5
7C8
  8
LAYER01
 62
     7
 10
3358.3065088186272
 20
6895.0354413643354
 30
0.0
  0
VERTEX
  5
7C9
  8
LAYER01
 62
     7
 10
3227.4633980854328
 20
7180.5113193276648
 30
0.0
  0
VERTEX
  5
7CA
  8
LAYER01
 62
     7
 10
3302.7973103257568
 20
7362.8986858042381
 30
0.0
  0
VERTEX
  5
7CB
  8
LAYER01
 62
     7
 10
3655.67721503043
 20
6617.4894488999853
 30
0.0
  0
VERTEX
  5
7CC
  8
LAYER01
 62
     7
 10
3655.67721503043
 20
7351.0038575557664
 30
0.0
  0
VERTEX
  5
7CD
  8
LAYER01
 62
     7
 10
4127.5054022198219
 20
7351.0038575557664
 30
0.0
  0
VERTEX
  5
7CE
  8
LAYER01
 62
     7
 10
4127.5054022198219
 20
7351.0038575557664
 30
0.0
  0
VERTEX
  5
7CF
  8
LAYER01
 62
     7
 10
4171.1197724642197
 20
7343.0739720567844
 30
0.0
  0
VERTEX
  5
7D0
  8
LAYER01
 62
     7
 10
4210.7691999591279
 20
7327.2142010588213
 30
0.0
  0
VERTEX
  5
7D1
  8
LAYER01
 62
     7
 10
4246.4536847045438
 20
7299.4596018123866
 30
0.0
  0
VERTEX
  5
7D2
  8
LAYER01
 62
     7
 10
4278.1732267004691
 20
7271.705002565951
 30
0.0
  0
VERTEX
  5
7D3
  8
LAYER01
 62
     7
 10
4305.9278259469047
 20
7236.0205178205342
 30
0.0
  0
VERTEX
  5
7D4
  8
LAYER01
 62
     7
 10
4325.7525396943593
 20
7196.3710903256278
 30
0.0
  0
VERTEX
  5
7D5
  8
LAYER01
 62
     7
 10
4341.6123106923224
 20
7148.7917773317413
 30
0.0
  0
VERTEX
  5
7D6
  8
LAYER01
 62
     7
 10
4345.577253441812
 20
7105.1774070873416
 30
0.0
  0
VERTEX
  5
7D7
  8
LAYER01
 62
     7
 10
4345.577253441812
 20
7105.1774070873416
 30
0.0
  0
VERTEX
  5
7D8
  8
LAYER01
 62
     7
 10
4345.577253441812
 20
7057.5980940934542
 30
0.0
  0
VERTEX
  5
7D9
  8
LAYER01
 62
     7
 10
4337.6473679428309
 20
7017.948666598546
 30
0.0
  0
VERTEX
  5
7DA
  8
LAYER01
 62
     7
 10
4321.7875969448678
 20
6978.2992391036396
 30
0.0
  0
VERTEX
  5
7DB
  8
LAYER01
 62
     7
 10
4301.9628831974142
 20
6942.6147543582238
 30
0.0
  0
VERTEX
  5
7DC
  8
LAYER01
 62
     7
 10
4274.2082839509794
 20
6910.8952123622976
 30
0.0
  0
VERTEX
  5
7DD
  8
LAYER01
 62
     7
 10
4242.4887419550541
 20
6883.1406131158628
 30
0.0
  0
VERTEX
  5
7DE
  8
LAYER01
 62
     7
 10
4206.8042572096374
 20
6863.3158993684092
 30
0.0
  0
VERTEX
  5
7DF
  8
LAYER01
 62
     7
 10
4163.1898869652387
 20
6847.4561283704461
 30
0.0
  0
VERTEX
  5
7E0
  8
LAYER01
 62
     7
 10
4416.9462229326446
 20
6510.4359946637369
 30
0.0
  0
VERTEX
  5
7E1
  8
LAYER01
 62
     7
 10
4416.9462229326446
 20
7351.0038575557664
 30
0.0
  0
VERTEX
  5
7E2
  8
LAYER01
 62
     7
 10
4583.4738184112539
 20
7351.0038575557664
 30
0.0
  0
VERTEX
  5
7E3
  8
LAYER01
 62
     7
 10
4583.4738184112539
 20
6502.506109164754
 30
0.0
  0
VERTEX
  5
7E4
  8
LAYER01
 62
     7
 10
4226.628970957091
 20
6502.506109164754
 30
0.0
  0
VERTEX
  5
7E5
  8
LAYER01
 62
     7
 10
3881.6789517513998
 20
6942.6147543582238
 30
0.0
  0
VERTEX
  5
7E6
  8
LAYER01
 62
     7
 10
4056.1364327289898
 20
6942.6147543582238
 30
0.0
  0
VERTEX
  5
7E7
  8
LAYER01
 62
     7
 10
4056.1364327289898
 20
6942.6147543582238
 30
0.0
  0
VERTEX
  5
7E8
  8
LAYER01
 62
     7
 10
4079.926089225934
 20
6946.5796971077143
 30
0.0
  0
VERTEX
  5
7E9
  8
LAYER01
 62
     7
 10
4103.7157457228786
 20
6954.5095826066963
 30
0.0
  0
VERTEX
  5
7EA
  8
LAYER01
 62
     7
 10
4123.5404594703332
 20
6966.404410855168
 30
0.0
  0
VERTEX
  5
7EB
  8
LAYER01
 62
     7
 10
4143.3651732177859
 20
6982.264181853131
 30
0.0
  0
VERTEX
  5
7EC
  8
LAYER01
 62
     7
 10
4155.2600014662594
 20
7002.0888956005829
 30
0.0
  0
VERTEX
  5
7ED
  8
LAYER01
 62
     7
 10
4167.1548297147301
 20
7025.878552097528
 30
0.0
  0
VERTEX
  5
7EE
  8
LAYER01
 62
     7
 10
4175.0847152137121
 20
7049.6682085944722
 30
0.0
  0
VERTEX
  5
7EF
  8
LAYER01
 62
     7
 10
4175.0847152137121
 20
7077.4228078409069
 30
0.0
  0
VERTEX
  5
7F0
  8
LAYER01
 62
     7
 10
4175.0847152137121
 20
7077.4228078409069
 30
0.0
  0
VERTEX
  5
7F1
  8
LAYER01
 62
     7
 10
4175.0847152137121
 20
7101.212464337852
 30
0.0
  0
VERTEX
  5
7F2
  8
LAYER01
 62
     7
 10
4167.1548297147301
 20
7125.0021208347962
 30
0.0
  0
VERTEX
  5
7F3
  8
LAYER01
 62
     7
 10
4159.224944215749
 20
7148.7917773317413
 30
0.0
  0
VERTEX
  5
7F4
  8
LAYER01
 62
     7
 10
4143.3651732177859
 20
7168.6164910791931
 30
0.0
  0
VERTEX
  5
7F5
  8
LAYER01
 62
     7
 10
4127.5054022198219
 20
7184.4762620771562
 30
0.0
  0
VERTEX
  5
7F6
  8
LAYER01
 62
     7
 10
4103.7157457228786
 20
7196.3710903256278
 30
0.0
  0
VERTEX
  5
7F7
  8
LAYER01
 62
     7
 10
4079.926089225934
 20
7204.3009758246098
 30
0.0
  0
VERTEX
  5
7F8
  8
LAYER01
 62
     7
 10
4056.1364327289898
 20
7208.2659185741013
 30
0.0
  0
VERTEX
  5
7F9
  8
LAYER01
 62
     7
 10
3834.099638757511
 20
7208.2659185741013
 30
0.0
  0
VERTEX
  5
7FA
  8
LAYER01
 62
     7
 10
3834.099638757511
 20
6502.506109164754
 30
0.0
  0
VERTEX
  5
7FB
  8
LAYER01
 62
     7
 10
3548.6237607941812
 20
6502.506109164754
 30
0.0
  0
VERTEX
  5
7FC
  8
LAYER01
 62
     7
 10
3429.6754783094589
 20
6756.2624451321599
 30
0.0
  0
VERTEX
  5
7FD
  8
LAYER01
 62
     7
 10
3041.1110888593698
 20
6756.2624451321599
 30
0.0
  0
VERTEX
  5
7FE
  8
LAYER01
 62
     7
 10
3041.1110888593698
 20
6756.2624451321599
 30
0.0
  0
SEQEND
  5
7FF
  8
LAYER01
 62
     7
  0
POLYLINE
  5
800
  8
LAYER01
 62
     7
 66
     1
 10
0.0
 20
0.0
 30
0.0
 70
     1
  0
VERTEX
  5
801
  8
LAYER01
 62
     7
 10
5352.6727118124509
 20
7295.4946590628961
 30
0.0
  0
VERTEX
  5
802
  8
LAYER01
 62
     7
 10
5245.6192575762007
 20
7160.6866055802111
 30
0.0
  0
VERTEX
  5
803
  8
LAYER01
 62
     7
 10
5245.6192575762007
 20
7160.6866055802111
 30
0.0
  0
VERTEX
  5
804
  8
LAYER01
 62
     7
 10
5209.9347728307857
 20
7184.4762620771562
 30
0.0
  0
VERTEX
  5
805
  8
LAYER01
 62
     7
 10
5174.250288085369
 20
7204.3009758246098
 30
0.0
  0
VERTEX
  5
806
  8
LAYER01
 62
     7
 10
5134.6008605904626
 20
7216.1958040730824
 30
0.0
  0
VERTEX
  5
807
  8
LAYER01
 62
     7
 10
5090.9864903460648
 20
7216.1958040730824
 30
0.0
  0
VERTEX
  5
808
  8
LAYER01
 62
     7
 10
5090.9864903460648
 20
7216.1958040730824
 30
0.0
  0
VERTEX
  5
809
  8
LAYER01
 62
     7
 10
5063.2318910996291
 20
7216.1958040730824
 30
0.0
  0
VERTEX
  5
80A
  8
LAYER01
 62
     7
 10
5035.4772918531944
 20
7212.2308613235909
 30
0.0
  0
VERTEX
  5
80B
  8
LAYER01
 62
     7
 10
5007.7226926067588
 20
7204.3009758246098
 30
0.0
  0
VERTEX
  5
80C
  8
LAYER01
 62
     7
 10
4979.9680933603249
 20
7192.4061475761382
 30
0.0
  0
VERTEX
  5
80D
  8
LAYER01
 62
     7
 10
4956.1784368633807
 20
7180.5113193276648
 30
0.0
  0
VERTEX
  5
80E
  8
LAYER01
 62
     7
 10
4936.3537231159271
 20
7164.6515483297017
 30
0.0
  0
VERTEX
  5
80F
  8
LAYER01
 62
     7
 10
4912.5640666189829
 20
7148.7917773317413
 30
0.0
  0
VERTEX
  5
810
  8
LAYER01
 62
     7
 10
4896.7042956210198
 20
7128.9670635842867
 30
0.0
  0
VERTEX
  5
811
  8
LAYER01
 62
     7
 10
4876.8795818735662
 20
7105.1774070873416
 30
0.0
  0
VERTEX
  5
812
  8
LAYER01
 62
     7
 10
4864.9847536250936
 20
7081.3877505903993
 30
0.0
  0
VERTEX
  5
813
  8
LAYER01
 62
     7
 10
4849.1249826271314
 20
7057.5980940934542
 30
0.0
  0
VERTEX
  5
814
  8
LAYER01
 62
     7
 10
4837.2301543786589
 20
7033.8084375965091
 30
0.0
  0
VERTEX
  5
815
  8
LAYER01
 62
     7
 10
4829.3002688796769
 20
7006.0538383500743
 30
0.0
  0
VERTEX
  5
816
  8
LAYER01
 62
     7
 10
4825.3353261301872
 20
6978.2992391036396
 30
0.0
  0
VERTEX
  5
817
  8
LAYER01
 62
     7
 10
4821.3703833806958
 20
6950.5446398572049
 30
0.0
  0
VERTEX
  5
818
  8
LAYER01
 62
     7
 10
4817.4054406312061
 20
6918.8250978612787
 30
0.0
  0
VERTEX
  5
819
  8
LAYER01
 62
     7
 10
4817.4054406312061
 20
6918.8250978612787
 30
0.0
  0
VERTEX
  5
81A
  8
LAYER01
 62
     7
 10
4821.3703833806958
 20
6891.0704986148439
 30
0.0
  0
VERTEX
  5
81B
  8
LAYER01
 62
     7
 10
4825.3353261301872
 20
6863.3158993684092
 30
0.0
  0
VERTEX
  5
81C
  8
LAYER01
 62
     7
 10
4829.3002688796769
 20
6835.5613001219754
 30
0.0
  0
VERTEX
  5
81D
  8
LAYER01
 62
     7
 10
4841.1950971281503
 20
6811.7716436250303
 30
0.0
  0
VERTEX
  5
81E
  8
LAYER01
 62
     7
 10
4849.1249826271314
 20
6787.9819871280861
 30
0.0
  0
VERTEX
  5
81F
  8
LAYER01
 62
     7
 10
4864.9847536250936
 20
6764.1923306311428
 30
0.0
  0
VERTEX
  5
820
  8
LAYER01
 62
     7
 10
4880.8445246230567
 20
6740.4026741341977
 30
0.0
  0
VERTEX
  5
821
  8
LAYER01
 62
     7
 10
4896.7042956210198
 20
6720.5779603867441
 30
0.0
  0
VERTEX
  5
822
  8
LAYER01
 62
     7
 10
4916.5290093684744
 20
6700.7532466392904
 30
0.0
  0
VERTEX
  5
823
  8
LAYER01
 62
     7
 10
4936.3537231159271
 20
6684.8934756413273
 30
0.0
  0
VERTEX
  5
824
  8
LAYER01
 62
     7
 10
4960.1433796128722
 20
6672.9986473928557
 30
0.0
  0
VERTEX
  5
825
  8
LAYER01
 62
     7
 10
4983.9330361098146
 20
6661.103819144384
 30
0.0
  0
VERTEX
  5
826
  8
LAYER01
 62
     7
 10
5011.6876353562502
 20
6649.2089908959106
 30
0.0
  0
VERTEX
  5
827
  8
LAYER01
 62
     7
 10
5035.4772918531944
 20
6641.2791053969304
 30
0.0
  0
VERTEX
  5
828
  8
LAYER01
 62
     7
 10
5063.2318910996291
 20
6637.3141626474389
 30
0.0
  0
VERTEX
  5
829
  8
LAYER01
 62
     7
 10
5094.9514330955553
 20
6637.3141626474389
 30
0.0
  0
VERTEX
  5
82A
  8
LAYER01
 62
     7
 10
5094.9514330955553
 20
6637.3141626474389
 30
0.0
  0
VERTEX
  5
82B
  8
LAYER01
 62
     7
 10
5138.5658033399532
 20
6641.2791053969304
 30
0.0
  0
VERTEX
  5
82C
  8
LAYER01
 62
     7
 10
5174.250288085369
 20
6649.2089908959106
 30
0.0
  0
VERTEX
  5
82D
  8
LAYER01
 62
     7
 10
5209.9347728307857
 20
6669.0337046433651
 30
0.0
  0
VERTEX
  5
82E
  8
LAYER01
 62
     7
 10
5245.6192575762007
 20
6692.8233611403102
 30
0.0
  0
VERTEX
  5
82F
  8
LAYER01
 62
     7
 10
5348.7077690629603
 20
6554.0503649081338
 30
0.0
  0
VERTEX
  5
830
  8
LAYER01
 62
     7
 10
5348.7077690629603
 20
6554.0503649081338
 30
0.0
  0
VERTEX
  5
831
  8
LAYER01
 62
     7
 10
5289.2336278206003
 20
6518.365880162718
 30
0.0
  0
VERTEX
  5
832
  8
LAYER01
 62
     7
 10
5257.5140858246741
 20
6506.4710519142463
 30
0.0
  0
VERTEX
  5
833
  8
LAYER01
 62
     7
 10
5229.7594865782394
 20
6494.5762236657738
 30
0.0
  0
VERTEX
  5
834
  8
LAYER01
 62
     7
 10
5198.0399445823132
 20
6486.6463381667918
 30
0.0
  0
VERTEX
  5
835
  8
LAYER01
 62
     7
 10
5166.3204025863879
 20
6482.6813954173012
 30
0.0
  0
VERTEX
  5
836
  8
LAYER01
 62
     7
 10
5094.9514330955553
 20
6478.7164526678107
 30
0.0
  0
VERTEX
  5
837
  8
LAYER01
 62
     7
 10
5094.9514330955553
 20
6478.7164526678107
 30
0.0
  0
VERTEX
  5
838
  8
LAYER01
 62
     7
 10
5047.372120101667
 20
6482.6813954173012
 30
0.0
  0
VERTEX
  5
839
  8
LAYER01
 62
     7
 10
5003.7577498572691
 20
6490.6112809162832
 30
0.0
  0
VERTEX
  5
83A
  8
LAYER01
 62
     7
 10
4960.1433796128722
 20
6498.5411664152653
 30
0.0
  0
VERTEX
  5
83B
  8
LAYER01
 62
     7
 10
4920.493952117964
 20
6514.4009374132283
 30
0.0
  0
VERTEX
  5
83C
  8
LAYER01
 62
     7
 10
4880.8445246230567
 20
6534.2256511606811
 30
0.0
  0
VERTEX
  5
83D
  8
LAYER01
 62
     7
 10
4845.16003987764
 20
6554.0503649081338
 30
0.0
  0
VERTEX
  5
83E
  8
LAYER01
 62
     7
 10
4809.4755551322241
 20
6581.8049641545704
 30
0.0
  0
VERTEX
  5
83F
  8
LAYER01
 62
     7
 10
4777.7560131362989
 20
6609.5595634010042
 30
0.0
  0
VERTEX
  5
840
  8
LAYER01
 62
     7
 10
4746.0364711403727
 20
6641.2791053969304
 30
0.0
  0
VERTEX
  5
841
  8
LAYER01
 62
     7
 10
4722.2468146434294
 20
6676.9635901423471
 30
0.0
  0
VERTEX
  5
842
  8
LAYER01
 62
     7
 10
4698.4571581464843
 20
6712.648074887763
 30
0.0
  0
VERTEX
  5
843
  8
LAYER01
 62
     7
 10
4678.6324443990306
 20
6752.2975023826693
 30
0.0
  0
VERTEX
  5
844
  8
LAYER01
 62
     7
 10
4666.737616150559
 20
6791.9469298775757
 30
0.0
  0
VERTEX
  5
845
  8
LAYER01
 62
     7
 10
4654.8427879020874
 20
6835.5613001219754
 30
0.0
  0
VERTEX
  5
846
  8
LAYER01
 62
     7
 10
4646.9129024031054
 20
6879.1756703663723
 30
0.0
  0
VERTEX
  5
847
  8
LAYER01
 62
     7
 10
4642.9479596536139
 20
6926.7549833602607
 30
0.0
  0
VERTEX
  5
848
  8
LAYER01
 62
     7
 10
4642.9479596536139
 20
6926.7549833602607
 30
0.0
  0
VERTEX
  5
849
  8
LAYER01
 62
     7
 10
4646.9129024031054
 20
6970.3693536046594
 30
0.0
  0
VERTEX
  5
84A
  8
LAYER01
 62
     7
 10
4654.8427879020874
 20
7017.948666598546
 30
0.0
  0
VERTEX
  5
84B
  8
LAYER01
 62
     7
 10
4662.7726734010676
 20
7057.5980940934542
 30
0.0
  0
VERTEX
  5
84C
  8
LAYER01
 62
     7
 10
4678.6324443990306
 20
7101.212464337852
 30
0.0
  0
VERTEX
  5
84D
  8
LAYER01
 62
     7
 10
4698.4571581464843
 20
7140.8618918327593
 30
0.0
  0
VERTEX
  5
84E
  8
LAYER01
 62
     7
 10
4718.2818718939379
 20
7176.5463765781742
 30
0.0
  0
VERTEX
  5
84F
  8
LAYER01
 62
     7
 10
4746.0364711403727
 20
7212.2308613235909
 30
0.0
  0
VERTEX
  5
850
  8
LAYER01
 62
     7
 10
4773.7910703868083
 20
7243.950403319518
 30
0.0
  0
VERTEX
  5
851
  8
LAYER01
 62
     7
 10
4805.5106123827327
 20
7271.705002565951
 30
0.0
  0
VERTEX
  5
852
  8
LAYER01
 62
     7
 10
4841.1950971281503
 20
7299.4596018123866
 30
0.0
  0
VERTEX
  5
853
  8
LAYER01
 62
     7
 10
4876.8795818735662
 20
7319.2843155598412
 30
0.0
  0
VERTEX
  5
854
  8
LAYER01
 62
     7
 10
4916.5290093684744
 20
7339.1090293072939
 30
0.0
  0
VERTEX
  5
855
  8
LAYER01
 62
     7
 10
4956.1784368633807
 20
7354.968800305257
 30
0.0
  0
VERTEX
  5
856
  8
LAYER01
 62
     7
 10
4999.7928071077786
 20
7366.8636285537286
 30
0.0
  0
VERTEX
  5
857
  8
LAYER01
 62
     7
 10
5047.372120101667
 20
7370.8285713032201
 30
0.0
  0
VERTEX
  5
858
  8
LAYER01
 62
     7
 10
5090.9864903460648
 20
7374.7935140527097
 30
0.0
  0
VERTEX
  5
859
  8
LAYER01
 62
     7
 10
5090.9864903460648
 20
7374.7935140527097
 30
0.0
  0
VERTEX
  5
85A
  8
LAYER01
 62
     7
 10
5162.3554598368983
 20
7370.8285713032201
 30
0.0
  0
VERTEX
  5
85B
  8
LAYER01
 62
     7
 10
5198.0399445823132
 20
7366.8636285537286
 30
0.0
  0
VERTEX
  5
85C
  8
LAYER01
 62
     7
 10
5229.7594865782394
 20
7358.9337430547466
 30
0.0
  0
VERTEX
  5
85D
  8
LAYER01
 62
     7
 10
5257.5140858246741
 20
7347.038914806275
 30
0.0
  0
VERTEX
  5
85E
  8
LAYER01
 62
     7
 10
5289.2336278206003
 20
7335.1440865578043
 30
0.0
  0
VERTEX
  5
85F
  8
LAYER01
 62
     7
 10
5320.9531698165256
 20
7315.3193728103497
 30
0.0
  0
VERTEX
  5
860
  8
LAYER01
 62
     7
 10
5352.6727118124509
 20
7295.4946590628961
 30
0.0
  0
VERTEX
  5
861
  8
LAYER01
 62
     7
 10
5352.6727118124509
 20
7295.4946590628961
 30
0.0
  0
SEQEND
  5
862
  8
LAYER01
 62
     7
  0
POLYLINE
  5
863
  8
LAYER01
 62
     7
 66
     1
 10
0.0
 20
0.0
 30
0.0
 70
     1
  0
VERTEX
  5
864
  8
LAYER01
 62
     7
 10
5737.2721585130494
 20
7370.8285713032201
 30
0.0
  0
VERTEX
  5
865
  8
LAYER01
 62
     7
 10
5737.2721585130494
 20
7370.8285713032201
 30
0.0
  0
VERTEX
  5
866
  8
LAYER01
 62
     7
 10
5693.6577882686524
 20
7366.8636285537286
 30
0.0
  0
VERTEX
  5
867
  8
LAYER01
 62
     7
 10
5646.0784752747632
 20
7362.8986858042381
 30
0.0
  0
VERTEX
  5
868
  8
LAYER01
 62
     7
 10
5606.429047779855
 20
7351.0038575557664
 30
0.0
  0
VERTEX
  5
869
  8
LAYER01
 62
     7
 10
5562.814677535458
 20
7335.1440865578043
 30
0.0
  0
VERTEX
  5
86A
  8
LAYER01
 62
     7
 10
5523.1652500405517
 20
7319.2843155598412
 30
0.0
  0
VERTEX
  5
86B
  8
LAYER01
 62
     7
 10
5487.4807652951349
 20
7295.4946590628961
 30
0.0
  0
VERTEX
  5
86C
  8
LAYER01
 62
     7
 10
5451.7962805497182
 20
7271.705002565951
 30
0.0
  0
VERTEX
  5
86D
  8
LAYER01
 62
     7
 10
5420.0767385537929
 20
7239.9854605700266
 30
0.0
  0
VERTEX
  5
86E
  8
LAYER01
 62
     7
 10
5392.3221393073582
 20
7208.2659185741013
 30
0.0
  0
VERTEX
  5
86F
  8
LAYER01
 62
     7
 10
5364.5675400609243
 20
7176.5463765781742
 30
0.0
  0
VERTEX
  5
870
  8
LAYER01
 62
     7
 10
5340.7778835639801
 20
7140.8618918327593
 30
0.0
  0
VERTEX
  5
871
  8
LAYER01
 62
     7
 10
5320.9531698165256
 20
7101.212464337852
 30
0.0
  0
VERTEX
  5
872
  8
LAYER01
 62
     7
 10
5309.0583415680539
 20
7057.5980940934542
 30
0.0
  0
VERTEX
  5
873
  8
LAYER01
 62
     7
 10
5297.1635133195814
 20
7017.948666598546
 30
0.0
  0
VERTEX
  5
874
  8
LAYER01
 62
     7
 10
5289.2336278206003
 20
6970.3693536046594
 30
0.0
  0
VERTEX
  5
875
  8
LAYER01
 62
     7
 10
5285.2686850711088
 20
6926.7549833602607
 30
0.0
  0
VERTEX
  5
876
  8
LAYER01
 62
     7
 10
5285.2686850711088
 20
6926.7549833602607
 30
0.0
  0
VERTEX
  5
877
  8
LAYER01
 62
     7
 10
5289.2336278206003
 20
6879.1756703663723
 30
0.0
  0
VERTEX
  5
878
  8
LAYER01
 62
     7
 10
5293.1985705700909
 20
6835.5613001219754
 30
0.0
  0
VERTEX
  5
879
  8
LAYER01
 62
     7
 10
5305.0933988185634
 20
6791.9469298775757
 30
0.0
  0
VERTEX
  5
87A
  8
LAYER01
 62
     7
 10
5320.9531698165256
 20
6752.2975023826693
 30
0.0
  0
VERTEX
  5
87B
  8
LAYER01
 62
     7
 10
5336.8129408144878
 20
6712.648074887763
 30
0.0
  0
VERTEX
  5
87C
  8
LAYER01
 62
     7
 10
5360.602597311432
 20
6676.9635901423471
 30
0.0
  0
VERTEX
  5
87D
  8
LAYER01
 62
     7
 10
5384.3922538083762
 20
6641.2791053969304
 30
0.0
  0
VERTEX
  5
87E
  8
LAYER01
 62
     7
 10
5412.1468530548118
 20
6609.5595634010042
 30
0.0
  0
VERTEX
  5
87F
  8
LAYER01
 62
     7
 10
5443.8663950507362
 20
6577.8400214050789
 30
0.0
  0
VERTEX
  5
880
  8
LAYER01
 62
     7
 10
5479.5508797961529
 20
6554.0503649081338
 30
0.0
  0
VERTEX
  5
881
  8
LAYER01
 62
     7
 10
5515.2353645415697
 20
6530.2607084111914
 30
0.0
  0
VERTEX
  5
882
  8
LAYER01
 62
     7
 10
5554.8847920364769
 20
6510.4359946637369
 30
0.0
  0
VERTEX
  5
883
  8
LAYER01
 62
     7
 10
5594.5342195313842
 20
6494.5762236657738
 30
0.0
  0
VERTEX
  5
884
  8
LAYER01
 62
     7
 10
5638.1485897757821
 20
6486.6463381667918
 30
0.0
  0
VERTEX
  5
885
  8
LAYER01
 62
     7
 10
5681.762960020179
 20
6478.7164526678107
 30
0.0
  0
VERTEX
  5
886
  8
LAYER01
 62
     7
 10
5725.3773302645768
 20
6474.7515099183202
 30
0.0
  0
VERTEX
  5
887
  8
LAYER01
 62
     7
 10
5725.3773302645768
 20
6474.7515099183202
 30
0.0
  0
VERTEX
  5
888
  8
LAYER01
 62
     7
 10
5772.9566432584652
 20
6478.7164526678107
 30
0.0
  0
VERTEX
  5
889
  8
LAYER01
 62
     7
 10
5816.571013502863
 20
6486.6463381667918
 30
0.0
  0
VERTEX
  5
88A
  8
LAYER01
 62
     7
 10
5860.1853837472609
 20
6498.5411664152653
 30
0.0
  0
VERTEX
  5
88B
  8
LAYER01
 62
     7
 10
5899.8348112421681
 20
6514.4009374132283
 30
0.0
  0
VERTEX
  5
88C
  8
LAYER01
 62
     7
 10
5939.4842387370763
 20
6534.2256511606811
 30
0.0
  0
VERTEX
  5
88D
  8
LAYER01
 62
     7
 10
5975.1687234824913
 20
6558.0153076576253
 30
0.0
  0
VERTEX
  5
88E
  8
LAYER01
 62
     7
 10
6010.853208227908
 20
6581.8049641545704
 30
0.0
  0
VERTEX
  5
88F
  8
LAYER01
 62
     7
 10
6042.5727502238333
 20
6613.5245061504938
 30
0.0
  0
VERTEX
  5
890
  8
LAYER01
 62
     7
 10
6070.327349470268
 20
6645.2440481464209
 30
0.0
  0
VERTEX
  5
891
  8
LAYER01
 62
     7
 10
6094.1170059672131
 20
6680.9285328918368
 30
0.0
  0
VERTEX
  5
892
  8
LAYER01
 62
     7
 10
6113.9417197146659
 20
6716.6130176372544
 30
0.0
  0
VERTEX
  5
893
  8
LAYER01
 62
     7
 10
6133.7664334621204
 20
6756.2624451321599
 30
0.0
  0
VERTEX
  5
894
  8
LAYER01
 62
     7
 10
6149.6262044600826
 20
6799.8768153765577
 30
0.0
  0
VERTEX
  5
895
  8
LAYER01
 62
     7
 10
6157.5560899590637
 20
6843.4911856209546
 30
0.0
  0
VERTEX
  5
896
  8
LAYER01
 62
     7
 10
6161.5210327085542
 20
6887.1055558653534
 30
0.0
  0
VERTEX
  5
897
  8
LAYER01
 62
     7
 10
6165.4859754580457
 20
6934.6848688592418
 30
0.0
  0
VERTEX
  5
898
  8
LAYER01
 62
     7
 10
6165.4859754580457
 20
6934.6848688592418
 30
0.0
  0
VERTEX
  5
899
  8
LAYER01
 62
     7
 10
6161.5210327085542
 20
6978.2992391036396
 30
0.0
  0
VERTEX
  5
89A
  8
LAYER01
 62
     7
 10
6153.5911472095731
 20
7021.9136093480374
 30
0.0
  0
VERTEX
  5
89B
  8
LAYER01
 62
     7
 10
6141.6963189611024
 20
7061.5630368429447
 30
0.0
  0
VERTEX
  5
89C
  8
LAYER01
 62
     7
 10
6129.8014907126289
 20
7101.212464337852
 30
0.0
  0
VERTEX
  5
89D
  8
LAYER01
 62
     7
 10
6109.9767769651762
 20
7136.8969490832678
 30
0.0
  0
VERTEX
  5
89E
  8
LAYER01
 62
     7
 10
6090.1520632177217
 20
7172.5814338286846
 30
0.0
  0
VERTEX
  5
89F
  8
LAYER01
 62
     7
 10
6066.3624067207766
 20
7208.2659185741013
 30
0.0
  0
VERTEX
  5
8A0
  8
LAYER01
 62
     7
 10
6038.6078074743427
 20
7236.0205178205342
 30
0.0
  0
VERTEX
  5
8A1
  8
LAYER01
 62
     7
 10
6006.8882654784175
 20
7263.7751170669708
 30
0.0
  0
VERTEX
  5
8A2
  8
LAYER01
 62
     7
 10
5975.1687234824913
 20
7291.5297163134046
 30
0.0
  0
VERTEX
  5
8A3
  8
LAYER01
 62
     7
 10
5939.4842387370763
 20
7311.3544300608592
 30
0.0
  0
VERTEX
  5
8A4
  8
LAYER01
 62
     7
 10
5903.7997539916587
 20
7331.1791438083128
 30
0.0
  0
VERTEX
  5
8A5
  8
LAYER01
 62
     7
 10
5864.1503264967514
 20
7347.038914806275
 30
0.0
  0
VERTEX
  5
8A6
  8
LAYER01
 62
     7
 10
5824.5008990018441
 20
7358.9337430547466
 30
0.0
  0
VERTEX
  5
8A7
  8
LAYER01
 62
     7
 10
5780.8865287574472
 20
7366.8636285537286
 30
0.0
  0
VERTEX
  5
8A8
  8
LAYER01
 62
     7
 10
5737.2721585130494
 20
7370.8285713032201
 30
0.0
  0
VERTEX
  5
8A9
  8
LAYER01
 62
     7
 10
5737.2721585130494
 20
7370.8285713032201
 30
0.0
  0
SEQEND
  5
8AA
  8
LAYER01
 62
     7
  0
POLYLINE
  5
8AB
  8
LAYER01
 62
     7
 66
     1
 10
0.0
 20
0.0
 30
0.0
 70
     1
  0
VERTEX
  5
8AC
  8
LAYER01
 62
     7
 10
5725.3773302645768
 20
6637.3141626474389
 30
0.0
  0
VERTEX
  5
8AD
  8
LAYER01
 62
     7
 10
5725.3773302645768
 20
6637.3141626474389
 30
0.0
  0
VERTEX
  5
8AE
  8
LAYER01
 62
     7
 10
5697.6227310181421
 20
6641.2791053969304
 30
0.0
  0
VERTEX
  5
8AF
  8
LAYER01
 62
     7
 10
5669.8681317717073
 20
6645.2440481464209
 30
0.0
  0
VERTEX
  5
8B0
  8
LAYER01
 62
     7
 10
5642.1135325252717
 20
6649.2089908959106
 30
0.0
  0
VERTEX
  5
8B1
  8
LAYER01
 62
     7
 10
5614.3589332788379
 20
6661.103819144384
 30
0.0
  0
VERTEX
  5
8B2
  8
LAYER01
 62
     7
 10
5590.5692767818919
 20
6672.9986473928557
 30
0.0
  0
VERTEX
  5
8B3
  8
LAYER01
 62
     7
 10
5566.7796202849486
 20
6688.8584183908179
 30
0.0
  0
VERTEX
  5
8B4
  8
LAYER01
 62
     7
 10
5546.9549065374968
 20
6704.718189388781
 30
0.0
  0
VERTEX
  5
8B5
  8
LAYER01
 62
     7
 10
5527.1301927900431
 20
6724.5429031362346
 30
0.0
  0
VERTEX
  5
8B6
  8
LAYER01
 62
     7
 10
5507.3054790425886
 20
6744.3676168836892
 30
0.0
  0
VERTEX
  5
8B7
  8
LAYER01
 62
     7
 10
5491.4457080446264
 20
6764.1923306311428
 30
0.0
  0
VERTEX
  5
8B8
  8
LAYER01
 62
     7
 10
5479.5508797961529
 20
6787.9819871280861
 30
0.0
  0
VERTEX
  5
8B9
  8
LAYER01
 62
     7
 10
5467.6560515476813
 20
6815.7365863745208
 30
0.0
  0
VERTEX
  5
8BA
  8
LAYER01
 62
     7
 10
5455.7612232992096
 20
6839.5262428714641
 30
0.0
  0
VERTEX
  5
8BB
  8
LAYER01
 62
     7
 10
5451.7962805497182
 20
6867.2808421178988
 30
0.0
  0
VERTEX
  5
8BC
  8
LAYER01
 62
     7
 10
5443.8663950507362
 20
6895.0354413643354
 30
0.0
  0
VERTEX
  5
8BD
  8
LAYER01
 62
     7
 10
5443.8663950507362
 20
6926.7549833602607
 30
0.0
  0
VERTEX
  5
8BE
  8
LAYER01
 62
     7
 10
5443.8663950507362
 20
6926.7549833602607
 30
0.0
  0
VERTEX
  5
8BF
  8
LAYER01
 62
     7
 10
5447.8313378002267
 20
6954.5095826066963
 30
0.0
  0
VERTEX
  5
8C0
  8
LAYER01
 62
     7
 10
5451.7962805497182
 20
6982.264181853131
 30
0.0
  0
VERTEX
  5
8C1
  8
LAYER01
 62
     7
 10
5459.7261660486993
 20
7010.0187810995658
 30
0.0
  0
VERTEX
  5
8C2
  8
LAYER01
 62
     7
 10
5467.6560515476813
 20
7037.7733803459996
 30
0.0
  0
VERTEX
  5
8C3
  8
LAYER01
 62
     7
 10
5479.5508797961529
 20
7061.5630368429447
 30
0.0
  0
VERTEX
  5
8C4
  8
LAYER01
 62
     7
 10
5495.410650794116
 20
7085.3526933398889
 30
0.0
  0
VERTEX
  5
8C5
  8
LAYER01
 62
     7
 10
5511.27042179208
 20
7105.1774070873416
 30
0.0
  0
VERTEX
  5
8C6
  8
LAYER01
 62
     7
 10
5531.0951355395327
 20
7125.0021208347962
 30
0.0
  0
VERTEX
  5
8C7
  8
LAYER01
 62
     7
 10
5550.9198492869864
 20
7144.826834582248
 30
0.0
  0
VERTEX
  5
8C8
  8
LAYER01
 62
     7
 10
5570.74456303444
 20
7160.6866055802111
 30
0.0
  0
VERTEX
  5
8C9
  8
LAYER01
 62
     7
 10
5594.5342195313842
 20
7176.5463765781742
 30
0.0
  0
VERTEX
  5
8CA
  8
LAYER01
 62
     7
 10
5622.288818777819
 20
7188.4412048266468
 30
0.0
  0
VERTEX
  5
8CB
  8
LAYER01
 62
     7
 10
5646.0784752747632
 20
7196.3710903256278
 30
0.0
  0
VERTEX
  5
8CC
  8
LAYER01
 62
     7
 10
5673.8330745211979
 20
7204.3009758246098
 30
0.0
  0
VERTEX
  5
8CD
  8
LAYER01
 62
     7
 10
5701.5876737676326
 20
7208.2659185741013
 30
0.0
  0
VERTEX
  5
8CE
  8
LAYER01
 62
     7
 10
5733.3072157635588
 20
7208.2659185741013
 30
0.0
  0
VERTEX
  5
8CF
  8
LAYER01
 62
     7
 10
5733.3072157635588
 20
7208.2659185741013
 30
0.0
  0
VERTEX
  5
8D0
  8
LAYER01
 62
     7
 10
5761.0618150099936
 20
7204.3009758246098
 30
0.0
  0
VERTEX
  5
8D1
  8
LAYER01
 62
     7
 10
5788.8164142564283
 20
7200.3360330751193
 30
0.0
  0
VERTEX
  5
8D2
  8
LAYER01
 62
     7
 10
5812.6060707533716
 20
7192.4061475761382
 30
0.0
  0
VERTEX
  5
8D3
  8
LAYER01
 62
     7
 10
5840.3606699998072
 20
7184.4762620771562
 30
0.0
  0
VERTEX
  5
8D4
  8
LAYER01
 62
     7
 10
5860.1853837472609
 20
7172.5814338286846
 30
0.0
  0
VERTEX
  5
8D5
  8
LAYER01
 62
     7
 10
5883.975040244205
 20
7156.7216628307224
 30
0.0
  0
VERTEX
  5
8D6
  8
LAYER01
 62
     7
 10
5903.7997539916587
 20
7140.8618918327593
 30
0.0
  0
VERTEX
  5
8D7
  8
LAYER01
 62
     7
 10
5923.6244677391132
 20
7125.0021208347962
 30
0.0
  0
VERTEX
  5
8D8
  8
LAYER01
 62
     7
 10
5939.4842387370763
 20
7105.1774070873416
 30
0.0
  0
VERTEX
  5
8D9
  8
LAYER01
 62
     7
 10
5955.3440097350367
 20
7081.3877505903993
 30
0.0
  0
VERTEX
  5
8DA
  8
LAYER01
 62
     7
 10
5971.2037807329998
 20
7061.5630368429447
 30
0.0
  0
VERTEX
  5
8DB
  8
LAYER01
 62
     7
 10
5983.0986089814742
 20
7037.7733803459996
 30
0.0
  0
VERTEX
  5
8DC
  8
LAYER01
 62
     7
 10
5991.0284944804544
 20
7010.0187810995658
 30
0.0
  0
VERTEX
  5
8DD
  8
LAYER01
 62
     7
 10
5998.9583799794354
 20
6986.2291246026198
 30
0.0
  0
VERTEX
  5
8DE
  8
LAYER01
 62
     7
 10
6002.923322728926
 20
6958.4745253561859
 30
0.0
  0
VERTEX
  5
8DF
  8
LAYER01
 62
     7
 10
6002.923322728926
 20
6930.7199261097512
 30
0.0
  0
VERTEX
  5
8E0
  8
LAYER01
 62
     7
 10
6002.923322728926
 20
6930.7199261097512
 30
0.0
  0
VERTEX
  5
8E1
  8
LAYER01
 62
     7
 10
6002.923322728926
 20
6899.0003841138259
 30
0.0
  0
VERTEX
  5
8E2
  8
LAYER01
 62
     7
 10
5998.9583799794354
 20
6871.2457848673903
 30
0.0
  0
VERTEX
  5
8E3
  8
LAYER01
 62
     7
 10
5994.9934372299449
 20
6843.4911856209546
 30
0.0
  0
VERTEX
  5
8E4
  8
LAYER01
 62
     7
 10
5983.0986089814742
 20
6819.7015291240123
 30
0.0
  0
VERTEX
  5
8E5
  8
LAYER01
 62
     7
 10
5975.1687234824913
 20
6791.9469298775757
 30
0.0
  0
VERTEX
  5
8E6
  8
LAYER01
 62
     7
 10
5959.3089524845291
 20
6768.1572733806324
 30
0.0
  0
VERTEX
  5
8E7
  8
LAYER01
 62
     7
 10
5943.449181486566
 20
6744.3676168836892
 30
0.0
  0
VERTEX
  5
8E8
  8
LAYER01
 62
     7
 10
5923.6244677391132
 20
6724.5429031362346
 30
0.0
  0
VERTEX
  5
8E9
  8
LAYER01
 62
     7
 10
5903.7997539916587
 20
6704.718189388781
 30
0.0
  0
VERTEX
  5
8EA
  8
LAYER01
 62
     7
 10
5883.975040244205
 20
6688.8584183908179
 30
0.0
  0
VERTEX
  5
8EB
  8
LAYER01
 62
     7
 10
5860.1853837472609
 20
6672.9986473928557
 30
0.0
  0
VERTEX
  5
8EC
  8
LAYER01
 62
     7
 10
5836.3957272503167
 20
6661.103819144384
 30
0.0
  0
VERTEX
  5
8ED
  8
LAYER01
 62
     7
 10
5808.641128003881
 20
6653.173933645402
 30
0.0
  0
VERTEX
  5
8EE
  8
LAYER01
 62
     7
 10
5780.8865287574472
 20
6645.2440481464209
 30
0.0
  0
VERTEX
  5
8EF
  8
LAYER01
 62
     7
 10
5753.1319295110115
 20
6641.2791053969304
 30
0.0
  0
VERTEX
  5
8F0
  8
LAYER01
 62
     7
 10
5725.3773302645768
 20
6637.3141626474389
 30
0.0
  0
VERTEX
  5
8F1
  8
LAYER01
 62
     7
 10
5725.3773302645768
 20
6637.3141626474389
 30
0.0
  0
SEQEND
  5
8F2
  8
LAYER01
 62
     7
  0
POLYLINE
  5
8F3
  8
LAYER01
 62
     7
 66
     1
 10
0.0
 20
0.0
 30
0.0
 70
     1
  0
VERTEX
  5
8F4
  8
LAYER01
 62
     7
 10
6042.5727502238333
 20
7351.0038575557664
 30
0.0
  0
VERTEX
  5
8F5
  8
LAYER01
 62
     7
 10
6462.8566816698476
 20
7351.0038575557664
 30
0.0
  0
VERTEX
  5
8F6
  8
LAYER01
 62
     7
 10
6462.8566816698476
 20
7351.0038575557664
 30
0.0
  0
VERTEX
  5
8F7
  8
LAYER01
 62
     7
 10
6510.4359946637369
 20
7343.0739720567844
 30
0.0
  0
VERTEX
  5
8F8
  8
LAYER01
 62
     7
 10
6554.0503649081338
 20
7323.2492583093299
 30
0.0
  0
VERTEX
  5
8F9
  8
LAYER01
 62
     7
 10
6589.7348496535496
 20
7299.4596018123866
 30
0.0
  0
VERTEX
  5
8FA
  8
LAYER01
 62
     7
 10
6621.4543916494758
 20
7267.7400598164604
 30
0.0
  0
VERTEX
  5
8FB
  8
LAYER01
 62
     7
 10
6649.2089908959106
 20
7236.0205178205342
 30
0.0
  0
VERTEX
  5
8FC
  8
LAYER01
 62
     7
 10
6669.0337046433651
 20
7196.3710903256278
 30
0.0
  0
VERTEX
  5
8FD
  8
LAYER01
 62
     7
 10
6680.9285328918368
 20
7148.7917773317413
 30
0.0
  0
VERTEX
  5
8FE
  8
LAYER01
 62
     7
 10
6684.8934756413273
 20
7105.1774070873416
 30
0.0
  0
VERTEX
  5
8FF
  8
LAYER01
 62
     7
 10
6684.8934756413273
 20
7105.1774070873416
 30
0.0
  0
VERTEX
  5
900
  8
LAYER01
 62
     7
 10
6680.9285328918368
 20
7057.5980940934542
 30
0.0
  0
VERTEX
  5
901
  8
LAYER01
 62
     7
 10
6672.9986473928557
 20
7017.948666598546
 30
0.0
  0
VERTEX
  5
902
  8
LAYER01
 62
     7
 10
6657.1388763948926
 20
6978.2992391036396
 30
0.0
  0
VERTEX
  5
903
  8
LAYER01
 62
     7
 10
6637.3141626474389
 20
6942.6147543582238
 30
0.0
  0
VERTEX
  5
904
  8
LAYER01
 62
     7
 10
6609.5595634010042
 20
6910.8952123622976
 30
0.0
  0
VERTEX
  5
905
  8
LAYER01
 62
     7
 10
6581.8049641545704
 20
6887.1055558653534
 30
0.0
  0
VERTEX
  5
906
  8
LAYER01
 62
     7
 10
6542.1555366596622
 20
6863.3158993684092
 30
0.0
  0
VERTEX
  5
907
  8
LAYER01
 62
     7
 10
6502.506109164754
 20
6847.4561283704461
 30
0.0
  0
VERTEX
  5
908
  8
LAYER01
 62
     7
 10
6760.2273878816522
 20
6502.506109164754
 30
0.0
  0
VERTEX
  5
909
  8
LAYER01
 62
     7
 10
6561.9802504071158
 20
6502.506109164754
 30
0.0
  0
VERTEX
  5
90A
  8
LAYER01
 62
     7
 10
6217.0302312014246
 20
6942.6147543582238
 30
0.0
  0
VERTEX
  5
90B
  8
LAYER01
 62
     7
 10
6411.3124259264687
 20
6942.6147543582238
 30
0.0
  0
VERTEX
  5
90C
  8
LAYER01
 62
     7
 10
6411.3124259264687
 20
6942.6147543582238
 30
0.0
  0
VERTEX
  5
90D
  8
LAYER01
 62
     7
 10
6435.102082423412
 20
6950.5446398572049
 30
0.0
  0
VERTEX
  5
90E
  8
LAYER01
 62
     7
 10
6454.9267961708656
 20
6958.4745253561859
 30
0.0
  0
VERTEX
  5
90F
  8
LAYER01
 62
     7
 10
6470.7865671688287
 20
6974.334296354149
 30
0.0
  0
VERTEX
  5
910
  8
LAYER01
 62
     7
 10
6486.6463381667918
 20
6990.1940673521131
 30
0.0
  0
VERTEX
  5
911
  8
LAYER01
 62
     7
 10
6498.5411664152653
 20
7010.0187810995658
 30
0.0
  0
VERTEX
  5
912
  8
LAYER01
 62
     7
 10
6510.4359946637369
 20
7029.8434948470176
 30
0.0
  0
VERTEX
  5
913
  8
LAYER01
 62
     7
 10
6514.4009374132283
 20
7053.6331513439627
 30
0.0
  0
VERTEX
  5
914
  8
LAYER01
 62
     7
 10
6514.4009374132283
 20
7077.4228078409069
 30
0.0
  0
VERTEX
  5
915
  8
LAYER01
 62
     7
 10
6514.4009374132283
 20
7077.4228078409069
 30
0.0
  0
VERTEX
  5
916
  8
LAYER01
 62
     7
 10
6514.4009374132283
 20
7101.212464337852
 30
0.0
  0
VERTEX
  5
917
  8
LAYER01
 62
     7
 10
6506.4710519142463
 20
7121.0371780853047
 30
0.0
  0
VERTEX
  5
918
  8
LAYER01
 62
     7
 10
6498.5411664152653
 20
7140.8618918327593
 30
0.0
  0
VERTEX
  5
919
  8
LAYER01
 62
     7
 10
6486.6463381667918
 20
7160.6866055802111
 30
0.0
  0
VERTEX
  5
91A
  8
LAYER01
 62
     7
 10
6470.7865671688287
 20
7176.5463765781742
 30
0.0
  0
VERTEX
  5
91B
  8
LAYER01
 62
     7
 10
6454.9267961708656
 20
7188.4412048266468
 30
0.0
  0
VERTEX
  5
91C
  8
LAYER01
 62
     7
 10
6431.1371396739214
 20
7200.3360330751193
 30
0.0
  0
VERTEX
  5
91D
  8
LAYER01
 62
     7
 10
6411.3124259264687
 20
7208.2659185741013
 30
0.0
  0
VERTEX
  5
91E
  8
LAYER01
 62
     7
 10
6185.3106892054993
 20
7208.2659185741013
 30
0.0
  0
VERTEX
  5
91F
  8
LAYER01
 62
     7
 10
6042.5727502238333
 20
7351.0038575557664
 30
0.0
  0
VERTEX
  5
920
  8
LAYER01
 62
     7
 10
6042.5727502238333
 20
7351.0038575557664
 30
0.0
  0
SEQEND
  5
921
  8
LAYER01
 62
     7
  0
POLYLINE
  5
922
  8
LAYER01
 62
     7
 66
     1
 10
0.0
 20
0.0
 30
0.0
 70
     1
  0
VERTEX
  5
923
  8
LAYER01
 62
     7
 10
6867.2808421178988
 20
7140.8618918327593
 30
0.0
  0
VERTEX
  5
924
  8
LAYER01
 62
     7
 10
6867.2808421178988
 20
7140.8618918327593
 30
0.0
  0
VERTEX
  5
925
  8
LAYER01
 62
     7
 10
6887.1055558653534
 20
7144.826834582248
 30
0.0
  0
VERTEX
  5
926
  8
LAYER01
 62
     7
 10
6906.930269612807
 20
7148.7917773317413
 30
0.0
  0
VERTEX
  5
927
  8
LAYER01
 62
     7
 10
6926.7549833602607
 20
7160.6866055802111
 30
0.0
  0
VERTEX
  5
928
  8
LAYER01
 62
     7
 10
6942.6147543582238
 20
7172.5814338286846
 30
0.0
  0
VERTEX
  5
929
  8
LAYER01
 62
     7
 10
6954.5095826066963
 20
7188.4412048266468
 30
0.0
  0
VERTEX
  5
92A
  8
LAYER01
 62
     7
 10
6962.4394681056774
 20
7204.3009758246098
 30
0.0
  0
VERTEX
  5
92B
  8
LAYER01
 62
     7
 10
6970.3693536046594
 20
7224.1256895720644
 30
0.0
  0
VERTEX
  5
92C
  8
LAYER01
 62
     7
 10
6970.3693536046594
 20
7247.9153460690077
 30
0.0
  0
VERTEX
  5
92D
  8
LAYER01
 62
     7
 10
6970.3693536046594
 20
7247.9153460690077
 30
0.0
  0
VERTEX
  5
92E
  8
LAYER01
 62
     7
 10
6970.3693536046594
 20
7267.7400598164604
 30
0.0
  0
VERTEX
  5
92F
  8
LAYER01
 62
     7
 10
6962.4394681056774
 20
7287.5647735639141
 30
0.0
  0
VERTEX
  5
930
  8
LAYER01
 62
     7
 10
6954.5095826066963
 20
7303.4245445618772
 30
0.0
  0
VERTEX
  5
931
  8
LAYER01
 62
     7
 10
6942.6147543582238
 20
7319.2843155598412
 30
0.0
  0
VERTEX
  5
932
  8
LAYER01
 62
     7
 10
6926.7549833602607
 20
7331.1791438083128
 30
0.0
  0
VERTEX
  5
933
  8
LAYER01
 62
     7
 10
6906.930269612807
 20
7343.0739720567844
 30
0.0
  0
VERTEX
  5
934
  8
LAYER01
 62
     7
 10
6887.1055558653534
 20
7347.038914806275
 30
0.0
  0
VERTEX
  5
935
  8
LAYER01
 62
     7
 10
6867.2808421178988
 20
7351.0038575557664
 30
0.0
  0
VERTEX
  5
936
  8
LAYER01
 62
     7
 10
6867.2808421178988
 20
7351.0038575557664
 30
0.0
  0
VERTEX
  5
937
  8
LAYER01
 62
     7
 10
6847.4561283704461
 20
7347.038914806275
 30
0.0
  0
VERTEX
  5
938
  8
LAYER01
 62
     7
 10
6827.6314146229934
 20
7343.0739720567844
 30
0.0
  0
VERTEX
  5
939
  8
LAYER01
 62
     7
 10
6807.8067008755397
 20
7331.1791438083128
 30
0.0
  0
VERTEX
  5
93A
  8
LAYER01
 62
     7
 10
6791.9469298775757
 20
7319.2843155598412
 30
0.0
  0
VERTEX
  5
93B
  8
LAYER01
 62
     7
 10
6780.0521016291041
 20
7303.4245445618772
 30
0.0
  0
VERTEX
  5
93C
  8
LAYER01
 62
     7
 10
6772.122216130123
 20
7287.5647735639141
 30
0.0
  0
VERTEX
  5
93D
  8
LAYER01
 62
     7
 10
6764.1923306311428
 20
7267.7400598164604
 30
0.0
  0
VERTEX
  5
93E
  8
LAYER01
 62
     7
 10
6764.1923306311428
 20
7247.9153460690077
 30
0.0
  0
VERTEX
  5
93F
  8
LAYER01
 62
     7
 10
6764.1923306311428
 20
7247.9153460690077
 30
0.0
  0
VERTEX
  5
940
  8
LAYER01
 62
     7
 10
6764.1923306311428
 20
7224.1256895720644
 30
0.0
  0
VERTEX
  5
941
  8
LAYER01
 62
     7
 10
6772.122216130123
 20
7204.3009758246098
 30
0.0
  0
VERTEX
  5
942
  8
LAYER01
 62
     7
 10
6780.0521016291041
 20
7188.4412048266468
 30
0.0
  0
VERTEX
  5
943
  8
LAYER01
 62
     7
 10
6791.9469298775757
 20
7172.5814338286846
 30
0.0
  0
VERTEX
  5
944
  8
LAYER01
 62
     7
 10
6807.8067008755397
 20
7160.6866055802111
 30
0.0
  0
VERTEX
  5
945
  8
LAYER01
 62
     7
 10
6827.6314146229934
 20
7148.7917773317413
 30
0.0
  0
VERTEX
  5
946
  8
LAYER01
 62
     7
 10
6847.4561283704461
 20
7144.826834582248
 30
0.0
  0
VERTEX
  5
947
  8
LAYER01
 62
     7
 10
6867.2808421178988
 20
7140.8618918327593
 30
0.0
  0
VERTEX
  5
948
  8
LAYER01
 62
     7
 10
6867.2808421178988
 20
7140.8618918327593
 30
0.0
  0
SEQEND
  5
949
  8
LAYER01
 62
     7
  0
POLYLINE
  5
94A
  8
LAYER01
 62
     7
 66
     1
 10
0.0
 20
0.0
 30
0.0
 70
     1
  0
VERTEX
  5
94B
  8
LAYER01
 62
     7
 10
6867.2808421178988
 20
7335.1440865578043
 30
0.0
  0
VERTEX
  5
94C
  8
LAYER01
 62
     7
 10
6867.2808421178988
 20
7335.1440865578043
 30
0.0
  0
VERTEX
  5
94D
  8
LAYER01
 62
     7
 10
6883.1406131158628
 20
7331.1791438083128
 30
0.0
  0
VERTEX
  5
94E
  8
LAYER01
 62
     7
 10
6899.0003841138259
 20
7327.2142010588213
 30
0.0
  0
VERTEX
  5
94F
  8
LAYER01
 62
     7
 10
6914.8601551117881
 20
7319.2843155598412
 30
0.0
  0
VERTEX
  5
950
  8
LAYER01
 62
     7
 10
6926.7549833602607
 20
7307.3894873113677
 30
0.0
  0
VERTEX
  5
951
  8
LAYER01
 62
     7
 10
6938.6498116087323
 20
7295.4946590628961
 30
0.0
  0
VERTEX
  5
952
  8
LAYER01
 62
     7
 10
6946.5796971077143
 20
7279.634888064933
 30
0.0
  0
VERTEX
  5
953
  8
LAYER01
 62
     7
 10
6954.5095826066963
 20
7263.7751170669708
 30
0.0
  0
VERTEX
  5
954
  8
LAYER01
 62
     7
 10
6954.5095826066963
 20
7247.9153460690077
 30
0.0
  0
VERTEX
  5
955
  8
LAYER01
 62
     7
 10
6954.5095826066963
 20
7247.9153460690077
 30
0.0
  0
VERTEX
  5
956
  8
LAYER01
 62
     7
 10
6954.5095826066963
 20
7228.0906323215549
 30
0.0
  0
VERTEX
  5
957
  8
LAYER01
 62
     7
 10
6946.5796971077143
 20
7212.2308613235909
 30
0.0
  0
VERTEX
  5
958
  8
LAYER01
 62
     7
 10
6938.6498116087323
 20
7196.3710903256278
 30
0.0
  0
VERTEX
  5
959
  8
LAYER01
 62
     7
 10
6926.7549833602607
 20
7184.4762620771562
 30
0.0
  0
VERTEX
  5
95A
  8
LAYER01
 62
     7
 10
6914.8601551117881
 20
7172.5814338286846
 30
0.0
  0
VERTEX
  5
95B
  8
LAYER01
 62
     7
 10
6899.0003841138259
 20
7164.6515483297017
 30
0.0
  0
VERTEX
  5
95C
  8
LAYER01
 62
     7
 10
6883.1406131158628
 20
7160.6866055802111
 30
0.0
  0
VERTEX
  5
95D
  8
LAYER01
 62
     7
 10
6867.2808421178988
 20
7160.6866055802111
 30
0.0
  0
VERTEX
  5
95E
  8
LAYER01
 62
     7
 10
6867.2808421178988
 20
7160.6866055802111
 30
0.0
  0
VERTEX
  5
95F
  8
LAYER01
 62
     7
 10
6851.4210711199376
 20
7160.6866055802111
 30
0.0
  0
VERTEX
  5
960
  8
LAYER01
 62
     7
 10
6831.5963573724839
 20
7164.6515483297017
 30
0.0
  0
VERTEX
  5
961
  8
LAYER01
 62
     7
 10
6819.7015291240123
 20
7172.5814338286846
 30
0.0
  0
VERTEX
  5
962
  8
LAYER01
 62
     7
 10
6803.8417581260492
 20
7184.4762620771562
 30
0.0
  0
VERTEX
  5
963
  8
LAYER01
 62
     7
 10
6795.9118726270672
 20
7196.3710903256278
 30
0.0
  0
VERTEX
  5
964
  8
LAYER01
 62
     7
 10
6787.9819871280861
 20
7212.2308613235909
 30
0.0
  0
VERTEX
  5
965
  8
LAYER01
 62
     7
 10
6780.0521016291041
 20
7228.0906323215549
 30
0.0
  0
VERTEX
  5
966
  8
LAYER01
 62
     7
 10
6780.0521016291041
 20
7247.9153460690077
 30
0.0
  0
VERTEX
  5
967
  8
LAYER01
 62
     7
 10
6780.0521016291041
 20
7247.9153460690077
 30
0.0
  0
VERTEX
  5
968
  8
LAYER01
 62
     7
 10
6780.0521016291041
 20
7263.7751170669708
 30
0.0
  0
VERTEX
  5
969
  8
LAYER01
 62
     7
 10
6787.9819871280861
 20
7279.634888064933
 30
0.0
  0
VERTEX
  5
96A
  8
LAYER01
 62
     7
 10
6795.9118726270672
 20
7295.4946590628961
 30
0.0
  0
VERTEX
  5
96B
  8
LAYER01
 62
     7
 10
6803.8417581260492
 20
7307.3894873113677
 30
0.0
  0
VERTEX
  5
96C
  8
LAYER01
 62
     7
 10
6819.7015291240123
 20
7319.2843155598412
 30
0.0
  0
VERTEX
  5
96D
  8
LAYER01
 62
     7
 10
6831.5963573724839
 20
7327.2142010588213
 30
0.0
  0
VERTEX
  5
96E
  8
LAYER01
 62
     7
 10
6851.4210711199376
 20
7331.1791438083128
 30
0.0
  0
VERTEX
  5
96F
  8
LAYER01
 62
     7
 10
6867.2808421178988
 20
7335.1440865578043
 30
0.0
  0
VERTEX
  5
970
  8
LAYER01
 62
     7
 10
6867.2808421178988
 20
7335.1440865578043
 30
0.0
  0
SEQEND
  5
971
  8
LAYER01
 62
     7
  0
POLYLINE
  5
972
  8
LAYER01
 62
     7
 66
     1
 10
0.0
 20
0.0
 30
0.0
 70
     1
  0
VERTEX
  5
973
  8
LAYER01
 62
     7
 10
6883.1406131158628
 20
7239.9854605700266
 30
0.0
  0
VERTEX
  5
974
  8
LAYER01
 62
     7
 10
6883.1406131158628
 20
7239.9854605700266
 30
0.0
  0
VERTEX
  5
975
  8
LAYER01
 62
     7
 10
6895.0354413643354
 20
7243.950403319518
 30
0.0
  0
VERTEX
  5
976
  8
LAYER01
 62
     7
 10
6906.930269612807
 20
7247.9153460690077
 30
0.0
  0
VERTEX
  5
977
  8
LAYER01
 62
     7
 10
6914.8601551117881
 20
7259.8101743174793
 30
0.0
  0
VERTEX
  5
978
  8
LAYER01
 62
     7
 10
6914.8601551117881
 20
7271.705002565951
 30
0.0
  0
VERTEX
  5
979
  8
LAYER01
 62
     7
 10
6914.8601551117881
 20
7271.705002565951
 30
0.0
  0
VERTEX
  5
97A
  8
LAYER01
 62
     7
 10
6914.8601551117881
 20
7287.5647735639141
 30
0.0
  0
VERTEX
  5
97B
  8
LAYER01
 62
     7
 10
6902.9653268633156
 20
7299.4596018123866
 30
0.0
  0
VERTEX
  5
97C
  8
LAYER01
 62
     7
 10
6891.0704986148439
 20
7303.4245445618772
 30
0.0
  0
VERTEX
  5
97D
  8
LAYER01
 62
     7
 10
6875.2107276168808
 20
7303.4245445618772
 30
0.0
  0
VERTEX
  5
97E
  8
LAYER01
 62
     7
 10
6827.6314146229934
 20
7303.4245445618772
 30
0.0
  0
VERTEX
  5
97F
  8
LAYER01
 62
     7
 10
6827.6314146229934
 20
7188.4412048266468
 30
0.0
  0
VERTEX
  5
980
  8
LAYER01
 62
     7
 10
6843.4911856209546
 20
7188.4412048266468
 30
0.0
  0
VERTEX
  5
981
  8
LAYER01
 62
     7
 10
6843.4911856209546
 20
7239.9854605700266
 30
0.0
  0
VERTEX
  5
982
  8
LAYER01
 62
     7
 10
6867.2808421178988
 20
7239.9854605700266
 30
0.0
  0
VERTEX
  5
983
  8
LAYER01
 62
     7
 10
6895.0354413643354
 20
7188.4412048266468
 30
0.0
  0
VERTEX
  5
984
  8
LAYER01
 62
     7
 10
6914.8601551117881
 20
7188.4412048266468
 30
0.0
  0
VERTEX
  5
985
  8
LAYER01
 62
     7
 10
6883.1406131158628
 20
7239.9854605700266
 30
0.0
  0
VERTEX
  5
986
  8
LAYER01
 62
     7
 10
6883.1406131158628
 20
7239.9854605700266
 30
0.0
  0
SEQEND
  5
987
  8
LAYER01
 62
     7
  0
POLYLINE
  5
988
  8
LAYER01
 62
     7
 66
     1
 10
0.0
 20
0.0
 30
0.0
 70
     1
  0
VERTEX
  5
989
  8
LAYER01
 62
     7
 10
6871.2457848673903
 20
7287.5647735639141
 30
0.0
  0
VERTEX
  5
98A
  8
LAYER01
 62
     7
 10
6871.2457848673903
 20
7287.5647735639141
 30
0.0
  0
VERTEX
  5
98B
  8
LAYER01
 62
     7
 10
6891.0704986148439
 20
7283.5998308144244
 30
0.0
  0
VERTEX
  5
98C
  8
LAYER01
 62
     7
 10
6899.0003841138259
 20
7279.634888064933
 30
0.0
  0
VERTEX
  5
98D
  8
LAYER01
 62
     7
 10
6899.0003841138259
 20
7271.705002565951
 30
0.0
  0
VERTEX
  5
98E
  8
LAYER01
 62
     7
 10
6899.0003841138259
 20
7271.705002565951
 30
0.0
  0
VERTEX
  5
98F
  8
LAYER01
 62
     7
 10
6895.0354413643354
 20
7263.7751170669708
 30
0.0
  0
VERTEX
  5
990
  8
LAYER01
 62
     7
 10
6887.1055558653534
 20
7259.8101743174793
 30
0.0
  0
VERTEX
  5
991
  8
LAYER01
 62
     7
 10
6863.3158993684092
 20
7255.8452315679879
 30
0.0
  0
VERTEX
  5
992
  8
LAYER01
 62
     7
 10
6843.4911856209546
 20
7255.8452315679879
 30
0.0
  0
VERTEX
  5
993
  8
LAYER01
 62
     7
 10
6843.4911856209546
 20
7287.5647735639141
 30
0.0
  0
VERTEX
  5
994
  8
LAYER01
 62
     7
 10
6871.2457848673903
 20
7287.5647735639141
 30
0.0
  0
VERTEX
  5
995
  8
LAYER01
 62
     7
 10
6871.2457848673903
 20
7287.5647735639141
 30
0.0
  0
SEQEND
  5
996
  8
LAYER01
 62
     7
  0
ENDBLK
  5
997
  8
0
 62
     7
  0
BLOCK
  8
0
 62
     7
  2
*D72
 70
     1
 10
0.0
 20
0.0
 30
0.0
  3
*D72
  1

  0
POINT
  5
D3F
  8
DEFPOINTS
 62
     0
 10
-2880.5365780000002
 20
6089.1507359999996
 30
0.0
  0
POINT
  5
D40
  8
DEFPOINTS
 62
     0
 10
0.0
 20
0.0
 30
0.0
  0
POINT
  5
D41
  8
DEFPOINTS
 62
     0
 10
0.0
 20
0.0
 30
0.0
  0
POINT
  5
D42
  8
DEFPOINTS
 62
     0
 10
0.0
 20
0.0
 30
0.0
  0
POINT
  5
D43
  8
DEFPOINTS
 62
     0
 10
0.0
 20
0.0
 30
0.0
  0
ENDBLK
  5
D3E
  8
0
 62
     7
  0
BLOCK
  8
0
 62
     7
  2
*D73
 70
     1
 10
0.0
 20
0.0
 30
0.0
  3
*D73
  1

  0
POINT
  5
D47
  8
DEFPOINTS
 62
     0
 10
-559.72503700000004
 20
6032.4467889999987
 30
0.0
  0
POINT
  5
D48
  8
DEFPOINTS
 62
     0
 10
0.0
 20
0.0
 30
0.0
  0
POINT
  5
D49
  8
DEFPOINTS
 62
     0
 10
0.0
 20
0.0
 30
0.0
  0
POINT
  5
D4A
  8
DEFPOINTS
 62
     0
 10
0.0
 20
0.0
 30
0.0
  0
POINT
  5
D4B
  8
DEFPOINTS
 62
     0
 10
0.0
 20
0.0
 30
0.0
  0
ENDBLK
  5
D46
  8
0
 62
     7
  0
ENDSEC
  0
SECTION
  2
ENTITIES
  0
LINE
  5
5CE
  8
KERA4
  6
CONTINUOUS
 62
     1
 10
605.45353899999986
 20
4894.5466660000002
 30
0.0
 11
241.20778300000001
 21
4894.4970560000002
 31
0.0
  0
POLYLINE
  5
5CF
  8
KERA4
  6
CONTINUOUS
 62
     1
 66
     1
 10
0.0
 20
0.0
 30
0.0
  0
VERTEX
  5
CE6
  8
KERA4
  6
CONTINUOUS
 62
     1
 10
-824.24055699999997
 20
3455.1739899999998
 30
0.0
  0
VERTEX
  5
CE7
  8
KERA4
  6
CONTINUOUS
 62
     1
 10
-862.41220099999998
 20
3372.5793429999999
 30
0.0
  0
VERTEX
  5
CE8
  8
KERA4
  6
CONTINUOUS
 62
     1
 10
-814.251621
 20
3293.4210460000008
 30
0.0
  0
VERTEX
  5
CE9
  8
KERA4
  6
CONTINUOUS
 62
     1
 10
-867.547551
 20
3200.2778819999999
 30
0.0
  0
SEQEND
  5
CEA
  8
KERA4
  6
CONTINUOUS
 62
     1
  0
POLYLINE
  5
5D5
  8
KERA4
  6
CONTINUOUS
 62
     1
 66
     1
 10
0.0
 20
0.0
 30
0.0
  0
VERTEX
  5
CEB
  8
KERA4
  6
CONTINUOUS
 62
     1
 10
-812.160796
 20
3454.7589039999998
 30
0.0
  0
VERTEX
  5
CEC
  8
KERA4
  6
CONTINUOUS
 62
     1
 10
-850.33244100000013
 20
3372.1642579999998
 30
0.0
  0
VERTEX
  5
CED
  8
KERA4
  6
CONTINUOUS
 62
     1
 10
-802.17185999999992
 20
3293.00596
 30
0.0
  0
VERTEX
  5
CEE
  8
KERA4
  6
CONTINUOUS
 62
     1
 10
-855.46779100000003
 20
3199.8627969999998
 30
0.0
  0
SEQEND
  5
CEF
  8
KERA4
  6
CONTINUOUS
 62
     1
  0
LINE
  5
5DB
  8
0
  6
CONTINUOUS
 62
     5
 10
-757.64251000000002
 20
3203.1026649999999
 30
0.0
 11
-855.39244499999995
 21
3203.1793779999998
 31
0.0
  0
LINE
  5
5DC
  8
0
  6
CONTINUOUS
 62
     5
 10
-818.72349199999985
 20
3439.8774310000008
 30
0.0
 11
-757.42462299999988
 21
3439.8774310000008
 31
0.0
  0
LINE
  5
5DD
  8
0
  6
CONTINUOUS
 62
     5
 10
-813.29859699999997
 20
3451.9327539999999
 30
0.0
 11
-757.41352900000004
 21
3451.9327539999999
 31
0.0
  0
LINE
  5
5DE
  8
0
  6
CONTINUOUS
 62
     5
 10
-757.64251000000002
 20
3203.1026649999999
 30
0.0
 11
-757.41352900000004
 21
3451.9327539999999
 31
0.0
  0
POLYLINE
  5
5DF
  8
KERA4
  6
CONTINUOUS
 62
     1
 66
     1
 10
0.0
 20
0.0
 30
0.0
  0
VERTEX
  5
CF0
  8
KERA4
  6
CONTINUOUS
 62
     1
 10
-823.98699599999998
 20
2314.4327709999998
 30
0.0
  0
VERTEX
  5
CF1
  8
KERA4
  6
CONTINUOUS
 62
     1
 10
-862.15864099999999
 20
2231.8381250000002
 30
0.0
  0
VERTEX
  5
CF2
  8
KERA4
  6
CONTINUOUS
 62
     1
 10
-813.99806100000001
 20
2152.6798269999999
 30
0.0
  0
VERTEX
  5
CF3
  8
KERA4
  6
CONTINUOUS
 62
     1
 10
-867.29399100000001
 20
2059.5366640000002
 30
0.0
  0
SEQEND
  5
CF4
  8
KERA4
  6
CONTINUOUS
 62
     1
  0
POLYLINE
  5
5E5
  8
KERA4
  6
CONTINUOUS
 62
     1
 66
     1
 10
0.0
 20
0.0
 30
0.0
  0
VERTEX
  5
CF5
  8
KERA4
  6
CONTINUOUS
 62
     1
 10
-811.90723600000001
 20
2314.0176860000001
 30
0.0
  0
VERTEX
  5
CF6
  8
KERA4
  6
CONTINUOUS
 62
     1
 10
-850.07888099999991
 20
2231.4230389999998
 30
0.0
  0
VERTEX
  5
CF7
  8
KERA4
  6
CONTINUOUS
 62
     1
 10
-801.91829999999993
 20
2152.2647419999998
 30
0.0
  0
VERTEX
  5
CF8
  8
KERA4
  6
CONTINUOUS
 62
     1
 10
-855.21422999999993
 20
2059.1215780000002
 30
0.0
  0
SEQEND
  5
CF9
  8
KERA4
  6
CONTINUOUS
 62
     1
  0
LINE
  5
5EB
  8
0
  6
CONTINUOUS
 62
     5
 10
-757.38894999999991
 20
2062.3614470000002
 30
0.0
 11
-855.13888499999996
 21
2062.4381600000011
 31
0.0
  0
LINE
  5
5EC
  8
0
  6
CONTINUOUS
 62
     5
 10
-818.46993200000009
 20
2299.1362130000002
 30
0.0
 11
-757.171063
 21
2299.1362130000002
 31
0.0
  0
LINE
  5
5ED
  8
0
  6
CONTINUOUS
 62
     5
 10
-813.04503699999998
 20
2311.1915359999998
 30
0.0
 11
-757.15996900000005
 21
2311.1915359999998
 31
0.0
  0
LINE
  5
5EE
  8
0
  6
CONTINUOUS
 62
     5
 10
-757.38894999999991
 20
2062.3614470000002
 30
0.0
 11
-757.15996900000005
 21
2311.1915359999998
 31
0.0
  0
POLYLINE
  5
5EF
  8
KERA4
  6
CONTINUOUS
 62
     1
 66
     1
 10
0.0
 20
0.0
 30
0.0
  0
VERTEX
  5
CFA
  8
KERA4
  6
CONTINUOUS
 62
     1
 10
-2729.1905299999999
 20
6156.5210870000001
 30
0.0
  0
VERTEX
  5
CFB
  8
KERA4
  6
CONTINUOUS
 62
     1
 10
-2696.4503089999998
 20
6075.5129390000002
 30
0.0
  0
VERTEX
  5
CFC
  8
KERA4
  6
CONTINUOUS
 62
     1
 10
-2737.7581440000008
 20
5997.8751339999999
 30
0.0
  0
VERTEX
  5
CFD
  8
KERA4
  6
CONTINUOUS
 62
     1
 10
-2692.045666
 20
5906.5210870000001
 30
0.0
  0
SEQEND
  5
CFE
  8
KERA4
  6
CONTINUOUS
 62
     1
  0
POLYLINE
  5
5F5
  8
KERA4
  6
CONTINUOUS
 62
     1
 66
     1
 10
0.0
 20
0.0
 30
0.0
  0
VERTEX
  5
CFF
  8
KERA4
  6
CONTINUOUS
 62
     1
 10
-2705.586052000001
 20
6156.5210870000001
 30
0.0
  0
VERTEX
  5
D00
  8
KERA4
  6
CONTINUOUS
 62
     1
 10
-2672.845832
 20
6075.5129390000002
 30
0.0
  0
VERTEX
  5
D01
  8
KERA4
  6
CONTINUOUS
 62
     1
 10
-2714.153667
 20
5997.8751339999999
 30
0.0
  0
VERTEX
  5
D02
  8
KERA4
  6
CONTINUOUS
 62
     1
 10
-2668.441189000001
 20
5906.5210870000001
 30
0.0
  0
SEQEND
  5
D03
  8
KERA4
  6
CONTINUOUS
 62
     1
  0
POLYLINE
  5
5FB
  8
KERA4
  6
CONTINUOUS
 62
     1
 66
     1
 10
0.0
 20
0.0
 30
0.0
  0
VERTEX
  5
D04
  8
KERA4
  6
CONTINUOUS
 62
     1
 10
-736.79847199999995
 20
6156.5210870000001
 30
0.0
  0
VERTEX
  5
D05
  8
KERA4
  6
CONTINUOUS
 62
     1
 10
-769.53869199999986
 20
6075.5129390000002
 30
0.0
  0
VERTEX
  5
D06
  8
KERA4
  6
CONTINUOUS
 62
     1
 10
-728.23085700000001
 20
5997.8751339999999
 30
0.0
  0
VERTEX
  5
D07
  8
KERA4
  6
CONTINUOUS
 62
     1
 10
-773.94333600000004
 20
5906.5210870000001
 30
0.0
  0
SEQEND
  5
D08
  8
KERA4
  6
CONTINUOUS
 62
     1
  0
POLYLINE
  5
601
  8
KERA4
  6
CONTINUOUS
 62
     1
 66
     1
 10
0.0
 20
0.0
 30
0.0
  0
VERTEX
  5
D09
  8
KERA4
  6
CONTINUOUS
 62
     1
 10
-760.40294900000004
 20
6156.5210870000001
 30
0.0
  0
VERTEX
  5
D0A
  8
KERA4
  6
CONTINUOUS
 62
     1
 10
-793.14317000000005
 20
6075.5129390000002
 30
0.0
  0
VERTEX
  5
D0B
  8
KERA4
  6
CONTINUOUS
 62
     1
 10
-751.83533399999988
 20
5997.8751339999999
 30
0.0
  0
VERTEX
  5
D0C
  8
KERA4
  6
CONTINUOUS
 62
     1
 10
-797.54781299999991
 20
5906.5210870000001
 30
0.0
  0
SEQEND
  5
D0D
  8
KERA4
  6
CONTINUOUS
 62
     1
  0
POLYLINE
  5
607
  8
KERA4
  6
CONTINUOUS
 62
     1
 66
     1
 10
0.0
 20
0.0
 30
0.0
  0
VERTEX
  5
D0E
  8
KERA4
  6
CONTINUOUS
 62
     1
 10
-2908.27378
 20
3455.1739899999998
 30
0.0
  0
VERTEX
  5
D0F
  8
KERA4
  6
CONTINUOUS
 62
     1
 10
-2946.4454249999999
 20
3372.5793429999999
 30
0.0
  0
VERTEX
  5
D10
  8
KERA4
  6
CONTINUOUS
 62
     1
 10
-2898.2848450000001
 20
3293.4210460000008
 30
0.0
  0
VERTEX
  5
D11
  8
KERA4
  6
CONTINUOUS
 62
     1
 10
-2951.5807749999999
 20
3200.2778819999999
 30
0.0
  0
SEQEND
  5
D12
  8
KERA4
  6
CONTINUOUS
 62
     1
  0
POLYLINE
  5
60D
  8
KERA4
  6
CONTINUOUS
 62
     1
 66
     1
 10
0.0
 20
0.0
 30
0.0
  0
VERTEX
  5
D13
  8
KERA4
  6
CONTINUOUS
 62
     1
 10
-2896.1940199999999
 20
3454.7589039999998
 30
0.0
  0
VERTEX
  5
D14
  8
KERA4
  6
CONTINUOUS
 62
     1
 10
-2934.3656649999998
 20
3372.1642579999998
 30
0.0
  0
VERTEX
  5
D15
  8
KERA4
  6
CONTINUOUS
 62
     1
 10
-2886.2050840000002
 20
3293.00596
 30
0.0
  0
VERTEX
  5
D16
  8
KERA4
  6
CONTINUOUS
 62
     1
 10
-2939.5010149999998
 20
3199.8627969999998
 30
0.0
  0
SEQEND
  5
D17
  8
KERA4
  6
CONTINUOUS
 62
     1
  0
POLYLINE
  5
613
  8
KERA4
  6
CONTINUOUS
 62
     1
 66
     1
 10
0.0
 20
0.0
 30
0.0
  0
VERTEX
  5
D18
  8
KERA4
  6
CONTINUOUS
 62
     1
 10
-2908.27378
 20
2314.4327709999998
 30
0.0
  0
VERTEX
  5
D19
  8
KERA4
  6
CONTINUOUS
 62
     1
 10
-2946.4454249999999
 20
2231.8381250000002
 30
0.0
  0
VERTEX
  5
D1A
  8
KERA4
  6
CONTINUOUS
 62
     1
 10
-2898.2848450000001
 20
2152.6798269999999
 30
0.0
  0
VERTEX
  5
D1B
  8
KERA4
  6
CONTINUOUS
 62
     1
 10
-2951.5807749999999
 20
2059.5366640000002
 30
0.0
  0
SEQEND
  5
D1C
  8
KERA4
  6
CONTINUOUS
 62
     1
  0
POLYLINE
  5
619
  8
KERA4
  6
CONTINUOUS
 62
     1
 66
     1
 10
0.0
 20
0.0
 30
0.0
  0
VERTEX
  5
D1D
  8
KERA4
  6
CONTINUOUS
 62
     1
 10
-2896.1940199999999
 20
2314.0176860000001
 30
0.0
  0
VERTEX
  5
D1E
  8
KERA4
  6
CONTINUOUS
 62
     1
 10
-2934.3656649999998
 20
2231.4230389999998
 30
0.0
  0
VERTEX
  5
D1F
  8
KERA4
  6
CONTINUOUS
 62
     1
 10
-2886.2050840000002
 20
2152.2647419999998
 30
0.0
  0
VERTEX
  5
D20
  8
KERA4
  6
CONTINUOUS
 62
     1
 10
-2939.5010149999998
 20
2059.1215780000002
 30
0.0
  0
SEQEND
  5
D21
  8
KERA4
  6
CONTINUOUS
 62
     1
  0
LINE
  5
61F
  8
LAYER01
  6
CONTINUOUS
 62
     5
 10
-1732.9945009999999
 20
6156.5210870000001
 30
0.0
 11
-2705.586052000001
 21
6156.5210870000001
 31
0.0
  0
LINE
  5
620
  8
LAYER01
  6
CONTINUOUS
 62
     5
 10
-1732.9945009999999
 20
6144.521087000001
 30
0.0
 11
-2700.7361370000008
 21
6144.521087000001
 31
0.0
  0
LINE
  5
621
  8
LAYER01
  6
CONTINUOUS
 62
     5
 10
-2668.441189000001
 20
5906.5210870000001
 30
0.0
 11
-2082.9945010000001
 21
5906.5210870000001
 31
0.0
  0
ARC
  5
622
  8
LAYER01
  6
CONTINUOUS
 62
     5
 10
-1732.9945009999999
 20
5960.6877539999996
 30
0.0
 40
354.16666700000002
 50
188.79741100000001
 51
351.20258899999999
  0
LINE
  5
623
  8
LAYER01
  6
CONTINUOUS
 62
     5
 10
-1732.9945009999999
 20
5983.1955630000002
 30
0.0
 11
-1732.9945009999999
 21
5899.8466109999999
 31
0.0
  0
LINE
  5
624
  8
LAYER01
  6
CONTINUOUS
 62
     5
 10
-1774.6689759999999
 20
5941.5210870000001
 30
0.0
 11
-1691.320025
 21
5941.5210870000001
 31
0.0
  0
POLYLINE
  5
625
  8
LAYER01
  6
CONTINUOUS
 62
     5
 66
     1
 10
0.0
 20
0.0
 30
0.0
 70
     1
  0
VERTEX
  5
D22
  8
LAYER01
  6
CONTINUOUS
 62
     5
 10
-1709.9945009999999
 20
5941.5210870000001
 30
0.0
 42
0.4142140000000001
  0
VERTEX
  5
D23
  8
LAYER01
  6
CONTINUOUS
 62
     5
 10
-1732.9945009999999
 20
5964.5210870000001
 30
0.0
 42
2.414213999999999
  0
VERTEX
  5
D24
  8
LAYER01
  6
CONTINUOUS
 62
     5
 10
-1709.9945009999999
 20
5941.5210870000001
 30
0.0
  0
SEQEND
  5
D25
  8
LAYER01
  6
CONTINUOUS
 62
     5
  0
POLYLINE
  5
62A
  8
LAYER01
  6
CONTINUOUS
 62
     5
 66
     1
 10
0.0
 20
0.0
 30
0.0
 70
     1
  0
VERTEX
  5
D26
  8
LAYER01
  6
CONTINUOUS
 62
     5
 10
-1700.9945009999999
 20
5941.5210870000001
 30
0.0
 42
0.4142140000000001
  0
VERTEX
  5
D27
  8
LAYER01
  6
CONTINUOUS
 62
     5
 10
-1732.9945009999999
 20
5973.5210870000001
 30
0.0
 42
2.414213999999999
  0
VERTEX
  5
D28
  8
LAYER01
  6
CONTINUOUS
 62
     5
 10
-1700.9945009999999
 20
5941.5210870000001
 30
0.0
  0
SEQEND
  5
D29
  8
LAYER01
  6
CONTINUOUS
 62
     5
  0
LINE
  5
62F
  8
LAYER01
  6
CONTINUOUS
 62
     5
 10
-1757.9945009999999
 20
6076.5210870000001
 30
0.0
 11
-1707.9945009999999
 21
6076.5210870000001
 31
0.0
  0
LINE
  5
630
  8
LAYER01
  6
CONTINUOUS
 62
     5
 10
-1732.9945009999999
 20
6101.5210870000001
 30
0.0
 11
-1732.9945009999999
 21
6051.521087000001
 31
0.0
  0
POLYLINE
  5
631
  8
LAYER01
  6
CONTINUOUS
 62
     5
 66
     1
 10
0.0
 20
0.0
 30
0.0
 70
     1
  0
VERTEX
  5
D2A
  8
LAYER01
  6
CONTINUOUS
 62
     5
 10
-1712.9945009999999
 20
6076.5210870000001
 30
0.0
 42
0.4142140000000001
  0
VERTEX
  5
D2B
  8
LAYER01
  6
CONTINUOUS
 62
     5
 10
-1732.9945009999999
 20
6096.5210870000001
 30
0.0
 42
2.414213999999999
  0
VERTEX
  5
D2C
  8
LAYER01
  6
CONTINUOUS
 62
     5
 10
-1712.9945009999999
 20
6076.5210870000001
 30
0.0
  0
SEQEND
  5
D2D
  8
LAYER01
  6
CONTINUOUS
 62
     5
  0
LINE
  5
636
  8
LAYER01
  6
CONTINUOUS
 62
     5
 10
-1757.9945009999999
 20
6076.5210870000001
 30
0.0
 11
-1707.9945009999999
 21
6076.5210870000001
 31
0.0
  0
LINE
  5
637
  8
LAYER01
  6
CONTINUOUS
 62
     5
 10
-1732.9945009999999
 20
6101.5210870000001
 30
0.0
 11
-1732.9945009999999
 21
6051.521087000001
 31
0.0
  0
POLYLINE
  5
638
  8
LAYER01
  6
CONTINUOUS
 62
     5
 66
     1
 10
0.0
 20
0.0
 30
0.0
 70
     1
  0
VERTEX
  5
D2E
  8
LAYER01
  6
CONTINUOUS
 62
     5
 10
-1555.4945009999999
 20
5839.0210870000001
 30
0.0
 42
0.4142140000000001
  0
VERTEX
  5
D2F
  8
LAYER01
  6
CONTINUOUS
 62
     5
 10
-1732.9945009999999
 20
6016.5210870000001
 30
0.0
 42
2.414213999999999
  0
VERTEX
  5
D30
  8
LAYER01
  6
CONTINUOUS
 62
     5
 10
-1555.4945009999999
 20
5839.0210870000001
 30
0.0
  0
SEQEND
  5
D31
  8
LAYER01
  6
CONTINUOUS
 62
     5
  0
LINE
  5
63D
  8
LAYER01
  6
CONTINUOUS
 62
     5
 10
-1732.9945009999999
 20
6156.5210870000001
 30
0.0
 11
-760.40294900000004
 21
6156.5210870000001
 31
0.0
  0
LINE
  5
63E
  8
LAYER01
  6
CONTINUOUS
 62
     5
 10
-1732.9945009999999
 20
6144.521087000001
 30
0.0
 11
-765.25286399999993
 21
6144.521087000001
 31
0.0
  0
LINE
  5
63F
  8
LAYER01
  6
CONTINUOUS
 62
     5
 10
-797.54781299999991
 20
5906.5210870000001
 30
0.0
 11
-1382.9945009999999
 21
5906.5210870000001
 31
0.0
  0
LINE
  5
640
  8
LAYER01
  6
CONTINUOUS
 62
     5
 10
-482.9945009999999
 20
6156.5210870000001
 30
0.0
 11
-482.9945009999999
 21
5906.5210870000001
 31
0.0
  0
LINE
  5
641
  8
LAYER01
  6
CONTINUOUS
 62
     5
 10
-736.79847199999995
 20
6156.5210870000001
 30
0.0
 11
-482.9945009999999
 21
6156.5210870000001
 31
0.0
  0
LINE
  5
642
  8
LAYER01
  6
CONTINUOUS
 62
     5
 10
-741.64838699999984
 20
6144.521087000001
 30
0.0
 11
-482.9945009999999
 21
6144.521087000001
 31
0.0
  0
LINE
  5
643
  8
LAYER01
  6
CONTINUOUS
 62
     5
 10
-482.9945009999999
 20
5906.5210870000001
 30
0.0
 11
-773.94333600000004
 21
5906.5210870000001
 31
0.0
  0
LINE
  5
644
  8
LAYER01
  6
CONTINUOUS
 62
     5
 10
-2729.1905299999999
 20
6156.5210870000001
 30
0.0
 11
-2982.9945010000001
 21
6156.5210870000001
 31
0.0
  0
LINE
  5
645
  8
LAYER01
  6
CONTINUOUS
 62
     5
 10
-2724.3406140000002
 20
6144.521087000001
 30
0.0
 11
-2982.9945010000001
 21
6144.521087000001
 31
0.0
  0
LINE
  5
646
  8
LAYER01
  6
CONTINUOUS
 62
     5
 10
-2982.9945010000001
 20
5906.5210870000001
 30
0.0
 11
-2692.045666
 21
5906.5210870000001
 31
0.0
  0
LINE
  5
647
  8
LAYER01
  6
CONTINUOUS
 62
     5
 10
-2982.9945010000001
 20
6156.5210870000001
 30
0.0
 11
-2982.9945010000001
 21
5906.5210870000001
 31
0.0
  0
POLYLINE
  5
648
  8
LAYER01
  6
CONTINUOUS
 62
     7
 66
     1
 10
0.0
 20
0.0
 30
0.0
 70
     1
  0
VERTEX
  5
D32
  8
LAYER01
  6
CONTINUOUS
 62
     7
 10
-4277.0279090000004
 20
1444.5101950000001
 30
0.0
  0
VERTEX
  5
D33
  8
LAYER01
  6
CONTINUOUS
 62
     7
 10
-4277.0279090000004
 20
6949.2429810000012
 30
0.0
  0
VERTEX
  5
D34
  8
LAYER01
  6
CONTINUOUS
 62
     7
 10
3675.5795440000002
 20
6949.2429810000012
 30
0.0
  0
VERTEX
  5
D35
  8
LAYER01
  6
CONTINUOUS
 62
     7
 10
3675.5795440000002
 20
1444.5101950000001
 30
0.0
  0
SEQEND
  5
D36
  8
LAYER01
  6
CONTINUOUS
 62
     7
  0
INSERT
  5
64E
  8
LAYER01
  2
PRIVO-G1
 10
0.0
 20
0.0
 30
0.0
  0
LINE
  5
64F
  8
LAYER01
  6
CONTINUOUS
 62
     1
 10
1189.5795439999999
 20
1785.5101950000001
 30
0.0
 11
2509.5795440000011
 21
1785.5101950000001
 31
0.0
  0
LINE
  5
650
  8
LAYER01
  6
CONTINUOUS
 62
     1
 10
1189.5795439999999
 20
1730.5101950000001
 30
0.0
 11
2509.5795440000011
 21
1730.5101950000001
 31
0.0
  0
LINE
  5
651
  8
LAYER01
  6
CONTINUOUS
 62
     1
 10
1189.5795439999999
 20
1675.5101950000001
 30
0.0
 11
3675.5795440000002
 21
1675.5101950000001
 31
0.0
  0
LINE
  5
652
  8
LAYER01
  6
CONTINUOUS
 62
     1
 10
1189.5795439999999
 20
1510.5101950000001
 30
0.0
 11
3675.5795440000002
 21
1510.5101950000001
 31
0.0
  0
LINE
  5
653
  8
LAYER01
  6
CONTINUOUS
 62
     1
 10
1189.5795439999999
 20
1950.5101950000001
 30
0.0
 11
3675.5795440000002
 21
1950.5101950000001
 31
0.0
  0
POLYLINE
  5
654
  8
LAYER01
  6
CONTINUOUS
 62
     1
 66
     1
 10
0.0
 20
0.0
 30
0.0
 70
     1
  0
VERTEX
  5
D37
  8
LAYER01
  6
CONTINUOUS
 62
     1
 10
1189.5795439999999
 20
1444.5101950000001
 30
0.0
  0
VERTEX
  5
D38
  8
LAYER01
  6
CONTINUOUS
 62
     1
 10
1189.5795439999999
 20
2181.5101949999998
 30
0.0
  0
VERTEX
  5
D39
  8
LAYER01
  6
CONTINUOUS
 62
     1
 10
3675.5795440000002
 20
2181.5101949999998
 30
0.0
  0
VERTEX
  5
D3A
  8
LAYER01
  6
CONTINUOUS
 62
     1
 10
3675.5795440000002
 20
1444.5101950000001
 30
0.0
  0
SEQEND
  5
D3B
  8
LAYER01
  6
CONTINUOUS
 62
     1
  0
LINE
  5
65A
  8
LAYER01
  6
CONTINUOUS
 62
     1
 10
1189.5795439999999
 20
1895.5101950000001
 30
0.0
 11
2509.5795440000011
 21
1895.5101950000001
 31
0.0
  0
LINE
  5
65B
  8
LAYER01
  6
CONTINUOUS
 62
     1
 10
1189.5795439999999
 20
1840.5101950000001
 30
0.0
 11
2509.5795440000011
 21
1840.5101950000001
 31
0.0
  0
LINE
  5
65C
  8
LAYER01
  6
CONTINUOUS
 62
     1
 10
1189.5795439999999
 20
1565.5101950000001
 30
0.0
 11
1904.5795439999999
 21
1565.5101950000001
 31
0.0
  0
LINE
  5
65D
  8
LAYER01
  6
CONTINUOUS
 62
     1
 10
1189.5795439999999
 20
1620.5101950000001
 30
0.0
 11
1904.5795439999999
 21
1620.5101950000001
 31
0.0
  0
INSERT
  5
65E
  8
LAYER01
  2
PRIVO-G2
 10
0.0
 20
0.0
 30
0.0
  0
TEXT
  5
65F
  8
LAYER01
  6
CONTINUOUS
 62
     1
 10
1385.6623360000001
 20
1466.5101950000001
 30
0.0
 40
20.899999999999999
  1
Änderung
  7
SIMPLEX
  0
TEXT
  5
660
  8
LAYER01
  6
CONTINUOUS
 62
     7
 10
2558.768853
 20
2323.060422
 30
0.0
 40
16.5
  1
Diese Zeichnung ist geistiges Eigentum der A. Sprenger GmbH
  7
SIMPLEX
  0
TEXT
  5
661
  8
LAYER01
  6
CONTINUOUS
 62
     7
 10
2558.768853
 20
2294.774707
 30
0.0
 40
16.5
  1
und urheberrechtlich geschützt. Ohne unsere Zustimmung darf 
  7
SIMPLEX
  0
TEXT
  5
662
  8
LAYER01
  6
CONTINUOUS
 62
     7
 10
2558.768853
 20
2266.4889929999999
 30
0.0
 40
16.5
  1
sie in keiner Form verwendet oder Dritten zugänglich gemacht
  7
SIMPLEX
  0
TEXT
  5
663
  8
LAYER01
  6
CONTINUOUS
 62
     7
 10
2558.768853
 20
2238.2032789999998
 30
0.0
 40
16.5
  1
werden. ($106 Urheberrecht)
  7
SIMPLEX
  0
TEXT
  5
664
  8
LAYER01
  6
VERDECKT
 62
     1
 10
2576.6111970000002
 20
1982.4527499999999
 30
0.0
 40
55.0
  1
A. Sprenger GmbH
  7
SIMPLEX
  0
LINE
  5
665
  8
LAYER01
  6
CONTINUOUS
 62
     1
 10
3675.5795440000002
 20
2093.5101949999998
 30
0.0
 11
2509.5795440000011
 21
2093.5101949999998
 31
0.0
  0
TEXT
  5
666
  8
LAYER01
  6
CONTINUOUS
 62
     1
 10
3620.5795440000002
 20
1521.5101950000001
 30
0.0
 40
22.0
  1
Bl.
  7
SIMPLEX
  0
TEXT
  5
667
  8
LAYER01
  6
CONTINUOUS
 62
     1
 10
3532.5795440000002
 20
1631.5101950000001
 30
0.0
 40
22.0
  1
Blatt
  7
SIMPLEX
  0
LINE
  5
668
  8
LAYER01
  6
CONTINUOUS
 62
     1
 10
3510.5795440000002
 20
1565.5101950000001
 30
0.0
 11
3675.5795440000002
 21
1565.5101950000001
 31
0.0
  0
LINE
  5
669
  8
LAYER01
  6
CONTINUOUS
 62
     1
 10
3510.5795440000002
 20
1675.5101950000001
 30
0.0
 11
3510.5795440000002
 21
1510.5101950000001
 31
0.0
  0
LINE
  5
66A
  8
LAYER01
  6
CONTINUOUS
 62
     1
 10
3202.5795440000011
 20
2181.5101949999998
 30
0.0
 11
3202.5795440000011
 21
2093.5101949999998
 31
0.0
  0
TEXT
  5
66B
  8
LAYER01
  6
VERDECKT
 62
     1
 10
3288.6903050000001
 20
2124.3050360000002
 30
0.0
 40
22.0
  1
privo.skd
  7
SIMPLEX
  0
LINE
  5
66C
  8
LAYER01
  6
CONTINUOUS
 62
     5
 10
-861.26632899999981
 20
2061.2873760000011
 30
0.0
 11
-1091.248861
 21
2061.2873760000011
 31
0.0
  0
LINE
  5
66D
  8
LAYER01
  6
CONTINUOUS
 62
     5
 10
-1948.2859209999999
 20
2062.234516
 30
0.0
 11
-1791.1998630000001
 21
2062.234516
 31
0.0
  0
INSERT
  5
66E
  8
LAYER01
  2
PRIVO-G3
 10
0.0
 20
0.0
 30
0.0
  0
INSERT
  5
66F
  8
LAYER01
  2
PRIVO-G7
 10
0.0
 20
0.0
 30
0.0
  0
LINE
  5
670
  8
LAYER01
  6
CONTINUOUS
 62
     5
 10
-2902.646843
 20
2300.0552630000002
 30
0.0
 11
-829.86318300000005
 21
2300.0552630000002
 31
0.0
  0
LINE
  5
671
  8
LAYER01
  6
CONTINUOUS
 62
     5
 10
-2896.9361119999999
 20
2312.4119690000011
 30
0.0
 11
-825.94520299999999
 21
2312.4119690000011
 31
0.0
  0
LINE
  5
672
  8
LAYER01
  6
CONTINUOUS
 62
     5
 10
-2937.7198109999999
 20
2062.234516
 30
0.0
 11
-2648.2859210000001
 21
2062.234516
 31
0.0
  0
LINE
  5
673
  8
LAYER01
  6
CONTINUOUS
 62
     5
 10
-2982.398404
 20
2062.234516
 30
0.0
 11
-2982.6286249999998
 21
2312.4119690000011
 31
0.0
  0
LINE
  5
674
  8
LAYER01
  6
CONTINUOUS
 62
     5
 10
-2982.398404
 20
2062.234516
 30
0.0
 11
-2950.0370809999999
 21
2062.234516
 31
0.0
  0
LINE
  5
675
  8
LAYER01
  6
CONTINUOUS
 62
     5
 10
-2982.6172539999998
 20
2300.0552630000002
 30
0.0
 11
-2914.9184380000002
 21
2300.0552630000002
 31
0.0
  0
LINE
  5
676
  8
LAYER01
  6
CONTINUOUS
 62
     5
 10
-2982.6286249999998
 20
2312.4119690000011
 30
0.0
 11
-2909.207707
 21
2312.4119690000011
 31
0.0
  0
LINE
  5
677
  8
LAYER01
  6
CONTINUOUS
 62
     5
 10
-1948.5394819999999
 20
3202.975734000001
 30
0.0
 11
-1791.4534229999999
 21
3202.975734000001
 31
0.0
  0
INSERT
  5
678
  8
LAYER01
  2
PRIVO-G11
 10
0.0
 20
0.0
 30
0.0
  0
INSERT
  5
679
  8
LAYER01
  2
PRIVO-G13
 10
0.0
 20
0.0
 30
0.0
  0
LINE
  5
67A
  8
LAYER01
  6
CONTINUOUS
 62
     5
 10
-2896.1940199999999
 20
3453.1531869999999
 30
0.0
 11
-826.19876299999999
 21
3453.1531869999999
 31
0.0
  0
LINE
  5
67B
  8
LAYER01
  6
CONTINUOUS
 62
     5
 10
-2902.646843
 20
3440.7964809999999
 30
0.0
 11
-830.11674299999993
 21
3440.7964809999999
 31
0.0
  0
LINE
  5
67C
  8
LAYER01
  6
CONTINUOUS
 62
     5
 10
-2937.7198109999999
 20
3202.975734000001
 30
0.0
 11
-2648.5394820000001
 21
3202.975734000001
 31
0.0
  0
LINE
  5
67D
  8
LAYER01
  6
CONTINUOUS
 62
     5
 10
-2982.6172539999998
 20
3440.7964809999999
 30
0.0
 11
-2914.9184380000002
 21
3440.7964809999999
 31
0.0
  0
LINE
  5
67E
  8
LAYER01
  6
CONTINUOUS
 62
     5
 10
-2982.6286249999998
 20
3453.1531869999999
 30
0.0
 11
-2909.207707
 21
3453.1531869999999
 31
0.0
  0
LINE
  5
67F
  8
LAYER01
  6
CONTINUOUS
 62
     5
 10
-2982.398404
 20
3202.975734000001
 30
0.0
 11
-2950.0370809999999
 21
3202.975734000001
 31
0.0
  0
LINE
  5
680
  8
LAYER01
  6
CONTINUOUS
 62
     5
 10
-2982.398404
 20
3202.975734000001
 30
0.0
 11
-2982.6286249999998
 21
3453.1531869999999
 31
0.0
  0
LINE
  5
681
  8
LAYER01
  6
CONTINUOUS
 62
     5
 10
-861.51989000000015
 20
3202.0285939999999
 30
0.0
 11
-1091.5024209999999
 21
3202.0285939999999
 31
0.0
  0
LINE
  5
682
  8
LAYER01
  6
CONTINUOUS
 62
     5
 10
552.48051299999986
 20
4808.8826710000003
 30
0.0
 11
501.41688099999988
 21
4808.8826710000003
 31
0.0
  0
LINE
  5
683
  8
LAYER01
  6
CONTINUOUS
 62
     5
 10
550.714561
 20
4789.948934
 30
0.0
 11
505.036269
 21
4789.9544459999997
 31
0.0
  0
LINE
  5
684
  8
LAYER01
  6
CONTINUOUS
 62
     5
 10
561.41641200000004
 20
4810.7986659999997
 30
0.0
 11
559.79825000000005
 21
4810.7562909999997
 31
0.0
  0
LINE
  5
685
  8
LAYER01
  6
CONTINUOUS
 62
     5
 10
559.79825000000005
 20
4810.7562909999997
 30
0.0
 11
557.54963499999985
 21
4810.3769860000002
 31
0.0
  0
LINE
  5
686
  8
LAYER01
  6
CONTINUOUS
 62
     5
 10
557.54963499999985
 20
4810.3769860000002
 30
0.0
 11
557.54963499999985
 21
4810.3769860000002
 31
0.0
  0
LINE
  5
687
  8
LAYER01
  6
CONTINUOUS
 62
     5
 10
557.54963499999985
 20
4810.3769860000002
 30
0.0
 11
556.09085099999993
 21
4809.8448040000003
 31
0.0
  0
LINE
  5
688
  8
LAYER01
  6
CONTINUOUS
 62
     5
 10
556.09085099999993
 20
4809.8448040000003
 30
0.0
 11
554.55481100000009
 21
4808.8831909999999
 31
0.0
  0
LINE
  5
689
  8
LAYER01
  6
CONTINUOUS
 62
     5
 10
554.55481100000009
 20
4808.8831909999999
 30
0.0
 11
553.17121699999996
 21
4807.6073859999997
 31
0.0
  0
LINE
  5
68A
  8
LAYER01
  6
CONTINUOUS
 62
     5
 10
553.17121699999996
 20
4807.6073859999997
 30
0.0
 11
552.16976999999986
 21
4806.1326250000002
 31
0.0
  0
LINE
  5
68B
  8
LAYER01
  6
CONTINUOUS
 62
     5
 10
552.16976999999986
 20
4806.1326250000002
 30
0.0
 11
552.16976999999986
 21
4806.1326250000002
 31
0.0
  0
LINE
  5
68C
  8
LAYER01
  6
CONTINUOUS
 62
     5
 10
552.16976999999986
 20
4806.1326250000002
 30
0.0
 11
551.18335199999979
 21
4803.4823549999992
 31
0.0
  0
LINE
  5
68D
  8
LAYER01
  6
CONTINUOUS
 62
     5
 10
551.18335199999979
 20
4803.4823549999992
 30
0.0
 11
550.80619999999988
 21
4801.2850280000002
 31
0.0
  0
LINE
  5
68E
  8
LAYER01
  6
CONTINUOUS
 62
     5
 10
550.80619999999988
 20
4801.2850280000002
 30
0.0
 11
550.70353599999987
 21
4796.8529100000014
 31
0.0
  0
LINE
  5
68F
  8
LAYER01
  6
CONTINUOUS
 62
     5
 10
550.70353599999987
 20
4796.8529100000014
 30
0.0
 11
550.70353599999987
 21
4796.8529100000014
 31
0.0
  0
LINE
  5
690
  8
LAYER01
  6
CONTINUOUS
 62
     5
 10
550.70353599999987
 20
4796.8529100000014
 30
0.0
 11
550.714561
 21
4789.948934
 31
0.0
  0
LINE
  5
691
  8
LAYER01
  6
CONTINUOUS
 62
     5
 10
550.714561
 20
4789.948934
 30
0.0
 11
550.714561
 21
4789.948934
 31
0.0
  0
LINE
  5
692
  8
LAYER01
  6
CONTINUOUS
 62
     5
 10
550.714561
 20
4789.948934
 30
0.0
 11
564.82568099999992
 21
4789.948934
 31
0.0
  0
LINE
  5
693
  8
LAYER01
  6
CONTINUOUS
 62
     5
 10
505.036269
 20
4789.9544459999997
 30
0.0
 11
505.17958499999992
 21
4798.313631
 31
0.0
  0
LINE
  5
694
  8
LAYER01
  6
CONTINUOUS
 62
     5
 10
505.17958499999992
 20
4798.313631
 30
0.0
 11
505.17958499999992
 21
4798.313631
 31
0.0
  0
LINE
  5
695
  8
LAYER01
  6
CONTINUOUS
 62
     5
 10
505.17958499999992
 20
4798.313631
 30
0.0
 11
505.06658499999992
 21
4801.0290569999997
 31
0.0
  0
LINE
  5
696
  8
LAYER01
  6
CONTINUOUS
 62
     5
 10
505.06658499999992
 20
4801.0290569999997
 30
0.0
 11
504.2425179999999
 21
4804.3108579999998
 31
0.0
  0
LINE
  5
697
  8
LAYER01
  6
CONTINUOUS
 62
     5
 10
504.2425179999999
 20
4804.3108579999998
 30
0.0
 11
504.2425179999999
 21
4804.3108579999998
 31
0.0
  0
LINE
  5
698
  8
LAYER01
  6
CONTINUOUS
 62
     5
 10
504.2425179999999
 20
4804.3108579999998
 30
0.0
 11
501.64388099999991
 21
4807.8748109999997
 31
0.0
  0
LINE
  5
699
  8
LAYER01
  6
CONTINUOUS
 62
     5
 10
501.64388099999991
 20
4807.8748109999997
 30
0.0
 11
498.14607300000011
 21
4809.8202579999997
 31
0.0
  0
LINE
  5
69A
  8
LAYER01
  6
CONTINUOUS
 62
     5
 10
498.14607300000011
 20
4809.8202579999997
 30
0.0
 11
498.14607300000011
 21
4809.8202579999997
 31
0.0
  0
LINE
  5
69B
  8
LAYER01
  6
CONTINUOUS
 62
     5
 10
498.14607300000011
 20
4809.8202579999997
 30
0.0
 11
492.46751799999998
 21
4810.6808430000001
 31
0.0
  0
LINE
  5
69C
  8
LAYER01
  6
CONTINUOUS
 62
     5
 10
492.46751799999998
 20
4810.6808430000001
 30
0.0
 11
485.66655100000003
 21
4811.0329320000001
 31
0.0
  0
LINE
  5
69D
  8
LAYER01
  6
CONTINUOUS
 62
     5
 10
485.66655100000003
 20
4811.0329320000001
 30
0.0
 11
485.66655100000003
 21
4811.0329320000001
 31
0.0
  0
LINE
  5
69E
  8
LAYER01
  6
CONTINUOUS
 62
     5
 10
485.66655100000003
 20
4811.0329320000001
 30
0.0
 11
454.57441399999999
 21
4812.3703189999997
 31
0.0
  0
LINE
  5
69F
  8
LAYER01
  6
CONTINUOUS
 62
     5
 10
453.84474199999988
 20
4798.2774579999996
 30
0.0
 11
484.72397199999989
 21
4796.9493729999986
 31
0.0
  0
LINE
  5
6A0
  8
LAYER01
  6
CONTINUOUS
 62
     5
 10
484.72397199999989
 20
4796.9493729999986
 30
0.0
 11
484.72397199999989
 21
4796.9493729999986
 31
0.0
  0
LINE
  5
6A1
  8
LAYER01
  6
CONTINUOUS
 62
     5
 10
484.72397199999989
 20
4796.9493729999986
 30
0.0
 11
489.045503
 21
4796.7840079999987
 31
0.0
  0
LINE
  5
6A2
  8
LAYER01
  6
CONTINUOUS
 62
     5
 10
489.045503
 20
4796.7840079999987
 30
0.0
 11
489.817205
 21
4796.6324240000013
 31
0.0
  0
LINE
  5
6A3
  8
LAYER01
  6
CONTINUOUS
 62
     5
 10
489.817205
 20
4796.6324240000013
 30
0.0
 11
490.75427100000002
 21
4795.7366979999988
 31
0.0
  0
LINE
  5
6A4
  8
LAYER01
  6
CONTINUOUS
 62
     5
 10
490.75427100000002
 20
4795.7366979999988
 30
0.0
 11
490.92514799999998
 21
4789.9544459999997
 31
0.0
  0
LINE
  5
6A5
  8
LAYER01
  6
CONTINUOUS
 62
     5
 10
490.92514799999998
 20
4789.9544459999997
 30
0.0
 11
490.92514799999998
 21
4789.9544459999997
 31
0.0
  0
LINE
  5
6A6
  8
LAYER01
  6
CONTINUOUS
 62
     5
 10
490.92514799999998
 20
4789.9544459999997
 30
0.0
 11
490.91963600000003
 21
4789.9544459999997
 31
0.0
  0
LINE
  5
6A7
  8
LAYER01
  6
CONTINUOUS
 62
     5
 10
490.91963600000003
 20
4789.9544459999997
 30
0.0
 11
505.036269
 21
4789.9544459999997
 31
0.0
  0
LINE
  5
6A8
  8
LAYER01
  6
CONTINUOUS
 62
     5
 10
505.036269
 20
4789.9544459999997
 30
0.0
 11
505.036269
 21
4789.9544459999997
 31
0.0
  0
LINE
  5
6A9
  8
LAYER01
  6
CONTINUOUS
 62
     5
 10
493.81903
 20
4796.3871330000002
 30
0.0
 11
493.81903
 21
4796.389889
 31
0.0
  0
LINE
  5
6AA
  8
LAYER01
  6
CONTINUOUS
 62
     5
 10
493.81903
 20
4796.389889
 30
0.0
 11
493.81903
 21
4796.389889
 31
0.0
  0
LINE
  5
6AB
  8
LAYER01
  6
CONTINUOUS
 62
     5
 10
493.81903
 20
4796.389889
 30
0.0
 11
493.81903
 21
4796.389889
 31
0.0
  0
LINE
  5
6AC
  8
LAYER01
  6
CONTINUOUS
 62
     5
 10
493.81903
 20
4796.389889
 30
0.0
 11
493.81903
 21
4796.3871330000002
 31
0.0
  0
LINE
  5
6AD
  8
LAYER01
  6
CONTINUOUS
 62
     5
 10
493.81903
 20
4796.3871330000002
 30
0.0
 11
493.81903
 21
4796.3871330000002
 31
0.0
  0
LINE
  5
6AE
  8
LAYER01
  6
CONTINUOUS
 62
     5
 10
527.87541500000009
 20
4850.5571469999986
 30
0.0
 11
527.87541500000009
 21
4767.2081960000014
 31
0.0
  0
LINE
  5
6AF
  8
LAYER01
  6
CONTINUOUS
 62
     5
 10
454.57441399999999
 20
4812.3703189999997
 30
0.0
 11
416.345641
 21
4815.4316330000001
 31
0.0
  0
LINE
  5
6B0
  8
LAYER01
  6
CONTINUOUS
 62
     5
 10
416.345641
 20
4815.4316330000001
 30
0.0
 11
416.345641
 21
4815.4316330000001
 31
0.0
  0
LINE
  5
6B1
  8
LAYER01
  6
CONTINUOUS
 62
     5
 10
416.345641
 20
4815.4316330000001
 30
0.0
 11
377.018507
 21
4819.7872699999998
 31
0.0
  0
LINE
  5
6B2
  8
LAYER01
  6
CONTINUOUS
 62
     5
 10
377.018507
 20
4819.7872699999998
 30
0.0
 11
353.62689599999999
 21
4822.655616
 31
0.0
  0
LINE
  5
6B3
  8
LAYER01
  6
CONTINUOUS
 62
     5
 10
353.62689599999999
 20
4822.655616
 30
0.0
 11
333.93893800000001
 21
4826.4724820000001
 31
0.0
  0
LINE
  5
6B4
  8
LAYER01
  6
CONTINUOUS
 62
     5
 10
333.93893800000001
 20
4826.4724820000001
 30
0.0
 11
310.86686000000009
 21
4833.4068610000004
 31
0.0
  0
LINE
  5
6B5
  8
LAYER01
  6
CONTINUOUS
 62
     5
 10
310.86686000000009
 20
4833.4068610000004
 30
0.0
 11
294.296198
 21
4840.4058359999999
 31
0.0
  0
LINE
  5
6B6
  8
LAYER01
  6
CONTINUOUS
 62
     5
 10
273.759884
 20
4837.3695850000013
 30
0.0
 11
286.79553099999998
 21
4829.2058229999993
 31
0.0
  0
LINE
  5
6B7
  8
LAYER01
  6
CONTINUOUS
 62
     5
 10
286.79553099999998
 20
4829.2058229999993
 30
0.0
 11
295.37824899999998
 21
4824.7717990000001
 31
0.0
  0
LINE
  5
6B8
  8
LAYER01
  6
CONTINUOUS
 62
     5
 10
295.37824899999998
 20
4824.7717990000001
 30
0.0
 11
305.36572799999999
 21
4820.4333120000001
 31
0.0
  0
LINE
  5
6B9
  8
LAYER01
  6
CONTINUOUS
 62
     5
 10
305.36572799999999
 20
4820.4333120000001
 30
0.0
 11
316.779089
 21
4816.4380860000001
 31
0.0
  0
LINE
  5
6BA
  8
LAYER01
  6
CONTINUOUS
 62
     5
 10
316.779089
 20
4816.4380860000001
 30
0.0
 11
329.639456
 21
4813.0338449999999
 31
0.0
  0
LINE
  5
6BB
  8
LAYER01
  6
CONTINUOUS
 62
     5
 10
329.639456
 20
4813.0338449999999
 30
0.0
 11
348.695153
 21
4809.684392000001
 31
0.0
  0
LINE
  5
6BC
  8
LAYER01
  6
CONTINUOUS
 62
     5
 10
348.695153
 20
4809.684392000001
 30
0.0
 11
373.16344299999997
 21
4806.563607000001
 31
0.0
  0
LINE
  5
6BD
  8
LAYER01
  6
CONTINUOUS
 62
     5
 10
373.16344299999997
 20
4806.563607000001
 30
0.0
 11
415.18808799999999
 21
4801.3728780000001
 31
0.0
  0
LINE
  5
6BE
  8
LAYER01
  6
CONTINUOUS
 62
     5
 10
415.18808799999999
 20
4801.3728780000001
 30
0.0
 11
415.18808799999999
 21
4801.3728780000001
 31
0.0
  0
LINE
  5
6BF
  8
LAYER01
  6
CONTINUOUS
 62
     5
 10
415.18808799999999
 20
4801.3728780000001
 30
0.0
 11
453.84474199999988
 21
4798.2774579999996
 31
0.0
  0
LINE
  5
6C0
  8
LAYER01
  6
CONTINUOUS
 62
     5
 10
255.14989700000001
 20
4874.4475359999988
 30
0.0
 11
245.593256
 21
4891.8986450000011
 31
0.0
  0
ARC
  5
6C1
  8
LAYER01
  6
CONTINUOUS
 62
     5
 10
241.20778300000001
 20
4889.4970560000002
 30
0.0
 40
5.0
 50
28.706156
 51
90.0
  0
LINE
  5
6C2
  8
LAYER01
  6
CONTINUOUS
 62
     5
 10
245.226293
 20
4887.4580329999999
 30
0.0
 11
245.226293
 21
4887.4580329999999
 31
0.0
  0
LINE
  5
6C3
  8
LAYER01
  6
CONTINUOUS
 62
     5
 10
241.20778300000001
 20
4894.4970560000002
 30
0.0
 11
192.665896
 21
4894.4970560000002
 31
0.0
  0
LINE
  5
6C4
  8
LAYER01
  6
CONTINUOUS
 62
     5
 10
192.665896
 20
4894.4970560000002
 30
0.0
 11
192.665896
 21
4894.4970560000002
 31
0.0
  0
LINE
  5
6C5
  8
LAYER01
  6
CONTINUOUS
 62
     5
 10
192.665896
 20
4894.4970560000002
 30
0.0
 11
192.665896
 21
4880.3859359999988
 31
0.0
  0
LINE
  5
6C6
  8
LAYER01
  6
CONTINUOUS
 62
     5
 10
192.665896
 20
4880.3859359999988
 30
0.0
 11
235.99637799999999
 21
4880.3859359999988
 31
0.0
  0
LINE
  5
6C7
  8
LAYER01
  6
CONTINUOUS
 62
     5
 10
238.09711999999999
 20
4880.3859359999988
 30
0.0
 11
238.09711999999999
 21
4880.3859359999988
 31
0.0
  0
LINE
  5
6C8
  8
LAYER01
  6
CONTINUOUS
 62
     5
 10
294.296198
 20
4840.4058359999999
 30
0.0
 11
282.21415400000001
 21
4847.4440840000007
 31
0.0
  0
LINE
  5
6C9
  8
LAYER01
  6
CONTINUOUS
 62
     5
 10
282.21415400000001
 20
4847.4440840000007
 30
0.0
 11
272.6079299999999
 21
4854.4962859999987
 31
0.0
  0
LINE
  5
6CA
  8
LAYER01
  6
CONTINUOUS
 62
     5
 10
272.6079299999999
 20
4854.4962859999987
 30
0.0
 11
263.59921400000002
 21
4863.2228909999994
 31
0.0
  0
LINE
  5
6CB
  8
LAYER01
  6
CONTINUOUS
 62
     5
 10
263.59921400000002
 20
4863.2228909999994
 30
0.0
 11
255.14989700000001
 21
4874.4475359999988
 31
0.0
  0
LINE
  5
6CC
  8
LAYER01
  6
CONTINUOUS
 62
     5
 10
235.99637799999999
 20
4880.3859359999988
 30
0.0
 11
247.283016
 21
4863.1503709999988
 31
0.0
  0
LINE
  5
6CD
  8
LAYER01
  6
CONTINUOUS
 62
     5
 10
247.283016
 20
4863.1503709999988
 30
0.0
 11
257.37758300000002
 21
4850.9836640000012
 31
0.0
  0
LINE
  5
6CE
  8
LAYER01
  6
CONTINUOUS
 62
     5
 10
257.37758300000002
 20
4850.9836640000012
 30
0.0
 11
266.08980500000001
 21
4842.9428059999991
 31
0.0
  0
LINE
  5
6CF
  8
LAYER01
  6
CONTINUOUS
 62
     5
 10
266.08980500000001
 20
4842.9428059999991
 30
0.0
 11
273.759884
 21
4837.3695850000013
 31
0.0
  0
LINE
  5
6D0
  8
LAYER01
  6
CONTINUOUS
 62
     5
 10
608.10764299999994
 20
4843.4444119999998
 30
0.0
 11
608.10764299999994
 21
4843.4444119999998
 31
0.0
  0
LINE
  5
6D1
  8
LAYER01
  6
CONTINUOUS
 62
     5
 10
608.10764299999994
 20
4843.4444119999998
 30
0.0
 11
608.13520400000004
 21
4868.7011130000001
 31
0.0
  0
LINE
  5
6D2
  8
LAYER01
  6
CONTINUOUS
 62
     5
 10
608.13520400000004
 20
4868.7011130000001
 30
0.0
 11
608.13520400000004
 21
4868.7011130000001
 31
0.0
  0
LINE
  5
6D3
  8
LAYER01
  6
CONTINUOUS
 62
     5
 10
608.13520400000004
 20
4868.7011130000001
 30
0.0
 11
608.15449599999999
 21
4871.1567779999996
 31
0.0
  0
LINE
  5
6D4
  8
LAYER01
  6
CONTINUOUS
 62
     5
 10
608.15449599999999
 20
4871.1567779999996
 30
0.0
 11
608.15449599999999
 21
4871.1567779999996
 31
0.0
  0
LINE
  5
6D5
  8
LAYER01
  6
CONTINUOUS
 62
     5
 10
608.15449599999999
 20
4871.1567779999996
 30
0.0
 11
608.140716
 21
4876.1177189999989
 31
0.0
  0
LINE
  5
6D6
  8
LAYER01
  6
CONTINUOUS
 62
     5
 10
608.140716
 20
4876.1177189999989
 30
0.0
 11
608.140716
 21
4876.1177189999989
 31
0.0
  0
LINE
  5
6D7
  8
LAYER01
  6
CONTINUOUS
 62
     5
 10
608.140716
 20
4876.1177189999989
 30
0.0
 11
608.17378899999994
 21
4880.4410579999994
 31
0.0
  0
LINE
  5
6D8
  8
LAYER01
  6
CONTINUOUS
 62
     5
 10
608.17378899999994
 20
4880.4410579999994
 30
0.0
 11
608.17378899999994
 21
4880.4410579999994
 31
0.0
  0
LINE
  5
6D9
  8
LAYER01
  6
CONTINUOUS
 62
     5
 10
608.17378899999994
 20
4880.4410579999994
 30
0.0
 11
730.66589599999998
 21
4880.4410579999994
 31
0.0
  0
LINE
  5
6DA
  8
LAYER01
  6
CONTINUOUS
 62
     5
 10
720.66589599999986
 20
4894.5466660000002
 30
0.0
 11
605.45353899999986
 21
4894.5466660000002
 31
0.0
  0
LINE
  5
6DB
  8
LAYER01
  6
CONTINUOUS
 62
     5
 10
605.45353899999986
 20
4894.5466660000002
 30
0.0
 11
605.45353899999986
 21
4894.5466660000002
 31
0.0
  0
LINE
  5
6DC
  8
LAYER01
  6
CONTINUOUS
 62
     5
 10
605.45353899999986
 20
4894.5466660000002
 30
0.0
 11
603.06298600000002
 21
4894.3950819999991
 31
0.0
  0
LINE
  5
6DD
  8
LAYER01
  6
CONTINUOUS
 62
     5
 10
603.06298600000002
 20
4894.3950819999991
 30
0.0
 11
600.03784599999994
 21
4893.4993560000003
 31
0.0
  0
LINE
  5
6DE
  8
LAYER01
  6
CONTINUOUS
 62
     5
 10
600.03784599999994
 20
4893.4993560000003
 30
0.0
 11
600.03784599999994
 21
4893.4993560000003
 31
0.0
  0
LINE
  5
6DF
  8
LAYER01
  6
CONTINUOUS
 62
     5
 10
600.03784599999994
 20
4893.4993560000003
 30
0.0
 11
598.38075400000002
 21
4892.5071680000001
 31
0.0
  0
LINE
  5
6E0
  8
LAYER01
  6
CONTINUOUS
 62
     5
 10
598.38075400000002
 20
4892.5071680000001
 30
0.0
 11
596.95103800000004
 21
4891.1470429999999
 31
0.0
  0
LINE
  5
6E1
  8
LAYER01
  6
CONTINUOUS
 62
     5
 10
596.95103800000004
 20
4891.1470429999999
 30
0.0
 11
595.83965000000001
 21
4889.6112189999994
 31
0.0
  0
LINE
  5
6E2
  8
LAYER01
  6
CONTINUOUS
 62
     5
 10
595.83965000000001
 20
4889.6112189999994
 30
0.0
 11
595.13753899999995
 21
4888.0919309999999
 31
0.0
  0
LINE
  5
6E3
  8
LAYER01
  6
CONTINUOUS
 62
     5
 10
595.13753899999995
 20
4888.0919309999999
 30
0.0
 11
595.13753899999995
 21
4888.0919309999999
 31
0.0
  0
LINE
  5
6E4
  8
LAYER01
  6
CONTINUOUS
 62
     5
 10
595.13753899999995
 20
4888.0919309999999
 30
0.0
 11
594.72199000000001
 21
4886.2308400000002
 31
0.0
  0
LINE
  5
6E5
  8
LAYER01
  6
CONTINUOUS
 62
     5
 10
594.72199000000001
 20
4886.2308400000002
 30
0.0
 11
594.43159500000002
 21
4883.6976649999988
 31
0.0
  0
LINE
  5
6E6
  8
LAYER01
  6
CONTINUOUS
 62
     5
 10
594.43159500000002
 20
4883.6976649999988
 30
0.0
 11
594.13467100000003
 21
4877.4531240000006
 31
0.0
  0
LINE
  5
6E7
  8
LAYER01
  6
CONTINUOUS
 62
     5
 10
594.13467100000003
 20
4877.4531240000006
 30
0.0
 11
594.03510700000004
 21
4876.1177189999989
 31
0.0
  0
LINE
  5
6E8
  8
LAYER01
  6
CONTINUOUS
 62
     5
 10
594.03510700000004
 20
4876.1177189999989
 30
0.0
 11
594.03510700000004
 21
4876.1177189999989
 31
0.0
  0
LINE
  5
6E9
  8
LAYER01
  6
CONTINUOUS
 62
     5
 10
594.03510700000004
 20
4876.1177189999989
 30
0.0
 11
594.05164400000001
 21
4871.1567779999996
 31
0.0
  0
LINE
  5
6EA
  8
LAYER01
  6
CONTINUOUS
 62
     5
 10
594.05164400000001
 20
4871.1567779999996
 30
0.0
 11
594.05164400000001
 21
4871.1567779999996
 31
0.0
  0
LINE
  5
6EB
  8
LAYER01
  6
CONTINUOUS
 62
     5
 10
594.05164400000001
 20
4871.1567779999996
 30
0.0
 11
594.02959499999986
 21
4868.8471849999996
 31
0.0
  0
LINE
  5
6EC
  8
LAYER01
  6
CONTINUOUS
 62
     5
 10
594.02959499999986
 20
4868.8471849999996
 30
0.0
 11
594.02959499999986
 21
4868.8471849999996
 31
0.0
  0
LINE
  5
6ED
  8
LAYER01
  6
CONTINUOUS
 62
     5
 10
594.02959499999986
 20
4868.8471849999996
 30
0.0
 11
593.98825399999998
 21
4843.4444119999998
 31
0.0
  0
LINE
  5
6EE
  8
LAYER01
  6
CONTINUOUS
 62
     5
 10
593.98825399999998
 20
4843.4444119999998
 30
0.0
 11
593.98825399999998
 21
4843.4444119999998
 31
0.0
  0
LINE
  5
6EF
  8
LAYER01
  6
CONTINUOUS
 62
     5
 10
564.82568099999992
 20
4789.948934
 30
0.0
 11
564.81465700000001
 21
4795.7366979999988
 31
0.0
  0
LINE
  5
6F0
  8
LAYER01
  6
CONTINUOUS
 62
     5
 10
564.81465700000001
 20
4795.7366979999988
 30
0.0
 11
564.96624099999985
 21
4796.2052320000012
 31
0.0
  0
LINE
  5
6F1
  8
LAYER01
  6
CONTINUOUS
 62
     5
 10
564.96624099999985
 20
4796.2052320000012
 30
0.0
 11
565.32625399999995
 21
4796.5273479999996
 31
0.0
  0
LINE
  5
6F2
  8
LAYER01
  6
CONTINUOUS
 62
     5
 10
565.32625399999995
 20
4796.5273479999996
 30
0.0
 11
566.027331
 21
4796.6737649999995
 31
0.0
  0
LINE
  5
6F3
  8
LAYER01
  6
CONTINUOUS
 62
     5
 10
566.027331
 20
4796.6737649999995
 30
0.0
 11
586.30133699999999
 21
4796.7558869999993
 31
0.0
  0
LINE
  5
6F4
  8
LAYER01
  6
CONTINUOUS
 62
     5
 10
586.30133699999999
 20
4796.7558869999993
 30
0.0
 11
589.99572999999987
 21
4797.1488439999994
 31
0.0
  0
LINE
  5
6F5
  8
LAYER01
  6
CONTINUOUS
 62
     5
 10
589.99572999999987
 20
4797.1488439999994
 30
0.0
 11
593.72474699999987
 21
4797.8244709999999
 31
0.0
  0
LINE
  5
6F6
  8
LAYER01
  6
CONTINUOUS
 62
     5
 10
593.72474699999987
 20
4797.8244709999999
 30
0.0
 11
597.10262199999988
 21
4798.7546039999988
 31
0.0
  0
LINE
  5
6F7
  8
LAYER01
  6
CONTINUOUS
 62
     5
 10
597.10262199999988
 20
4798.7546039999988
 30
0.0
 11
597.10262199999988
 21
4798.7546039999988
 31
0.0
  0
LINE
  5
6F8
  8
LAYER01
  6
CONTINUOUS
 62
     5
 10
597.10262199999988
 20
4798.7546039999988
 30
0.0
 11
600.28873499999986
 21
4800.1382409999987
 31
0.0
  0
LINE
  5
6F9
  8
LAYER01
  6
CONTINUOUS
 62
     5
 10
600.28873499999986
 20
4800.1382409999987
 30
0.0
 11
603.11776299999997
 21
4802.1404460000012
 31
0.0
  0
LINE
  5
6FA
  8
LAYER01
  6
CONTINUOUS
 62
     5
 10
603.11776299999997
 20
4802.1404460000012
 30
0.0
 11
605.39902099999995
 21
4804.6449460000003
 31
0.0
  0
LINE
  5
6FB
  8
LAYER01
  6
CONTINUOUS
 62
     5
 10
605.39902099999995
 20
4804.6449460000003
 30
0.0
 11
606.941822
 21
4807.5354690000004
 31
0.0
  0
LINE
  5
6FC
  8
LAYER01
  6
CONTINUOUS
 62
     5
 10
606.941822
 20
4807.5354690000004
 30
0.0
 11
606.941822
 21
4807.5354690000004
 31
0.0
  0
LINE
  5
6FD
  8
LAYER01
  6
CONTINUOUS
 62
     5
 10
606.941822
 20
4807.5354690000004
 30
0.0
 11
607.91781800000001
 21
4811.3106070000013
 31
0.0
  0
LINE
  5
6FE
  8
LAYER01
  6
CONTINUOUS
 62
     5
 10
607.91781800000001
 20
4811.3106070000013
 30
0.0
 11
608.13520400000004
 21
4814.7260770000003
 31
0.0
  0
LINE
  5
6FF
  8
LAYER01
  6
CONTINUOUS
 62
     5
 10
608.13520400000004
 20
4814.7260770000003
 30
0.0
 11
608.13520400000004
 21
4814.7260770000003
 31
0.0
  0
LINE
  5
700
  8
LAYER01
  6
CONTINUOUS
 62
     5
 10
608.13520400000004
 20
4814.7260770000003
 30
0.0
 11
608.10764299999994
 21
4843.4444119999998
 31
0.0
  0
LINE
  5
701
  8
LAYER01
  6
CONTINUOUS
 62
     5
 10
593.98825399999998
 20
4843.4444119999998
 30
0.0
 11
594.02959499999986
 21
4814.7260770000003
 31
0.0
  0
LINE
  5
702
  8
LAYER01
  6
CONTINUOUS
 62
     5
 10
594.02959499999986
 20
4814.7260770000003
 30
0.0
 11
594.02959499999986
 21
4814.7260770000003
 31
0.0
  0
LINE
  5
703
  8
LAYER01
  6
CONTINUOUS
 62
     5
 10
594.02959499999986
 20
4814.7260770000003
 30
0.0
 11
593.83667000000003
 21
4812.7527250000012
 31
0.0
  0
LINE
  5
704
  8
LAYER01
  6
CONTINUOUS
 62
     5
 10
593.83667000000003
 20
4812.7527250000012
 30
0.0
 11
593.83667000000003
 21
4812.7527250000012
 31
0.0
  0
LINE
  5
705
  8
LAYER01
  6
CONTINUOUS
 62
     5
 10
593.83667000000003
 20
4812.7527250000012
 30
0.0
 11
593.50042800000006
 21
4812.1629240000002
 31
0.0
  0
LINE
  5
706
  8
LAYER01
  6
CONTINUOUS
 62
     5
 10
593.50042800000006
 20
4812.1629240000002
 30
0.0
 11
592.30007000000001
 21
4811.5357009999998
 31
0.0
  0
LINE
  5
707
  8
LAYER01
  6
CONTINUOUS
 62
     5
 10
592.30007000000001
 20
4811.5357009999998
 30
0.0
 11
589.75147300000003
 21
4811.0890869999994
 31
0.0
  0
LINE
  5
708
  8
LAYER01
  6
CONTINUOUS
 62
     5
 10
589.75147300000003
 20
4811.0890869999994
 30
0.0
 11
585.72182799999996
 21
4810.83626
 31
0.0
  0
LINE
  5
709
  8
LAYER01
  6
CONTINUOUS
 62
     5
 10
585.72182799999996
 20
4810.83626
 30
0.0
 11
563.07832699999994
 21
4810.7903969999988
 31
0.0
  0
LINE
  5
70A
  8
LAYER01
  6
CONTINUOUS
 62
     5
 10
563.07832699999994
 20
4810.7903969999988
 30
0.0
 11
563.07832699999994
 21
4810.7903969999988
 31
0.0
  0
LINE
  5
70B
  8
LAYER01
  6
CONTINUOUS
 62
     5
 10
563.07832699999994
 20
4810.7903969999988
 30
0.0
 11
561.41641200000004
 21
4810.7986659999997
 31
0.0
  0
LINE
  5
70C
  8
LAYER01
  6
CONTINUOUS
 62
     5
 10
561.41641200000004
 20
4810.7986659999997
 30
0.0
 11
561.41641200000004
 21
4810.7986659999997
 31
0.0
  0
LINE
  5
70D
  8
LAYER01
  6
CONTINUOUS
 62
     5
 10
564.82568099999992
 20
4789.948934
 30
0.0
 11
564.82568099999992
 21
4789.948934
 31
0.0
  0
LINE
  5
70E
  8
LAYER01
  6
CONTINUOUS
 62
     5
 10
742.66589599999998
 20
4809.5466659999993
 30
0.0
 11
742.66589599999998
 21
4904.5466659999993
 31
0.0
  0
LINE
  5
70F
  8
LAYER01
  6
CONTINUOUS
 62
     5
 10
742.66589599999998
 20
4904.5466659999993
 30
0.0
 11
730.66589599999998
 21
4904.5466659999993
 31
0.0
  0
LINE
  5
710
  8
LAYER01
  6
CONTINUOUS
 62
     5
 10
730.66589599999998
 20
4904.5466659999993
 30
0.0
 11
730.66589599999998
 21
4904.5466659999993
 31
0.0
  0
ARC
  5
711
  8
LAYER01
  6
CONTINUOUS
 62
     5
 10
720.66589599999986
 20
4904.5466659999993
 30
0.0
 40
10.0
 50
270.0
 51
0.0
  0
LINE
  5
712
  8
LAYER01
  6
CONTINUOUS
 62
     5
 10
742.66589599999998
 20
4880.4410579999994
 30
0.0
 11
742.66589599999998
 21
4880.4410579999994
 31
0.0
  0
LINE
  5
713
  8
LAYER01
  6
CONTINUOUS
 62
     5
 10
742.66589599999998
 20
4880.4410579999994
 30
0.0
 11
742.66589599999998
 21
4880.4355450000003
 31
0.0
  0
LINE
  5
714
  8
LAYER01
  6
CONTINUOUS
 62
     5
 10
742.66589599999998
 20
4880.4355450000003
 30
0.0
 11
742.66589599999998
 21
4880.4410579999994
 31
0.0
  0
LINE
  5
715
  8
LAYER01
  6
CONTINUOUS
 62
     5
 10
742.66589599999998
 20
4880.4410579999994
 30
0.0
 11
742.66589599999998
 21
4880.4410579999994
 31
0.0
  0
LINE
  5
716
  8
LAYER01
  6
CONTINUOUS
 62
     5
 10
742.66589599999998
 20
4809.5466659999993
 30
0.0
 11
730.66589599999998
 21
4809.5466659999993
 31
0.0
  0
LINE
  5
717
  8
LAYER01
  6
CONTINUOUS
 62
     5
 10
730.66589599999998
 20
4809.5466659999993
 30
0.0
 11
730.66589599999998
 21
4880.4410579999994
 31
0.0
  0
LINE
  5
718
  8
LAYER01
  6
CONTINUOUS
 62
     5
 10
652.66589599999986
 20
4880.4410579999994
 30
0.0
 11
652.66589599999986
 21
4894.5466660000002
 31
0.0
  0
LINE
  5
719
  8
LAYER01
  6
CONTINUOUS
 62
     5
 10
672.66589599999986
 20
4880.4410579999994
 30
0.0
 11
672.66589599999986
 21
4894.5466660000002
 31
0.0
  0
LINE
  5
71A
  8
LAYER01
  6
CONTINUOUS
 62
     5
 10
662.63703299999997
 20
4936.2211420000003
 30
0.0
 11
662.63703299999997
 21
4852.87219
 31
0.0
  0
DIMENSION
  5
71B
  8
LAYER01
 62
     7
  2
*D14
 10
662.63703299999997
 20
4940.4689850000004
 30
0.0
 11
702.65146500000003
 21
4970.4689850000013
 31
0.0
 13
742.66589599999998
 23
4973.3551130000014
 33
0.0
 14
662.63703299999997
 24
4973.3551130000014
 34
0.0
  0
DIMENSION
  5
71C
  8
LAYER01
 62
     7
  2
*D15
 10
742.66589599999998
 20
5011.2577700000002
 30
0.0
 11
668.90171699999985
 21
5041.2577700000002
 31
0.0
 13
595.13753899999995
 23
4973.3551130000014
 33
0.0
 14
742.66589599999998
 24
4973.3551130000014
 34
0.0
  0
DIMENSION
  5
71D
  8
LAYER01
 62
     7
  2
*D16
 10
243.75651400000001
 20
5011.2577700000002
 30
0.0
 11
425.87559800000002
 21
5041.2577700000002
 31
0.0
 13
595.13753899999995
 23
4971.1255449999999
 33
0.0
 14
243.75651400000001
 24
4971.1255449999999
 34
0.0
  0
DIMENSION
  5
71E
  8
LAYER01
 62
     7
  2
*D17
 10
7.0914060000000001
 20
4809.4904470000001
 30
0.0
 11
-22.908594000000001
 21
4851.9937520000012
 31
0.0
 53
90.0
 13
192.665896
 23
4894.4970560000002
 33
0.0
 14
192.665896
 24
4809.4904470000001
 34
0.0
 50
90.0
  0
DIMENSION
  5
71F
  8
LAYER01
 62
     7
  2
*D18
 10
95.159343000000007
 20
4880.3859359999988
 30
0.0
 11
65.159343000000007
 21
5013.7827710000001
 31
0.0
 53
90.0
 13
192.665896
 23
4894.4970560000002
 33
0.0
 14
192.665896
 24
4880.3859359999988
 34
0.0
 50
90.0
  0
DIMENSION
  5
720
  8
LAYER01
 62
     7
  2
*D19
 10
828.68722699999989
 20
4894.5466660000002
 30
0.0
 11
798.68722700000001
 21
5020.9752369999997
 31
0.0
 53
90.0
 13
742.66589599999998
 23
4904.5466659999993
 33
0.0
 14
742.66589599999998
 24
4894.5466660000002
 34
0.0
 50
90.0
  0
DIMENSION
  5
721
  8
LAYER01
 62
     7
  2
*D20
 10
931.80474800000002
 20
4789.948934
 30
0.0
 11
901.8047479999999
 21
4842.2478000000001
 31
0.0
 53
90.0
 13
742.66589599999998
 23
4894.5466660000002
 33
0.0
 14
742.66589599999998
 24
4789.948934
 34
0.0
 50
90.0
  0
DIMENSION
  5
722
  8
LAYER01
 62
     7
  2
*D21
 10
505.04959699999989
 20
4732.5617649999986
 30
0.0
 11
669.28598899999997
 21
4762.5617650000004
 31
0.0
 13
550.714561
 23
4789.948934
 33
0.0
 14
505.04959699999989
 24
4789.948934
 34
0.0
  0
DIMENSION
  5
723
  8
LAYER01
 62
     7
  2
*D22
 10
742.66589599999998
 20
4650.6251400000001
 30
0.0
 11
635.27065500000003
 21
4680.6251400000001
 31
0.0
 13
527.87541500000009
 23
4767.2081960000014
 33
0.0
 14
742.66589599999998
 24
4767.2081960000014
 34
0.0
  0
LINE
  5
724
  8
LAYER01
  6
CONTINUOUS
 62
     7
 10
163.71856
 20
4809.4904470000001
 30
0.0
 11
294.70568200000002
 21
4809.4904470000001
 31
0.0
  0
DIMENSION
  5
725
  8
LAYER01
 62
     7
  2
*D23
 10
192.665896
 20
5011.2577700000002
 30
0.0
 11
224.63977600000001
 21
5041.2577700000002
 31
0.0
 13
243.75651400000001
 23
4971.1255449999999
 33
0.0
 14
192.665896
 24
4971.1255449999999
 34
0.0
  0
DIMENSION
  5
726
  8
LAYER01
 62
     7
  2
*D72
 10
0.0
 20
0.0
 30
0.0
 11
-2880.5365780000002
 21
6089.1507359999996
 31
0.0
 70
     2
 13
0.0
 23
0.0
 33
0.0
 14
0.0
 24
0.0
 34
0.0
 15
0.0
 25
0.0
 35
0.0
 16
-2880.5365780000002
 26
6089.1507359999996
 36
0.0
1001
ACAD
1000
DSTYLE
1002
{
1070
   271
1070
     0
1002
}
  0
DIMENSION
  5
727
  8
LAYER01
 62
     7
  2
*D73
 10
0.0
 20
0.0
 30
0.0
 11
-559.72503700000004
 21
6032.4467889999987
 31
0.0
 70
     2
 13
0.0
 23
0.0
 33
0.0
 14
0.0
 24
0.0
 34
0.0
 15
0.0
 25
0.0
 35
0.0
 16
-559.72503700000004
 26
6032.4467889999987
 36
0.0
1001
ACAD
1000
DSTYLE
1002
{
1070
   271
1070
     0
1002
}
  0
DIMENSION
  5
728
  8
LAYER01
 62
     7
  2
*D26
 10
-3099.4298920000001
 20
6016.5210870000001
 30
0.0
 11
-3129.4298920000001
 21
6046.5210870000001
 31
0.0
 53
90.0
 13
-2982.9945010000001
 23
6076.5210870000001
 33
0.0
 14
-2982.9945010000001
 24
6016.5210870000001
 34
0.0
 50
90.0
  0
DIMENSION
  5
729
  8
LAYER01
 62
     7
  2
*D27
 10
-3200.5800859999999
 20
5906.5210870000001
 30
0.0
 11
-3230.5800859999999
 21
6031.5210870000001
 31
0.0
 53
90.0
 13
-2982.9945010000001
 23
6156.5210870000001
 33
0.0
 14
-2982.9945010000001
 24
5906.5210870000001
 34
0.0
 50
90.0
  0
DIMENSION
  5
72A
  8
LAYER01
 62
     7
  2
*D28
 10
-3279.1433430000011
 20
5606.5210870000001
 30
0.0
 11
-3309.1433430000011
 21
5881.5210870000001
 31
0.0
 53
90.0
 13
-2982.9945010000001
 23
6156.5210870000001
 33
0.0
 14
-2982.9945010000001
 24
5606.5210870000001
 34
0.0
 50
90.0
  0
DIMENSION
  5
72B
  8
LAYER01
 62
     7
  2
*D29
 10
-3098.5915230000001
 20
6076.5210870000001
 30
0.0
 11
-3128.5915230000001
 21
6116.5210870000001
 31
0.0
 53
90.0
 13
-3045.9887779999999
 23
6156.5210870000001
 33
0.0
 14
-3045.9887779999999
 24
6076.5210870000001
 34
0.0
 50
90.0
  0
DIMENSION
  5
72C
  8
LAYER01
 62
     7
  2
*D30
 10
-3099.4298920000001
 20
3313.1531869999999
 30
0.0
 11
-3129.4298920000001
 21
3343.1531869999999
 31
0.0
 53
90.0
 13
-2982.9945010000001
 23
3373.1531869999999
 33
0.0
 14
-2982.9945010000001
 24
3313.1531869999999
 34
0.0
 50
90.0
  0
DIMENSION
  5
72D
  8
LAYER01
 62
     7
  2
*D31
 10
-3200.5800859999999
 20
3203.1531869999999
 30
0.0
 11
-3230.5800859999999
 21
3328.1531869999999
 31
0.0
 53
90.0
 13
-2982.9945010000001
 23
3453.1531869999999
 33
0.0
 14
-2982.9945010000001
 24
3203.1531869999999
 34
0.0
 50
90.0
  0
DIMENSION
  5
72E
  8
LAYER01
 62
     7
  2
*D32
 10
-3279.1433430000011
 20
2903.1531869999999
 30
0.0
 11
-3309.1433430000011
 21
3178.1531869999999
 31
0.0
 53
90.0
 13
-2982.9945010000001
 23
3453.1531869999999
 33
0.0
 14
-2982.9945010000001
 24
2903.1531869999999
 34
0.0
 50
90.0
  0
DIMENSION
  5
72F
  8
LAYER01
 62
     7
  2
*D33
 10
-3098.5915230000001
 20
3373.1531869999999
 30
0.0
 11
-3128.5915230000001
 21
3413.1531869999999
 31
0.0
 53
90.0
 13
-3045.9887779999999
 23
3453.1531869999999
 33
0.0
 14
-3045.9887779999999
 24
3373.1531869999999
 34
0.0
 50
90.0
  0
DIMENSION
  5
730
  8
LAYER01
 62
     7
  2
*D34
 10
-3099.4298920000001
 20
2172.4119690000002
 30
0.0
 11
-3129.4298920000001
 21
2202.4119690000002
 31
0.0
 53
90.0
 13
-2982.9945010000001
 23
2232.4119690000011
 33
0.0
 14
-2982.9945010000001
 24
2172.4119690000002
 34
0.0
 50
90.0
  0
DIMENSION
  5
731
  8
LAYER01
 62
     7
  2
*D35
 10
-3200.5800859999999
 20
2062.4119690000011
 30
0.0
 11
-3230.5800859999999
 21
2187.4119690000011
 31
0.0
 53
90.0
 13
-2982.9945010000001
 23
2312.4119690000011
 33
0.0
 14
-2982.9945010000001
 24
2062.4119690000011
 34
0.0
 50
90.0
  0
DIMENSION
  5
732
  8
LAYER01
 62
     7
  2
*D36
 10
-3279.1433430000011
 20
1762.411969
 30
0.0
 11
-3309.1433430000011
 21
2037.411969
 31
0.0
 53
90.0
 13
-2982.9945010000001
 23
2312.4119690000011
 33
0.0
 14
-2982.9945010000001
 24
1762.411969
 34
0.0
 50
90.0
  0
DIMENSION
  5
733
  8
LAYER01
 62
     7
  2
*D37
 10
-3098.5915230000001
 20
2232.4119690000011
 30
0.0
 11
-3128.5915230000001
 21
2272.4119690000002
 31
0.0
 53
90.0
 13
-3045.9887779999999
 23
2312.4119690000011
 33
0.0
 14
-3045.9887779999999
 24
2232.4119690000011
 34
0.0
 50
90.0
  0
DIMENSION
  5
734
  8
LAYER01
 62
     7
  2
*D38
 10
-1382.9945009999999
 20
5440.0651889999999
 30
0.0
 11
-1732.9945009999999
 21
5470.0651889999999
 31
0.0
 13
-2082.9945010000001
 23
5606.5210870000001
 33
0.0
 14
-1382.9945009999999
 24
5606.5210870000001
 34
0.0
  0
DIMENSION
  5
735
  8
LAYER01
 62
     7
  2
*D39
 10
-1555.4945009999999
 20
5514.5452150000001
 30
0.0
 11
-1732.9945009999999
 21
5544.5452150000001
 31
0.0
 13
-1910.4945009999999
 23
5606.5210870000001
 33
0.0
 14
-1555.4945009999999
 24
5606.5210870000001
 34
0.0
  0
DIMENSION
  5
736
  8
LAYER01
 62
     7
  2
*D40
 10
-2982.9945010000001
 20
6389.4691700000003
 30
0.0
 11
-1685.8516440000001
 21
6419.4691700000012
 31
0.0
 13
-482.9945009999999
 23
6156.5210870000001
 33
0.0
 14
-2982.9945010000001
 24
6156.5210870000001
 34
0.0
  0
DIMENSION
  5
737
  8
LAYER01
 62
     7
  2
*D41
 10
-1732.9945009999999
 20
6253.6061099999988
 30
0.0
 11
-2262.2802150000002
 21
6283.6061099999997
 31
0.0
 13
-2982.9945010000001
 23
6156.5210870000001
 33
0.0
 14
-1732.9945009999999
 24
6156.5210870000001
 34
0.0
  0
DIMENSION
  5
738
  8
LAYER01
 62
     7
  2
*D42
 10
-482.9945009999999
 20
6253.6061099999988
 30
0.0
 11
-1012.994501
 21
6283.6061099999997
 31
0.0
 13
-1732.9945009999999
 23
6156.5210870000001
 33
0.0
 14
-482.9945009999999
 24
6156.5210870000001
 34
0.0
  0
POLYLINE
  5
739
  8
KERA4
  6
CONTINUOUS
 62
     1
 66
     1
 10
0.0
 20
0.0
 30
0.0
  0
VERTEX
  5
D4C
  8
KERA4
  6
CONTINUOUS
 62
     1
 10
-2730.4306740000002
 20
4849.8122789999998
 30
0.0
  0
VERTEX
  5
D4D
  8
KERA4
  6
CONTINUOUS
 62
     1
 10
-2697.6904530000002
 20
4768.8041309999999
 30
0.0
  0
VERTEX
  5
D4E
  8
KERA4
  6
CONTINUOUS
 62
     1
 10
-2738.9982890000001
 20
4691.1663259999996
 30
0.0
  0
VERTEX
  5
D4F
  8
KERA4
  6
CONTINUOUS
 62
     1
 10
-2693.2858100000012
 20
4599.8122789999998
 30
0.0
  0
SEQEND
  5
D50
  8
KERA4
  6
CONTINUOUS
 62
     1
  0
POLYLINE
  5
73F
  8
KERA4
  6
CONTINUOUS
 62
     1
 66
     1
 10
0.0
 20
0.0
 30
0.0
  0
VERTEX
  5
D51
  8
KERA4
  6
CONTINUOUS
 62
     1
 10
-2706.826196
 20
4849.8122789999998
 30
0.0
  0
VERTEX
  5
D52
  8
KERA4
  6
CONTINUOUS
 62
     1
 10
-2674.0859760000012
 20
4768.8041309999999
 30
0.0
  0
VERTEX
  5
D53
  8
KERA4
  6
CONTINUOUS
 62
     1
 10
-2715.3938109999999
 20
4691.1663259999996
 30
0.0
  0
VERTEX
  5
D54
  8
KERA4
  6
CONTINUOUS
 62
     1
 10
-2669.681333
 20
4599.8122789999998
 30
0.0
  0
SEQEND
  5
D55
  8
KERA4
  6
CONTINUOUS
 62
     1
  0
POLYLINE
  5
745
  8
KERA4
  6
CONTINUOUS
 62
     1
 66
     1
 10
0.0
 20
0.0
 30
0.0
  0
VERTEX
  5
D56
  8
KERA4
  6
CONTINUOUS
 62
     1
 10
-738.03861600000005
 20
4849.8122789999998
 30
0.0
  0
VERTEX
  5
D57
  8
KERA4
  6
CONTINUOUS
 62
     1
 10
-770.77883700000007
 20
4768.8041309999999
 30
0.0
  0
VERTEX
  5
D58
  8
KERA4
  6
CONTINUOUS
 62
     1
 10
-729.471001
 20
4691.1663259999996
 30
0.0
  0
VERTEX
  5
D59
  8
KERA4
  6
CONTINUOUS
 62
     1
 10
-775.18348000000003
 20
4599.8122789999998
 30
0.0
  0
SEQEND
  5
D5A
  8
KERA4
  6
CONTINUOUS
 62
     1
  0
POLYLINE
  5
74B
  8
KERA4
  6
CONTINUOUS
 62
     1
 66
     1
 10
0.0
 20
0.0
 30
0.0
  0
VERTEX
  5
D5B
  8
KERA4
  6
CONTINUOUS
 62
     1
 10
-761.64309400000002
 20
4849.8122789999998
 30
0.0
  0
VERTEX
  5
D5C
  8
KERA4
  6
CONTINUOUS
 62
     1
 10
-794.38331399999993
 20
4768.8041309999999
 30
0.0
  0
VERTEX
  5
D5D
  8
KERA4
  6
CONTINUOUS
 62
     1
 10
-753.07547899999986
 20
4691.1663259999996
 30
0.0
  0
VERTEX
  5
D5E
  8
KERA4
  6
CONTINUOUS
 62
     1
 10
-798.78795700000001
 20
4599.8122789999998
 30
0.0
  0
SEQEND
  5
D5F
  8
KERA4
  6
CONTINUOUS
 62
     1
  0
ARC
  5
751
  8
LAYER01
  6
CONTINUOUS
 62
     5
 10
-1734.234645
 20
4653.9789460000002
 30
0.0
 40
354.16666700000002
 50
188.79741100000001
 51
351.20258899999999
  0
ARC
  5
752
  8
LAYER01
  6
CONTINUOUS
 62
     5
 10
-1800.657099
 20
4613.8176579999999
 30
0.0
 40
252.91215399999999
 50
184.520228
 51
237.79695799999999
  0
ARC
  5
753
  8
LAYER01
  6
CONTINUOUS
 62
     5
 10
-2047.869252
 20
4594.8122789999998
 30
0.0
 40
5.0
 50
90.0
 51
190.68320600000001
  0
ARC
  5
754
  8
LAYER01
  6
CONTINUOUS
 62
     5
 10
-1932.763682
 20
4404.0361159999993
 30
0.0
 40
5.0
 50
237.647021
 51
328.54464200000001
  0
ARC
  5
755
  8
LAYER01
  6
CONTINUOUS
 62
     5
 10
-1801.4309219999991
 20
4612.8026829999999
 30
0.0
 40
211.639623
 50
184.59839199999999
 51
237.73107599999989
  0
ARC
  5
756
  8
LAYER01
  6
CONTINUOUS
 62
     5
 10
-2017.2835219999999
 20
4594.8122789999998
 30
0.0
 40
5.0
 50
11.806725
 51
90.0
  0
ARC
  5
757
  8
LAYER01
  6
CONTINUOUS
 62
     5
 10
-1917.1065390000001
 20
4429.6309929999989
 30
0.0
 40
5.0
 50
328.54464200000001
 51
57.553888000000001
  0
LINE
  5
758
  8
LAYER01
  6
CONTINUOUS
 62
     5
 10
-2047.869252
 20
4599.8122789999998
 30
0.0
 11
-2017.2835219999999
 21
4599.8122789999998
 31
0.0
  0
LINE
  5
759
  8
LAYER01
  6
CONTINUOUS
 62
     5
 10
-1734.234645
 20
4676.4867539999987
 30
0.0
 11
-1734.234645
 21
4593.1378029999996
 31
0.0
  0
LINE
  5
75A
  8
LAYER01
  6
CONTINUOUS
 62
     5
 10
-1775.9091209999999
 20
4634.8122789999998
 30
0.0
 11
-1692.5601690000001
 21
4634.8122789999998
 31
0.0
  0
POLYLINE
  5
75B
  8
LAYER01
  6
CONTINUOUS
 62
     5
 66
     1
 10
0.0
 20
0.0
 30
0.0
 70
     1
  0
VERTEX
  5
D60
  8
LAYER01
  6
CONTINUOUS
 62
     5
 10
-1711.234645
 20
4634.8122789999998
 30
0.0
 42
0.4142140000000001
  0
VERTEX
  5
D61
  8
LAYER01
  6
CONTINUOUS
 62
     5
 10
-1734.234645
 20
4657.8122789999998
 30
0.0
 42
2.414213999999999
  0
VERTEX
  5
D62
  8
LAYER01
  6
CONTINUOUS
 62
     5
 10
-1711.234645
 20
4634.8122789999998
 30
0.0
  0
SEQEND
  5
D63
  8
LAYER01
  6
CONTINUOUS
 62
     5
  0
POLYLINE
  5
760
  8
LAYER01
  6
CONTINUOUS
 62
     5
 66
     1
 10
0.0
 20
0.0
 30
0.0
 70
     1
  0
VERTEX
  5
D64
  8
LAYER01
  6
CONTINUOUS
 62
     5
 10
-1702.234645
 20
4634.8122789999998
 30
0.0
 42
0.4142140000000001
  0
VERTEX
  5
D65
  8
LAYER01
  6
CONTINUOUS
 62
     5
 10
-1734.234645
 20
4666.8122789999998
 30
0.0
 42
2.414213999999999
  0
VERTEX
  5
D66
  8
LAYER01
  6
CONTINUOUS
 62
     5
 10
-1702.234645
 20
4634.8122789999998
 30
0.0
  0
SEQEND
  5
D67
  8
LAYER01
  6
CONTINUOUS
 62
     5
  0
LINE
  5
765
  8
LAYER01
  6
CONTINUOUS
 62
     5
 10
-1759.234645
 20
4769.8122789999989
 30
0.0
 11
-1709.234645
 21
4769.8122789999989
 31
0.0
  0
LINE
  5
766
  8
LAYER01
  6
CONTINUOUS
 62
     5
 10
-1734.234645
 20
4794.8122789999998
 30
0.0
 11
-1734.234645
 21
4744.8122789999998
 31
0.0
  0
POLYLINE
  5
767
  8
LAYER01
  6
CONTINUOUS
 62
     5
 66
     1
 10
0.0
 20
0.0
 30
0.0
 70
     1
  0
VERTEX
  5
D68
  8
LAYER01
  6
CONTINUOUS
 62
     5
 10
-1714.234645
 20
4769.8122789999989
 30
0.0
 42
0.4142140000000001
  0
VERTEX
  5
D69
  8
LAYER01
  6
CONTINUOUS
 62
     5
 10
-1734.234645
 20
4789.8122789999998
 30
0.0
 42
2.414213999999999
  0
VERTEX
  5
D6A
  8
LAYER01
  6
CONTINUOUS
 62
     5
 10
-1714.234645
 20
4769.8122789999989
 30
0.0
  0
SEQEND
  5
D6B
  8
LAYER01
  6
CONTINUOUS
 62
     5
  0
LINE
  5
76C
  8
LAYER01
  6
CONTINUOUS
 62
     5
 10
-1759.234645
 20
4769.8122789999989
 30
0.0
 11
-1709.234645
 21
4769.8122789999989
 31
0.0
  0
LINE
  5
76D
  8
LAYER01
  6
CONTINUOUS
 62
     5
 10
-1734.234645
 20
4794.8122789999998
 30
0.0
 11
-1734.234645
 21
4744.8122789999998
 31
0.0
  0
POLYLINE
  5
76E
  8
LAYER01
  6
CONTINUOUS
 62
     5
 66
     1
 10
0.0
 20
0.0
 30
0.0
 70
     1
  0
VERTEX
  5
D6C
  8
LAYER01
  6
CONTINUOUS
 62
     5
 10
-1556.734645
 20
4532.3122789999998
 30
0.0
 42
0.4142140000000001
  0
VERTEX
  5
D6D
  8
LAYER01
  6
CONTINUOUS
 62
     5
 10
-1734.234645
 20
4709.8122789999998
 30
0.0
 42
2.414213999999999
  0
VERTEX
  5
D6E
  8
LAYER01
  6
CONTINUOUS
 62
     5
 10
-1556.734645
 20
4532.3122789999998
 30
0.0
  0
SEQEND
  5
D6F
  8
LAYER01
  6
CONTINUOUS
 62
     5
  0
LINE
  5
773
  8
LAYER01
  6
CONTINUOUS
 62
     5
 10
-1912.841304
 20
4427.021823
 30
0.0
 11
-1928.4984469999999
 21
4401.4269449999993
 31
0.0
  0
ARC
  5
774
  8
LAYER01
  6
CONTINUOUS
 62
     5
 10
-1667.812191
 20
4613.8176579999999
 30
0.0
 40
252.91215399999999
 50
302.20304199999998
 51
355.47977200000003
  0
ARC
  5
775
  8
LAYER01
  6
CONTINUOUS
 62
     5
 10
-1420.600038
 20
4594.8122789999998
 30
0.0
 40
5.0
 50
349.31679400000002
 51
90.0
  0
ARC
  5
776
  8
LAYER01
  6
CONTINUOUS
 62
     5
 10
-1535.705608
 20
4404.0361159999993
 30
0.0
 40
5.0
 50
211.45535799999999
 51
302.352979
  0
ARC
  5
777
  8
LAYER01
  6
CONTINUOUS
 62
     5
 10
-1667.038368
 20
4612.8026829999999
 30
0.0
 40
211.639623
 50
302.26892400000003
 51
355.40160800000001
  0
ARC
  5
778
  8
LAYER01
  6
CONTINUOUS
 62
     5
 10
-1451.1857680000001
 20
4594.8122789999998
 30
0.0
 40
5.0
 50
90.0
 51
168.193275
  0
ARC
  5
779
  8
LAYER01
  6
CONTINUOUS
 62
     5
 10
-1551.3627509999999
 20
4429.6309929999989
 30
0.0
 40
5.0
 50
122.446112
 51
211.45535799999999
  0
LINE
  5
77A
  8
LAYER01
  6
CONTINUOUS
 62
     5
 10
-1420.600038
 20
4599.8122789999998
 30
0.0
 11
-1451.1857680000001
 21
4599.8122789999998
 31
0.0
  0
LINE
  5
77B
  8
LAYER01
  6
CONTINUOUS
 62
     5
 10
-1555.627986
 20
4427.021823
 30
0.0
 11
-1539.9708430000001
 21
4401.4269449999993
 31
0.0
  0
LINE
  5
77C
  8
LAYER01
  6
CONTINUOUS
 62
     5
 10
-1734.234645
 20
4849.8122789999998
 30
0.0
 11
-2706.826196
 21
4849.8122789999998
 31
0.0
  0
LINE
  5
77D
  8
LAYER01
  6
CONTINUOUS
 62
     5
 10
-1734.234645
 20
4837.8122789999998
 30
0.0
 11
-2701.9762810000002
 21
4837.8122789999998
 31
0.0
  0
LINE
  5
77E
  8
LAYER01
  6
CONTINUOUS
 62
     5
 10
-2669.681333
 20
4599.8122789999998
 30
0.0
 11
-2084.234645
 21
4599.8122789999998
 31
0.0
  0
LINE
  5
77F
  8
LAYER01
  6
CONTINUOUS
 62
     5
 10
-1734.234645
 20
4849.8122789999998
 30
0.0
 11
-761.64309400000002
 21
4849.8122789999998
 31
0.0
  0
LINE
  5
780
  8
LAYER01
  6
CONTINUOUS
 62
     5
 10
-1734.234645
 20
4837.8122789999998
 30
0.0
 11
-766.49300900000003
 21
4837.8122789999998
 31
0.0
  0
LINE
  5
781
  8
LAYER01
  6
CONTINUOUS
 62
     5
 10
-798.78795700000001
 20
4599.8122789999998
 30
0.0
 11
-1384.234645
 21
4599.8122789999998
 31
0.0
  0
LINE
  5
782
  8
LAYER01
  6
CONTINUOUS
 62
     5
 10
-2984.234645
 20
4849.8122789999998
 30
0.0
 11
-2984.234645
 21
4599.8122789999998
 31
0.0
  0
LINE
  5
783
  8
LAYER01
  6
CONTINUOUS
 62
     5
 10
-2730.4306740000002
 20
4849.8122789999998
 30
0.0
 11
-2984.234645
 21
4849.8122789999998
 31
0.0
  0
LINE
  5
784
  8
LAYER01
  6
CONTINUOUS
 62
     5
 10
-2725.5807589999999
 20
4837.8122789999998
 30
0.0
 11
-2984.234645
 21
4837.8122789999998
 31
0.0
  0
LINE
  5
785
  8
LAYER01
  6
CONTINUOUS
 62
     5
 10
-2984.234645
 20
4599.8122789999998
 30
0.0
 11
-2693.2858100000012
 21
4599.8122789999998
 31
0.0
  0
LINE
  5
786
  8
LAYER01
  6
CONTINUOUS
 62
     5
 10
-484.23464499999989
 20
4849.8122789999998
 30
0.0
 11
-484.23464499999989
 21
4599.8122789999998
 31
0.0
  0
LINE
  5
787
  8
LAYER01
  6
CONTINUOUS
 62
     5
 10
-738.03861600000005
 20
4849.8122789999998
 30
0.0
 11
-484.23464499999989
 21
4849.8122789999998
 31
0.0
  0
LINE
  5
788
  8
LAYER01
  6
CONTINUOUS
 62
     5
 10
-742.88853099999994
 20
4837.8122789999998
 30
0.0
 11
-484.23464499999989
 21
4837.8122789999998
 31
0.0
  0
LINE
  5
789
  8
LAYER01
  6
CONTINUOUS
 62
     5
 10
-484.23464499999989
 20
4599.8122789999998
 30
0.0
 11
-775.18348000000003
 21
4599.8122789999998
 31
0.0
  0
DIMENSION
  5
78A
  8
LAYER01
 62
     7
  2
*D43
 10
-3099.4298920000001
 20
4709.8122789999998
 30
0.0
 11
-3129.4298920000001
 21
4739.8122789999989
 31
0.0
 53
90.0
 13
-2982.9945010000001
 23
4769.8122789999989
 33
0.0
 14
-2982.9945010000001
 24
4709.8122789999998
 34
0.0
 50
90.0
  0
DIMENSION
  5
78B
  8
LAYER01
 62
     7
  2
*D44
 10
-3200.5800859999999
 20
4599.8122789999998
 30
0.0
 11
-3230.5800859999999
 21
4724.8122789999998
 31
0.0
 53
90.0
 13
-2982.9945010000001
 23
4849.8122789999998
 33
0.0
 14
-2982.9945010000001
 24
4599.8122789999998
 34
0.0
 50
90.0
  0
DIMENSION
  5
78C
  8
LAYER01
 62
     7
  2
*D45
 10
-3279.1433430000011
 20
4299.8122789999998
 30
0.0
 11
-3309.1433430000011
 21
4574.8122789999989
 31
0.0
 53
90.0
 13
-2982.9945010000001
 23
4849.8122789999998
 33
0.0
 14
-2982.9945010000001
 24
4299.8122789999998
 34
0.0
 50
90.0
  0
DIMENSION
  5
78D
  8
LAYER01
 62
     7
  2
*D46
 10
-3098.5915230000001
 20
4769.8122789999989
 30
0.0
 11
-3128.5915230000001
 21
4809.8122789999989
 31
0.0
 53
90.0
 13
-3045.9887779999999
 23
4849.8122789999998
 33
0.0
 14
-3045.9887779999999
 24
4769.8122789999989
 34
0.0
 50
90.0
  0
DIMENSION
  5
78E
  8
LAYER01
 62
     7
  2
*D47
 10
-2982.9945010000001
 20
5052.923945999999
 30
0.0
 11
-1685.8516440000001
 21
5082.9239459999999
 31
0.0
 13
-482.9945009999999
 23
4819.9758639999991
 33
0.0
 14
-2982.9945010000001
 24
4819.9758639999991
 34
0.0
  0
DIMENSION
  5
78F
  8
LAYER01
 62
     7
  2
*D48
 10
-1732.9945009999999
 20
4917.0608860000002
 30
0.0
 11
-2262.2802150000002
 21
4947.0608860000002
 31
0.0
 13
-2982.9945010000001
 23
4819.9758639999991
 33
0.0
 14
-1732.9945009999999
 24
4819.9758639999991
 34
0.0
  0
DIMENSION
  5
790
  8
LAYER01
 62
     7
  2
*D49
 10
-482.9945009999999
 20
4917.0608860000002
 30
0.0
 11
-1012.994501
 21
4947.0608860000002
 31
0.0
 13
-1732.9945009999999
 23
4819.9758639999991
 33
0.0
 14
-482.9945009999999
 24
4819.9758639999991
 34
0.0
  0
DIMENSION
  5
791
  8
LAYER01
 62
     7
  2
*D50
 10
-2052.782588
 20
4648.5937969999986
 30
0.0
 11
-1893.1035910000001
 21
4678.5937970000004
 31
0.0
 13
-2012.3893050000011
 23
4595.8353340000003
 33
0.0
 14
-2052.782588
 24
4595.8353340000003
 34
0.0
  0
DIMENSION
  5
792
  8
LAYER01
 62
     7
  2
*D51
 10
-1415.686702
 20
4648.5937969999986
 30
0.0
 11
-1264.9489309999999
 21
4678.5937970000004
 31
0.0
 13
-1384.234645
 23
4599.8122789999998
 33
0.0
 14
-1415.686702
 24
4599.8122789999998
 34
0.0
  0
DIMENSION
  5
793
  8
LAYER01
 62
     7
  2
*D52
 10
-2176.5749989999999
 20
4399.0361159999993
 30
0.0
 11
-2206.5749989999999
 21
4505.8527689999992
 31
0.0
 53
90.0
 13
-2084.234645
 23
4599.8122789999998
 33
0.0
 14
-2084.234645
 24
4399.0361159999993
 34
0.0
 50
90.0
  0
DIMENSION
  5
794
  8
LAYER01
 62
     7
  2
*D53
 10
-1382.9945009999999
 20
4133.3563810000014
 30
0.0
 11
-1732.9945009999999
 21
4163.3563809999996
 31
0.0
 13
-2082.9945010000001
 23
4299.8122789999998
 33
0.0
 14
-1382.9945009999999
 24
4299.8122789999998
 34
0.0
  0
DIMENSION
  5
795
  8
LAYER01
 62
     7
  2
*D54
 10
-1555.4945009999999
 20
4207.8364069999998
 30
0.0
 11
-1732.9945009999999
 21
4237.8364069999989
 31
0.0
 13
-1910.4945009999999
 23
4299.8122789999998
 33
0.0
 14
-1555.4945009999999
 24
4299.8122789999998
 34
0.0
  0
DIMENSION
  5
796
  8
LAYER01
 62
     7
  2
*D55
 10
-2740.372715
 20
1860.511213
 30
0.0
 11
-2770.372715
 21
1967.3278660000001
 31
0.0
 53
90.0
 13
-2648.032361
 23
2061.2873760000011
 33
0.0
 14
-2648.032361
 24
1860.511213
 34
0.0
 50
90.0
  0
DIMENSION
  5
797
  8
LAYER01
 62
     7
  2
*D56
 10
-2119.2922170000002
 20
1669.311504
 30
0.0
 11
-2296.7922170000002
 21
1699.311504
 31
0.0
 13
-2474.2922170000002
 23
1761.287376
 33
0.0
 14
-2119.2922170000002
 24
1761.287376
 34
0.0
  0
DIMENSION
  5
798
  8
LAYER01
 62
     7
  2
*D57
 10
-1946.7922169999999
 20
1594.8314780000001
 30
0.0
 11
-2296.7922170000002
 21
1624.8314780000001
 31
0.0
 13
-2646.7922170000002
 23
1761.287376
 33
0.0
 14
-1946.7922169999999
 24
1761.287376
 34
0.0
  0
DIMENSION
  5
799
  8
LAYER01
 62
     7
  2
*D58
 10
-1979.484418
 20
2110.068894
 30
0.0
 11
-1828.7466469999999
 21
2140.068894
 31
0.0
 13
-1948.032361
 23
2061.2873760000011
 33
0.0
 14
-1979.484418
 24
2061.2873760000011
 34
0.0
  0
DIMENSION
  5
79A
  8
LAYER01
 62
     7
  2
*D59
 10
-2616.5803040000001
 20
2110.068894
 30
0.0
 11
-2456.9013070000001
 21
2140.068894
 31
0.0
 13
-2576.1870210000002
 23
2057.3104309999999
 33
0.0
 14
-2616.5803040000001
 24
2057.3104309999999
 34
0.0
  0
DIMENSION
  5
79B
  8
LAYER01
 62
     7
  2
*D60
 10
-2119.2922170000002
 20
2810.0527219999999
 30
0.0
 11
-2296.7922170000002
 21
2840.0527219999999
 31
0.0
 13
-2474.2922170000002
 23
2902.0285940000008
 33
0.0
 14
-2119.2922170000002
 24
2902.0285940000008
 34
0.0
  0
DIMENSION
  5
79C
  8
LAYER01
 62
     7
  2
*D61
 10
-1946.7922169999999
 20
2735.5726970000001
 30
0.0
 11
-2296.7922170000002
 21
2765.5726970000001
 31
0.0
 13
-2646.7922170000002
 23
2902.0285940000008
 33
0.0
 14
-1946.7922169999999
 24
2902.0285940000008
 34
0.0
  0
DIMENSION
  5
79D
  8
LAYER01
 62
     7
  2
*D62
 10
-2982.6286249999998
 20
3705.1493700000001
 30
0.0
 11
-1870.0208050000001
 21
3735.1493700000001
 31
0.0
 13
-757.41298600000005
 23
3453.1531869999999
 33
0.0
 14
-2982.6286249999998
 24
3453.1531869999999
 34
0.0
  0
DIMENSION
  5
79E
  8
LAYER01
 62
     7
  2
*D63
 10
-2298.2859210000001
 20
3551.3946980000001
 30
0.0
 11
-2534.0287010000002
 21
3581.3946980000001
 31
0.0
 13
-2982.6286249999998
 23
3453.1531869999999
 33
0.0
 14
-2298.2859210000001
 24
3453.1531869999999
 34
0.0
  0
DIMENSION
  5
79F
  8
LAYER01
 62
     7
  2
*D64
 10
-1441.5024209999999
 20
3551.3946980000001
 30
0.0
 11
-1760.608457
 21
3581.3946980000001
 31
0.0
 13
-2298.2859210000001
 23
3453.1531869999999
 33
0.0
 14
-1441.5024209999999
 24
3453.1531869999999
 34
0.0
  0
DIMENSION
  5
7A0
  8
LAYER01
 62
     7
  2
*D65
 10
-757.41298600000005
 20
3551.3946980000001
 30
0.0
 11
-993.74341800000002
 21
3581.3946980000001
 31
0.0
 13
-1441.5024209999999
 23
3453.1531869999999
 33
0.0
 14
-757.41298600000005
 24
3453.1531869999999
 34
0.0
  0
DIMENSION
  5
7A1
  8
LAYER01
 62
     7
  2
*D66
 10
-2982.6286249999998
 20
2564.408152
 30
0.0
 11
-1870.0208050000001
 21
2594.408152
 31
0.0
 13
-757.41298600000005
 23
2312.4119690000011
 33
0.0
 14
-2982.6286249999998
 24
2312.4119690000011
 34
0.0
  0
DIMENSION
  5
7A2
  8
LAYER01
 62
     7
  2
*D67
 10
-2298.2859210000001
 20
2410.6534799999999
 30
0.0
 11
-2534.0287010000002
 21
2440.6534799999999
 31
0.0
 13
-2982.6286249999998
 23
2312.4119690000011
 33
0.0
 14
-2298.2859210000001
 24
2312.4119690000011
 34
0.0
  0
DIMENSION
  5
7A3
  8
LAYER01
 62
     7
  2
*D68
 10
-1441.5024209999999
 20
2410.6534799999999
 30
0.0
 11
-1760.608457
 21
2440.6534799999999
 31
0.0
 13
-2298.2859210000001
 23
2312.4119690000011
 33
0.0
 14
-1441.5024209999999
 24
2312.4119690000011
 34
0.0
  0
DIMENSION
  5
7A4
  8
LAYER01
 62
     7
  2
*D69
 10
-757.41298600000005
 20
2410.6534799999999
 30
0.0
 11
-993.74341800000002
 21
2440.6534799999999
 31
0.0
 13
-1441.5024209999999
 23
2312.4119690000011
 33
0.0
 14
-757.41298600000005
 24
2312.4119690000011
 34
0.0
  0
LINE
  5
7A5
  8
LAYER01
  6
CONTINUOUS
 62
     1
 10
1288.5795439999999
 20
1950.5101950000001
 30
0.0
 11
1288.5795439999999
 21
1444.5101950000001
 31
0.0
  0
TEXT
  5
7A6
  8
LAYER01
  6
CONTINUOUS
 62
     1
 10
1208.0579270000001
 20
1466.5101950000001
 30
0.0
 40
20.899999999999999
  1
Zust
  7
SIMPLEX
  0
TEXT
  5
7A7
  8
LAYER01
  6
VERDECKT
 62
     1
 10
2278.4916020000001
 20
1855.0258140000001
 30
0.0
 40
22.0
  1
b.s.
  7
SIMPLEX
  0
LINE
  5
7A8
  8
LAYER01
  6
CONTINUOUS
 62
     1
 10
1635.7056970000001
 20
1444.5101950000001
 30
0.0
 11
1635.7056970000001
 21
1950.5101950000001
 31
0.0
  0
LINE
  5
7A9
  8
LAYER01
  6
CONTINUOUS
 62
     1
 10
1805.5795439999999
 20
1950.5101950000001
 30
0.0
 11
1805.5795439999999
 21
1444.5101950000001
 31
0.0
  0
LINE
  5
7AA
  8
LAYER01
  6
CONTINUOUS
 62
     1
 10
1904.5795439999999
 20
2181.5101949999998
 30
0.0
 11
1904.5795439999999
 21
1444.5101950000001
 31
0.0
  0
LINE
  5
7AB
  8
LAYER01
  6
CONTINUOUS
 62
     1
 10
2256.5795440000002
 20
1675.5101950000001
 30
0.0
 11
2256.5795440000002
 21
2181.5101949999998
 31
0.0
  0
TEXT
  5
7AC
  8
LAYER01
  6
CONTINUOUS
 62
     1
 10
2102.5795440000011
 20
1906.5101950000001
 30
0.0
 40
22.0
  1
Datum
  7
SIMPLEX
  0
LINE
  5
7AD
  8
LAYER01
  6
CONTINUOUS
 62
     1
 10
2047.5795439999999
 20
1730.5101950000001
 30
0.0
 11
2047.5795439999999
 21
1950.5101950000001
 31
0.0
  0
TEXT
  5
7AE
  8
LAYER01
  6
CONTINUOUS
 62
     1
 10
1813.860132
 20
1466.5101950000001
 30
0.0
 40
20.899999999999999
  1
Name
  7
SIMPLEX
  0
TEXT
  5
7AF
  8
LAYER01
  6
CONTINUOUS
 62
     1
 10
1666.6586619999989
 20
1466.5101950000001
 30
0.0
 40
20.899999999999999
  1
Datum
  7
SIMPLEX
  0
TEXT
  5
7B0
  8
LAYER01
  6
CONTINUOUS
 62
     1
 10
1926.5795439999999
 20
1741.5101950000001
 30
0.0
 40
22.0
  1
Norm
  7
SIMPLEX
  0
TEXT
  5
7B1
  8
LAYER01
  6
CONTINUOUS
 62
     1
 10
1926.5795439999999
 20
1851.5101950000001
 30
0.0
 40
22.0
  1
Bearb.
  7
SIMPLEX
  0
TEXT
  5
7B2
  8
LAYER01
  6
CONTINUOUS
 62
     1
 10
1926.5795439999999
 20
1796.5101949999989
 30
0.0
 40
22.0
  1
Gepr.
  7
SIMPLEX
  0
TEXT
  5
7B3
  8
LAYER01
  6
VERDECKT
 62
     1
 10
2066.945858
 20
1855.1061950000001
 30
0.0
 40
22.0
  1
28.2.2013
  7
SIMPLEX
  0
LINE
  5
7B4
  8
LAYER01
  6
CONTINUOUS
 62
     1
 10
2509.5795440000011
 20
1444.5101950000001
 30
0.0
 11
2509.5795440000011
 21
2181.5101949999998
 31
0.0
  0
TEXT
  5
7B5
  8
LAYER01
  6
CONTINUOUS
 62
     1
 10
2322.5795440000002
 20
1906.5101950000001
 30
0.0
 40
22.0
  1
Name
  7
SIMPLEX
  0
TEXT
  5
7B6
  8
LAYER01
  6
VERDECKT
 62
     1
 10
2576.6111970000002
 20
1766.4504059999999
 30
0.0
 40
77.0
  1
Privo
  7
SIMPLEX
  0
TEXT
  5
7B7
  8
LAYER01
  6
VERDECKT
 62
     1
 10
2721.687398
 20
2124.3050360000002
 30
0.0
 40
22.0
  1
1 : 20 (DIN A3)
  7
SIMPLEX
  0
TEXT
  5
7B8
  8
LAYER01
  6
CONTINUOUS
 62
     1
 10
2533.546343
 20
2125.3441899999998
 30
0.0
 40
22.0
  1
Maßstab
  7
SIMPLEX
  0
INSERT
  5
99D
  8
LAYER01
  6
CONTINUOUS
 62
     7
  2
WMF0
 10
-30.492129510244009
 20
-541.86112549237941
 30
0.0
 41
0.5
 42
0.5
 43
0.5
  0
ENDSEC
  0
EOF
