  0
SECTION
  2
HEADER
  9
$ACADVER
  1
AC1009
  9
$INSBASE
 10
0.0
 20
0.0
 30
0.0
  9
$EXTMIN
 10
-386.1041451732799
 20
-727.39679851384506
 30
-0.0015258207003583
  9
$EXTMAX
 10
3584.080180731055
 20
2030.466818182555
 30
0.0000000349246037
  9
$LIMMIN
 10
-501.01199200000002
 20
-838.78993299999991
  9
$LIMMAX
 10
3698.9880079999998
 20
2131.210067
  9
$ORTHOMODE
 70
     0
  9
$REGENMODE
 70
     1
  9
$FILLMODE
 70
     1
  9
$QTEXTMODE
 70
     0
  9
$MIRRTEXT
 70
     0
  9
$DRAGMODE
 70
     2
  9
$LTSCALE
 40
150.0
  9
$OSMODE
 70
    39
  9
$ATTMODE
 70
     1
  9
$TEXTSIZE
 40
0.0
  9
$TRACEWID
 40
0.05
  9
$TEXTSTYLE
  7
STANDARD
  9
$CLAYER
  8
LAYER01
  9
$CELTYPE
  6
CONTINUOUS
  9
$CECOLOR
 62
     7
  9
$DIMSCALE
 40
1.0
  9
$DIMASZ
 40
0.18
  9
$DIMEXO
 40
0.0625
  9
$DIMDLI
 40
0.38
  9
$DIMRND
 40
0.0
  9
$DIMDLE
 40
0.0
  9
$DIMEXE
 40
0.18
  9
$DIMTP
 40
0.0
  9
$DIMTM
 40
0.0
  9
$DIMTXT
 40
0.18
  9
$DIMCEN
 40
0.09
  9
$DIMTSZ
 40
0.0
  9
$DIMTOL
 70
     0
  9
$DIMLIM
 70
     0
  9
$DIMTIH
 70
     1
  9
$DIMTOH
 70
     1
  9
$DIMSE1
 70
     0
  9
$DIMSE2
 70
     0
  9
$DIMTAD
 70
     0
  9
$DIMZIN
 70
     0
  9
$DIMBLK
  1

  9
$DIMASO
 70
     1
  9
$DIMSHO
 70
     1
  9
$DIMPOST
  1

  9
$DIMAPOST
  1

  9
$DIMALT
 70
     0
  9
$DIMALTD
 70
     2
  9
$DIMALTF
 40
25.399999999999999
  9
$DIMLFAC
 40
1.0
  9
$DIMTOFL
 70
     0
  9
$DIMTVP
 40
0.0
  9
$DIMTIX
 70
     0
  9
$DIMSOXD
 70
     0
  9
$DIMSAH
 70
     0
  9
$DIMBLK1
  1

  9
$DIMBLK2
  1

  9
$DIMSTYLE
  2
STANDARD
  9
$DIMCLRD
 70
     0
  9
$DIMCLRE
 70
     0
  9
$DIMCLRT
 70
     0
  9
$DIMTFAC
 40
1.0
  9
$DIMGAP
 40
0.09
  9
$LUNITS
 70
     2
  9
$LUPREC
 70
     4
  9
$SKETCHINC
 40
0.1
  9
$FILLETRAD
 40
10.0
  9
$AUNITS
 70
     0
  9
$AUPREC
 70
     0
  9
$MENU
  1
acad
  9
$ELEVATION
 40
0.0
  9
$PELEVATION
 40
0.0
  9
$THICKNESS
 40
0.0
  9
$LIMCHECK
 70
     0
  9
$BLIPMODE
 70
     0
  9
$CHAMFERA
 40
10.0
  9
$CHAMFERB
 40
10.0
  9
$SKPOLY
 70
     0
  9
$TDCREATE
 40
11309773.539685151
  9
$TDUPDATE
 40
2457394.3614387731
  9
$TDINDWG
 40
0.0106580093
  9
$TDUSRTIMER
 40
0.0106578472
  9
$USRTIMER
 70
     1
  9
$ANGBASE
 50
0.0
  9
$ANGDIR
 70
     0
  9
$PDMODE
 70
     0
  9
$PDSIZE
 40
0.0
  9
$PLINEWID
 40
0.0
  9
$COORDS
 70
     1
  9
$SPLFRAME
 70
     0
  9
$SPLINETYPE
 70
     6
  9
$SPLINESEGS
 70
    10
  9
$ATTDIA
 70
     0
  9
$ATTREQ
 70
     1
  9
$HANDLING
 70
     1
  9
$HANDSEED
  5
13A6
  9
$SURFTAB1
 70
     6
  9
$SURFTAB2
 70
     6
  9
$SURFTYPE
 70
     6
  9
$SURFU
 70
     6
  9
$SURFV
 70
     6
  9
$UCSNAME
  2

  9
$UCSORG
 10
0.0
 20
0.0
 30
0.0
  9
$UCSXDIR
 10
1.0
 20
0.0
 30
0.0
  9
$UCSYDIR
 10
0.0
 20
1.0
 30
0.0
  9
$PUCSNAME
  2

  9
$PUCSORG
 10
0.0
 20
0.0
 30
0.0
  9
$PUCSXDIR
 10
1.0
 20
0.0
 30
0.0
  9
$PUCSYDIR
 10
0.0
 20
1.0
 30
0.0
  9
$USERI1
 70
     0
  9
$USERI2
 70
     0
  9
$USERI3
 70
     0
  9
$USERI4
 70
     0
  9
$USERI5
 70
     0
  9
$USERR1
 40
0.0
  9
$USERR2
 40
0.0
  9
$USERR3
 40
0.0
  9
$USERR4
 40
0.0
  9
$USERR5
 40
0.0
  9
$WORLDVIEW
 70
     1
  9
$SHADEDGE
 70
     3
  9
$SHADEDIF
 70
    70
  9
$TILEMODE
 70
     1
  9
$MAXACTVP
 70
    64
  9
$PLIMCHECK
 70
     0
  9
$PEXTMIN
 10
1.0000000000000000E+020
 20
1.0000000000000000E+020
 30
1.0000000000000000E+020
  9
$PEXTMAX
 10
-1.0000000000000000E+020
 20
-1.0000000000000000E+020
 30
-1.0000000000000000E+020
  9
$PLIMMIN
 10
0.0
 20
0.0
  9
$PLIMMAX
 10
12.0
 20
9.0
  9
$UNITMODE
 70
     0
  9
$VISRETAIN
 70
     1
  9
$PLINEGEN
 70
     0
  9
$PSLTSCALE
 70
     1
  0
ENDSEC
  0
SECTION
  2
TABLES
  0
TABLE
  2
VPORT
 70
     1
  0
VPORT
  2
*ACTIVE
 70
     0
 10
0.0
 20
0.0
 11
1.0
 21
1.0
 12
1598.9880079999989
 22
646.21006699999975
 13
0.0
 23
0.0
 14
1.0
 24
1.0
 15
0.0
 25
0.0
 16
0.0
 26
0.0
 36
1.0
 17
0.0
 27
0.0
 37
0.0
 40
2989.369565217391
 41
1.4396082698585411
 42
50.0
 43
0.0
 44
0.0
 50
0.0
 51
0.0
 71
     0
 72
   100
 73
     1
 74
     1
 75
     0
 76
     0
 77
     0
 78
     0
  0
ENDTAB
  0
TABLE
  2
LTYPE
 70
    11
  0
LTYPE
  2
CONTINUOUS
 70
     0
  3
Solid line
 72
    65
 73
     0
 40
0.0
  0
LTYPE
  2
GESTRICHELT
 70
     0
  3
__ __ __ __ __ __ __ __ __ __ __ __ __ __ __
 72
    65
 73
     2
 40
0.75
 49
0.5
 49
-0.25
  0
LTYPE
  2
VERDECKT
 70
     0
  3
_ _ _ _ _ _ _ _ _ _ _ _ _ _ _ _ _ _ _ _ _ _ 
 72
    65
 73
     2
 40
0.25
 49
0.125
 49
-0.125
  0
LTYPE
  2
MITTELLINIE
 70
     0
  3
____ _ ____ _ ____ _ ____ _ ____ _ ____ _ __
 72
    65
 73
     4
 40
2.0
 49
1.25
 49
-0.25
 49
0.25
 49
-0.25
  0
LTYPE
  2
PHANTOM
 70
     0
  3
_____ _ _ _____ _ _ _____ _ _ _____ _ _ ____
 72
    65
 73
     6
 40
2.5
 49
1.25
 49
-0.25
 49
0.25
 49
-0.25
 49
0.25
 49
-0.25
  0
LTYPE
  2
PUNKTIERT
 70
     0
  3
............................................
 72
    65
 73
     2
 40
0.25
 49
0.0
 49
-0.25
  0
LTYPE
  2
STRICHPUNKTIERT
 70
     0
  3
__ . __ . __ . __ . __ . __ . __ . __ . __ .
 72
    65
 73
     4
 40
1.0
 49
0.5
 49
-0.25
 49
0.0
 49
-0.25
  0
LTYPE
  2
RAND
 70
     0
  3
__ __ . __ __ . __ __ . __ __ . __ __ . __ _
 72
    65
 73
     6
 40
1.75
 49
0.5
 49
-0.25
 49
0.5
 49
-0.25
 49
0.0
 49
-0.25
  0
LTYPE
  2
TRENNLINIE
 70
     0
  3
__ . . __ . . __ . . __ . . __ . . __ . . __
 72
    65
 73
     6
 40
1.25
 49
0.5
 49
-0.25
 49
0.0
 49
-0.25
 49
0.0
 49
-0.25
  0
LTYPE
  2
ENG_PUNKTIERT
 70
     0
  3
Schließen                                   
 72
    65
 73
     2
 40
0.1
 49
0.05
 49
-0.05
  0
LTYPE
  2
CLOSE
 70
     0
  3
                                            
 72
    65
 73
     0
 40
0.0
  0
ENDTAB
  0
TABLE
  2
LAYER
 70
   254
  0
LAYER
  2
0
 70
     0
 62
     7
  6
CONTINUOUS
  0
LAYER
  2
LAYER01
 70
     0
 62
     7
  6
CONTINUOUS
  0
LAYER
  2
LAYER02
 70
     0
 62
     7
  6
CONTINUOUS
  0
LAYER
  2
LAYER03
 70
     0
 62
     7
  6
CONTINUOUS
  0
LAYER
  2
LAYER04
 70
     0
 62
     7
  6
CONTINUOUS
  0
LAYER
  2
LAYER05
 70
     0
 62
     7
  6
CONTINUOUS
  0
LAYER
  2
LAYER06
 70
     0
 62
     7
  6
CONTINUOUS
  0
LAYER
  2
LAYER07
 70
     0
 62
     7
  6
CONTINUOUS
  0
LAYER
  2
LAYER08
 70
     0
 62
     7
  6
CONTINUOUS
  0
LAYER
  2
LAYER09
 70
     0
 62
     7
  6
CONTINUOUS
  0
LAYER
  2
LAYER10
 70
     0
 62
     7
  6
CONTINUOUS
  0
LAYER
  2
KERA4
 70
     0
 62
     7
  6
CONTINUOUS
  0
LAYER
  2
2
 70
     0
 62
     7
  6
CONTINUOUS
  0
LAYER
  2
5
 70
     0
 62
     7
  6
CONTINUOUS
  0
LAYER
  2
RAUMAUFM
 70
     0
 62
     7
  6
CONTINUOUS
  0
LAYER
  2
EINRICHT
 70
     0
 62
     7
  6
CONTINUOUS
  0
LAYER
  2
HILFE
 70
     0
 62
     7
  6
CONTINUOUS
  0
LAYER
  2
SCHNITTE
 70
     0
 62
     7
  6
CONTINUOUS
  0
LAYER
  2
SCHRAFF1
 70
     0
 62
     7
  6
CONTINUOUS
  0
LAYER
  2
SCHRAFF2
 70
     0
 62
     7
  6
CONTINUOUS
  0
LAYER
  2
BEMASS-1
 70
     0
 62
     7
  6
CONTINUOUS
  0
LAYER
  2
BEMASS-2
 70
     0
 62
     7
  6
CONTINUOUS
  0
LAYER
  2
TEXT
 70
     0
 62
     7
  6
CONTINUOUS
  0
LAYER
  2
SYMBOLE
 70
     0
 62
     7
  6
CONTINUOUS
  0
LAYER
  2
RAHMEN
 70
     0
 62
     7
  6
CONTINUOUS
  0
LAYER
  2
SCHRIFTF
 70
     0
 62
     7
  6
CONTINUOUS
  0
LAYER
  2
ACHSEN
 70
     0
 62
     7
  6
CONTINUOUS
  0
LAYER
  2
ZEICHN
 70
     0
 62
     7
  6
CONTINUOUS
  0
LAYER
  2
7
 70
     0
 62
     7
  6
CONTINUOUS
  0
LAYER
  2
1
 70
     0
 62
     7
  6
CONTINUOUS
  0
LAYER
  2
6
 70
     0
 62
     7
  6
CONTINUOUS
  0
LAYER
  2
4
 70
     0
 62
     7
  6
CONTINUOUS
  0
LAYER
  2
GRUNDEBENE
 70
     0
 62
     7
  6
CONTINUOUS
  0
LAYER
  2
GRUNDRISS
 70
     0
 62
     7
  6
CONTINUOUS
  0
LAYER
  2
BEMASSUNGGRUNDRISS
 70
     0
 62
     7
  6
CONTINUOUS
  0
LAYER
  2
WANDELEMENTE
 70
     0
 62
     7
  6
CONTINUOUS
  0
LAYER
  2
KUECHE
 70
     0
 62
     7
  6
CONTINUOUS
  0
LAYER
  2
THEKEBROETCHEN
 70
     0
 62
     7
  6
CONTINUOUS
  0
LAYER
  2
CENTERLINIE
 70
     0
 62
     7
  6
CONTINUOUS
  0
LAYER
  2
UMRISSE
 70
     0
 62
     7
  6
CONTINUOUS
  0
LAYER
  2
MAUER
 70
     0
 62
     7
  6
CONTINUOUS
  0
LAYER
  2
SCHRAFFUR
 70
     0
 62
     7
  6
CONTINUOUS
  0
LAYER
  2
MASSLINIE
 70
     0
 62
     7
  6
CONTINUOUS
  0
LAYER
  2
PV
 70
     0
 62
     7
  6
CONTINUOUS
  0
LAYER
  2
BESCHRIFTUNG
 70
     0
 62
     7
  6
CONTINUOUS
  0
LAYER
  2
AS
 70
     0
 62
     7
  6
CONTINUOUS
  0
LAYER
  2
PL
 70
     0
 62
     7
  6
CONTINUOUS
  0
LAYER
  2
UK
 70
     0
 62
     7
  6
CONTINUOUS
  0
LAYER
  2
TEXT3
 70
     0
 62
     7
  6
CONTINUOUS
  0
LAYER
  2
TEXT7
 70
     0
 62
     7
  6
CONTINUOUS
  0
LAYER
  2
BEPL1
 70
     0
 62
     7
  6
CONTINUOUS
  0
LAYER
  2
BEPL2
 70
     0
 62
     7
  6
CONTINUOUS
  0
LAYER
  2
BEPL2V
 70
     0
 62
     7
  6
CONTINUOUS
  0
LAYER
  2
BEPL4
 70
     0
 62
     7
  6
CONTINUOUS
  0
LAYER
  2
BEPL
 70
     0
 62
     7
  6
CONTINUOUS
  0
LAYER
  2
UK1
 70
     0
 62
     7
  6
CONTINUOUS
  0
LAYER
  2
UK2
 70
     0
 62
     7
  6
CONTINUOUS
  0
LAYER
  2
UK2V
 70
     0
 62
     7
  6
CONTINUOUS
  0
LAYER
  2
UK3
 70
     0
 62
     7
  6
CONTINUOUS
  0
LAYER
  2
TEXT2
 70
     0
 62
     7
  6
CONTINUOUS
  0
LAYER
  2
HILF2S
 70
     0
 62
     7
  6
CONTINUOUS
  0
LAYER
  2
UK1V
 70
     0
 62
     7
  6
CONTINUOUS
  0
LAYER
  2
GAIN_ZRA
 70
     0
 62
     7
  6
CONTINUOUS
  0
LAYER
  2
GAIN_ZSF
 70
     0
 62
     7
  6
CONTINUOUS
  0
LAYER
  2
RAHM4
 70
     0
 62
     7
  6
CONTINUOUS
  0
LAYER
  2
KORPUSBAND
 70
     0
 62
     7
  6
CONTINUOUS
  0
LAYER
  2
E---LGPL--------
 70
     0
 62
     7
  6
CONTINUOUS
  0
LAYER
  2
E---NPFL--------
 70
     0
 62
     7
  6
CONTINUOUS
  0
LAYER
  2
E---PLNKTXT-----
 70
     0
 62
     7
  6
CONTINUOUS
  0
LAYER
  2
E---PLNK--------
 70
     0
 62
     7
  6
CONTINUOUS
  0
LAYER
  2
E---PLNR--------
 70
     0
 62
     7
  6
CONTINUOUS
  0
LAYER
  2
D547_ARCHICAD
 70
     0
 62
     7
  6
CONTINUOUS
  0
LAYER
  2
D547_E---TEXT--------
 70
     0
 62
     7
  6
CONTINUOUS
  0
LAYER
  2
E---LEGD--------
 70
     0
 62
     7
  6
CONTINUOUS
  0
LAYER
  2
D43_ARCHICAD
 70
     0
 62
     7
  6
CONTINUOUS
  0
LAYER
  2
D43_FENSTER_VON_B---FASS--
 70
     0
 62
     7
  6
CONTINUOUS
  0
LAYER
  2
D43_E---SCHN--------
 70
     0
 62
     7
  6
CONTINUOUS
  0
LAYER
  2
D43_B---MW-N--------
 70
     0
 62
     7
  6
CONTINUOUS
  0
LAYER
  2
D43_B---DECK--------
 70
     0
 62
     7
  6
CONTINUOUS
  0
LAYER
  2
D43_B---MW-S--------
 70
     0
 62
     7
  6
CONTINUOUS
  0
LAYER
  2
D43_B---MW----------
 70
     0
 62
     7
  6
CONTINUOUS
  0
LAYER
  2
D43_B---FASS--------
 70
     0
 62
     7
  6
CONTINUOUS
  0
LAYER
  2
D43_E---RASG--------
 70
     0
 62
     7
  6
CONTINUOUS
  0
LAYER
  2
D40_ARCHICAD
 70
     0
 62
     7
  6
CONTINUOUS
  0
LAYER
  2
D40_E---MW--------
 70
     0
 62
     7
  6
CONTINUOUS
  0
LAYER
  2
D40_E---FASSKON-----
 70
     0
 62
     7
  6
CONTINUOUS
  0
LAYER
  2
D40_TÜREN_VON_B---MW-N----
 70
     0
 62
     7
  6
CONTINUOUS
  0
LAYER
  2
D40_E---MW-L------
 70
     0
 62
     7
  6
CONTINUOUS
  0
LAYER
  2
D40_TÜREN_VON_B---MW------
 70
     0
 62
     7
  6
CONTINUOUS
  0
LAYER
  2
D40_E---VERM--------
 70
     0
 62
     7
  6
CONTINUOUS
  0
LAYER
  2
D40_FENSTER_VON_E---MW-L--
 70
     0
 62
     7
  6
CONTINUOUS
  0
LAYER
  2
D40_FENSTER_VON_B---MW-N--
 70
     0
 62
     7
  6
CONTINUOUS
  0
LAYER
  2
D40_E---SCHN--------
 70
     0
 62
     7
  6
CONTINUOUS
  0
LAYER
  2
D40_E---AUFZ--------
 70
     0
 62
     7
  6
CONTINUOUS
  0
LAYER
  2
D40_E---DECK--------
 70
     0
 62
     7
  6
CONTINUOUS
  0
LAYER
  2
D40_E---RAUMINF-----
 70
     0
 62
     7
  6
CONTINUOUS
  0
LAYER
  2
D40_E---TEXT--------
 70
     0
 62
     7
  6
CONTINUOUS
  0
LAYER
  2
D40_B---TEXT--------
 70
     0
 62
     7
  6
CONTINUOUS
  0
LAYER
  2
D40_B---MW-N--------
 70
     0
 62
     7
  6
CONTINUOUS
  0
LAYER
  2
D40_B---DECK--------
 70
     0
 62
     7
  6
CONTINUOUS
  0
LAYER
  2
D40_B---AUFZ--------
 70
     0
 62
     7
  6
CONTINUOUS
  0
LAYER
  2
D40_B---MW-S--------
 70
     0
 62
     7
  6
CONTINUOUS
  0
LAYER
  2
D40_B---MW----------
 70
     0
 62
     7
  6
CONTINUOUS
  0
LAYER
  2
D40_E---MOEB--------
 70
     0
 62
     7
  6
CONTINUOUS
  0
LAYER
  2
D40_B---UMGB--------
 70
     0
 62
     7
  6
CONTINUOUS
  0
LAYER
  2
D40_B---FASS--------
 70
     0
 62
     7
  6
CONTINUOUS
  0
LAYER
  2
D40_E---DACH--------
 70
     0
 62
     7
  6
CONTINUOUS
  0
LAYER
  2
D40_E---BODE--------
 70
     0
 62
     7
  6
CONTINUOUS
  0
LAYER
  2
D40_E---TREP--------
 70
     0
 62
     7
  6
CONTINUOUS
  0
LAYER
  2
D40_E---RASG--------
 70
     0
 62
     7
  6
CONTINUOUS
  0
LAYER
  2
D40_B---MW-K--------
 70
     0
 62
     7
  6
CONTINUOUS
  0
LAYER
  2
D40_E---FASSGLA-----
 70
     0
 62
     7
  6
CONTINUOUS
  0
LAYER
  2
D40_B---VERM--------
 70
     0
 62
     7
  6
CONTINUOUS
  0
LAYER
  2
D40_E---UMGBGSG-----
 70
     0
 62
     7
  6
CONTINUOUS
  0
LAYER
  2
D40_E---RASF--------
 70
     0
 62
     7
  6
CONTINUOUS
  0
LAYER
  2
D40_E---PFLA--------
 70
     0
 62
     7
  6
CONTINUOUS
  0
LAYER
  2
D40_E---KONS-ST-----
 70
     0
 62
     7
  6
CONTINUOUS
  0
LAYER
  2
D40_E---WERB--------
 70
     0
 62
     7
  6
CONTINUOUS
  0
LAYER
  2
D40_E---TUERINF-----
 70
     0
 62
     7
  6
CONTINUOUS
  0
LAYER
  2
D40_E---WOLK--------
 70
     0
 62
     7
  6
CONTINUOUS
  0
LAYER
  2
D40_B---MW-L--------
 70
     0
 62
     7
  6
CONTINUOUS
  0
LAYER
  2
D40_B---SANI--------
 70
     0
 62
     7
  6
CONTINUOUS
  0
LAYER
  2
D40_E---SANI--------
 70
     0
 62
     7
  6
CONTINUOUS
  0
LAYER
  2
D40_E---MW-K------
 70
     0
 62
     7
  6
CONTINUOUS
  0
LAYER
  2
D40_E---OBJE--------
 70
     0
 62
     7
  6
CONTINUOUS
  0
LAYER
  2
D40_E---ASPR--------
 70
     0
 62
     7
  6
CONTINUOUS
  0
LAYER
  2
D40_E---VERMTGA-----
 70
     0
 62
     7
  6
CONTINUOUS
  0
LAYER
  2
D40_E---PARK--------
 70
     0
 62
     7
  6
CONTINUOUS
  0
LAYER
  2
D40_E---ISOL--------
 70
     0
 62
     7
  6
CONTINUOUS
  0
LAYER
  2
D40_E---TUER--------
 70
     0
 62
     7
  6
CONTINUOUS
  0
LAYER
  2
D40_E---MW--BRA---
 70
     0
 62
     7
  6
CONTINUOUS
  0
LAYER
  2
D41_ARCHICAD
 70
     0
 62
     7
  6
CONTINUOUS
  0
LAYER
  2
D41_E---MW--------
 70
     0
 62
     7
  6
CONTINUOUS
  0
LAYER
  2
D41_E---FASSKON-----
 70
     0
 62
     7
  6
CONTINUOUS
  0
LAYER
  2
D41_TÜREN_VON_B---MW-N----
 70
     0
 62
     7
  6
CONTINUOUS
  0
LAYER
  2
D41_E---MW-L------
 70
     0
 62
     7
  6
CONTINUOUS
  0
LAYER
  2
D41_TÜREN_VON_B---MW------
 70
     0
 62
     7
  6
CONTINUOUS
  0
LAYER
  2
D41_E---VERM--------
 70
     0
 62
     7
  6
CONTINUOUS
  0
LAYER
  2
D41_FENSTER_VON_E---MW-L--
 70
     0
 62
     7
  6
CONTINUOUS
  0
LAYER
  2
D41_FENSTER_VON_B---MW-N--
 70
     0
 62
     7
  6
CONTINUOUS
  0
LAYER
  2
D41_E---SCHN--------
 70
     0
 62
     7
  6
CONTINUOUS
  0
LAYER
  2
D41_E---AUFZ--------
 70
     0
 62
     7
  6
CONTINUOUS
  0
LAYER
  2
D41_E---DECK--------
 70
     0
 62
     7
  6
CONTINUOUS
  0
LAYER
  2
D41_E---RAUMINF-----
 70
     0
 62
     7
  6
CONTINUOUS
  0
LAYER
  2
D41_E---TEXT--------
 70
     0
 62
     7
  6
CONTINUOUS
  0
LAYER
  2
D41_B---TEXT--------
 70
     0
 62
     7
  6
CONTINUOUS
  0
LAYER
  2
D41_B---MW-N--------
 70
     0
 62
     7
  6
CONTINUOUS
  0
LAYER
  2
D41_B---DECK--------
 70
     0
 62
     7
  6
CONTINUOUS
  0
LAYER
  2
D41_B---AUFZ--------
 70
     0
 62
     7
  6
CONTINUOUS
  0
LAYER
  2
D41_B---MW-S--------
 70
     0
 62
     7
  6
CONTINUOUS
  0
LAYER
  2
D41_B---MW----------
 70
     0
 62
     7
  6
CONTINUOUS
  0
LAYER
  2
D41_E---MOEB--------
 70
     0
 62
     7
  6
CONTINUOUS
  0
LAYER
  2
D41_B---UMGB--------
 70
     0
 62
     7
  6
CONTINUOUS
  0
LAYER
  2
D41_B---FASS--------
 70
     0
 62
     7
  6
CONTINUOUS
  0
LAYER
  2
D41_E---DACH--------
 70
     0
 62
     7
  6
CONTINUOUS
  0
LAYER
  2
D41_E---BODE--------
 70
     0
 62
     7
  6
CONTINUOUS
  0
LAYER
  2
D41_E---TREP--------
 70
     0
 62
     7
  6
CONTINUOUS
  0
LAYER
  2
D41_E---RASG--------
 70
     0
 62
     7
  6
CONTINUOUS
  0
LAYER
  2
D41_B---MW-K--------
 70
     0
 62
     7
  6
CONTINUOUS
  0
LAYER
  2
D41_E---FASSGLA-----
 70
     0
 62
     7
  6
CONTINUOUS
  0
LAYER
  2
D41_B---VERM--------
 70
     0
 62
     7
  6
CONTINUOUS
  0
LAYER
  2
D41_E---UMGBGSG-----
 70
     0
 62
     7
  6
CONTINUOUS
  0
LAYER
  2
D41_E---RASF--------
 70
     0
 62
     7
  6
CONTINUOUS
  0
LAYER
  2
D41_E---PFLA--------
 70
     0
 62
     7
  6
CONTINUOUS
  0
LAYER
  2
D41_E---KONS-ST-----
 70
     0
 62
     7
  6
CONTINUOUS
  0
LAYER
  2
D41_E---WERB--------
 70
     0
 62
     7
  6
CONTINUOUS
  0
LAYER
  2
D41_E---TUERINF-----
 70
     0
 62
     7
  6
CONTINUOUS
  0
LAYER
  2
D41_E---WOLK--------
 70
     0
 62
     7
  6
CONTINUOUS
  0
LAYER
  2
D41_B---MW-L--------
 70
     0
 62
     7
  6
CONTINUOUS
  0
LAYER
  2
D41_B---SANI--------
 70
     0
 62
     7
  6
CONTINUOUS
  0
LAYER
  2
D41_E---SANI--------
 70
     0
 62
     7
  6
CONTINUOUS
  0
LAYER
  2
D41_E---MW-K------
 70
     0
 62
     7
  6
CONTINUOUS
  0
LAYER
  2
D41_E---OBJE--------
 70
     0
 62
     7
  6
CONTINUOUS
  0
LAYER
  2
D41_E---ASPR--------
 70
     0
 62
     7
  6
CONTINUOUS
  0
LAYER
  2
D41_E---VERMTGA-----
 70
     0
 62
     7
  6
CONTINUOUS
  0
LAYER
  2
D41_E---PARK--------
 70
     0
 62
     7
  6
CONTINUOUS
  0
LAYER
  2
D41_E---ISOL--------
 70
     0
 62
     7
  6
CONTINUOUS
  0
LAYER
  2
D41_E---TUER--------
 70
     0
 62
     7
  6
CONTINUOUS
  0
LAYER
  2
D41_E---MW--BRA---
 70
     0
 62
     7
  6
CONTINUOUS
  0
LAYER
  2
D42_ARCHICAD
 70
     0
 62
     7
  6
CONTINUOUS
  0
LAYER
  2
D42_FENSTER_VON_B---FASS--
 70
     0
 62
     7
  6
CONTINUOUS
  0
LAYER
  2
D42_E---SCHN--------
 70
     0
 62
     7
  6
CONTINUOUS
  0
LAYER
  2
D42_B---MW-N--------
 70
     0
 62
     7
  6
CONTINUOUS
  0
LAYER
  2
D42_B---DECK--------
 70
     0
 62
     7
  6
CONTINUOUS
  0
LAYER
  2
D42_B---MW-S--------
 70
     0
 62
     7
  6
CONTINUOUS
  0
LAYER
  2
D42_B---MW----------
 70
     0
 62
     7
  6
CONTINUOUS
  0
LAYER
  2
D42_B---FASS--------
 70
     0
 62
     7
  6
CONTINUOUS
  0
LAYER
  2
D42_E---RASG--------
 70
     0
 62
     7
  6
CONTINUOUS
  0
LAYER
  2
CONSTRUCTION_CLASS
 70
     0
 62
     7
  6
CONTINUOUS
  0
LAYER
  2
PATTERN_CLASS
 70
     0
 62
     7
  6
CONTINUOUS
  0
LAYER
  2
KONSTRUKTION
 70
     0
 62
     7
  6
CONTINUOUS
  0
LAYER
  2
BEMAßUNG
 70
     0
 62
     7
  6
CONTINUOUS
  0
LAYER
  2
HILFSGEOMETRIE
 70
     0
 62
     7
  6
CONTINUOUS
  0
LAYER
  2
UNSICHTBAR
 70
     0
 62
     7
  6
CONTINUOUS
  0
LAYER
  2
LOGO
 70
     0
 62
     7
  6
CONTINUOUS
  0
LAYER
  2
VERWALTUNG
 70
     0
 62
     7
  6
CONTINUOUS
  0
LAYER
  2
UNSICHTBARE_GEWINDE
 70
     0
 62
     7
  6
CONTINUOUS
  0
LAYER
  2
SICHTBARE_GEWINDE
 70
     0
 62
     7
  6
CONTINUOUS
  0
LAYER
  2
DEFPOINTS
 70
     0
 62
     7
  6
CONTINUOUS
  0
LAYER
  2
THICK
 70
     0
 62
     7
  6
CONTINUOUS
  0
LAYER
  2
HIDDEN
 70
     0
 62
     7
  6
CONTINUOUS
  0
LAYER
  2
SCHRAFFURGRUNDRISS
 70
     0
 62
     7
  6
CONTINUOUS
  0
LAYER
  2
BEMASSUNG_GRUNDRISS
 70
     0
 62
     7
  6
CONTINUOUS
  0
LAYER
  2
STATIK
 70
     0
 62
     7
  6
CONTINUOUS
  0
LAYER
  2
TÜREN
 70
     0
 62
     7
  6
CONTINUOUS
  0
LAYER
  2
SANITÄR
 70
     0
 62
     7
  6
CONTINUOUS
  0
LAYER
  2
BEMASSUNG_GIPSKARTON
 70
     0
 62
     7
  6
CONTINUOUS
  0
LAYER
  2
EINRICHTUNGEN
 70
     0
 62
     7
  6
CONTINUOUS
  0
LAYER
  2
BECKEN
 70
     0
 62
     7
  6
CONTINUOUS
  0
LAYER
  2
BELEUCHTUNG
 70
     0
 62
     7
  6
CONTINUOUS
  0
LAYER
  2
BESCHRIFTUNGEN
 70
     0
 62
     7
  6
CONTINUOUS
  0
LAYER
  2
ELEKTRO_1__DOSEN_SCHALTER
 70
     0
 62
     7
  6
CONTINUOUS
  0
LAYER
  2
DEFAULT_1
 70
     0
 62
     7
  6
CONTINUOUS
  0
LAYER
  2
AM_0
 70
     0
 62
     7
  6
CONTINUOUS
  0
LAYER
  2
FRAME0_7
 70
     0
 62
     7
  6
CONTINUOUS
  0
LAYER
  2
AM_BOR
 70
     0
 62
     7
  6
CONTINUOUS
  0
LAYER
  2
RAHM2
 70
     0
 62
     7
  6
CONTINUOUS
  0
LAYER
  2
RAHM3
 70
     0
 62
     7
  6
CONTINUOUS
  0
LAYER
  2
FRAME0_5
 70
     0
 62
     7
  6
CONTINUOUS
  0
LAYER
  2
8
 70
     0
 62
     7
  6
CONTINUOUS
  0
LAYER
  2
AM_5
 70
     0
 62
     7
  6
CONTINUOUS
  0
LAYER
  2
AM_7
 70
     0
 62
     7
  6
CONTINUOUS
  0
LAYER
  2
HILFSLINIEN
 70
     0
 62
     7
  6
CONTINUOUS
  0
LAYER
  2
DRAWING_TEMPLATE
 70
     0
 62
     7
  6
CONTINUOUS
  0
LAYER
  2
TECHNOBOX_EXTERNALREFSYMBO
 70
     0
 62
     7
  6
CONTINUOUS
  0
LAYER
  2
TECHNOBOX_POLYCLIPSYMBOL_L
 70
     0
 62
     7
  6
CONTINUOUS
  0
LAYER
  2
100
 70
     0
 62
     7
  6
CONTINUOUS
  0
LAYER
  2
101
 70
     0
 62
     7
  6
CONTINUOUS
  0
LAYER
  2
KONTUR
 70
     0
 62
     7
  6
CONTINUOUS
  0
LAYER
  2
MITTELLINIE
 70
     0
 62
     7
  6
CONTINUOUS
  0
LAYER
  2
GESTRICHELT
 70
     0
 62
     7
  6
CONTINUOUS
  0
LAYER
  2
HILFSLINIE
 70
     0
 62
     7
  6
CONTINUOUS
  0
LAYER
  2
TEXT-25
 70
     0
 62
     7
  6
CONTINUOUS
  0
LAYER
  2
TEXT35
 70
     0
 62
     7
  6
CONTINUOUS
  0
LAYER
  2
TEXT-50
 70
     0
 62
     7
  6
CONTINUOUS
  0
LAYER
  2
TEXT-70
 70
     0
 62
     7
  6
CONTINUOUS
  0
LAYER
  2
ANSICHTSFENSTER
 70
     0
 62
     7
  6
CONTINUOUS
  0
LAYER
  2
KERA0
 70
     0
 62
     7
  6
CONTINUOUS
  0
LAYER
  2
KERA1
 70
     0
 62
     7
  6
CONTINUOUS
  0
LAYER
  2
KERA2
 70
     0
 62
     7
  6
CONTINUOUS
  0
LAYER
  2
KERA3
 70
     0
 62
     7
  6
CONTINUOUS
  0
LAYER
  2
KERA5
 70
     0
 62
     7
  6
CONTINUOUS
  0
LAYER
  2
KERA6
 70
     0
 62
     7
  6
CONTINUOUS
  0
LAYER
  2
KERA7
 70
     0
 62
     7
  6
CONTINUOUS
  0
LAYER
  2
20
 70
     0
 62
     7
  6
CONTINUOUS
  0
LAYER
  2
50
 70
     0
 62
     7
  6
CONTINUOUS
  0
LAYER
  2
EBENE_1
 70
     0
 62
     7
  6
CONTINUOUS
  0
LAYER
  2
EBENE_2
 70
     0
 62
     7
  6
CONTINUOUS
  0
LAYER
  2
EBENE_5
 70
     0
 62
     7
  6
CONTINUOUS
  0
LAYER
  2
3
 70
     0
 62
     7
  6
CONTINUOUS
  0
LAYER
  2
GEB-KONTUR-A
 70
     0
 62
     7
  6
CONTINUOUS
  0
LAYER
  2
GEB-SYMETRIE
 70
     0
 62
     7
  6
CONTINUOUS
  0
LAYER
  2
GEB-ART-NR
 70
     0
 62
     7
  6
CONTINUOUS
  0
LAYER
  2
PROJECTION
 70
     0
 62
     7
  6
CONTINUOUS
  0
ENDTAB
  0
TABLE
  2
STYLE
 70
     4
  0
STYLE
  2
STANDARD
 70
     0
 40
0.0
 41
1.0
 50
0.0
 71
     0
 42
0.0
  3
txt
  4

  0
STYLE
  2
ANNOTATIVE
 70
     0
 40
0.0
 41
1.0
 50
0.0
 71
     0
 42
0.2
  3
txt
  4

  0
STYLE
  2
SIMPLEX
 70
     0
 40
0.0
 41
1.0
 50
0.0
 71
     0
 42
0.0
  3
simplex
  4

  0
STYLE
  2

 70
     1
 40
0.0
 41
1.0
 50
0.0
 71
     0
 42
0.2
  3
ltypeshp.shx
  4

  0
ENDTAB
  0
TABLE
  2
VIEW
 70
     0
  0
ENDTAB
  0
TABLE
  2
UCS
 70
     0
  0
ENDTAB
  0
TABLE
  2
APPID
 70
     3
  0
APPID
  2
ACAD
 70
     0
  0
APPID
  2
ACADANNOTATIVE
 70
     0
  0
APPID
  2
ACAD_MLEADERVER
 70
     0
  0
ENDTAB
  0
TABLE
  2
DIMSTYLE
 70
     2
  0
DIMSTYLE
  2
STANDARD
 70
     0
  3

  4

  5

  6

  7

 40
1.0
 41
0.18
 42
0.0625
 43
0.38
 44
0.18
 45
0.0
 46
0.0
 47
0.0
 48
0.0
140
0.18
141
0.09
142
0.0
143
25.399999999999999
144
1.0
145
0.0
146
1.0
147
0.09
 71
     0
 72
     0
 73
     1
 74
     1
 75
     0
 76
     0
 77
     0
 78
     0
170
     0
171
     2
172
     0
173
     0
174
     0
175
     0
176
     0
177
     0
178
     0
  0
DIMSTYLE
  2
ANNOTATIVE
 70
     0
  3

  4

  5

  6

  7

 40
1.0
 41
0.18
 42
0.0625
 43
0.38
 44
0.18
 45
0.0
 46
0.0
 47
0.0
 48
0.0
140
0.18
141
0.09
142
0.0
143
25.399999999999999
144
1.0
145
0.0
146
1.0
147
0.09
 71
     0
 72
     0
 73
     1
 74
     1
 75
     0
 76
     0
 77
     0
 78
     0
170
     0
171
     2
172
     0
173
     0
174
     0
175
     0
176
     0
177
     0
178
     0
  0
ENDTAB
  0
ENDSEC
  0
SECTION
  2
BLOCKS
  0
BLOCK
  8
0
  2
$MODEL_SPACE
 70
     0
 10
0.0
 20
0.0
 30
0.0
  3
$MODEL_SPACE
  1

  0
ENDBLK
  5
76
  8
0
  0
BLOCK
 67
     1
  8
0
  2
$PAPER_SPACE
 70
     0
 10
0.0
 20
0.0
 30
0.0
  3
$PAPER_SPACE
  1

  0
ENDBLK
  5
72
 67
     1
  8
0
  0
BLOCK
  8
0
  2
TRIGO-G1
 70
     0
 10
0.0
 20
0.0
 30
0.0
  3
TRIGO-G1
  1

  0
POLYLINE
  5
185
  8
LAYER01
  6
CONTINUOUS
 62
     7
 66
     1
 10
0.0
 20
0.0
 30
0.0
 70
     1
  0
VERTEX
  5
10C5
  8
LAYER01
  6
CONTINUOUS
 62
     7
 10
5333.4588920000006
 20
1798.015065
 30
0.0
  0
VERTEX
  5
10C6
  8
LAYER01
  6
CONTINUOUS
 62
     7
 10
5376.0820270000004
 20
1798.015065
 30
0.0
  0
VERTEX
  5
10C7
  8
LAYER01
  6
CONTINUOUS
 62
     7
 10
5429.6087539999999
 20
1676.0930760000001
 30
0.0
  0
VERTEX
  5
10C8
  8
LAYER01
  6
CONTINUOUS
 62
     7
 10
5483.1354810000003
 20
1798.015065
 30
0.0
  0
VERTEX
  5
10C9
  8
LAYER01
  6
CONTINUOUS
 62
     7
 10
5527.7410869999994
 20
1798.015065
 30
0.0
  0
VERTEX
  5
10CA
  8
LAYER01
  6
CONTINUOUS
 62
     7
 10
5429.6087539999999
 20
1579.9432139999999
 30
0.0
  0
VERTEX
  5
10CB
  8
LAYER01
  6
CONTINUOUS
 62
     7
 10
5333.4588920000006
 20
1798.015065
 30
0.0
  0
VERTEX
  5
10CC
  8
LAYER01
  6
CONTINUOUS
 62
     7
 10
5333.4588920000006
 20
1798.015065
 30
0.0
  0
SEQEND
  5
10CD
  8
LAYER01
  6
CONTINUOUS
 62
     7
  0
POLYLINE
  5
18F
  8
LAYER01
  6
CONTINUOUS
 62
     7
 66
     1
 10
0.0
 20
0.0
 30
0.0
 70
     1
  0
VERTEX
  5
10CE
  8
LAYER01
  6
CONTINUOUS
 62
     7
 10
5479.1705380000003
 20
1649.329712
 30
0.0
  0
VERTEX
  5
10CF
  8
LAYER01
  6
CONTINUOUS
 62
     7
 10
5494.0390740000003
 20
1684.0229609999999
 30
0.0
  0
VERTEX
  5
10D0
  8
LAYER01
  6
CONTINUOUS
 62
     7
 10
5558.4693930000012
 20
1684.0229609999999
 30
0.0
  0
VERTEX
  5
10D1
  8
LAYER01
  6
CONTINUOUS
 62
     7
 10
5525.7586160000001
 20
1755.3919310000001
 30
0.0
  0
VERTEX
  5
10D2
  8
LAYER01
  6
CONTINUOUS
 62
     7
 10
5544.5920939999996
 20
1800.9887719999999
 30
0.0
  0
VERTEX
  5
10D3
  8
LAYER01
  6
CONTINUOUS
 62
     7
 10
5632.812069999999
 20
1614.636463
 30
0.0
  0
VERTEX
  5
10D4
  8
LAYER01
  6
CONTINUOUS
 62
     7
 10
5632.812069999999
 20
1798.015065
 30
0.0
  0
VERTEX
  5
10D5
  8
LAYER01
  6
CONTINUOUS
 62
     7
 10
5750.7691169999998
 20
1798.015065
 30
0.0
  0
VERTEX
  5
10D6
  8
LAYER01
  6
CONTINUOUS
 62
     7
 10
5750.7691169999998
 20
1798.015065
 30
0.0
  0
VERTEX
  5
10D7
  8
LAYER01
  6
CONTINUOUS
 62
     7
 10
5761.6727090000004
 20
1796.032594
 30
0.0
  0
VERTEX
  5
10D8
  8
LAYER01
  6
CONTINUOUS
 62
     7
 10
5771.5850659999996
 20
1792.0676510000001
 30
0.0
  0
VERTEX
  5
10D9
  8
LAYER01
  6
CONTINUOUS
 62
     7
 10
5780.506187
 20
1785.129001
 30
0.0
  0
VERTEX
  5
10DA
  8
LAYER01
  6
CONTINUOUS
 62
     7
 10
5788.4360729999989
 20
1778.190351
 30
0.0
  0
VERTEX
  5
10DB
  8
LAYER01
  6
CONTINUOUS
 62
     7
 10
5795.3747219999996
 20
1769.2692300000001
 30
0.0
  0
VERTEX
  5
10DC
  8
LAYER01
  6
CONTINUOUS
 62
     7
 10
5800.3309009999994
 20
1759.356873
 30
0.0
  0
VERTEX
  5
10DD
  8
LAYER01
  6
CONTINUOUS
 62
     7
 10
5804.2958440000011
 20
1747.462045
 30
0.0
  0
VERTEX
  5
10DE
  8
LAYER01
  6
CONTINUOUS
 62
     7
 10
5805.2870789999997
 20
1736.5584530000001
 30
0.0
  0
VERTEX
  5
10DF
  8
LAYER01
  6
CONTINUOUS
 62
     7
 10
5805.2870789999997
 20
1736.5584530000001
 30
0.0
  0
VERTEX
  5
10E0
  8
LAYER01
  6
CONTINUOUS
 62
     7
 10
5805.2870789999997
 20
1724.6636239999989
 30
0.0
  0
VERTEX
  5
10E1
  8
LAYER01
  6
CONTINUOUS
 62
     7
 10
5803.3046080000004
 20
1714.7512670000001
 30
0.0
  0
VERTEX
  5
10E2
  8
LAYER01
  6
CONTINUOUS
 62
     7
 10
5799.3396649999986
 20
1704.8389110000001
 30
0.0
  0
VERTEX
  5
10E3
  8
LAYER01
  6
CONTINUOUS
 62
     7
 10
5794.383487000001
 20
1695.9177890000001
 30
0.0
  0
VERTEX
  5
10E4
  8
LAYER01
  6
CONTINUOUS
 62
     7
 10
5787.444837
 20
1687.9879040000001
 30
0.0
  0
VERTEX
  5
10E5
  8
LAYER01
  6
CONTINUOUS
 62
     7
 10
5779.5149510000001
 20
1681.049254
 30
0.0
  0
VERTEX
  5
10E6
  8
LAYER01
  6
CONTINUOUS
 62
     7
 10
5770.5938299999998
 20
1676.0930760000001
 30
0.0
  0
VERTEX
  5
10E7
  8
LAYER01
  6
CONTINUOUS
 62
     7
 10
5759.690238000001
 20
1672.1281329999999
 30
0.0
  0
VERTEX
  5
10E8
  8
LAYER01
  6
CONTINUOUS
 62
     7
 10
5823.1293219999989
 20
1587.8730989999999
 30
0.0
  0
VERTEX
  5
10E9
  8
LAYER01
  6
CONTINUOUS
 62
     7
 10
5823.1293219999989
 20
1798.015065
 30
0.0
  0
VERTEX
  5
10EA
  8
LAYER01
  6
CONTINUOUS
 62
     7
 10
5864.7612209999998
 20
1798.015065
 30
0.0
  0
VERTEX
  5
10EB
  8
LAYER01
  6
CONTINUOUS
 62
     7
 10
5864.7612209999998
 20
1585.8906280000001
 30
0.0
  0
VERTEX
  5
10EC
  8
LAYER01
  6
CONTINUOUS
 62
     7
 10
5775.5500089999996
 20
1585.8906280000001
 30
0.0
  0
VERTEX
  5
10ED
  8
LAYER01
  6
CONTINUOUS
 62
     7
 10
5689.3125040000004
 20
1695.9177890000001
 30
0.0
  0
VERTEX
  5
10EE
  8
LAYER01
  6
CONTINUOUS
 62
     7
 10
5732.9268739999998
 20
1695.9177890000001
 30
0.0
  0
VERTEX
  5
10EF
  8
LAYER01
  6
CONTINUOUS
 62
     7
 10
5732.9268739999998
 20
1695.9177890000001
 30
0.0
  0
VERTEX
  5
10F0
  8
LAYER01
  6
CONTINUOUS
 62
     7
 10
5738.874288
 20
1696.9090249999999
 30
0.0
  0
VERTEX
  5
10F1
  8
LAYER01
  6
CONTINUOUS
 62
     7
 10
5744.8217020000002
 20
1698.891496
 30
0.0
  0
VERTEX
  5
10F2
  8
LAYER01
  6
CONTINUOUS
 62
     7
 10
5749.7778809999991
 20
1701.8652039999999
 30
0.0
  0
VERTEX
  5
10F3
  8
LAYER01
  6
CONTINUOUS
 62
     7
 10
5754.7340590000003
 20
1705.830146
 30
0.0
  0
VERTEX
  5
10F4
  8
LAYER01
  6
CONTINUOUS
 62
     7
 10
5757.7077659999986
 20
1710.786325
 30
0.0
  0
VERTEX
  5
10F5
  8
LAYER01
  6
CONTINUOUS
 62
     7
 10
5760.6814729999987
 20
1716.733739
 30
0.0
  0
VERTEX
  5
10F6
  8
LAYER01
  6
CONTINUOUS
 62
     7
 10
5762.6639450000002
 20
1722.681153
 30
0.0
  0
VERTEX
  5
10F7
  8
LAYER01
  6
CONTINUOUS
 62
     7
 10
5762.6639450000002
 20
1729.619803
 30
0.0
  0
VERTEX
  5
10F8
  8
LAYER01
  6
CONTINUOUS
 62
     7
 10
5762.6639450000002
 20
1729.619803
 30
0.0
  0
VERTEX
  5
10F9
  8
LAYER01
  6
CONTINUOUS
 62
     7
 10
5762.6639450000002
 20
1735.567217
 30
0.0
  0
VERTEX
  5
10FA
  8
LAYER01
  6
CONTINUOUS
 62
     7
 10
5760.6814729999987
 20
1741.514631
 30
0.0
  0
VERTEX
  5
10FB
  8
LAYER01
  6
CONTINUOUS
 62
     7
 10
5758.6990020000003
 20
1747.462045
 30
0.0
  0
VERTEX
  5
10FC
  8
LAYER01
  6
CONTINUOUS
 62
     7
 10
5754.7340590000003
 20
1752.418224
 30
0.0
  0
VERTEX
  5
10FD
  8
LAYER01
  6
CONTINUOUS
 62
     7
 10
5750.7691169999998
 20
1756.3831660000001
 30
0.0
  0
VERTEX
  5
10FE
  8
LAYER01
  6
CONTINUOUS
 62
     7
 10
5744.8217020000002
 20
1759.356873
 30
0.0
  0
VERTEX
  5
10FF
  8
LAYER01
  6
CONTINUOUS
 62
     7
 10
5738.874288
 20
1761.3393450000001
 30
0.0
  0
VERTEX
  5
1100
  8
LAYER01
  6
CONTINUOUS
 62
     7
 10
5732.9268739999998
 20
1762.3305800000001
 30
0.0
  0
VERTEX
  5
1101
  8
LAYER01
  6
CONTINUOUS
 62
     7
 10
5677.4176760000009
 20
1762.3305800000001
 30
0.0
  0
VERTEX
  5
1102
  8
LAYER01
  6
CONTINUOUS
 62
     7
 10
5677.4176760000009
 20
1585.8906280000001
 30
0.0
  0
VERTEX
  5
1103
  8
LAYER01
  6
CONTINUOUS
 62
     7
 10
5606.0487060000014
 20
1585.8906280000001
 30
0.0
  0
VERTEX
  5
1104
  8
LAYER01
  6
CONTINUOUS
 62
     7
 10
5576.3116360000004
 20
1649.329712
 30
0.0
  0
VERTEX
  5
1105
  8
LAYER01
  6
CONTINUOUS
 62
     7
 10
5479.1705380000003
 20
1649.329712
 30
0.0
  0
VERTEX
  5
1106
  8
LAYER01
  6
CONTINUOUS
 62
     7
 10
5479.1705380000003
 20
1649.329712
 30
0.0
  0
SEQEND
  5
1107
  8
LAYER01
  6
CONTINUOUS
 62
     7
  0
POLYLINE
  5
1CA
  8
LAYER01
  6
CONTINUOUS
 62
     7
 66
     1
 10
0.0
 20
0.0
 30
0.0
 70
     1
  0
VERTEX
  5
1108
  8
LAYER01
  6
CONTINUOUS
 62
     7
 10
6057.0609439999989
 20
1784.1377660000001
 30
0.0
  0
VERTEX
  5
1109
  8
LAYER01
  6
CONTINUOUS
 62
     7
 10
6030.2975800000004
 20
1750.4357520000001
 30
0.0
  0
VERTEX
  5
110A
  8
LAYER01
  6
CONTINUOUS
 62
     7
 10
6030.2975800000004
 20
1750.4357520000001
 30
0.0
  0
VERTEX
  5
110B
  8
LAYER01
  6
CONTINUOUS
 62
     7
 10
6021.3764590000001
 20
1756.3831660000001
 30
0.0
  0
VERTEX
  5
110C
  8
LAYER01
  6
CONTINUOUS
 62
     7
 10
6012.4553380000007
 20
1761.3393450000001
 30
0.0
  0
VERTEX
  5
110D
  8
LAYER01
  6
CONTINUOUS
 62
     7
 10
6002.5429810000014
 20
1764.313052
 30
0.0
  0
VERTEX
  5
110E
  8
LAYER01
  6
CONTINUOUS
 62
     7
 10
5991.6393889999999
 20
1764.313052
 30
0.0
  0
VERTEX
  5
110F
  8
LAYER01
  6
CONTINUOUS
 62
     7
 10
5991.6393889999999
 20
1764.313052
 30
0.0
  0
VERTEX
  5
1110
  8
LAYER01
  6
CONTINUOUS
 62
     7
 10
5984.7007389999999
 20
1764.313052
 30
0.0
  0
VERTEX
  5
1111
  8
LAYER01
  6
CONTINUOUS
 62
     7
 10
5977.7620889999998
 20
1763.3218159999999
 30
0.0
  0
VERTEX
  5
1112
  8
LAYER01
  6
CONTINUOUS
 62
     7
 10
5970.8234389999998
 20
1761.3393450000001
 30
0.0
  0
VERTEX
  5
1113
  8
LAYER01
  6
CONTINUOUS
 62
     7
 10
5963.8847889999997
 20
1758.365638
 30
0.0
  0
VERTEX
  5
1114
  8
LAYER01
  6
CONTINUOUS
 62
     7
 10
5957.9373750000004
 20
1755.3919310000001
 30
0.0
  0
VERTEX
  5
1115
  8
LAYER01
  6
CONTINUOUS
 62
     7
 10
5952.9811970000001
 20
1751.4269879999999
 30
0.0
  0
VERTEX
  5
1116
  8
LAYER01
  6
CONTINUOUS
 62
     7
 10
5947.0337829999999
 20
1747.462045
 30
0.0
  0
VERTEX
  5
1117
  8
LAYER01
  6
CONTINUOUS
 62
     7
 10
5943.0688399999999
 20
1742.5058670000001
 30
0.0
  0
VERTEX
  5
1118
  8
LAYER01
  6
CONTINUOUS
 62
     7
 10
5938.1126610000001
 20
1736.5584530000001
 30
0.0
  0
VERTEX
  5
1119
  8
LAYER01
  6
CONTINUOUS
 62
     7
 10
5935.138954
 20
1730.611038
 30
0.0
  0
VERTEX
  5
111A
  8
LAYER01
  6
CONTINUOUS
 62
     7
 10
5931.1740119999986
 20
1724.6636239999989
 30
0.0
  0
VERTEX
  5
111B
  8
LAYER01
  6
CONTINUOUS
 62
     7
 10
5928.2003049999994
 20
1718.71621
 30
0.0
  0
VERTEX
  5
111C
  8
LAYER01
  6
CONTINUOUS
 62
     7
 10
5926.2178329999988
 20
1711.77756
 30
0.0
  0
VERTEX
  5
111D
  8
LAYER01
  6
CONTINUOUS
 62
     7
 10
5925.2265980000002
 20
1704.8389110000001
 30
0.0
  0
VERTEX
  5
111E
  8
LAYER01
  6
CONTINUOUS
 62
     7
 10
5924.2353620000004
 20
1697.900261
 30
0.0
  0
VERTEX
  5
111F
  8
LAYER01
  6
CONTINUOUS
 62
     7
 10
5923.2441259999996
 20
1689.9703750000001
 30
0.0
  0
VERTEX
  5
1120
  8
LAYER01
  6
CONTINUOUS
 62
     7
 10
5923.2441259999996
 20
1689.9703750000001
 30
0.0
  0
VERTEX
  5
1121
  8
LAYER01
  6
CONTINUOUS
 62
     7
 10
5924.2353620000004
 20
1683.0317250000001
 30
0.0
  0
VERTEX
  5
1122
  8
LAYER01
  6
CONTINUOUS
 62
     7
 10
5925.2265980000002
 20
1676.0930760000001
 30
0.0
  0
VERTEX
  5
1123
  8
LAYER01
  6
CONTINUOUS
 62
     7
 10
5926.2178329999988
 20
1669.1544260000001
 30
0.0
  0
VERTEX
  5
1124
  8
LAYER01
  6
CONTINUOUS
 62
     7
 10
5929.1915399999998
 20
1663.2070120000001
 30
0.0
  0
VERTEX
  5
1125
  8
LAYER01
  6
CONTINUOUS
 62
     7
 10
5931.1740119999986
 20
1657.2595980000001
 30
0.0
  0
VERTEX
  5
1126
  8
LAYER01
  6
CONTINUOUS
 62
     7
 10
5935.138954
 20
1651.312183
 30
0.0
  0
VERTEX
  5
1127
  8
LAYER01
  6
CONTINUOUS
 62
     7
 10
5939.103897
 20
1645.364769
 30
0.0
  0
VERTEX
  5
1128
  8
LAYER01
  6
CONTINUOUS
 62
     7
 10
5943.0688399999999
 20
1640.4085909999999
 30
0.0
  0
VERTEX
  5
1129
  8
LAYER01
  6
CONTINUOUS
 62
     7
 10
5948.0250180000003
 20
1635.4524120000001
 30
0.0
  0
VERTEX
  5
112A
  8
LAYER01
  6
CONTINUOUS
 62
     7
 10
5952.9811970000001
 20
1631.48747
 30
0.0
  0
VERTEX
  5
112B
  8
LAYER01
  6
CONTINUOUS
 62
     7
 10
5958.9286110000012
 20
1628.5137629999999
 30
0.0
  0
VERTEX
  5
112C
  8
LAYER01
  6
CONTINUOUS
 62
     7
 10
5964.8760249999987
 20
1625.540056
 30
0.0
  0
VERTEX
  5
112D
  8
LAYER01
  6
CONTINUOUS
 62
     7
 10
5971.8146749999996
 20
1622.5663489999999
 30
0.0
  0
VERTEX
  5
112E
  8
LAYER01
  6
CONTINUOUS
 62
     7
 10
5977.7620889999998
 20
1620.583877
 30
0.0
  0
VERTEX
  5
112F
  8
LAYER01
  6
CONTINUOUS
 62
     7
 10
5984.7007389999999
 20
1619.592641
 30
0.0
  0
VERTEX
  5
1130
  8
LAYER01
  6
CONTINUOUS
 62
     7
 10
5992.6306240000004
 20
1619.592641
 30
0.0
  0
VERTEX
  5
1131
  8
LAYER01
  6
CONTINUOUS
 62
     7
 10
5992.6306240000004
 20
1619.592641
 30
0.0
  0
VERTEX
  5
1132
  8
LAYER01
  6
CONTINUOUS
 62
     7
 10
6003.5342170000013
 20
1620.583877
 30
0.0
  0
VERTEX
  5
1133
  8
LAYER01
  6
CONTINUOUS
 62
     7
 10
6012.4553380000007
 20
1622.5663489999999
 30
0.0
  0
VERTEX
  5
1134
  8
LAYER01
  6
CONTINUOUS
 62
     7
 10
6021.3764590000001
 20
1627.5225270000001
 30
0.0
  0
VERTEX
  5
1135
  8
LAYER01
  6
CONTINUOUS
 62
     7
 10
6030.2975800000004
 20
1633.4699410000001
 30
0.0
  0
VERTEX
  5
1136
  8
LAYER01
  6
CONTINUOUS
 62
     7
 10
6056.069708
 20
1598.7766919999999
 30
0.0
  0
VERTEX
  5
1137
  8
LAYER01
  6
CONTINUOUS
 62
     7
 10
6056.069708
 20
1598.7766919999999
 30
0.0
  0
VERTEX
  5
1138
  8
LAYER01
  6
CONTINUOUS
 62
     7
 10
6041.2011730000004
 20
1589.8555710000001
 30
0.0
  0
VERTEX
  5
1139
  8
LAYER01
  6
CONTINUOUS
 62
     7
 10
6033.2712869999987
 20
1586.881864
 30
0.0
  0
VERTEX
  5
113A
  8
LAYER01
  6
CONTINUOUS
 62
     7
 10
6026.3326379999999
 20
1583.9081570000001
 30
0.0
  0
VERTEX
  5
113B
  8
LAYER01
  6
CONTINUOUS
 62
     7
 10
6018.402752
 20
1581.9256849999999
 30
0.0
  0
VERTEX
  5
113C
  8
LAYER01
  6
CONTINUOUS
 62
     7
 10
6010.4728670000004
 20
1580.93445
 30
0.0
  0
VERTEX
  5
113D
  8
LAYER01
  6
CONTINUOUS
 62
     7
 10
5992.6306240000004
 20
1579.9432139999999
 30
0.0
  0
VERTEX
  5
113E
  8
LAYER01
  6
CONTINUOUS
 62
     7
 10
5992.6306240000004
 20
1579.9432139999999
 30
0.0
  0
VERTEX
  5
113F
  8
LAYER01
  6
CONTINUOUS
 62
     7
 10
5980.7357959999999
 20
1580.93445
 30
0.0
  0
VERTEX
  5
1140
  8
LAYER01
  6
CONTINUOUS
 62
     7
 10
5969.8322029999999
 20
1582.916921
 30
0.0
  0
VERTEX
  5
1141
  8
LAYER01
  6
CONTINUOUS
 62
     7
 10
5958.9286110000012
 20
1584.899392
 30
0.0
  0
VERTEX
  5
1142
  8
LAYER01
  6
CONTINUOUS
 62
     7
 10
5949.0162540000001
 20
1588.864335
 30
0.0
  0
VERTEX
  5
1143
  8
LAYER01
  6
CONTINUOUS
 62
     7
 10
5939.103897
 20
1593.820514
 30
0.0
  0
VERTEX
  5
1144
  8
LAYER01
  6
CONTINUOUS
 62
     7
 10
5930.1827759999987
 20
1598.7766919999999
 30
0.0
  0
VERTEX
  5
1145
  8
LAYER01
  6
CONTINUOUS
 62
     7
 10
5921.2616549999993
 20
1605.715342
 30
0.0
  0
VERTEX
  5
1146
  8
LAYER01
  6
CONTINUOUS
 62
     7
 10
5913.3317690000003
 20
1612.653992
 30
0.0
  0
VERTEX
  5
1147
  8
LAYER01
  6
CONTINUOUS
 62
     7
 10
5905.4018840000008
 20
1620.583877
 30
0.0
  0
VERTEX
  5
1148
  8
LAYER01
  6
CONTINUOUS
 62
     7
 10
5899.4544700000006
 20
1629.5049979999999
 30
0.0
  0
VERTEX
  5
1149
  8
LAYER01
  6
CONTINUOUS
 62
     7
 10
5893.5070560000004
 20
1638.4261200000001
 30
0.0
  0
VERTEX
  5
114A
  8
LAYER01
  6
CONTINUOUS
 62
     7
 10
5888.5508770000006
 20
1648.3384759999999
 30
0.0
  0
VERTEX
  5
114B
  8
LAYER01
  6
CONTINUOUS
 62
     7
 10
5885.5771700000014
 20
1658.2508330000001
 30
0.0
  0
VERTEX
  5
114C
  8
LAYER01
  6
CONTINUOUS
 62
     7
 10
5882.6034630000004
 20
1669.1544260000001
 30
0.0
  0
VERTEX
  5
114D
  8
LAYER01
  6
CONTINUOUS
 62
     7
 10
5880.6209920000001
 20
1680.0580179999999
 30
0.0
  0
VERTEX
  5
114E
  8
LAYER01
  6
CONTINUOUS
 62
     7
 10
5879.6297560000003
 20
1691.952847
 30
0.0
  0
VERTEX
  5
114F
  8
LAYER01
  6
CONTINUOUS
 62
     7
 10
5879.6297560000003
 20
1691.952847
 30
0.0
  0
VERTEX
  5
1150
  8
LAYER01
  6
CONTINUOUS
 62
     7
 10
5880.6209920000001
 20
1702.8564389999999
 30
0.0
  0
VERTEX
  5
1151
  8
LAYER01
  6
CONTINUOUS
 62
     7
 10
5882.6034630000004
 20
1714.7512670000001
 30
0.0
  0
VERTEX
  5
1152
  8
LAYER01
  6
CONTINUOUS
 62
     7
 10
5884.5859339999997
 20
1724.6636239999989
 30
0.0
  0
VERTEX
  5
1153
  8
LAYER01
  6
CONTINUOUS
 62
     7
 10
5888.5508770000006
 20
1735.567217
 30
0.0
  0
VERTEX
  5
1154
  8
LAYER01
  6
CONTINUOUS
 62
     7
 10
5893.5070560000004
 20
1745.479574
 30
0.0
  0
VERTEX
  5
1155
  8
LAYER01
  6
CONTINUOUS
 62
     7
 10
5898.4632340000007
 20
1754.400695
 30
0.0
  0
VERTEX
  5
1156
  8
LAYER01
  6
CONTINUOUS
 62
     7
 10
5905.4018840000008
 20
1763.3218159999999
 30
0.0
  0
VERTEX
  5
1157
  8
LAYER01
  6
CONTINUOUS
 62
     7
 10
5912.3405339999999
 20
1771.251702
 30
0.0
  0
VERTEX
  5
1158
  8
LAYER01
  6
CONTINUOUS
 62
     7
 10
5920.2704190000004
 20
1778.190351
 30
0.0
  0
VERTEX
  5
1159
  8
LAYER01
  6
CONTINUOUS
 62
     7
 10
5929.1915399999998
 20
1785.129001
 30
0.0
  0
VERTEX
  5
115A
  8
LAYER01
  6
CONTINUOUS
 62
     7
 10
5938.1126610000001
 20
1790.08518
 30
0.0
  0
VERTEX
  5
115B
  8
LAYER01
  6
CONTINUOUS
 62
     7
 10
5948.0250180000003
 20
1795.0413579999999
 30
0.0
  0
VERTEX
  5
115C
  8
LAYER01
  6
CONTINUOUS
 62
     7
 10
5957.9373750000004
 20
1799.0063009999999
 30
0.0
  0
VERTEX
  5
115D
  8
LAYER01
  6
CONTINUOUS
 62
     7
 10
5968.8409680000004
 20
1801.980008
 30
0.0
  0
VERTEX
  5
115E
  8
LAYER01
  6
CONTINUOUS
 62
     7
 10
5980.7357959999999
 20
1802.9712440000001
 30
0.0
  0
VERTEX
  5
115F
  8
LAYER01
  6
CONTINUOUS
 62
     7
 10
5991.6393889999999
 20
1803.962479
 30
0.0
  0
VERTEX
  5
1160
  8
LAYER01
  6
CONTINUOUS
 62
     7
 10
5991.6393889999999
 20
1803.962479
 30
0.0
  0
VERTEX
  5
1161
  8
LAYER01
  6
CONTINUOUS
 62
     7
 10
6009.4816309999997
 20
1802.9712440000001
 30
0.0
  0
VERTEX
  5
1162
  8
LAYER01
  6
CONTINUOUS
 62
     7
 10
6018.402752
 20
1801.980008
 30
0.0
  0
VERTEX
  5
1163
  8
LAYER01
  6
CONTINUOUS
 62
     7
 10
6026.3326379999999
 20
1799.997537
 30
0.0
  0
VERTEX
  5
1164
  8
LAYER01
  6
CONTINUOUS
 62
     7
 10
6033.2712869999987
 20
1797.0238300000001
 30
0.0
  0
VERTEX
  5
1165
  8
LAYER01
  6
CONTINUOUS
 62
     7
 10
6041.2011730000004
 20
1794.050121999999
 30
0.0
  0
VERTEX
  5
1166
  8
LAYER01
  6
CONTINUOUS
 62
     7
 10
6049.1310579999999
 20
1789.093944
 30
0.0
  0
VERTEX
  5
1167
  8
LAYER01
  6
CONTINUOUS
 62
     7
 10
6057.0609439999989
 20
1784.1377660000001
 30
0.0
  0
VERTEX
  5
1168
  8
LAYER01
  6
CONTINUOUS
 62
     7
 10
6057.0609439999989
 20
1784.1377660000001
 30
0.0
  0
SEQEND
  5
1169
  8
LAYER01
  6
CONTINUOUS
 62
     7
  0
POLYLINE
  5
22D
  8
LAYER01
  6
CONTINUOUS
 62
     7
 66
     1
 10
0.0
 20
0.0
 30
0.0
 70
     1
  0
VERTEX
  5
116A
  8
LAYER01
  6
CONTINUOUS
 62
     7
 10
6153.210806
 20
1802.9712440000001
 30
0.0
  0
VERTEX
  5
116B
  8
LAYER01
  6
CONTINUOUS
 62
     7
 10
6153.210806
 20
1802.9712440000001
 30
0.0
  0
VERTEX
  5
116C
  8
LAYER01
  6
CONTINUOUS
 62
     7
 10
6142.307213
 20
1801.980008
 30
0.0
  0
VERTEX
  5
116D
  8
LAYER01
  6
CONTINUOUS
 62
     7
 10
6130.4123849999996
 20
1800.9887719999999
 30
0.0
  0
VERTEX
  5
116E
  8
LAYER01
  6
CONTINUOUS
 62
     7
 10
6120.5000280000013
 20
1798.015065
 30
0.0
  0
VERTEX
  5
116F
  8
LAYER01
  6
CONTINUOUS
 62
     7
 10
6109.5964350000004
 20
1794.050121999999
 30
0.0
  0
VERTEX
  5
1170
  8
LAYER01
  6
CONTINUOUS
 62
     7
 10
6099.6840789999997
 20
1790.08518
 30
0.0
  0
VERTEX
  5
1171
  8
LAYER01
  6
CONTINUOUS
 62
     7
 10
6090.762956999999
 20
1784.1377660000001
 30
0.0
  0
VERTEX
  5
1172
  8
LAYER01
  6
CONTINUOUS
 62
     7
 10
6081.8418359999987
 20
1778.190351
 30
0.0
  0
VERTEX
  5
1173
  8
LAYER01
  6
CONTINUOUS
 62
     7
 10
6073.911951
 20
1770.260466
 30
0.0
  0
VERTEX
  5
1174
  8
LAYER01
  6
CONTINUOUS
 62
     7
 10
6066.973301
 20
1762.3305800000001
 30
0.0
  0
VERTEX
  5
1175
  8
LAYER01
  6
CONTINUOUS
 62
     7
 10
6060.0346509999999
 20
1754.400695
 30
0.0
  0
VERTEX
  5
1176
  8
LAYER01
  6
CONTINUOUS
 62
     7
 10
6054.0872369999997
 20
1745.479574
 30
0.0
  0
VERTEX
  5
1177
  8
LAYER01
  6
CONTINUOUS
 62
     7
 10
6049.1310579999999
 20
1735.567217
 30
0.0
  0
VERTEX
  5
1178
  8
LAYER01
  6
CONTINUOUS
 62
     7
 10
6046.1573509999998
 20
1724.6636239999989
 30
0.0
  0
VERTEX
  5
1179
  8
LAYER01
  6
CONTINUOUS
 62
     7
 10
6043.1836439999988
 20
1714.7512670000001
 30
0.0
  0
VERTEX
  5
117A
  8
LAYER01
  6
CONTINUOUS
 62
     7
 10
6041.2011730000004
 20
1702.8564389999999
 30
0.0
  0
VERTEX
  5
117B
  8
LAYER01
  6
CONTINUOUS
 62
     7
 10
6040.2099369999996
 20
1691.952847
 30
0.0
  0
VERTEX
  5
117C
  8
LAYER01
  6
CONTINUOUS
 62
     7
 10
6040.2099369999996
 20
1691.952847
 30
0.0
  0
VERTEX
  5
117D
  8
LAYER01
  6
CONTINUOUS
 62
     7
 10
6041.2011730000004
 20
1680.0580179999999
 30
0.0
  0
VERTEX
  5
117E
  8
LAYER01
  6
CONTINUOUS
 62
     7
 10
6042.1924090000002
 20
1669.1544260000001
 30
0.0
  0
VERTEX
  5
117F
  8
LAYER01
  6
CONTINUOUS
 62
     7
 10
6045.1661159999994
 20
1658.2508330000001
 30
0.0
  0
VERTEX
  5
1180
  8
LAYER01
  6
CONTINUOUS
 62
     7
 10
6049.1310579999999
 20
1648.3384759999999
 30
0.0
  0
VERTEX
  5
1181
  8
LAYER01
  6
CONTINUOUS
 62
     7
 10
6053.0960009999999
 20
1638.4261200000001
 30
0.0
  0
VERTEX
  5
1182
  8
LAYER01
  6
CONTINUOUS
 62
     7
 10
6059.0434150000001
 20
1629.5049979999999
 30
0.0
  0
VERTEX
  5
1183
  8
LAYER01
  6
CONTINUOUS
 62
     7
 10
6064.9908290000003
 20
1620.583877
 30
0.0
  0
VERTEX
  5
1184
  8
LAYER01
  6
CONTINUOUS
 62
     7
 10
6071.9294790000013
 20
1612.653992
 30
0.0
  0
VERTEX
  5
1185
  8
LAYER01
  6
CONTINUOUS
 62
     7
 10
6079.8593650000003
 20
1604.7241059999999
 30
0.0
  0
VERTEX
  5
1186
  8
LAYER01
  6
CONTINUOUS
 62
     7
 10
6088.7804859999997
 20
1598.7766919999999
 30
0.0
  0
VERTEX
  5
1187
  8
LAYER01
  6
CONTINUOUS
 62
     7
 10
6097.701607
 20
1592.8292779999999
 30
0.0
  0
VERTEX
  5
1188
  8
LAYER01
  6
CONTINUOUS
 62
     7
 10
6107.6139640000001
 20
1587.8730989999999
 30
0.0
  0
VERTEX
  5
1189
  8
LAYER01
  6
CONTINUOUS
 62
     7
 10
6117.5263210000003
 20
1583.9081570000001
 30
0.0
  0
VERTEX
  5
118A
  8
LAYER01
  6
CONTINUOUS
 62
     7
 10
6128.4299129999999
 20
1581.9256849999999
 30
0.0
  0
VERTEX
  5
118B
  8
LAYER01
  6
CONTINUOUS
 62
     7
 10
6139.333505999999
 20
1579.9432139999999
 30
0.0
  0
VERTEX
  5
118C
  8
LAYER01
  6
CONTINUOUS
 62
     7
 10
6150.2370989999999
 20
1578.9519780000001
 30
0.0
  0
VERTEX
  5
118D
  8
LAYER01
  6
CONTINUOUS
 62
     7
 10
6150.2370989999999
 20
1578.9519780000001
 30
0.0
  0
VERTEX
  5
118E
  8
LAYER01
  6
CONTINUOUS
 62
     7
 10
6162.1319270000004
 20
1579.9432139999999
 30
0.0
  0
VERTEX
  5
118F
  8
LAYER01
  6
CONTINUOUS
 62
     7
 10
6173.035519
 20
1581.9256849999999
 30
0.0
  0
VERTEX
  5
1190
  8
LAYER01
  6
CONTINUOUS
 62
     7
 10
6183.939112
 20
1584.899392
 30
0.0
  0
VERTEX
  5
1191
  8
LAYER01
  6
CONTINUOUS
 62
     7
 10
6193.8514690000011
 20
1588.864335
 30
0.0
  0
VERTEX
  5
1192
  8
LAYER01
  6
CONTINUOUS
 62
     7
 10
6203.7638259999994
 20
1593.820514
 30
0.0
  0
VERTEX
  5
1193
  8
LAYER01
  6
CONTINUOUS
 62
     7
 10
6212.6849469999988
 20
1599.767928
 30
0.0
  0
VERTEX
  5
1194
  8
LAYER01
  6
CONTINUOUS
 62
     7
 10
6221.6060680000001
 20
1605.715342
 30
0.0
  0
VERTEX
  5
1195
  8
LAYER01
  6
CONTINUOUS
 62
     7
 10
6229.5359539999999
 20
1613.645227
 30
0.0
  0
VERTEX
  5
1196
  8
LAYER01
  6
CONTINUOUS
 62
     7
 10
6236.4746030000006
 20
1621.5751130000001
 30
0.0
  0
VERTEX
  5
1197
  8
LAYER01
  6
CONTINUOUS
 62
     7
 10
6242.422016999999
 20
1630.496234
 30
0.0
  0
VERTEX
  5
1198
  8
LAYER01
  6
CONTINUOUS
 62
     7
 10
6247.3781959999988
 20
1639.417355
 30
0.0
  0
VERTEX
  5
1199
  8
LAYER01
  6
CONTINUOUS
 62
     7
 10
6252.334374
 20
1649.329712
 30
0.0
  0
VERTEX
  5
119A
  8
LAYER01
  6
CONTINUOUS
 62
     7
 10
6256.2993169999991
 20
1660.233305
 30
0.0
  0
VERTEX
  5
119B
  8
LAYER01
  6
CONTINUOUS
 62
     7
 10
6258.2817880000002
 20
1671.1368970000001
 30
0.0
  0
VERTEX
  5
119C
  8
LAYER01
  6
CONTINUOUS
 62
     7
 10
6259.2730240000001
 20
1682.0404900000001
 30
0.0
  0
VERTEX
  5
119D
  8
LAYER01
  6
CONTINUOUS
 62
     7
 10
6260.2642599999999
 20
1693.9353180000001
 30
0.0
  0
VERTEX
  5
119E
  8
LAYER01
  6
CONTINUOUS
 62
     7
 10
6260.2642599999999
 20
1693.9353180000001
 30
0.0
  0
VERTEX
  5
119F
  8
LAYER01
  6
CONTINUOUS
 62
     7
 10
6259.2730240000001
 20
1704.8389110000001
 30
0.0
  0
VERTEX
  5
11A0
  8
LAYER01
  6
CONTINUOUS
 62
     7
 10
6257.2905529999998
 20
1715.7425029999999
 30
0.0
  0
VERTEX
  5
11A1
  8
LAYER01
  6
CONTINUOUS
 62
     7
 10
6254.3168459999997
 20
1725.6548600000001
 30
0.0
  0
VERTEX
  5
11A2
  8
LAYER01
  6
CONTINUOUS
 62
     7
 10
6251.3431389999996
 20
1735.567217
 30
0.0
  0
VERTEX
  5
11A3
  8
LAYER01
  6
CONTINUOUS
 62
     7
 10
6246.3869599999998
 20
1744.4883380000001
 30
0.0
  0
VERTEX
  5
11A4
  8
LAYER01
  6
CONTINUOUS
 62
     7
 10
6241.4307820000013
 20
1753.409459
 30
0.0
  0
VERTEX
  5
11A5
  8
LAYER01
  6
CONTINUOUS
 62
     7
 10
6235.4833680000002
 20
1762.3305800000001
 30
0.0
  0
VERTEX
  5
11A6
  8
LAYER01
  6
CONTINUOUS
 62
     7
 10
6228.544718000001
 20
1769.2692300000001
 30
0.0
  0
VERTEX
  5
11A7
  8
LAYER01
  6
CONTINUOUS
 62
     7
 10
6220.6148320000002
 20
1776.2078799999999
 30
0.0
  0
VERTEX
  5
11A8
  8
LAYER01
  6
CONTINUOUS
 62
     7
 10
6212.6849469999988
 20
1783.14653
 30
0.0
  0
VERTEX
  5
11A9
  8
LAYER01
  6
CONTINUOUS
 62
     7
 10
6203.7638259999994
 20
1788.1027079999999
 30
0.0
  0
VERTEX
  5
11AA
  8
LAYER01
  6
CONTINUOUS
 62
     7
 10
6194.842705
 20
1793.0588869999999
 30
0.0
  0
VERTEX
  5
11AB
  8
LAYER01
  6
CONTINUOUS
 62
     7
 10
6184.9303479999999
 20
1797.0238300000001
 30
0.0
  0
VERTEX
  5
11AC
  8
LAYER01
  6
CONTINUOUS
 62
     7
 10
6175.0179909999997
 20
1799.997537
 30
0.0
  0
VERTEX
  5
11AD
  8
LAYER01
  6
CONTINUOUS
 62
     7
 10
6164.1143979999988
 20
1801.980008
 30
0.0
  0
VERTEX
  5
11AE
  8
LAYER01
  6
CONTINUOUS
 62
     7
 10
6153.210806
 20
1802.9712440000001
 30
0.0
  0
VERTEX
  5
11AF
  8
LAYER01
  6
CONTINUOUS
 62
     7
 10
6153.210806
 20
1802.9712440000001
 30
0.0
  0
SEQEND
  5
11B0
  8
LAYER01
  6
CONTINUOUS
 62
     7
  0
POLYLINE
  5
275
  8
LAYER01
  6
CONTINUOUS
 62
     7
 66
     1
 10
0.0
 20
0.0
 30
0.0
 70
     1
  0
VERTEX
  5
11B1
  8
LAYER01
  6
CONTINUOUS
 62
     7
 10
6150.2370989999999
 20
1619.592641
 30
0.0
  0
VERTEX
  5
11B2
  8
LAYER01
  6
CONTINUOUS
 62
     7
 10
6150.2370989999999
 20
1619.592641
 30
0.0
  0
VERTEX
  5
11B3
  8
LAYER01
  6
CONTINUOUS
 62
     7
 10
6143.2984489999999
 20
1620.583877
 30
0.0
  0
VERTEX
  5
11B4
  8
LAYER01
  6
CONTINUOUS
 62
     7
 10
6136.3597989999998
 20
1621.5751130000001
 30
0.0
  0
VERTEX
  5
11B5
  8
LAYER01
  6
CONTINUOUS
 62
     7
 10
6129.4211489999998
 20
1622.5663489999999
 30
0.0
  0
VERTEX
  5
11B6
  8
LAYER01
  6
CONTINUOUS
 62
     7
 10
6122.4824990000006
 20
1625.540056
 30
0.0
  0
VERTEX
  5
11B7
  8
LAYER01
  6
CONTINUOUS
 62
     7
 10
6116.5350850000004
 20
1628.5137629999999
 30
0.0
  0
VERTEX
  5
11B8
  8
LAYER01
  6
CONTINUOUS
 62
     7
 10
6110.5876710000011
 20
1632.478705
 30
0.0
  0
VERTEX
  5
11B9
  8
LAYER01
  6
CONTINUOUS
 62
     7
 10
6105.6314929999999
 20
1636.4436479999999
 30
0.0
  0
VERTEX
  5
11BA
  8
LAYER01
  6
CONTINUOUS
 62
     7
 10
6100.6753140000001
 20
1641.399827
 30
0.0
  0
VERTEX
  5
11BB
  8
LAYER01
  6
CONTINUOUS
 62
     7
 10
6095.7191359999988
 20
1646.3560050000001
 30
0.0
  0
VERTEX
  5
11BC
  8
LAYER01
  6
CONTINUOUS
 62
     7
 10
6091.7541929999988
 20
1651.312183
 30
0.0
  0
VERTEX
  5
11BD
  8
LAYER01
  6
CONTINUOUS
 62
     7
 10
6088.7804859999997
 20
1657.2595980000001
 30
0.0
  0
VERTEX
  5
11BE
  8
LAYER01
  6
CONTINUOUS
 62
     7
 10
6085.8067789999996
 20
1664.198247
 30
0.0
  0
VERTEX
  5
11BF
  8
LAYER01
  6
CONTINUOUS
 62
     7
 10
6082.8330719999994
 20
1670.1456619999999
 30
0.0
  0
VERTEX
  5
11C0
  8
LAYER01
  6
CONTINUOUS
 62
     7
 10
6081.8418359999987
 20
1677.0843109999989
 30
0.0
  0
VERTEX
  5
11C1
  8
LAYER01
  6
CONTINUOUS
 62
     7
 10
6079.8593650000003
 20
1684.0229609999999
 30
0.0
  0
VERTEX
  5
11C2
  8
LAYER01
  6
CONTINUOUS
 62
     7
 10
6079.8593650000003
 20
1691.952847
 30
0.0
  0
VERTEX
  5
11C3
  8
LAYER01
  6
CONTINUOUS
 62
     7
 10
6079.8593650000003
 20
1691.952847
 30
0.0
  0
VERTEX
  5
11C4
  8
LAYER01
  6
CONTINUOUS
 62
     7
 10
6080.8505999999998
 20
1698.891496
 30
0.0
  0
VERTEX
  5
11C5
  8
LAYER01
  6
CONTINUOUS
 62
     7
 10
6081.8418359999987
 20
1705.830146
 30
0.0
  0
VERTEX
  5
11C6
  8
LAYER01
  6
CONTINUOUS
 62
     7
 10
6083.8243080000002
 20
1712.7687960000001
 30
0.0
  0
VERTEX
  5
11C7
  8
LAYER01
  6
CONTINUOUS
 62
     7
 10
6085.8067789999996
 20
1719.7074459999999
 30
0.0
  0
VERTEX
  5
11C8
  8
LAYER01
  6
CONTINUOUS
 62
     7
 10
6088.7804859999997
 20
1725.6548600000001
 30
0.0
  0
VERTEX
  5
11C9
  8
LAYER01
  6
CONTINUOUS
 62
     7
 10
6092.7454289999996
 20
1731.6022740000001
 30
0.0
  0
VERTEX
  5
11CA
  8
LAYER01
  6
CONTINUOUS
 62
     7
 10
6096.7103710000001
 20
1736.5584530000001
 30
0.0
  0
VERTEX
  5
11CB
  8
LAYER01
  6
CONTINUOUS
 62
     7
 10
6101.6665499999999
 20
1741.514631
 30
0.0
  0
VERTEX
  5
11CC
  8
LAYER01
  6
CONTINUOUS
 62
     7
 10
6106.6227280000012
 20
1746.4708089999999
 30
0.0
  0
VERTEX
  5
11CD
  8
LAYER01
  6
CONTINUOUS
 62
     7
 10
6111.578907000001
 20
1750.4357520000001
 30
0.0
  0
VERTEX
  5
11CE
  8
LAYER01
  6
CONTINUOUS
 62
     7
 10
6117.5263210000003
 20
1754.400695
 30
0.0
  0
VERTEX
  5
11CF
  8
LAYER01
  6
CONTINUOUS
 62
     7
 10
6124.4649710000003
 20
1757.3744019999999
 30
0.0
  0
VERTEX
  5
11D0
  8
LAYER01
  6
CONTINUOUS
 62
     7
 10
6130.4123849999996
 20
1759.356873
 30
0.0
  0
VERTEX
  5
11D1
  8
LAYER01
  6
CONTINUOUS
 62
     7
 10
6137.3510349999997
 20
1761.3393450000001
 30
0.0
  0
VERTEX
  5
11D2
  8
LAYER01
  6
CONTINUOUS
 62
     7
 10
6144.2896840000003
 20
1762.3305800000001
 30
0.0
  0
VERTEX
  5
11D3
  8
LAYER01
  6
CONTINUOUS
 62
     7
 10
6152.2195700000002
 20
1762.3305800000001
 30
0.0
  0
VERTEX
  5
11D4
  8
LAYER01
  6
CONTINUOUS
 62
     7
 10
6152.2195700000002
 20
1762.3305800000001
 30
0.0
  0
VERTEX
  5
11D5
  8
LAYER01
  6
CONTINUOUS
 62
     7
 10
6159.1582200000012
 20
1761.3393450000001
 30
0.0
  0
VERTEX
  5
11D6
  8
LAYER01
  6
CONTINUOUS
 62
     7
 10
6166.0968700000003
 20
1760.348109
 30
0.0
  0
VERTEX
  5
11D7
  8
LAYER01
  6
CONTINUOUS
 62
     7
 10
6172.0442839999996
 20
1758.365638
 30
0.0
  0
VERTEX
  5
11D8
  8
LAYER01
  6
CONTINUOUS
 62
     7
 10
6178.9829339999997
 20
1756.3831660000001
 30
0.0
  0
VERTEX
  5
11D9
  8
LAYER01
  6
CONTINUOUS
 62
     7
 10
6183.939112
 20
1753.409459
 30
0.0
  0
VERTEX
  5
11DA
  8
LAYER01
  6
CONTINUOUS
 62
     7
 10
6189.8865260000002
 20
1749.4445169999999
 30
0.0
  0
VERTEX
  5
11DB
  8
LAYER01
  6
CONTINUOUS
 62
     7
 10
6194.842705
 20
1745.479574
 30
0.0
  0
VERTEX
  5
11DC
  8
LAYER01
  6
CONTINUOUS
 62
     7
 10
6199.7988829999986
 20
1741.514631
 30
0.0
  0
VERTEX
  5
11DD
  8
LAYER01
  6
CONTINUOUS
 62
     7
 10
6203.7638259999994
 20
1736.5584530000001
 30
0.0
  0
VERTEX
  5
11DE
  8
LAYER01
  6
CONTINUOUS
 62
     7
 10
6207.728767999999
 20
1730.611038
 30
0.0
  0
VERTEX
  5
11DF
  8
LAYER01
  6
CONTINUOUS
 62
     7
 10
6211.6937109999999
 20
1725.6548600000001
 30
0.0
  0
VERTEX
  5
11E0
  8
LAYER01
  6
CONTINUOUS
 62
     7
 10
6214.667418
 20
1719.7074459999999
 30
0.0
  0
VERTEX
  5
11E1
  8
LAYER01
  6
CONTINUOUS
 62
     7
 10
6216.6498899999997
 20
1712.7687960000001
 30
0.0
  0
VERTEX
  5
11E2
  8
LAYER01
  6
CONTINUOUS
 62
     7
 10
6218.6323609999999
 20
1706.8213820000001
 30
0.0
  0
VERTEX
  5
11E3
  8
LAYER01
  6
CONTINUOUS
 62
     7
 10
6219.6235969999998
 20
1699.882732
 30
0.0
  0
VERTEX
  5
11E4
  8
LAYER01
  6
CONTINUOUS
 62
     7
 10
6219.6235969999998
 20
1692.944082
 30
0.0
  0
VERTEX
  5
11E5
  8
LAYER01
  6
CONTINUOUS
 62
     7
 10
6219.6235969999998
 20
1692.944082
 30
0.0
  0
VERTEX
  5
11E6
  8
LAYER01
  6
CONTINUOUS
 62
     7
 10
6219.6235969999998
 20
1685.014197
 30
0.0
  0
VERTEX
  5
11E7
  8
LAYER01
  6
CONTINUOUS
 62
     7
 10
6218.6323609999999
 20
1678.0755469999999
 30
0.0
  0
VERTEX
  5
11E8
  8
LAYER01
  6
CONTINUOUS
 62
     7
 10
6217.6411250000001
 20
1671.1368970000001
 30
0.0
  0
VERTEX
  5
11E9
  8
LAYER01
  6
CONTINUOUS
 62
     7
 10
6214.667418
 20
1665.1894830000001
 30
0.0
  0
VERTEX
  5
11EA
  8
LAYER01
  6
CONTINUOUS
 62
     7
 10
6212.6849469999988
 20
1658.2508330000001
 30
0.0
  0
VERTEX
  5
11EB
  8
LAYER01
  6
CONTINUOUS
 62
     7
 10
6208.7200039999989
 20
1652.3034190000001
 30
0.0
  0
VERTEX
  5
11EC
  8
LAYER01
  6
CONTINUOUS
 62
     7
 10
6204.7550609999998
 20
1646.3560050000001
 30
0.0
  0
VERTEX
  5
11ED
  8
LAYER01
  6
CONTINUOUS
 62
     7
 10
6199.7988829999986
 20
1641.399827
 30
0.0
  0
VERTEX
  5
11EE
  8
LAYER01
  6
CONTINUOUS
 62
     7
 10
6194.842705
 20
1636.4436479999999
 30
0.0
  0
VERTEX
  5
11EF
  8
LAYER01
  6
CONTINUOUS
 62
     7
 10
6189.8865260000002
 20
1632.478705
 30
0.0
  0
VERTEX
  5
11F0
  8
LAYER01
  6
CONTINUOUS
 62
     7
 10
6183.939112
 20
1628.5137629999999
 30
0.0
  0
VERTEX
  5
11F1
  8
LAYER01
  6
CONTINUOUS
 62
     7
 10
6177.9916979999998
 20
1625.540056
 30
0.0
  0
VERTEX
  5
11F2
  8
LAYER01
  6
CONTINUOUS
 62
     7
 10
6171.0530479999998
 20
1623.5575839999999
 30
0.0
  0
VERTEX
  5
11F3
  8
LAYER01
  6
CONTINUOUS
 62
     7
 10
6164.1143979999988
 20
1621.5751130000001
 30
0.0
  0
VERTEX
  5
11F4
  8
LAYER01
  6
CONTINUOUS
 62
     7
 10
6157.1757479999997
 20
1620.583877
 30
0.0
  0
VERTEX
  5
11F5
  8
LAYER01
  6
CONTINUOUS
 62
     7
 10
6150.2370989999999
 20
1619.592641
 30
0.0
  0
VERTEX
  5
11F6
  8
LAYER01
  6
CONTINUOUS
 62
     7
 10
6150.2370989999999
 20
1619.592641
 30
0.0
  0
SEQEND
  5
11F7
  8
LAYER01
  6
CONTINUOUS
 62
     7
  0
POLYLINE
  5
2BD
  8
LAYER01
  6
CONTINUOUS
 62
     7
 66
     1
 10
0.0
 20
0.0
 30
0.0
 70
     1
  0
VERTEX
  5
11F8
  8
LAYER01
  6
CONTINUOUS
 62
     7
 10
6229.5359539999999
 20
1798.015065
 30
0.0
  0
VERTEX
  5
11F9
  8
LAYER01
  6
CONTINUOUS
 62
     7
 10
6334.6069360000001
 20
1798.015065
 30
0.0
  0
VERTEX
  5
11FA
  8
LAYER01
  6
CONTINUOUS
 62
     7
 10
6334.6069360000001
 20
1798.015065
 30
0.0
  0
VERTEX
  5
11FB
  8
LAYER01
  6
CONTINUOUS
 62
     7
 10
6346.501765
 20
1796.032594
 30
0.0
  0
VERTEX
  5
11FC
  8
LAYER01
  6
CONTINUOUS
 62
     7
 10
6357.4053569999996
 20
1791.076415
 30
0.0
  0
VERTEX
  5
11FD
  8
LAYER01
  6
CONTINUOUS
 62
     7
 10
6366.326478
 20
1785.129001
 30
0.0
  0
VERTEX
  5
11FE
  8
LAYER01
  6
CONTINUOUS
 62
     7
 10
6374.2563639999998
 20
1777.199116
 30
0.0
  0
VERTEX
  5
11FF
  8
LAYER01
  6
CONTINUOUS
 62
     7
 10
6381.1950139999999
 20
1769.2692300000001
 30
0.0
  0
VERTEX
  5
1200
  8
LAYER01
  6
CONTINUOUS
 62
     7
 10
6386.1511920000003
 20
1759.356873
 30
0.0
  0
VERTEX
  5
1201
  8
LAYER01
  6
CONTINUOUS
 62
     7
 10
6389.1248990000013
 20
1747.462045
 30
0.0
  0
VERTEX
  5
1202
  8
LAYER01
  6
CONTINUOUS
 62
     7
 10
6390.1161350000002
 20
1736.5584530000001
 30
0.0
  0
VERTEX
  5
1203
  8
LAYER01
  6
CONTINUOUS
 62
     7
 10
6390.1161350000002
 20
1736.5584530000001
 30
0.0
  0
VERTEX
  5
1204
  8
LAYER01
  6
CONTINUOUS
 62
     7
 10
6389.1248990000013
 20
1724.6636239999989
 30
0.0
  0
VERTEX
  5
1205
  8
LAYER01
  6
CONTINUOUS
 62
     7
 10
6387.1424280000001
 20
1714.7512670000001
 30
0.0
  0
VERTEX
  5
1206
  8
LAYER01
  6
CONTINUOUS
 62
     7
 10
6383.1774850000002
 20
1704.8389110000001
 30
0.0
  0
VERTEX
  5
1207
  8
LAYER01
  6
CONTINUOUS
 62
     7
 10
6378.2213069999998
 20
1695.9177890000001
 30
0.0
  0
VERTEX
  5
1208
  8
LAYER01
  6
CONTINUOUS
 62
     7
 10
6371.2826569999997
 20
1687.9879040000001
 30
0.0
  0
VERTEX
  5
1209
  8
LAYER01
  6
CONTINUOUS
 62
     7
 10
6364.3440069999988
 20
1682.0404900000001
 30
0.0
  0
VERTEX
  5
120A
  8
LAYER01
  6
CONTINUOUS
 62
     7
 10
6354.4316500000014
 20
1676.0930760000001
 30
0.0
  0
VERTEX
  5
120B
  8
LAYER01
  6
CONTINUOUS
 62
     7
 10
6344.5192930000012
 20
1672.1281329999999
 30
0.0
  0
VERTEX
  5
120C
  8
LAYER01
  6
CONTINUOUS
 62
     7
 10
6408.9496130000007
 20
1585.8906280000001
 30
0.0
  0
VERTEX
  5
120D
  8
LAYER01
  6
CONTINUOUS
 62
     7
 10
6359.3878290000002
 20
1585.8906280000001
 30
0.0
  0
VERTEX
  5
120E
  8
LAYER01
  6
CONTINUOUS
 62
     7
 10
6273.1503240000002
 20
1695.9177890000001
 30
0.0
  0
VERTEX
  5
120F
  8
LAYER01
  6
CONTINUOUS
 62
     7
 10
6321.7208719999999
 20
1695.9177890000001
 30
0.0
  0
VERTEX
  5
1210
  8
LAYER01
  6
CONTINUOUS
 62
     7
 10
6321.7208719999999
 20
1695.9177890000001
 30
0.0
  0
VERTEX
  5
1211
  8
LAYER01
  6
CONTINUOUS
 62
     7
 10
6327.6682869999986
 20
1697.900261
 30
0.0
  0
VERTEX
  5
1212
  8
LAYER01
  6
CONTINUOUS
 62
     7
 10
6332.6244649999999
 20
1699.882732
 30
0.0
  0
VERTEX
  5
1213
  8
LAYER01
  6
CONTINUOUS
 62
     7
 10
6336.5894079999998
 20
1703.847675
 30
0.0
  0
VERTEX
  5
1214
  8
LAYER01
  6
CONTINUOUS
 62
     7
 10
6340.5543509999998
 20
1707.8126179999999
 30
0.0
  0
VERTEX
  5
1215
  8
LAYER01
  6
CONTINUOUS
 62
     7
 10
6343.5280579999999
 20
1712.7687960000001
 30
0.0
  0
VERTEX
  5
1216
  8
LAYER01
  6
CONTINUOUS
 62
     7
 10
6346.501765
 20
1717.7249750000001
 30
0.0
  0
VERTEX
  5
1217
  8
LAYER01
  6
CONTINUOUS
 62
     7
 10
6347.4930000000004
 20
1723.6723890000001
 30
0.0
  0
VERTEX
  5
1218
  8
LAYER01
  6
CONTINUOUS
 62
     7
 10
6347.4930000000004
 20
1729.619803
 30
0.0
  0
VERTEX
  5
1219
  8
LAYER01
  6
CONTINUOUS
 62
     7
 10
6347.4930000000004
 20
1729.619803
 30
0.0
  0
VERTEX
  5
121A
  8
LAYER01
  6
CONTINUOUS
 62
     7
 10
6347.4930000000004
 20
1735.567217
 30
0.0
  0
VERTEX
  5
121B
  8
LAYER01
  6
CONTINUOUS
 62
     7
 10
6345.510529000001
 20
1740.5233949999999
 30
0.0
  0
VERTEX
  5
121C
  8
LAYER01
  6
CONTINUOUS
 62
     7
 10
6343.5280579999999
 20
1745.479574
 30
0.0
  0
VERTEX
  5
121D
  8
LAYER01
  6
CONTINUOUS
 62
     7
 10
6340.5543509999998
 20
1750.4357520000001
 30
0.0
  0
VERTEX
  5
121E
  8
LAYER01
  6
CONTINUOUS
 62
     7
 10
6336.5894079999998
 20
1754.400695
 30
0.0
  0
VERTEX
  5
121F
  8
LAYER01
  6
CONTINUOUS
 62
     7
 10
6332.6244649999999
 20
1757.3744019999999
 30
0.0
  0
VERTEX
  5
1220
  8
LAYER01
  6
CONTINUOUS
 62
     7
 10
6326.6770509999997
 20
1760.348109
 30
0.0
  0
VERTEX
  5
1221
  8
LAYER01
  6
CONTINUOUS
 62
     7
 10
6321.7208719999999
 20
1762.3305800000001
 30
0.0
  0
VERTEX
  5
1222
  8
LAYER01
  6
CONTINUOUS
 62
     7
 10
6265.2204380000003
 20
1762.3305800000001
 30
0.0
  0
VERTEX
  5
1223
  8
LAYER01
  6
CONTINUOUS
 62
     7
 10
6229.5359539999999
 20
1798.015065
 30
0.0
  0
VERTEX
  5
1224
  8
LAYER01
  6
CONTINUOUS
 62
     7
 10
6229.5359539999999
 20
1798.015065
 30
0.0
  0
SEQEND
  5
1225
  8
LAYER01
  6
CONTINUOUS
 62
     7
  0
POLYLINE
  5
2EC
  8
LAYER01
  6
CONTINUOUS
 62
     7
 66
     1
 10
0.0
 20
0.0
 30
0.0
 70
     1
  0
VERTEX
  5
1226
  8
LAYER01
  6
CONTINUOUS
 62
     7
 10
6435.7129770000001
 20
1745.479574
 30
0.0
  0
VERTEX
  5
1227
  8
LAYER01
  6
CONTINUOUS
 62
     7
 10
6435.7129770000001
 20
1745.479574
 30
0.0
  0
VERTEX
  5
1228
  8
LAYER01
  6
CONTINUOUS
 62
     7
 10
6440.6691549999987
 20
1746.4708089999999
 30
0.0
  0
VERTEX
  5
1229
  8
LAYER01
  6
CONTINUOUS
 62
     7
 10
6445.625332999999
 20
1747.462045
 30
0.0
  0
VERTEX
  5
122A
  8
LAYER01
  6
CONTINUOUS
 62
     7
 10
6450.5815119999988
 20
1750.4357520000001
 30
0.0
  0
VERTEX
  5
122B
  8
LAYER01
  6
CONTINUOUS
 62
     7
 10
6454.5464549999988
 20
1753.409459
 30
0.0
  0
VERTEX
  5
122C
  8
LAYER01
  6
CONTINUOUS
 62
     7
 10
6457.5201619999998
 20
1757.3744019999999
 30
0.0
  0
VERTEX
  5
122D
  8
LAYER01
  6
CONTINUOUS
 62
     7
 10
6459.5026329999992
 20
1761.3393450000001
 30
0.0
  0
VERTEX
  5
122E
  8
LAYER01
  6
CONTINUOUS
 62
     7
 10
6461.4851040000012
 20
1766.295523
 30
0.0
  0
VERTEX
  5
122F
  8
LAYER01
  6
CONTINUOUS
 62
     7
 10
6461.4851040000012
 20
1772.242937
 30
0.0
  0
VERTEX
  5
1230
  8
LAYER01
  6
CONTINUOUS
 62
     7
 10
6461.4851040000012
 20
1772.242937
 30
0.0
  0
VERTEX
  5
1231
  8
LAYER01
  6
CONTINUOUS
 62
     7
 10
6461.4851040000012
 20
1777.199116
 30
0.0
  0
VERTEX
  5
1232
  8
LAYER01
  6
CONTINUOUS
 62
     7
 10
6459.5026329999992
 20
1782.1552939999999
 30
0.0
  0
VERTEX
  5
1233
  8
LAYER01
  6
CONTINUOUS
 62
     7
 10
6457.5201619999998
 20
1786.1202370000001
 30
0.0
  0
VERTEX
  5
1234
  8
LAYER01
  6
CONTINUOUS
 62
     7
 10
6454.5464549999988
 20
1790.08518
 30
0.0
  0
VERTEX
  5
1235
  8
LAYER01
  6
CONTINUOUS
 62
     7
 10
6450.5815119999988
 20
1793.0588869999999
 30
0.0
  0
VERTEX
  5
1236
  8
LAYER01
  6
CONTINUOUS
 62
     7
 10
6445.625332999999
 20
1796.032594
 30
0.0
  0
VERTEX
  5
1237
  8
LAYER01
  6
CONTINUOUS
 62
     7
 10
6440.6691549999987
 20
1797.0238300000001
 30
0.0
  0
VERTEX
  5
1238
  8
LAYER01
  6
CONTINUOUS
 62
     7
 10
6435.7129770000001
 20
1798.015065
 30
0.0
  0
VERTEX
  5
1239
  8
LAYER01
  6
CONTINUOUS
 62
     7
 10
6435.7129770000001
 20
1798.015065
 30
0.0
  0
VERTEX
  5
123A
  8
LAYER01
  6
CONTINUOUS
 62
     7
 10
6430.7567980000003
 20
1797.0238300000001
 30
0.0
  0
VERTEX
  5
123B
  8
LAYER01
  6
CONTINUOUS
 62
     7
 10
6425.80062
 20
1796.032594
 30
0.0
  0
VERTEX
  5
123C
  8
LAYER01
  6
CONTINUOUS
 62
     7
 10
6420.8444409999993
 20
1793.0588869999999
 30
0.0
  0
VERTEX
  5
123D
  8
LAYER01
  6
CONTINUOUS
 62
     7
 10
6416.8794980000002
 20
1790.08518
 30
0.0
  0
VERTEX
  5
123E
  8
LAYER01
  6
CONTINUOUS
 62
     7
 10
6413.9057909999992
 20
1786.1202370000001
 30
0.0
  0
VERTEX
  5
123F
  8
LAYER01
  6
CONTINUOUS
 62
     7
 10
6411.923319999999
 20
1782.1552939999999
 30
0.0
  0
VERTEX
  5
1240
  8
LAYER01
  6
CONTINUOUS
 62
     7
 10
6409.9408489999996
 20
1777.199116
 30
0.0
  0
VERTEX
  5
1241
  8
LAYER01
  6
CONTINUOUS
 62
     7
 10
6409.9408489999996
 20
1772.242937
 30
0.0
  0
VERTEX
  5
1242
  8
LAYER01
  6
CONTINUOUS
 62
     7
 10
6409.9408489999996
 20
1772.242937
 30
0.0
  0
VERTEX
  5
1243
  8
LAYER01
  6
CONTINUOUS
 62
     7
 10
6409.9408489999996
 20
1766.295523
 30
0.0
  0
VERTEX
  5
1244
  8
LAYER01
  6
CONTINUOUS
 62
     7
 10
6411.923319999999
 20
1761.3393450000001
 30
0.0
  0
VERTEX
  5
1245
  8
LAYER01
  6
CONTINUOUS
 62
     7
 10
6413.9057909999992
 20
1757.3744019999999
 30
0.0
  0
VERTEX
  5
1246
  8
LAYER01
  6
CONTINUOUS
 62
     7
 10
6416.8794980000002
 20
1753.409459
 30
0.0
  0
VERTEX
  5
1247
  8
LAYER01
  6
CONTINUOUS
 62
     7
 10
6420.8444409999993
 20
1750.4357520000001
 30
0.0
  0
VERTEX
  5
1248
  8
LAYER01
  6
CONTINUOUS
 62
     7
 10
6425.80062
 20
1747.462045
 30
0.0
  0
VERTEX
  5
1249
  8
LAYER01
  6
CONTINUOUS
 62
     7
 10
6430.7567980000003
 20
1746.4708089999999
 30
0.0
  0
VERTEX
  5
124A
  8
LAYER01
  6
CONTINUOUS
 62
     7
 10
6435.7129770000001
 20
1745.479574
 30
0.0
  0
VERTEX
  5
124B
  8
LAYER01
  6
CONTINUOUS
 62
     7
 10
6435.7129770000001
 20
1745.479574
 30
0.0
  0
SEQEND
  5
124C
  8
LAYER01
  6
CONTINUOUS
 62
     7
  0
POLYLINE
  5
314
  8
LAYER01
  6
CONTINUOUS
 62
     7
 66
     1
 10
0.0
 20
0.0
 30
0.0
 70
     1
  0
VERTEX
  5
124D
  8
LAYER01
  6
CONTINUOUS
 62
     7
 10
6435.7129770000001
 20
1794.050121999999
 30
0.0
  0
VERTEX
  5
124E
  8
LAYER01
  6
CONTINUOUS
 62
     7
 10
6435.7129770000001
 20
1794.050121999999
 30
0.0
  0
VERTEX
  5
124F
  8
LAYER01
  6
CONTINUOUS
 62
     7
 10
6439.6779190000007
 20
1793.0588869999999
 30
0.0
  0
VERTEX
  5
1250
  8
LAYER01
  6
CONTINUOUS
 62
     7
 10
6443.6428619999997
 20
1792.0676510000001
 30
0.0
  0
VERTEX
  5
1251
  8
LAYER01
  6
CONTINUOUS
 62
     7
 10
6447.6078049999996
 20
1790.08518
 30
0.0
  0
VERTEX
  5
1252
  8
LAYER01
  6
CONTINUOUS
 62
     7
 10
6450.5815119999988
 20
1787.1114729999999
 30
0.0
  0
VERTEX
  5
1253
  8
LAYER01
  6
CONTINUOUS
 62
     7
 10
6453.5552189999999
 20
1784.1377660000001
 30
0.0
  0
VERTEX
  5
1254
  8
LAYER01
  6
CONTINUOUS
 62
     7
 10
6455.5376899999992
 20
1780.1728230000001
 30
0.0
  0
VERTEX
  5
1255
  8
LAYER01
  6
CONTINUOUS
 62
     7
 10
6457.5201619999998
 20
1776.2078799999999
 30
0.0
  0
VERTEX
  5
1256
  8
LAYER01
  6
CONTINUOUS
 62
     7
 10
6457.5201619999998
 20
1772.242937
 30
0.0
  0
VERTEX
  5
1257
  8
LAYER01
  6
CONTINUOUS
 62
     7
 10
6457.5201619999998
 20
1772.242937
 30
0.0
  0
VERTEX
  5
1258
  8
LAYER01
  6
CONTINUOUS
 62
     7
 10
6457.5201619999998
 20
1767.2867590000001
 30
0.0
  0
VERTEX
  5
1259
  8
LAYER01
  6
CONTINUOUS
 62
     7
 10
6455.5376899999992
 20
1763.3218159999999
 30
0.0
  0
VERTEX
  5
125A
  8
LAYER01
  6
CONTINUOUS
 62
     7
 10
6453.5552189999999
 20
1759.356873
 30
0.0
  0
VERTEX
  5
125B
  8
LAYER01
  6
CONTINUOUS
 62
     7
 10
6450.5815119999988
 20
1756.3831660000001
 30
0.0
  0
VERTEX
  5
125C
  8
LAYER01
  6
CONTINUOUS
 62
     7
 10
6447.6078049999996
 20
1753.409459
 30
0.0
  0
VERTEX
  5
125D
  8
LAYER01
  6
CONTINUOUS
 62
     7
 10
6443.6428619999997
 20
1751.4269879999999
 30
0.0
  0
VERTEX
  5
125E
  8
LAYER01
  6
CONTINUOUS
 62
     7
 10
6439.6779190000007
 20
1750.4357520000001
 30
0.0
  0
VERTEX
  5
125F
  8
LAYER01
  6
CONTINUOUS
 62
     7
 10
6435.7129770000001
 20
1750.4357520000001
 30
0.0
  0
VERTEX
  5
1260
  8
LAYER01
  6
CONTINUOUS
 62
     7
 10
6435.7129770000001
 20
1750.4357520000001
 30
0.0
  0
VERTEX
  5
1261
  8
LAYER01
  6
CONTINUOUS
 62
     7
 10
6431.7480340000002
 20
1750.4357520000001
 30
0.0
  0
VERTEX
  5
1262
  8
LAYER01
  6
CONTINUOUS
 62
     7
 10
6426.7918549999986
 20
1751.4269879999999
 30
0.0
  0
VERTEX
  5
1263
  8
LAYER01
  6
CONTINUOUS
 62
     7
 10
6423.8181479999994
 20
1753.409459
 30
0.0
  0
VERTEX
  5
1264
  8
LAYER01
  6
CONTINUOUS
 62
     7
 10
6419.8532059999998
 20
1756.3831660000001
 30
0.0
  0
VERTEX
  5
1265
  8
LAYER01
  6
CONTINUOUS
 62
     7
 10
6417.8707340000001
 20
1759.356873
 30
0.0
  0
VERTEX
  5
1266
  8
LAYER01
  6
CONTINUOUS
 62
     7
 10
6415.8882629999989
 20
1763.3218159999999
 30
0.0
  0
VERTEX
  5
1267
  8
LAYER01
  6
CONTINUOUS
 62
     7
 10
6413.9057909999992
 20
1767.2867590000001
 30
0.0
  0
VERTEX
  5
1268
  8
LAYER01
  6
CONTINUOUS
 62
     7
 10
6413.9057909999992
 20
1772.242937
 30
0.0
  0
VERTEX
  5
1269
  8
LAYER01
  6
CONTINUOUS
 62
     7
 10
6413.9057909999992
 20
1772.242937
 30
0.0
  0
VERTEX
  5
126A
  8
LAYER01
  6
CONTINUOUS
 62
     7
 10
6413.9057909999992
 20
1776.2078799999999
 30
0.0
  0
VERTEX
  5
126B
  8
LAYER01
  6
CONTINUOUS
 62
     7
 10
6415.8882629999989
 20
1780.1728230000001
 30
0.0
  0
VERTEX
  5
126C
  8
LAYER01
  6
CONTINUOUS
 62
     7
 10
6417.8707340000001
 20
1784.1377660000001
 30
0.0
  0
VERTEX
  5
126D
  8
LAYER01
  6
CONTINUOUS
 62
     7
 10
6419.8532059999998
 20
1787.1114729999999
 30
0.0
  0
VERTEX
  5
126E
  8
LAYER01
  6
CONTINUOUS
 62
     7
 10
6423.8181479999994
 20
1790.08518
 30
0.0
  0
VERTEX
  5
126F
  8
LAYER01
  6
CONTINUOUS
 62
     7
 10
6426.7918549999986
 20
1792.0676510000001
 30
0.0
  0
VERTEX
  5
1270
  8
LAYER01
  6
CONTINUOUS
 62
     7
 10
6431.7480340000002
 20
1793.0588869999999
 30
0.0
  0
VERTEX
  5
1271
  8
LAYER01
  6
CONTINUOUS
 62
     7
 10
6435.7129770000001
 20
1794.050121999999
 30
0.0
  0
VERTEX
  5
1272
  8
LAYER01
  6
CONTINUOUS
 62
     7
 10
6435.7129770000001
 20
1794.050121999999
 30
0.0
  0
SEQEND
  5
1273
  8
LAYER01
  6
CONTINUOUS
 62
     7
  0
POLYLINE
  5
33C
  8
LAYER01
  6
CONTINUOUS
 62
     7
 66
     1
 10
0.0
 20
0.0
 30
0.0
 70
     1
  0
VERTEX
  5
1274
  8
LAYER01
  6
CONTINUOUS
 62
     7
 10
6439.6779190000007
 20
1770.260466
 30
0.0
  0
VERTEX
  5
1275
  8
LAYER01
  6
CONTINUOUS
 62
     7
 10
6439.6779190000007
 20
1770.260466
 30
0.0
  0
VERTEX
  5
1276
  8
LAYER01
  6
CONTINUOUS
 62
     7
 10
6442.6516259999989
 20
1771.251702
 30
0.0
  0
VERTEX
  5
1277
  8
LAYER01
  6
CONTINUOUS
 62
     7
 10
6445.625332999999
 20
1772.242937
 30
0.0
  0
VERTEX
  5
1278
  8
LAYER01
  6
CONTINUOUS
 62
     7
 10
6447.6078049999996
 20
1775.2166440000001
 30
0.0
  0
VERTEX
  5
1279
  8
LAYER01
  6
CONTINUOUS
 62
     7
 10
6447.6078049999996
 20
1778.190351
 30
0.0
  0
VERTEX
  5
127A
  8
LAYER01
  6
CONTINUOUS
 62
     7
 10
6447.6078049999996
 20
1778.190351
 30
0.0
  0
VERTEX
  5
127B
  8
LAYER01
  6
CONTINUOUS
 62
     7
 10
6447.6078049999996
 20
1782.1552939999999
 30
0.0
  0
VERTEX
  5
127C
  8
LAYER01
  6
CONTINUOUS
 62
     7
 10
6444.6340980000004
 20
1785.129001
 30
0.0
  0
VERTEX
  5
127D
  8
LAYER01
  6
CONTINUOUS
 62
     7
 10
6441.6603909999994
 20
1786.1202370000001
 30
0.0
  0
VERTEX
  5
127E
  8
LAYER01
  6
CONTINUOUS
 62
     7
 10
6437.6954479999986
 20
1786.1202370000001
 30
0.0
  0
VERTEX
  5
127F
  8
LAYER01
  6
CONTINUOUS
 62
     7
 10
6425.80062
 20
1786.1202370000001
 30
0.0
  0
VERTEX
  5
1280
  8
LAYER01
  6
CONTINUOUS
 62
     7
 10
6425.80062
 20
1757.3744019999999
 30
0.0
  0
VERTEX
  5
1281
  8
LAYER01
  6
CONTINUOUS
 62
     7
 10
6429.7655619999996
 20
1757.3744019999999
 30
0.0
  0
VERTEX
  5
1282
  8
LAYER01
  6
CONTINUOUS
 62
     7
 10
6429.7655619999996
 20
1770.260466
 30
0.0
  0
VERTEX
  5
1283
  8
LAYER01
  6
CONTINUOUS
 62
     7
 10
6435.7129770000001
 20
1770.260466
 30
0.0
  0
VERTEX
  5
1284
  8
LAYER01
  6
CONTINUOUS
 62
     7
 10
6442.6516259999989
 20
1757.3744019999999
 30
0.0
  0
VERTEX
  5
1285
  8
LAYER01
  6
CONTINUOUS
 62
     7
 10
6447.6078049999996
 20
1757.3744019999999
 30
0.0
  0
VERTEX
  5
1286
  8
LAYER01
  6
CONTINUOUS
 62
     7
 10
6439.6779190000007
 20
1770.260466
 30
0.0
  0
VERTEX
  5
1287
  8
LAYER01
  6
CONTINUOUS
 62
     7
 10
6439.6779190000007
 20
1770.260466
 30
0.0
  0
SEQEND
  5
1288
  8
LAYER01
  6
CONTINUOUS
 62
     7
  0
POLYLINE
  5
352
  8
LAYER01
  6
CONTINUOUS
 62
     7
 66
     1
 10
0.0
 20
0.0
 30
0.0
 70
     1
  0
VERTEX
  5
1289
  8
LAYER01
  6
CONTINUOUS
 62
     7
 10
6436.7042119999987
 20
1782.1552939999999
 30
0.0
  0
VERTEX
  5
128A
  8
LAYER01
  6
CONTINUOUS
 62
     7
 10
6436.7042119999987
 20
1782.1552939999999
 30
0.0
  0
VERTEX
  5
128B
  8
LAYER01
  6
CONTINUOUS
 62
     7
 10
6441.6603909999994
 20
1781.164059
 30
0.0
  0
VERTEX
  5
128C
  8
LAYER01
  6
CONTINUOUS
 62
     7
 10
6443.6428619999997
 20
1780.1728230000001
 30
0.0
  0
VERTEX
  5
128D
  8
LAYER01
  6
CONTINUOUS
 62
     7
 10
6443.6428619999997
 20
1778.190351
 30
0.0
  0
VERTEX
  5
128E
  8
LAYER01
  6
CONTINUOUS
 62
     7
 10
6443.6428619999997
 20
1778.190351
 30
0.0
  0
VERTEX
  5
128F
  8
LAYER01
  6
CONTINUOUS
 62
     7
 10
6442.6516259999989
 20
1776.2078799999999
 30
0.0
  0
VERTEX
  5
1290
  8
LAYER01
  6
CONTINUOUS
 62
     7
 10
6440.6691549999987
 20
1775.2166440000001
 30
0.0
  0
VERTEX
  5
1291
  8
LAYER01
  6
CONTINUOUS
 62
     7
 10
6434.7217410000003
 20
1774.2254089999999
 30
0.0
  0
VERTEX
  5
1292
  8
LAYER01
  6
CONTINUOUS
 62
     7
 10
6429.7655619999996
 20
1774.2254089999999
 30
0.0
  0
VERTEX
  5
1293
  8
LAYER01
  6
CONTINUOUS
 62
     7
 10
6429.7655619999996
 20
1782.1552939999999
 30
0.0
  0
VERTEX
  5
1294
  8
LAYER01
  6
CONTINUOUS
 62
     7
 10
6436.7042119999987
 20
1782.1552939999999
 30
0.0
  0
VERTEX
  5
1295
  8
LAYER01
  6
CONTINUOUS
 62
     7
 10
6436.7042119999987
 20
1782.1552939999999
 30
0.0
  0
SEQEND
  5
1296
  8
LAYER01
  6
CONTINUOUS
 62
     7
  0
ENDBLK
  5
361
  8
0
  0
BLOCK
  8
0
  2
*D1
 70
     1
 10
0.0
 20
0.0
 30
0.0
  3
*D1
  1

  0
LINE
  5
364
  8
LAYER01
 62
     7
 10
-221.659908
 20
95.310796999999994
 30
0.0
 11
-221.659908
 21
615.31079699999987
 31
0.0
  0
LINE
  5
365
  8
LAYER01
 62
     7
 10
-29.256076
 20
95.310796999999994
 30
0.0
 11
-236.659908
 21
95.310796999999994
 31
0.0
  0
LINE
  5
366
  8
LAYER01
 62
     7
 10
-29.256076
 20
615.31079699999987
 30
0.0
 11
-236.659908
 21
615.31079699999987
 31
0.0
  0
SOLID
  5
367
  8
LAYER01
 62
     7
 10
-217.660068
 20
119.31079699999999
 30
0.0
 11
-221.659908
 21
95.310796999999994
 31
0.0
 12
-225.65974800000001
 22
119.31079699999999
 32
0.0
 13
-225.65974800000001
 23
119.31079699999999
 33
0.0
  0
SOLID
  5
368
  8
LAYER01
 62
     7
 10
-217.660068
 20
591.31079699999987
 30
0.0
 11
-221.659908
 21
615.31079699999987
 31
0.0
 12
-225.65974800000001
 22
591.31079699999987
 32
0.0
 13
-225.65974800000001
 23
591.31079699999987
 33
0.0
  0
TEXT
  5
369
  8
LAYER01
  6
CONTINUOUS
 62
     7
 10
-236.659908
 20
317.81079700000009
 30
0.0
 40
30.0
  1
520
 50
90.0
  0
POINT
  5
36A
  8
LAYER01
 62
     7
 10
-17.256076
 20
95.310796999999994
 30
0.0
  0
POINT
  5
36B
  8
LAYER01
 62
     7
 10
-17.256076
 20
615.31079699999987
 30
0.0
  0
POINT
  5
36C
  8
LAYER01
 62
     7
 10
-221.659908
 20
615.31079699999987
 30
0.0
  0
ENDBLK
  5
36D
  8
0
  0
BLOCK
  8
0
  2
*D2
 70
     1
 10
0.0
 20
0.0
 30
0.0
  3
*D2
  1

  0
LINE
  5
370
  8
LAYER01
 62
     7
 10
-135.08176
 20
95.310796999999994
 30
0.0
 11
-135.08176
 21
495.31079699999992
 31
0.0
  0
LINE
  5
371
  8
LAYER01
 62
     7
 10
-29.256076
 20
95.310796999999994
 30
0.0
 11
-150.08176
 21
95.310796999999994
 31
0.0
  0
LINE
  5
372
  8
LAYER01
 62
     7
 10
-29.256076
 20
495.31079699999992
 30
0.0
 11
-150.08176
 21
495.31079699999992
 31
0.0
  0
SOLID
  5
373
  8
LAYER01
 62
     7
 10
-131.08192
 20
119.31079699999999
 30
0.0
 11
-135.08176
 21
95.310796999999994
 31
0.0
 12
-139.08160000000001
 22
119.31079699999999
 32
0.0
 13
-139.08160000000001
 23
119.31079699999999
 33
0.0
  0
SOLID
  5
374
  8
LAYER01
 62
     7
 10
-131.08192
 20
471.31079699999998
 30
0.0
 11
-135.08176
 21
495.31079699999992
 31
0.0
 12
-139.08160000000001
 22
471.31079699999998
 32
0.0
 13
-139.08160000000001
 23
471.31079699999998
 33
0.0
  0
TEXT
  5
375
  8
LAYER01
  6
CONTINUOUS
 62
     7
 10
-150.08176
 20
260.31079699999998
 30
0.0
 40
30.0
  1
400
 50
90.0
  0
POINT
  5
376
  8
LAYER01
 62
     7
 10
-17.256076
 20
95.310796999999994
 30
0.0
  0
POINT
  5
377
  8
LAYER01
 62
     7
 10
-17.256076
 20
495.31079699999992
 30
0.0
  0
POINT
  5
378
  8
LAYER01
 62
     7
 10
-135.08176
 20
495.31079699999992
 30
0.0
  0
ENDBLK
  5
379
  8
0
  0
BLOCK
  8
0
  2
*D3
 70
     1
 10
0.0
 20
0.0
 30
0.0
  3
*D3
  1

  0
LINE
  5
37C
  8
LAYER01
 62
     7
 10
677.22497899999996
 20
-395.097238
 30
0.0
 11
677.22497899999996
 21
-486.16563300000001
 31
0.0
  0
LINE
  5
37D
  8
LAYER01
 62
     7
 10
753.46270000000004
 20
-395.097238
 30
0.0
 11
662.22497899999985
 21
-395.097238
 31
0.0
  0
LINE
  5
37E
  8
LAYER01
 62
     7
 10
753.46270000000004
 20
-486.16563300000001
 30
0.0
 11
662.22497899999985
 21
-486.16563300000001
 31
0.0
  0
SOLID
  5
37F
  8
LAYER01
 62
     7
 10
673.22513900000001
 20
-419.09723799999989
 30
0.0
 11
677.22497899999996
 21
-395.097238
 31
0.0
 12
681.22481900000002
 22
-419.09723799999989
 32
0.0
 13
681.22481900000002
 23
-419.09723799999989
 33
0.0
  0
SOLID
  5
380
  8
LAYER01
 62
     7
 10
673.22513900000001
 20
-462.16563300000001
 30
0.0
 11
677.22497899999996
 21
-486.16563300000001
 31
0.0
 12
681.22481900000002
 22
-462.16563300000001
 32
0.0
 13
681.22481900000002
 23
-462.16563300000001
 33
0.0
  0
TEXT
  5
381
  8
LAYER01
  6
CONTINUOUS
 62
     7
 10
662.22497899999985
 20
-460.6314349999999
 30
0.0
 40
30.0
  1
91
 50
90.0
  0
POINT
  5
382
  8
LAYER01
 62
     7
 10
765.46270000000004
 20
-395.097238
 30
0.0
  0
POINT
  5
383
  8
LAYER01
 62
     7
 10
765.46270000000004
 20
-486.16563300000001
 30
0.0
  0
POINT
  5
384
  8
LAYER01
 62
     7
 10
677.22497899999996
 20
-486.16563300000001
 30
0.0
  0
ENDBLK
  5
385
  8
0
  0
BLOCK
  8
0
  2
*D4
 70
     1
 10
0.0
 20
0.0
 30
0.0
  3
*D4
  1

  0
LINE
  5
388
  8
LAYER01
 62
     7
 10
1368.134879
 20
-395.227576
 30
0.0
 11
1368.134879
 21
-495.227576
 31
0.0
  0
LINE
  5
389
  8
LAYER01
 62
     7
 10
1303.9512790000001
 20
-395.227576
 30
0.0
 11
1383.134879
 21
-395.227576
 31
0.0
  0
LINE
  5
38A
  8
LAYER01
 62
     7
 10
1303.9512790000001
 20
-495.227576
 30
0.0
 11
1383.134879
 21
-495.227576
 31
0.0
  0
SOLID
  5
38B
  8
LAYER01
 62
     7
 10
1364.135039
 20
-419.227576
 30
0.0
 11
1368.134879
 21
-395.227576
 31
0.0
 12
1372.1347189999999
 22
-419.227576
 32
0.0
 13
1372.1347189999999
 23
-419.227576
 33
0.0
  0
SOLID
  5
38C
  8
LAYER01
 62
     7
 10
1364.135039
 20
-471.22757599999989
 30
0.0
 11
1368.134879
 21
-495.227576
 31
0.0
 12
1372.1347189999999
 22
-471.22757599999989
 32
0.0
 13
1372.1347189999999
 23
-471.22757599999989
 33
0.0
  0
TEXT
  5
38D
  8
LAYER01
  6
CONTINUOUS
 62
     7
 10
1353.134879
 20
-475.22757599999989
 30
0.0
 40
30.0
  1
100
 50
90.0
  0
POINT
  5
38E
  8
LAYER01
 62
     7
 10
1291.9512790000001
 20
-395.227576
 30
0.0
  0
POINT
  5
38F
  8
LAYER01
 62
     7
 10
1291.9512790000001
 20
-495.227576
 30
0.0
  0
POINT
  5
390
  8
LAYER01
 62
     7
 10
1368.134879
 20
-495.227576
 30
0.0
  0
ENDBLK
  5
391
  8
0
  0
BLOCK
  8
0
  2
*D5
 70
     1
 10
0.0
 20
0.0
 30
0.0
  3
*D5
  1

  0
LINE
  5
3A0
  8
LAYER01
 62
     7
 10
736.28763600000002
 20
-365.097238
 30
0.0
 11
736.28763600000002
 21
-317.097238
 31
0.0
  0
LINE
  5
3A1
  8
LAYER01
 62
     7
 10
736.28763600000002
 20
-395.097238
 30
0.0
 11
736.28763600000002
 21
-443.097238
 31
0.0
  0
LINE
  5
3A2
  8
LAYER01
 62
     7
 10
753.46270000000004
 20
-365.097238
 30
0.0
 11
721.28763600000002
 21
-365.097238
 31
0.0
  0
LINE
  5
3A3
  8
LAYER01
 62
     7
 10
753.46270000000004
 20
-395.097238
 30
0.0
 11
721.28763600000002
 21
-395.097238
 31
0.0
  0
SOLID
  5
3A4
  8
LAYER01
 62
     7
 10
732.28779599999984
 20
-341.097238
 30
0.0
 11
736.28763600000002
 21
-365.097238
 31
0.0
 12
740.28747599999986
 22
-341.097238
 32
0.0
 13
740.28747599999986
 23
-341.097238
 33
0.0
  0
SOLID
  5
3A5
  8
LAYER01
 62
     7
 10
732.28779599999984
 20
-419.09723799999989
 30
0.0
 11
736.28763600000002
 21
-395.097238
 31
0.0
 12
740.28747599999986
 22
-419.09723799999989
 32
0.0
 13
740.28747599999986
 23
-419.09723799999989
 33
0.0
  0
TEXT
  5
3A6
  8
LAYER01
  6
CONTINUOUS
 62
     7
 10
721.28763600000002
 20
-302.097238
 30
0.0
 40
30.0
  1
30
 50
90.0
  0
POINT
  5
3A7
  8
LAYER01
 62
     7
 10
765.46270000000004
 20
-365.097238
 30
0.0
  0
POINT
  5
3A8
  8
LAYER01
 62
     7
 10
765.46270000000004
 20
-395.097238
 30
0.0
  0
POINT
  5
3A9
  8
LAYER01
 62
     7
 10
736.28763600000002
 20
-395.097238
 30
0.0
  0
ENDBLK
  5
3AA
  8
0
  0
BLOCK
  8
0
  2
*D6
 70
     1
 10
0.0
 20
0.0
 30
0.0
  3
*D6
  1

  0
LINE
  5
3AD
  8
LAYER01
 62
     7
 10
-221.659908
 20
1061.1341649999999
 30
0.0
 11
-221.659908
 21
1581.1341649999999
 31
0.0
  0
LINE
  5
3AE
  8
LAYER01
 62
     7
 10
-29.256076
 20
1061.1341649999999
 30
0.0
 11
-236.659908
 21
1061.1341649999999
 31
0.0
  0
LINE
  5
3AF
  8
LAYER01
 62
     7
 10
-29.256076
 20
1581.1341649999999
 30
0.0
 11
-236.659908
 21
1581.1341649999999
 31
0.0
  0
SOLID
  5
3B0
  8
LAYER01
 62
     7
 10
-217.660068
 20
1085.1341649999999
 30
0.0
 11
-221.659908
 21
1061.1341649999999
 31
0.0
 12
-225.65974800000001
 22
1085.1341649999999
 32
0.0
 13
-225.65974800000001
 23
1085.1341649999999
 33
0.0
  0
SOLID
  5
3B1
  8
LAYER01
 62
     7
 10
-217.660068
 20
1557.1341649999999
 30
0.0
 11
-221.659908
 21
1581.1341649999999
 31
0.0
 12
-225.65974800000001
 22
1557.1341649999999
 32
0.0
 13
-225.65974800000001
 23
1557.1341649999999
 33
0.0
  0
TEXT
  5
3B2
  8
LAYER01
  6
CONTINUOUS
 62
     7
 10
-236.659908
 20
1283.6341649999999
 30
0.0
 40
30.0
  1
520
 50
90.0
  0
POINT
  5
3B3
  8
LAYER01
 62
     7
 10
-17.256076
 20
1061.1341649999999
 30
0.0
  0
POINT
  5
3B4
  8
LAYER01
 62
     7
 10
-17.256076
 20
1581.1341649999999
 30
0.0
  0
POINT
  5
3B5
  8
LAYER01
 62
     7
 10
-221.659908
 20
1581.1341649999999
 30
0.0
  0
ENDBLK
  5
3B6
  8
0
  0
BLOCK
  8
0
  2
*D7
 70
     1
 10
0.0
 20
0.0
 30
0.0
  3
*D7
  1

  0
LINE
  5
3B9
  8
LAYER01
 62
     7
 10
-135.08176
 20
1061.1341649999999
 30
0.0
 11
-135.08176
 21
1461.1341649999999
 31
0.0
  0
LINE
  5
3BA
  8
LAYER01
 62
     7
 10
-29.256076
 20
1061.1341649999999
 30
0.0
 11
-150.08176
 21
1061.1341649999999
 31
0.0
  0
LINE
  5
3BB
  8
LAYER01
 62
     7
 10
-29.256076
 20
1461.1341649999999
 30
0.0
 11
-150.08176
 21
1461.1341649999999
 31
0.0
  0
SOLID
  5
3BC
  8
LAYER01
 62
     7
 10
-131.08192
 20
1085.1341649999999
 30
0.0
 11
-135.08176
 21
1061.1341649999999
 31
0.0
 12
-139.08160000000001
 22
1085.1341649999999
 32
0.0
 13
-139.08160000000001
 23
1085.1341649999999
 33
0.0
  0
SOLID
  5
3BD
  8
LAYER01
 62
     7
 10
-131.08192
 20
1437.1341649999999
 30
0.0
 11
-135.08176
 21
1461.1341649999999
 31
0.0
 12
-139.08160000000001
 22
1437.1341649999999
 32
0.0
 13
-139.08160000000001
 23
1437.1341649999999
 33
0.0
  0
TEXT
  5
3BE
  8
LAYER01
  6
CONTINUOUS
 62
     7
 10
-150.08176
 20
1226.1341649999999
 30
0.0
 40
30.0
  1
400
 50
90.0
  0
POINT
  5
3BF
  8
LAYER01
 62
     7
 10
-17.256076
 20
1061.1341649999999
 30
0.0
  0
POINT
  5
3C0
  8
LAYER01
 62
     7
 10
-17.256076
 20
1461.1341649999999
 30
0.0
  0
POINT
  5
3C1
  8
LAYER01
 62
     7
 10
-135.08176
 20
1461.1341649999999
 30
0.0
  0
ENDBLK
  5
3C2
  8
0
  0
BLOCK
  8
0
  2
TRIGO-G11
 70
     0
 10
0.0
 20
0.0
 30
0.0
  3
TRIGO-G11
  1

  0
TEXT
  5
3C5
  8
LAYER01
  6
VERDECKT
 62
     1
 10
2133.219951
 20
-311.285303
 30
0.0
 40
13.0
  1
A. Sprenger GmbH
  7
SIMPLEX
  0
TEXT
  5
3C6
  8
LAYER01
  6
VERDECKT
 62
     1
 10
2133.219951
 20
-333.57101699999998
 30
0.0
 40
13.0
  1
Berner Str. 10
  7
SIMPLEX
  0
TEXT
  5
3C7
  8
LAYER01
  6
VERDECKT
 62
     1
 10
2133.219951
 20
-355.85673100000002
 30
0.0
 40
13.0
  1
60437 Frankfurt
  7
SIMPLEX
  0
TEXT
  5
3C8
  8
LAYER01
  6
VERDECKT
 62
     1
 10
2133.219951
 20
-378.14244500000001
 30
0.0
 40
13.0
  1
Tel.: 069 - 507 27 41
  7
SIMPLEX
  0
TEXT
  5
3C9
  8
LAYER01
  6
VERDECKT
 62
     1
 10
2133.219951
 20
-400.42815999999988
 30
0.0
 40
13.0
  1
Fax: 069 - 507 72 91
  7
SIMPLEX
  0
TEXT
  5
3CA
  8
LAYER01
  6
VERDECKT
 62
     1
 10
2133.219951
 20
-422.71387399999998
 30
0.0
 40
13.0
  1
info@varicor.org
  7
SIMPLEX
  0
ENDBLK
  5
3CB
  8
0
  0
BLOCK
  8
0
  2
TRIGO-G10
 70
     0
 10
0.0
 20
0.0
 30
0.0
  3
TRIGO-G10
  1

  0
TEXT
  5
3CE
  8
LAYER01
  6
CONTINUOUS
 62
     1
 10
3499.283942
 20
-616.88954599999988
 30
0.0
 40
13.0
  1
Blatt
  7
SIMPLEX
  0
LINE
  5
3CF
  8
LAYER01
  6
CONTINUOUS
 62
     1
 10
2114.783942
 20
-525.88954599999988
 30
0.0
 11
2894.783942
 21
-525.88954599999988
 31
0.0
  0
LINE
  5
3D0
  8
LAYER01
  6
CONTINUOUS
 62
     1
 10
2114.783942
 20
-558.38954599999988
 30
0.0
 11
2894.783942
 21
-558.38954599999988
 31
0.0
  0
LINE
  5
3D1
  8
LAYER01
  6
CONTINUOUS
 62
     1
 10
2114.783942
 20
-590.889546
 30
0.0
 11
3583.783942
 21
-590.889546
 31
0.0
  0
LINE
  5
3D2
  8
LAYER01
  6
CONTINUOUS
 62
     1
 10
2114.783942
 20
-688.38954599999988
 30
0.0
 11
3583.783942
 21
-688.38954599999988
 31
0.0
  0
LINE
  5
3D3
  8
LAYER01
  6
CONTINUOUS
 62
     1
 10
2114.783942
 20
-428.389546
 30
0.0
 11
3583.783942
 21
-428.389546
 31
0.0
  0
POLYLINE
  5
3D4
  8
LAYER01
  6
CONTINUOUS
 62
     1
 66
     1
 10
0.0
 20
0.0
 30
0.0
 70
     1
  0
VERTEX
  5
1297
  8
LAYER01
  6
CONTINUOUS
 62
     1
 10
2114.783942
 20
-727.389546
 30
0.0
  0
VERTEX
  5
1298
  8
LAYER01
  6
CONTINUOUS
 62
     1
 10
2114.783942
 20
-291.889546
 30
0.0
  0
VERTEX
  5
1299
  8
LAYER01
  6
CONTINUOUS
 62
     1
 10
3583.783942
 20
-291.889546
 30
0.0
  0
VERTEX
  5
129A
  8
LAYER01
  6
CONTINUOUS
 62
     1
 10
3583.783942
 20
-727.389546
 30
0.0
  0
SEQEND
  5
129B
  8
LAYER01
  6
CONTINUOUS
 62
     1
  0
LINE
  5
3DA
  8
LAYER01
  6
CONTINUOUS
 62
     1
 10
2114.783942
 20
-460.889546
 30
0.0
 11
2894.783942
 21
-460.889546
 31
0.0
  0
LINE
  5
3DB
  8
LAYER01
  6
CONTINUOUS
 62
     1
 10
2114.783942
 20
-493.389546
 30
0.0
 11
2894.783942
 21
-493.389546
 31
0.0
  0
LINE
  5
3DC
  8
LAYER01
  6
CONTINUOUS
 62
     1
 10
2537.283942
 20
-291.889546
 30
0.0
 11
2537.283942
 21
-727.389546
 31
0.0
  0
INSERT
  5
3DD
  8
LAYER01
  2
TRIGO-G11
 10
0.0
 20
0.0
 30
0.0
  0
LINE
  5
3DE
  8
LAYER01
  6
CONTINUOUS
 62
     1
 10
2114.783942
 20
-655.889546
 30
0.0
 11
2537.283942
 21
-655.889546
 31
0.0
  0
LINE
  5
3DF
  8
LAYER01
  6
CONTINUOUS
 62
     1
 10
2114.783942
 20
-623.389546
 30
0.0
 11
2537.283942
 21
-623.389546
 31
0.0
  0
LINE
  5
3E0
  8
LAYER01
  6
CONTINUOUS
 62
     1
 10
2173.283942
 20
-428.389546
 30
0.0
 11
2173.283942
 21
-727.389546
 31
0.0
  0
TEXT
  5
3E1
  8
LAYER01
  6
CONTINUOUS
 62
     1
 10
2125.7029859999998
 20
-714.389546
 30
0.0
 40
12.35
  1
Zust
  7
SIMPLEX
  0
LINE
  5
3E2
  8
LAYER01
  6
CONTINUOUS
 62
     1
 10
2378.4039419999999
 20
-727.389546
 30
0.0
 11
2378.4039419999999
 21
-428.389546
 31
0.0
  0
LINE
  5
3E3
  8
LAYER01
  6
CONTINUOUS
 62
     1
 10
2478.783942
 20
-428.389546
 30
0.0
 11
2478.783942
 21
-727.389546
 31
0.0
  0
TEXT
  5
3E4
  8
LAYER01
  6
CONTINUOUS
 62
     1
 10
2230.6510469999998
 20
-714.389546
 30
0.0
 40
12.35
  1
Änderung
  7
SIMPLEX
  0
TEXT
  5
3E5
  8
LAYER01
  6
CONTINUOUS
 62
     1
 10
2396.6943299999998
 20
-714.389546
 30
0.0
 40
12.35
  1
Datum
  7
SIMPLEX
  0
TEXT
  5
3E6
  8
LAYER01
  6
CONTINUOUS
 62
     1
 10
2483.677017
 20
-714.389546
 30
0.0
 40
12.35
  1
Name
  7
SIMPLEX
  0
LINE
  5
3E7
  8
LAYER01
  6
CONTINUOUS
 62
     1
 10
3583.783942
 20
-343.889546
 30
0.0
 11
2894.783942
 21
-343.889546
 31
0.0
  0
LINE
  5
3E8
  8
LAYER01
  6
CONTINUOUS
 62
     1
 10
2621.783942
 20
-558.38954599999988
 30
0.0
 11
2621.783942
 21
-428.389546
 31
0.0
  0
TEXT
  5
3E9
  8
LAYER01
  6
CONTINUOUS
 62
     1
 10
2550.283942
 20
-486.889546
 30
0.0
 40
13.0
  1
Bearb.
  7
SIMPLEX
  0
TEXT
  5
3EA
  8
LAYER01
  6
CONTINUOUS
 62
     1
 10
2550.283942
 20
-551.889546
 30
0.0
 40
13.0
  1
Norm
  7
SIMPLEX
  0
TEXT
  5
3EB
  8
LAYER01
  6
CONTINUOUS
 62
     1
 10
2550.283942
 20
-519.389546
 30
0.0
 40
13.0
  1
Gepr.
  7
SIMPLEX
  0
TEXT
  5
3EC
  8
LAYER01
  6
CONTINUOUS
 62
     1
 10
2654.283942
 20
-454.38954599999988
 30
0.0
 40
13.0
  1
Datum
  7
SIMPLEX
  0
TEXT
  5
3ED
  8
LAYER01
  6
CONTINUOUS
 62
     1
 10
2784.283942
 20
-454.38954599999988
 30
0.0
 40
13.0
  1
Name
  7
SIMPLEX
  0
TEXT
  5
3EE
  8
LAYER01
  6
CONTINUOUS
 62
     1
 10
3551.283942
 20
-681.889546
 30
0.0
 40
13.0
  1
Bl.
  7
SIMPLEX
  0
LINE
  5
3EF
  8
LAYER01
  6
CONTINUOUS
 62
     1
 10
2894.783942
 20
-727.389546
 30
0.0
 11
2894.783942
 21
-291.889546
 31
0.0
  0
LINE
  5
3F0
  8
LAYER01
  6
CONTINUOUS
 62
     1
 10
2745.283942
 20
-590.889546
 30
0.0
 11
2745.283942
 21
-291.889546
 31
0.0
  0
LINE
  5
3F1
  8
LAYER01
  6
CONTINUOUS
 62
     1
 10
3304.283942
 20
-291.889546
 30
0.0
 11
3304.283942
 21
-343.889546
 31
0.0
  0
TEXT
  5
3F2
  8
LAYER01
  6
CONTINUOUS
 62
     1
 10
2908.9461409999999
 20
-325.07854900000001
 30
0.0
 40
13.0
  1
Maßstab
  7
SIMPLEX
  0
LINE
  5
3F3
  8
LAYER01
  6
CONTINUOUS
 62
     1
 10
3486.283942
 20
-590.889546
 30
0.0
 11
3486.283942
 21
-688.38954599999988
 31
0.0
  0
LINE
  5
3F4
  8
LAYER01
  6
CONTINUOUS
 62
     1
 10
3486.283942
 20
-655.889546
 30
0.0
 11
3583.783942
 21
-655.889546
 31
0.0
  0
ENDBLK
  5
3F5
  8
0
  0
BLOCK
  8
0
  2
*D10
 70
     1
 10
0.0
 20
0.0
 30
0.0
  3
*D10
  1

  0
LINE
  5
3F8
  8
LAYER01
 62
     7
 10
1982.7439240000001
 20
785.26043400000003
 30
0.0
 11
-17.256076
 21
785.26043400000003
 31
0.0
  0
LINE
  5
3F9
  8
LAYER01
 62
     7
 10
1982.7439240000001
 20
631.74338699999998
 30
0.0
 11
1982.7439240000001
 21
800.26043400000015
 31
0.0
  0
LINE
  5
3FA
  8
LAYER01
 62
     7
 10
-17.256076
 20
627.31079699999987
 30
0.0
 11
-17.256076
 21
800.26043400000015
 31
0.0
  0
SOLID
  5
3FB
  8
LAYER01
 62
     7
 10
1958.7439240000001
 20
789.26027399999998
 30
0.0
 11
1982.7439240000001
 21
785.26043400000003
 31
0.0
 12
1958.7439240000001
 22
781.26059399999997
 32
0.0
 13
1958.7439240000001
 23
781.26059399999997
 33
0.0
  0
SOLID
  5
3FC
  8
LAYER01
 62
     7
 10
6.7439239999999998
 20
789.26027399999998
 30
0.0
 11
-17.256076
 21
785.26043400000003
 31
0.0
 12
6.7439239999999998
 22
781.26059399999997
 32
0.0
 13
6.7439239999999998
 23
781.26059399999997
 33
0.0
  0
TEXT
  5
3FD
  8
LAYER01
  6
CONTINUOUS
 62
     7
 10
935.24392399999999
 20
800.26043400000015
 30
0.0
 40
30.0
  1
600-2000
  0
POINT
  5
3FE
  8
LAYER01
 62
     7
 10
1982.7439240000001
 20
619.74338699999998
 30
0.0
  0
POINT
  5
3FF
  8
LAYER01
 62
     7
 10
-17.256076
 20
615.31079699999987
 30
0.0
  0
POINT
  5
400
  8
LAYER01
 62
     7
 10
-17.256076
 20
785.26043400000003
 30
0.0
  0
ENDBLK
  5
401
  8
0
  0
BLOCK
  8
0
  2
*D11
 70
     1
 10
0.0
 20
0.0
 30
0.0
  3
*D11
  1

  0
LINE
  5
404
  8
LAYER01
 62
     7
 10
1233.258736
 20
-32.139136999999998
 30
0.0
 11
733.25873599999989
 21
-32.139136999999998
 31
0.0
  0
LINE
  5
405
  8
LAYER01
 62
     7
 10
1233.258736
 20
84.190234000000004
 30
0.0
 11
1233.258736
 21
-47.139136999999991
 31
0.0
  0
LINE
  5
406
  8
LAYER01
 62
     7
 10
733.25873599999989
 20
84.190234000000004
 30
0.0
 11
733.25873599999989
 21
-47.139136999999991
 31
0.0
  0
SOLID
  5
407
  8
LAYER01
 62
     7
 10
1209.258736
 20
-28.139296999999999
 30
0.0
 11
1233.258736
 21
-32.139136999999998
 31
0.0
 12
1209.258736
 22
-36.138977000000011
 32
0.0
 13
1209.258736
 23
-36.138977000000011
 33
0.0
  0
SOLID
  5
408
  8
LAYER01
 62
     7
 10
757.25873599999989
 20
-28.139296999999999
 30
0.0
 11
733.25873599999989
 21
-32.139136999999998
 31
0.0
 12
757.25873599999989
 22
-36.138977000000011
 32
0.0
 13
757.25873599999989
 23
-36.138977000000011
 33
0.0
  0
TEXT
  5
409
  8
LAYER01
  6
CONTINUOUS
 62
     7
 10
948.25873599999977
 20
-17.139137000000002
 30
0.0
 40
30.0
  1
500
  0
POINT
  5
40A
  8
LAYER01
 62
     7
 10
1233.258736
 20
96.190234000000004
 30
0.0
  0
POINT
  5
40B
  8
LAYER01
 62
     7
 10
733.25873599999989
 20
96.190234000000004
 30
0.0
  0
POINT
  5
40C
  8
LAYER01
 62
     7
 10
733.25873599999989
 20
-32.139136999999998
 30
0.0
  0
ENDBLK
  5
40D
  8
0
  0
BLOCK
  8
0
  2
*D12
 70
     1
 10
0.0
 20
0.0
 30
0.0
  3
*D12
  1

  0
LINE
  5
410
  8
LAYER01
 62
     7
 10
1982.7439240000001
 20
697.45122500000002
 30
0.0
 11
983.304756
 21
697.45122500000002
 31
0.0
  0
LINE
  5
411
  8
LAYER01
 62
     7
 10
1982.7439240000001
 20
631.74338699999998
 30
0.0
 11
1982.7439240000001
 21
712.45122500000002
 31
0.0
  0
LINE
  5
412
  8
LAYER01
 62
     7
 10
983.304756
 20
631.74338699999998
 30
0.0
 11
983.304756
 21
712.45122500000002
 31
0.0
  0
SOLID
  5
413
  8
LAYER01
 62
     7
 10
1958.7439240000001
 20
701.45106499999997
 30
0.0
 11
1982.7439240000001
 21
697.45122500000002
 31
0.0
 12
1958.7439240000001
 22
693.45138499999996
 32
0.0
 13
1958.7439240000001
 23
693.45138499999996
 33
0.0
  0
SOLID
  5
414
  8
LAYER01
 62
     7
 10
1007.304756
 20
701.45106499999997
 30
0.0
 11
983.304756
 21
697.45122500000002
 31
0.0
 12
1007.304756
 22
693.45138499999996
 32
0.0
 13
1007.304756
 23
693.45138499999996
 33
0.0
  0
TEXT
  5
415
  8
LAYER01
  6
CONTINUOUS
 62
     7
 10
1443.0243399999999
 20
712.45122500000002
 30
0.0
 40
30.0
  1
350-1500
  0
POINT
  5
416
  8
LAYER01
 62
     7
 10
1982.7439240000001
 20
619.74338699999998
 30
0.0
  0
POINT
  5
417
  8
LAYER01
 62
     7
 10
983.304756
 20
619.74338699999998
 30
0.0
  0
POINT
  5
418
  8
LAYER01
 62
     7
 10
983.304756
 20
697.45122500000002
 30
0.0
  0
ENDBLK
  5
419
  8
0
  0
BLOCK
  8
0
  2
*D13
 70
     1
 10
0.0
 20
0.0
 30
0.0
  3
*D13
  1

  0
LINE
  5
41C
  8
LAYER01
 62
     7
 10
983.304756
 20
697.45122500000002
 30
0.0
 11
-17.256076
 21
697.45122500000002
 31
0.0
  0
LINE
  5
41D
  8
LAYER01
 62
     7
 10
983.304756
 20
631.74338699999998
 30
0.0
 11
983.304756
 21
712.45122500000002
 31
0.0
  0
LINE
  5
41E
  8
LAYER01
 62
     7
 10
-17.256076
 20
631.74338699999998
 30
0.0
 11
-17.256076
 21
712.45122500000002
 31
0.0
  0
SOLID
  5
41F
  8
LAYER01
 62
     7
 10
959.304756
 20
701.45106499999997
 30
0.0
 11
983.304756
 21
697.45122500000002
 31
0.0
 12
959.304756
 22
693.45138499999996
 32
0.0
 13
959.304756
 23
693.45138499999996
 33
0.0
  0
SOLID
  5
420
  8
LAYER01
 62
     7
 10
6.7439239999999998
 20
701.45106499999997
 30
0.0
 11
-17.256076
 21
697.45122500000002
 31
0.0
 12
6.7439239999999998
 22
693.45138499999996
 32
0.0
 13
6.7439239999999998
 23
693.45138499999996
 33
0.0
  0
TEXT
  5
421
  8
LAYER01
  6
CONTINUOUS
 62
     7
 10
443.02434000000011
 20
712.45122500000002
 30
0.0
 40
30.0
  1
350-1500
  0
POINT
  5
422
  8
LAYER01
 62
     7
 10
983.304756
 20
619.74338699999998
 30
0.0
  0
POINT
  5
423
  8
LAYER01
 62
     7
 10
-17.256076
 20
619.74338699999998
 30
0.0
  0
POINT
  5
424
  8
LAYER01
 62
     7
 10
-17.256076
 20
697.45122500000002
 30
0.0
  0
ENDBLK
  5
425
  8
0
  0
BLOCK
  8
0
  2
*D14
 70
     1
 10
0.0
 20
0.0
 30
0.0
  3
*D14
  1

  0
LINE
  5
428
  8
LAYER01
 62
     7
 10
733.25873599999989
 20
933.68423100000007
 30
0.0
 11
233.258736
 21
933.68423100000007
 31
0.0
  0
LINE
  5
429
  8
LAYER01
 62
     7
 10
733.25873599999989
 20
1050.013602
 30
0.0
 11
733.25873599999989
 21
918.68423100000007
 31
0.0
  0
LINE
  5
42A
  8
LAYER01
 62
     7
 10
233.258736
 20
1050.013602
 30
0.0
 11
233.258736
 21
918.68423100000007
 31
0.0
  0
SOLID
  5
42B
  8
LAYER01
 62
     7
 10
709.258736
 20
937.68407100000013
 30
0.0
 11
733.25873599999989
 21
933.68423100000007
 31
0.0
 12
709.258736
 22
929.68439099999989
 32
0.0
 13
709.258736
 23
929.68439099999989
 33
0.0
  0
SOLID
  5
42C
  8
LAYER01
 62
     7
 10
257.258736
 20
937.68407100000013
 30
0.0
 11
233.258736
 21
933.68423100000007
 31
0.0
 12
257.258736
 22
929.68439099999989
 32
0.0
 13
257.258736
 23
929.68439099999989
 33
0.0
  0
TEXT
  5
42D
  8
LAYER01
  6
CONTINUOUS
 62
     7
 10
448.25873600000011
 20
948.68423099999995
 30
0.0
 40
30.0
  1
500
  0
POINT
  5
42E
  8
LAYER01
 62
     7
 10
733.25873599999989
 20
1062.013602
 30
0.0
  0
POINT
  5
42F
  8
LAYER01
 62
     7
 10
233.258736
 20
1062.013602
 30
0.0
  0
POINT
  5
430
  8
LAYER01
 62
     7
 10
233.258736
 20
933.68423100000007
 30
0.0
  0
ENDBLK
  5
431
  8
0
  0
BLOCK
  8
0
  2
*D15
 70
     1
 10
0.0
 20
0.0
 30
0.0
  3
*D15
  1

  0
LINE
  5
434
  8
LAYER01
 62
     7
 10
1733.258736
 20
933.68423100000007
 30
0.0
 11
1233.258736
 21
933.68423100000007
 31
0.0
  0
LINE
  5
435
  8
LAYER01
 62
     7
 10
1733.258736
 20
1050.013602
 30
0.0
 11
1733.258736
 21
918.68423100000007
 31
0.0
  0
LINE
  5
436
  8
LAYER01
 62
     7
 10
1233.258736
 20
1050.013602
 30
0.0
 11
1233.258736
 21
918.68423100000007
 31
0.0
  0
SOLID
  5
437
  8
LAYER01
 62
     7
 10
1709.258736
 20
937.68407100000013
 30
0.0
 11
1733.258736
 21
933.68423100000007
 31
0.0
 12
1709.258736
 22
929.68439099999989
 32
0.0
 13
1709.258736
 23
929.68439099999989
 33
0.0
  0
SOLID
  5
438
  8
LAYER01
 62
     7
 10
1257.258736
 20
937.68407100000013
 30
0.0
 11
1233.258736
 21
933.68423100000007
 31
0.0
 12
1257.258736
 22
929.68439099999989
 32
0.0
 13
1257.258736
 23
929.68439099999989
 33
0.0
  0
TEXT
  5
439
  8
LAYER01
  6
CONTINUOUS
 62
     7
 10
1448.258736
 20
948.68423099999995
 30
0.0
 40
30.0
  1
500
  0
POINT
  5
43A
  8
LAYER01
 62
     7
 10
1733.258736
 20
1062.013602
 30
0.0
  0
POINT
  5
43B
  8
LAYER01
 62
     7
 10
1233.258736
 20
1062.013602
 30
0.0
  0
POINT
  5
43C
  8
LAYER01
 62
     7
 10
1233.258736
 20
933.68423100000007
 30
0.0
  0
ENDBLK
  5
43D
  8
0
  0
BLOCK
  8
0
  2
*D16
 70
     1
 10
0.0
 20
0.0
 30
0.0
  3
*D16
  1

  0
LINE
  5
440
  8
LAYER01
 62
     7
 10
1982.7439240000001
 20
1751.0838020000001
 30
0.0
 11
-17.256076
 21
1751.0838020000001
 31
0.0
  0
LINE
  5
441
  8
LAYER01
 62
     7
 10
1982.7439240000001
 20
1597.5667550000001
 30
0.0
 11
1982.7439240000001
 21
1766.0838020000001
 31
0.0
  0
LINE
  5
442
  8
LAYER01
 62
     7
 10
-17.256076
 20
1593.1341649999999
 30
0.0
 11
-17.256076
 21
1766.0838020000001
 31
0.0
  0
SOLID
  5
443
  8
LAYER01
 62
     7
 10
1958.7439240000001
 20
1755.0836420000001
 30
0.0
 11
1982.7439240000001
 21
1751.0838020000001
 31
0.0
 12
1958.7439240000001
 22
1747.0839619999999
 32
0.0
 13
1958.7439240000001
 23
1747.0839619999999
 33
0.0
  0
SOLID
  5
444
  8
LAYER01
 62
     7
 10
6.7439239999999998
 20
1755.0836420000001
 30
0.0
 11
-17.256076
 21
1751.0838020000001
 31
0.0
 12
6.7439239999999998
 22
1747.0839619999999
 32
0.0
 13
6.7439239999999998
 23
1747.0839619999999
 33
0.0
  0
TEXT
  5
445
  8
LAYER01
  6
CONTINUOUS
 62
     7
 10
935.24392399999999
 20
1766.0838020000001
 30
0.0
 40
30.0
  1
1200-2900
  0
POINT
  5
446
  8
LAYER01
 62
     7
 10
1982.7439240000001
 20
1585.5667550000001
 30
0.0
  0
POINT
  5
447
  8
LAYER01
 62
     7
 10
-17.256076
 20
1581.1341649999999
 30
0.0
  0
POINT
  5
448
  8
LAYER01
 62
     7
 10
-17.256076
 20
1751.0838020000001
 30
0.0
  0
ENDBLK
  5
449
  8
0
  0
BLOCK
  8
0
  2
*D17
 70
     1
 10
0.0
 20
0.0
 30
0.0
  3
*D17
  1

  0
LINE
  5
44C
  8
LAYER01
 62
     7
 10
483.30475599999988
 20
1665.5524780000001
 30
0.0
 11
1483.304756
 21
1665.5524780000001
 31
0.0
  0
LINE
  5
44D
  8
LAYER01
 62
     7
 10
483.30475599999988
 20
1593.1341649999999
 30
0.0
 11
483.30475599999988
 21
1680.5524780000001
 31
0.0
  0
LINE
  5
44E
  8
LAYER01
 62
     7
 10
1483.304756
 20
1593.1341649999999
 30
0.0
 11
1483.304756
 21
1680.5524780000001
 31
0.0
  0
SOLID
  5
44F
  8
LAYER01
 62
     7
 10
507.30475599999988
 20
1661.5526379999999
 30
0.0
 11
483.30475599999988
 21
1665.5524780000001
 31
0.0
 12
507.30475599999988
 22
1669.552318
 32
0.0
 13
507.30475599999988
 23
1669.552318
 33
0.0
  0
SOLID
  5
450
  8
LAYER01
 62
     7
 10
1459.304756
 20
1661.5526379999999
 30
0.0
 11
1483.304756
 21
1665.5524780000001
 31
0.0
 12
1459.304756
 22
1669.552318
 32
0.0
 13
1459.304756
 23
1669.552318
 33
0.0
  0
TEXT
  5
451
  8
LAYER01
  6
CONTINUOUS
 62
     7
 10
940.80475599999988
 20
1680.5524780000001
 30
0.0
 40
30.0
  1
600-1500
  0
POINT
  5
452
  8
LAYER01
 62
     7
 10
483.30475599999988
 20
1581.1341649999999
 30
0.0
  0
POINT
  5
453
  8
LAYER01
 62
     7
 10
1483.304756
 20
1581.1341649999999
 30
0.0
  0
POINT
  5
454
  8
LAYER01
 62
     7
 10
1483.304756
 20
1665.5524780000001
 30
0.0
  0
ENDBLK
  5
455
  8
0
  0
BLOCK
  8
0
  2
*D18
 70
     1
 10
0.0
 20
0.0
 30
0.0
  3
*D18
  1

  0
LINE
  5
458
  8
LAYER01
 62
     7
 10
-17.256076
 20
1665.5524780000001
 30
0.0
 11
483.30475599999988
 21
1665.5524780000001
 31
0.0
  0
LINE
  5
459
  8
LAYER01
 62
     7
 10
-17.256076
 20
1593.1341649999999
 30
0.0
 11
-17.256076
 21
1680.5524780000001
 31
0.0
  0
LINE
  5
45A
  8
LAYER01
 62
     7
 10
483.30475599999988
 20
1593.1341649999999
 30
0.0
 11
483.30475599999988
 21
1680.5524780000001
 31
0.0
  0
SOLID
  5
45B
  8
LAYER01
 62
     7
 10
6.7439239999999998
 20
1661.5526379999999
 30
0.0
 11
-17.256076
 21
1665.5524780000001
 31
0.0
 12
6.7439239999999998
 22
1669.552318
 32
0.0
 13
6.7439239999999998
 23
1669.552318
 33
0.0
  0
SOLID
  5
45C
  8
LAYER01
 62
     7
 10
459.30475599999988
 20
1661.5526379999999
 30
0.0
 11
483.30475599999988
 21
1665.5524780000001
 31
0.0
 12
459.30475599999988
 22
1669.552318
 32
0.0
 13
459.30475599999988
 23
1669.552318
 33
0.0
  0
TEXT
  5
45D
  8
LAYER01
  6
CONTINUOUS
 62
     7
 10
200.52434
 20
1680.5524780000001
 30
0.0
 40
30.0
  1
350-1500
  0
POINT
  5
45E
  8
LAYER01
 62
     7
 10
-17.256076
 20
1581.1341649999999
 30
0.0
  0
POINT
  5
45F
  8
LAYER01
 62
     7
 10
483.30475599999988
 20
1581.1341649999999
 30
0.0
  0
POINT
  5
460
  8
LAYER01
 62
     7
 10
483.30475599999988
 20
1665.5524780000001
 30
0.0
  0
ENDBLK
  5
461
  8
0
  0
BLOCK
  8
0
  2
*D19
 70
     1
 10
0.0
 20
0.0
 30
0.0
  3
*D19
  1

  0
LINE
  5
464
  8
LAYER01
 62
     7
 10
1483.304756
 20
1663.2745930000001
 30
0.0
 11
1982.7439240000001
 21
1663.2745930000001
 31
0.0
  0
LINE
  5
465
  8
LAYER01
 62
     7
 10
1483.304756
 20
1593.1341649999999
 30
0.0
 11
1483.304756
 21
1678.2745930000001
 31
0.0
  0
LINE
  5
466
  8
LAYER01
 62
     7
 10
1982.7439240000001
 20
1593.1341649999999
 30
0.0
 11
1982.7439240000001
 21
1678.2745930000001
 31
0.0
  0
SOLID
  5
467
  8
LAYER01
 62
     7
 10
1507.304756
 20
1659.2747529999999
 30
0.0
 11
1483.304756
 21
1663.2745930000001
 31
0.0
 12
1507.304756
 22
1667.274433
 32
0.0
 13
1507.304756
 23
1667.274433
 33
0.0
  0
SOLID
  5
468
  8
LAYER01
 62
     7
 10
1958.7439240000001
 20
1659.2747529999999
 30
0.0
 11
1982.7439240000001
 21
1663.2745930000001
 31
0.0
 12
1958.7439240000001
 22
1667.274433
 32
0.0
 13
1958.7439240000001
 23
1667.274433
 33
0.0
  0
TEXT
  5
469
  8
LAYER01
  6
CONTINUOUS
 62
     7
 10
1693.0243399999999
 20
1678.2745930000001
 30
0.0
 40
30.0
  1
350-1500
  0
POINT
  5
46A
  8
LAYER01
 62
     7
 10
1483.304756
 20
1581.1341649999999
 30
0.0
  0
POINT
  5
46B
  8
LAYER01
 62
     7
 10
1982.7439240000001
 20
1581.1341649999999
 30
0.0
  0
POINT
  5
46C
  8
LAYER01
 62
     7
 10
1982.7439240000001
 20
1663.2745930000001
 30
0.0
  0
ENDBLK
  5
46D
  8
0
  0
BLOCK
  8
0
  2
TRIGO-G22
 70
     0
 10
0.0
 20
0.0
 30
0.0
  3
TRIGO-G22
  1

  0
ENDBLK
  5
470
  8
0
  0
ENDSEC
  0
SECTION
  2
ENTITIES
  0
INSERT
  5
471
  8
LAYER01
  2
TRIGO-G1
 10
-3143.1873513316641
 20
-1526.1842559580939
 30
0.0
  0
POLYLINE
  5
472
  8
LAYER01
  6
CONTINUOUS
 62
     7
 66
     1
 10
0.0
 20
0.0
 30
0.0
 70
     1
  0
VERTEX
  5
129C
  8
LAYER01
  6
CONTINUOUS
 62
     7
 10
-386.057277
 20
-727.389546
 30
0.0
  0
VERTEX
  5
129D
  8
LAYER01
  6
CONTINUOUS
 62
     7
 10
-386.057277
 20
2030.286415
 30
0.0
  0
VERTEX
  5
129E
  8
LAYER01
  6
CONTINUOUS
 62
     7
 10
3583.783942
 20
2030.286415
 30
0.0
  0
VERTEX
  5
129F
  8
LAYER01
  6
CONTINUOUS
 62
     7
 10
3583.783942
 20
-727.389546
 30
0.0
  0
SEQEND
  5
12A0
  8
LAYER01
  6
CONTINUOUS
 62
     7
  0
DIMENSION
  5
478
  8
LAYER01
 62
     7
  2
*D1
 10
-221.659908
 20
615.31079699999987
 30
0.0
 11
-251.659908
 21
355.31079700000009
 31
0.0
 53
90.0
 13
-17.256076
 23
95.310796999999994
 33
0.0
 14
-17.256076
 24
615.31079699999987
 34
0.0
 50
90.0
  0
DIMENSION
  5
479
  8
LAYER01
 62
     7
  2
*D2
 10
-135.08176
 20
495.31079699999992
 30
0.0
 11
-165.08176
 21
295.31079700000009
 31
0.0
 53
90.0
 13
-17.256076
 23
95.310796999999994
 33
0.0
 14
-17.256076
 24
495.31079699999992
 34
0.0
 50
90.0
  0
POLYLINE
  5
47A
  8
0
  6
CONTINUOUS
 62
     7
 66
     1
 10
0.0
 20
0.0
 30
0.0
 70
     1
  0
VERTEX
  5
12A1
  8
0
  6
CONTINUOUS
 62
     7
 10
897.89418599999999
 20
-544.09723799999995
 30
0.0
  0
VERTEX
  5
12A2
  8
0
  6
CONTINUOUS
 62
     7
 10
897.89418599999999
 20
-530.09723799999995
 30
0.0
 42
-0.4142140000000001
  0
VERTEX
  5
12A3
  8
0
  6
CONTINUOUS
 62
     7
 10
891.89418599999999
 20
-524.09723799999995
 30
0.0
  0
VERTEX
  5
12A4
  8
0
  6
CONTINUOUS
 62
     7
 10
891.89418599999999
 20
-399.097238
 30
0.0
 42
0.4142140000000001
  0
VERTEX
  5
12A5
  8
0
  6
CONTINUOUS
 62
     7
 10
887.89418599999988
 20
-395.097238
 30
0.0
  0
VERTEX
  5
12A6
  8
0
  6
CONTINUOUS
 62
     7
 10
789.89418599999988
 20
-395.097238
 30
0.0
 42
-0.4142140000000001
  0
VERTEX
  5
12A7
  8
0
  6
CONTINUOUS
 62
     7
 10
783.89418599999999
 20
-389.097238
 30
0.0
  0
VERTEX
  5
12A8
  8
0
  6
CONTINUOUS
 62
     7
 10
783.89418599999999
 20
-365.097238
 30
0.0
  0
VERTEX
  5
12A9
  8
0
  6
CONTINUOUS
 62
     7
 10
771.89418599999999
 20
-365.097238
 30
0.0
  0
VERTEX
  5
12AA
  8
0
  6
CONTINUOUS
 62
     7
 10
771.89418599999999
 20
-407.09723799999989
 30
0.0
  0
VERTEX
  5
12AB
  8
0
  6
CONTINUOUS
 62
     7
 10
869.89418599999988
 20
-407.09723799999989
 30
0.0
 42
-0.4142140000000001
  0
VERTEX
  5
12AC
  8
0
  6
CONTINUOUS
 62
     7
 10
879.89418599999988
 20
-417.097238
 30
0.0
  0
VERTEX
  5
12AD
  8
0
  6
CONTINUOUS
 62
     7
 10
879.89418599999988
 20
-544.09723799999995
 30
0.0
  0
SEQEND
  5
12AE
  8
0
  6
CONTINUOUS
 62
     7
  0
POLYLINE
  5
489
  8
0
  6
CONTINUOUS
 62
     7
 66
     1
 10
0.0
 20
0.0
 30
0.0
 70
     1
  0
VERTEX
  5
12AF
  8
0
  6
CONTINUOUS
 62
     7
 10
771.89418599999999
 20
-407.09723799999989
 30
0.0
  0
VERTEX
  5
12B0
  8
0
  6
CONTINUOUS
 62
     7
 10
771.89418599999999
 20
-365.097238
 30
0.0
  0
VERTEX
  5
12B1
  8
0
  6
CONTINUOUS
 62
     7
 10
783.89418599999999
 20
-365.097238
 30
0.0
  0
VERTEX
  5
12B2
  8
0
  6
CONTINUOUS
 62
     7
 10
783.89418599999999
 20
-389.097238
 30
0.0
  0
VERTEX
  5
12B3
  8
0
  6
CONTINUOUS
 62
     7
 10
783.91268200000002
 20
-389.567992
 30
0.0
  0
VERTEX
  5
12B4
  8
0
  6
CONTINUOUS
 62
     7
 10
783.96805599999993
 20
-390.035844
 30
0.0
  0
VERTEX
  5
12B5
  8
0
  6
CONTINUOUS
 62
     7
 10
784.05996600000003
 20
-390.49790999999999
 30
0.0
  0
VERTEX
  5
12B6
  8
0
  6
CONTINUOUS
 62
     7
 10
784.18784699999992
 20
-390.95134000000002
 30
0.0
  0
VERTEX
  5
12B7
  8
0
  6
CONTINUOUS
 62
     7
 10
784.350908
 20
-391.39333800000003
 30
0.0
  0
VERTEX
  5
12B8
  8
0
  6
CONTINUOUS
 62
     7
 10
784.54814699999997
 20
-391.82118100000002
 30
0.0
  0
VERTEX
  5
12B9
  8
0
  6
CONTINUOUS
 62
     7
 10
784.77834499999994
 20
-392.23222900000002
 30
0.0
  0
VERTEX
  5
12BA
  8
0
  6
CONTINUOUS
 62
     7
 10
785.04008399999987
 20
-392.62394899999998
 30
0.0
  0
VERTEX
  5
12BB
  8
0
  6
CONTINUOUS
 62
     7
 10
785.33175000000006
 20
-392.99392599999999
 30
0.0
  0
VERTEX
  5
12BC
  8
0
  6
CONTINUOUS
 62
     7
 10
785.65154500000006
 20
-393.339878
 30
0.0
  0
VERTEX
  5
12BD
  8
0
  6
CONTINUOUS
 62
     7
 10
785.99749699999995
 20
-393.659673
 30
0.0
  0
VERTEX
  5
12BE
  8
0
  6
CONTINUOUS
 62
     7
 10
786.36747400000002
 20
-393.95134000000002
 30
0.0
  0
VERTEX
  5
12BF
  8
0
  6
CONTINUOUS
 62
     7
 10
786.75919400000009
 20
-394.21307899999999
 30
0.0
  0
VERTEX
  5
12C0
  8
0
  6
CONTINUOUS
 62
     7
 10
787.17024299999991
 20
-394.44327700000002
 30
0.0
  0
VERTEX
  5
12C1
  8
0
  6
CONTINUOUS
 62
     7
 10
787.59808499999986
 20
-394.64051499999999
 30
0.0
  0
VERTEX
  5
12C2
  8
0
  6
CONTINUOUS
 62
     7
 10
788.04008399999998
 20
-394.80357700000002
 30
0.0
  0
VERTEX
  5
12C3
  8
0
  6
CONTINUOUS
 62
     7
 10
788.49351300000001
 20
-394.93145700000002
 30
0.0
  0
VERTEX
  5
12C4
  8
0
  6
CONTINUOUS
 62
     7
 10
788.95557900000006
 20
-395.023368
 30
0.0
  0
VERTEX
  5
12C5
  8
0
  6
CONTINUOUS
 62
     7
 10
789.42343099999994
 20
-395.07874199999998
 30
0.0
  0
VERTEX
  5
12C6
  8
0
  6
CONTINUOUS
 62
     7
 10
789.89418599999988
 20
-395.097238
 30
0.0
  0
VERTEX
  5
12C7
  8
0
  6
CONTINUOUS
 62
     7
 10
887.89418599999988
 20
-395.097238
 30
0.0
  0
VERTEX
  5
12C8
  8
0
  6
CONTINUOUS
 62
     7
 10
888.20802200000003
 20
-395.10956800000002
 30
0.0
  0
VERTEX
  5
12C9
  8
0
  6
CONTINUOUS
 62
     7
 10
888.51992399999995
 20
-395.14648399999999
 30
0.0
  0
VERTEX
  5
12CA
  8
0
  6
CONTINUOUS
 62
     7
 10
888.82796699999994
 20
-395.20775800000001
 30
0.0
  0
VERTEX
  5
12CB
  8
0
  6
CONTINUOUS
 62
     7
 10
889.13025399999992
 20
-395.29301199999998
 30
0.0
  0
VERTEX
  5
12CC
  8
0
  6
CONTINUOUS
 62
     7
 10
889.42491900000005
 20
-395.40172000000001
 30
0.0
  0
VERTEX
  5
12CD
  8
0
  6
CONTINUOUS
 62
     7
 10
889.71014799999989
 20
-395.53321199999999
 30
0.0
  0
VERTEX
  5
12CE
  8
0
  6
CONTINUOUS
 62
     7
 10
889.98418000000004
 20
-395.68667699999997
 30
0.0
  0
VERTEX
  5
12CF
  8
0
  6
CONTINUOUS
 62
     7
 10
890.24532699999997
 20
-395.86117000000002
 30
0.0
  0
VERTEX
  5
12D0
  8
0
  6
CONTINUOUS
 62
     7
 10
890.49197799999979
 20
-396.05561399999999
 30
0.0
  0
VERTEX
  5
12D1
  8
0
  6
CONTINUOUS
 62
     7
 10
890.72261300000014
 20
-396.26881100000003
 30
0.0
  0
VERTEX
  5
12D2
  8
0
  6
CONTINUOUS
 62
     7
 10
890.93580999999995
 20
-396.49944499999998
 30
0.0
  0
VERTEX
  5
12D3
  8
0
  6
CONTINUOUS
 62
     7
 10
891.13025399999992
 20
-396.74609700000002
 30
0.0
  0
VERTEX
  5
12D4
  8
0
  6
CONTINUOUS
 62
     7
 10
891.30474600000014
 20
-397.00724300000002
 30
0.0
  0
VERTEX
  5
12D5
  8
0
  6
CONTINUOUS
 62
     7
 10
891.45821199999978
 20
-397.28127599999999
 30
0.0
  0
VERTEX
  5
12D6
  8
0
  6
CONTINUOUS
 62
     7
 10
891.58970399999987
 20
-397.56650400000001
 30
0.0
  0
VERTEX
  5
12D7
  8
0
  6
CONTINUOUS
 62
     7
 10
891.69841199999996
 20
-397.86117000000002
 30
0.0
  0
VERTEX
  5
12D8
  8
0
  6
CONTINUOUS
 62
     7
 10
891.78366499999993
 20
-398.163456
 30
0.0
  0
VERTEX
  5
12D9
  8
0
  6
CONTINUOUS
 62
     7
 10
891.84493900000007
 20
-398.47149999999999
 30
0.0
  0
VERTEX
  5
12DA
  8
0
  6
CONTINUOUS
 62
     7
 10
891.88185500000009
 20
-398.78340100000003
 30
0.0
  0
VERTEX
  5
12DB
  8
0
  6
CONTINUOUS
 62
     7
 10
891.89418599999999
 20
-399.097238
 30
0.0
  0
VERTEX
  5
12DC
  8
0
  6
CONTINUOUS
 62
     7
 10
891.89418599999999
 20
-524.09723799999995
 30
0.0
  0
VERTEX
  5
12DD
  8
0
  6
CONTINUOUS
 62
     7
 10
891.91268200000002
 20
-524.56799199999989
 30
0.0
  0
VERTEX
  5
12DE
  8
0
  6
CONTINUOUS
 62
     7
 10
891.96805600000005
 20
-525.035844
 30
0.0
  0
VERTEX
  5
12DF
  8
0
  6
CONTINUOUS
 62
     7
 10
892.05996600000003
 20
-525.49790999999993
 30
0.0
  0
VERTEX
  5
12E0
  8
0
  6
CONTINUOUS
 62
     7
 10
892.18784700000015
 20
-525.95134000000007
 30
0.0
  0
VERTEX
  5
12E1
  8
0
  6
CONTINUOUS
 62
     7
 10
892.350908
 20
-526.39333799999997
 30
0.0
  0
VERTEX
  5
12E2
  8
0
  6
CONTINUOUS
 62
     7
 10
892.54814700000009
 20
-526.82118099999991
 30
0.0
  0
VERTEX
  5
12E3
  8
0
  6
CONTINUOUS
 62
     7
 10
892.77834499999994
 20
-527.23222899999985
 30
0.0
  0
VERTEX
  5
12E4
  8
0
  6
CONTINUOUS
 62
     7
 10
893.04008399999998
 20
-527.62394900000004
 30
0.0
  0
VERTEX
  5
12E5
  8
0
  6
CONTINUOUS
 62
     7
 10
893.33175000000006
 20
-527.99392599999987
 30
0.0
  0
VERTEX
  5
12E6
  8
0
  6
CONTINUOUS
 62
     7
 10
893.65154499999994
 20
-528.33987799999989
 30
0.0
  0
VERTEX
  5
12E7
  8
0
  6
CONTINUOUS
 62
     7
 10
893.99749700000007
 20
-528.659673
 30
0.0
  0
VERTEX
  5
12E8
  8
0
  6
CONTINUOUS
 62
     7
 10
894.36747400000002
 20
-528.95133999999996
 30
0.0
  0
VERTEX
  5
12E9
  8
0
  6
CONTINUOUS
 62
     7
 10
894.75919399999998
 20
-529.21307899999988
 30
0.0
  0
VERTEX
  5
12EA
  8
0
  6
CONTINUOUS
 62
     7
 10
895.17024299999991
 20
-529.44327699999985
 30
0.0
  0
VERTEX
  5
12EB
  8
0
  6
CONTINUOUS
 62
     7
 10
895.59808499999986
 20
-529.64051500000005
 30
0.0
  0
VERTEX
  5
12EC
  8
0
  6
CONTINUOUS
 62
     7
 10
896.04008399999998
 20
-529.8035769999999
 30
0.0
  0
VERTEX
  5
12ED
  8
0
  6
CONTINUOUS
 62
     7
 10
896.49351300000001
 20
-529.93145699999991
 30
0.0
  0
VERTEX
  5
12EE
  8
0
  6
CONTINUOUS
 62
     7
 10
896.95557899999994
 20
-530.02336799999989
 30
0.0
  0
VERTEX
  5
12EF
  8
0
  6
CONTINUOUS
 62
     7
 10
897.42343099999994
 20
-530.07874200000003
 30
0.0
  0
VERTEX
  5
12F0
  8
0
  6
CONTINUOUS
 62
     7
 10
897.89418599999999
 20
-530.09723799999995
 30
0.0
  0
VERTEX
  5
12F1
  8
0
  6
CONTINUOUS
 62
     7
 10
897.89418599999999
 20
-544.09723799999995
 30
0.0
  0
VERTEX
  5
12F2
  8
0
  6
CONTINUOUS
 62
     7
 10
879.89418599999988
 20
-544.09723799999995
 30
0.0
  0
VERTEX
  5
12F3
  8
0
  6
CONTINUOUS
 62
     7
 10
879.89418599999988
 20
-417.097238
 30
0.0
  0
VERTEX
  5
12F4
  8
0
  6
CONTINUOUS
 62
     7
 10
879.86335899999995
 20
-416.31264699999991
 30
0.0
  0
VERTEX
  5
12F5
  8
0
  6
CONTINUOUS
 62
     7
 10
879.77106899999978
 20
-415.532893
 30
0.0
  0
VERTEX
  5
12F6
  8
0
  6
CONTINUOUS
 62
     7
 10
879.617885
 20
-414.76278400000001
 30
0.0
  0
VERTEX
  5
12F7
  8
0
  6
CONTINUOUS
 62
     7
 10
879.40475100000003
 20
-414.007068
 30
0.0
  0
VERTEX
  5
12F8
  8
0
  6
CONTINUOUS
 62
     7
 10
879.13298099999997
 20
-413.27040299999999
 30
0.0
  0
VERTEX
  5
12F9
  8
0
  6
CONTINUOUS
 62
     7
 10
878.80425100000002
 20
-412.55733299999991
 30
0.0
  0
VERTEX
  5
12FA
  8
0
  6
CONTINUOUS
 62
     7
 10
878.42058699999995
 20
-411.872252
 30
0.0
  0
VERTEX
  5
12FB
  8
0
  6
CONTINUOUS
 62
     7
 10
877.98435600000005
 20
-411.21938499999987
 30
0.0
  0
VERTEX
  5
12FC
  8
0
  6
CONTINUOUS
 62
     7
 10
877.49824499999988
 20
-410.602757
 30
0.0
  0
VERTEX
  5
12FD
  8
0
  6
CONTINUOUS
 62
     7
 10
876.96525299999996
 20
-410.02616999999998
 30
0.0
  0
VERTEX
  5
12FE
  8
0
  6
CONTINUOUS
 62
     7
 10
876.38866599999994
 20
-409.493178
 30
0.0
  0
VERTEX
  5
12FF
  8
0
  6
CONTINUOUS
 62
     7
 10
875.77203799999995
 20
-409.007068
 30
0.0
  0
VERTEX
  5
1300
  8
0
  6
CONTINUOUS
 62
     7
 10
875.11917100000005
 20
-408.57083599999987
 30
0.0
  0
VERTEX
  5
1301
  8
0
  6
CONTINUOUS
 62
     7
 10
874.43409099999997
 20
-408.18717199999998
 30
0.0
  0
VERTEX
  5
1302
  8
0
  6
CONTINUOUS
 62
     7
 10
873.72101999999995
 20
-407.85844199999991
 30
0.0
  0
VERTEX
  5
1303
  8
0
  6
CONTINUOUS
 62
     7
 10
872.98435600000005
 20
-407.58667200000002
 30
0.0
  0
VERTEX
  5
1304
  8
0
  6
CONTINUOUS
 62
     7
 10
872.22863900000004
 20
-407.373538
 30
0.0
  0
VERTEX
  5
1305
  8
0
  6
CONTINUOUS
 62
     7
 10
871.45853000000011
 20
-407.22035399999999
 30
0.0
  0
VERTEX
  5
1306
  8
0
  6
CONTINUOUS
 62
     7
 10
870.67877699999997
 20
-407.12806399999999
 30
0.0
  0
VERTEX
  5
1307
  8
0
  6
CONTINUOUS
 62
     7
 10
869.89418599999988
 20
-407.09723799999989
 30
0.0
  0
SEQEND
  5
1308
  8
0
  6
CONTINUOUS
 62
     7
  0
DIMENSION
  5
4E4
  8
LAYER01
 62
     7
  2
*D3
 10
677.22497899999996
 20
-486.16563300000001
 30
0.0
 11
647.22497899999985
 21
-440.6314349999999
 31
0.0
 53
90.0
 13
765.46270000000004
 23
-395.097238
 33
0.0
 14
765.46270000000004
 24
-486.16563300000001
 34
0.0
 50
90.0
  0
POLYLINE
  5
4E5
  8
0
  6
CONTINUOUS
 62
     7
 66
     1
 10
0.0
 20
0.0
 30
0.0
 70
     1
  0
VERTEX
  5
1309
  8
0
  6
CONTINUOUS
 62
     7
 10
943.89418599999988
 20
-544.09723799999995
 30
0.0
  0
VERTEX
  5
130A
  8
0
  6
CONTINUOUS
 62
     7
 10
943.89418599999988
 20
-535.09723799999995
 30
0.0
 42
0.4142140000000001
  0
VERTEX
  5
130B
  8
0
  6
CONTINUOUS
 62
     7
 10
933.89418599999999
 20
-525.09723799999995
 30
0.0
  0
VERTEX
  5
130C
  8
0
  6
CONTINUOUS
 62
     7
 10
920.89418599999988
 20
-525.09723799999995
 30
0.0
 42
-0.4142140000000001
  0
VERTEX
  5
130D
  8
0
  6
CONTINUOUS
 62
     7
 10
915.89418599999999
 20
-520.09723799999995
 30
0.0
  0
VERTEX
  5
130E
  8
0
  6
CONTINUOUS
 62
     7
 10
915.89418599999999
 20
-491.02279299999992
 30
0.0
 42
-0.345654
  0
VERTEX
  5
130F
  8
0
  6
CONTINUOUS
 62
     7
 10
919.70759600000008
 20
-486.16563300000001
 30
0.0
  0
VERTEX
  5
1310
  8
0
  6
CONTINUOUS
 62
     7
 10
1291.9512790000001
 20
-395.227576
 30
0.0
  0
VERTEX
  5
1311
  8
0
  6
CONTINUOUS
 62
     7
 10
1291.9512790000001
 20
-495.227576
 30
0.0
  0
VERTEX
  5
1312
  8
0
  6
CONTINUOUS
 62
     7
 10
1279.9512790000001
 20
-495.227576
 30
0.0
  0
VERTEX
  5
1313
  8
0
  6
CONTINUOUS
 62
     7
 10
1279.9512790000001
 20
-422.001397
 30
0.0
 42
0.487132
  0
VERTEX
  5
1314
  8
0
  6
CONTINUOUS
 62
     7
 10
1267.550915
 20
-412.29375800000003
 30
0.0
  0
VERTEX
  5
1315
  8
0
  6
CONTINUOUS
 62
     7
 10
962.48087100000009
 20
-487.72705500000001
 30
0.0
 42
0.344949
  0
VERTEX
  5
1316
  8
0
  6
CONTINUOUS
 62
     7
 10
954.88123499999995
 20
-497.43747000000002
 30
0.0
  0
VERTEX
  5
1317
  8
0
  6
CONTINUOUS
 62
     7
 10
954.89418599999988
 20
-544.09723799999995
 30
0.0
  0
SEQEND
  5
1318
  8
0
  6
CONTINUOUS
 62
     7
  0
POLYLINE
  5
4F6
  8
0
  6
CONTINUOUS
 62
     7
 66
     1
 10
0.0
 20
0.0
 30
0.0
 70
     1
  0
VERTEX
  5
1319
  8
0
  6
CONTINUOUS
 62
     7
 10
919.70759600000008
 20
-486.16563300000001
 30
0.0
  0
VERTEX
  5
131A
  8
0
  6
CONTINUOUS
 62
     7
 10
1291.9512790000001
 20
-395.227576
 30
0.0
  0
VERTEX
  5
131B
  8
0
  6
CONTINUOUS
 62
     7
 10
1291.9512790000001
 20
-495.227576
 30
0.0
  0
VERTEX
  5
131C
  8
0
  6
CONTINUOUS
 62
     7
 10
1279.9512790000001
 20
-495.227576
 30
0.0
  0
VERTEX
  5
131D
  8
0
  6
CONTINUOUS
 62
     7
 10
1279.9512790000001
 20
-422.001397
 30
0.0
  0
VERTEX
  5
131E
  8
0
  6
CONTINUOUS
 62
     7
 10
1279.9102109999999
 20
-421.09603899999991
 30
0.0
  0
VERTEX
  5
131F
  8
0
  6
CONTINUOUS
 62
     7
 10
1279.787345
 20
-420.19811600000003
 30
0.0
  0
VERTEX
  5
1320
  8
0
  6
CONTINUOUS
 62
     7
 10
1279.5836879999999
 20
-419.31500599999993
 30
0.0
  0
VERTEX
  5
1321
  8
0
  6
CONTINUOUS
 62
     7
 10
1279.300915
 20
-418.45395999999988
 30
0.0
  0
VERTEX
  5
1322
  8
0
  6
CONTINUOUS
 62
     7
 10
1278.9413480000001
 20
-417.622051
 30
0.0
  0
VERTEX
  5
1323
  8
0
  6
CONTINUOUS
 62
     7
 10
1278.50794
 20
-416.82611299999991
 30
0.0
  0
VERTEX
  5
1324
  8
0
  6
CONTINUOUS
 62
     7
 10
1278.00425
 20
-416.07268199999987
 30
0.0
  0
VERTEX
  5
1325
  8
0
  6
CONTINUOUS
 62
     7
 10
1277.4344169999999
 20
-415.36794800000001
 30
0.0
  0
VERTEX
  5
1326
  8
0
  6
CONTINUOUS
 62
     7
 10
1276.8031209999999
 20
-414.71769799999998
 30
0.0
  0
VERTEX
  5
1327
  8
0
  6
CONTINUOUS
 62
     7
 10
1276.115546
 20
-414.12727299999989
 30
0.0
  0
VERTEX
  5
1328
  8
0
  6
CONTINUOUS
 62
     7
 10
1275.37734
 20
-413.60152399999998
 30
0.0
  0
VERTEX
  5
1329
  8
0
  6
CONTINUOUS
 62
     7
 10
1274.594566
 20
-413.14476799999989
 30
0.0
  0
VERTEX
  5
132A
  8
0
  6
CONTINUOUS
 62
     7
 10
1273.773655
 20
-412.76075600000001
 30
0.0
  0
VERTEX
  5
132B
  8
0
  6
CONTINUOUS
 62
     7
 10
1272.9213480000001
 20
-412.45264400000002
 30
0.0
  0
VERTEX
  5
132C
  8
0
  6
CONTINUOUS
 62
     7
 10
1272.0446460000001
 20
-412.22296099999988
 30
0.0
  0
VERTEX
  5
132D
  8
0
  6
CONTINUOUS
 62
     7
 10
1271.15075
 20
-412.07359400000001
 30
0.0
  0
VERTEX
  5
132E
  8
0
  6
CONTINUOUS
 62
     7
 10
1270.2470020000001
 20
-412.00577099999998
 30
0.0
  0
VERTEX
  5
132F
  8
0
  6
CONTINUOUS
 62
     7
 10
1269.340825
 20
-412.02004699999998
 30
0.0
  0
VERTEX
  5
1330
  8
0
  6
CONTINUOUS
 62
     7
 10
1268.439662
 20
-412.11630699999989
 30
0.0
  0
VERTEX
  5
1331
  8
0
  6
CONTINUOUS
 62
     7
 10
1267.550915
 20
-412.29375800000003
 30
0.0
  0
VERTEX
  5
1332
  8
0
  6
CONTINUOUS
 62
     7
 10
962.48087100000009
 20
-487.72705500000001
 30
0.0
  0
VERTEX
  5
1333
  8
0
  6
CONTINUOUS
 62
     7
 10
961.84172699999999
 20
-487.90781699999991
 30
0.0
  0
VERTEX
  5
1334
  8
0
  6
CONTINUOUS
 62
     7
 10
961.21599300000003
 20
-488.13060899999988
 30
0.0
  0
VERTEX
  5
1335
  8
0
  6
CONTINUOUS
 62
     7
 10
960.60642999999993
 20
-488.39444800000012
 30
0.0
  0
VERTEX
  5
1336
  8
0
  6
CONTINUOUS
 62
     7
 10
960.01572599999986
 20
-488.698172
 30
0.0
  0
VERTEX
  5
1337
  8
0
  6
CONTINUOUS
 62
     7
 10
959.44648800000004
 20
-489.04043899999988
 30
0.0
  0
VERTEX
  5
1338
  8
0
  6
CONTINUOUS
 62
     7
 10
958.90122599999995
 20
-489.41973999999999
 30
0.0
  0
VERTEX
  5
1339
  8
0
  6
CONTINUOUS
 62
     7
 10
958.38234699999998
 20
-489.8344009999999
 30
0.0
  0
VERTEX
  5
133A
  8
0
  6
CONTINUOUS
 62
     7
 10
957.89214000000004
 20
-490.28259299999991
 30
0.0
  0
VERTEX
  5
133B
  8
0
  6
CONTINUOUS
 62
     7
 10
957.4327679999999
 20
-490.762338
 30
0.0
  0
VERTEX
  5
133C
  8
0
  6
CONTINUOUS
 62
     7
 10
957.00625600000001
 20
-491.27152099999989
 30
0.0
  0
VERTEX
  5
133D
  8
0
  6
CONTINUOUS
 62
     7
 10
956.61448700000005
 20
-491.80789399999998
 30
0.0
  0
VERTEX
  5
133E
  8
0
  6
CONTINUOUS
 62
     7
 10
956.25918900000011
 20
-492.36909100000003
 30
0.0
  0
VERTEX
  5
133F
  8
0
  6
CONTINUOUS
 62
     7
 10
955.94192999999996
 20
-492.95263699999998
 30
0.0
  0
VERTEX
  5
1340
  8
0
  6
CONTINUOUS
 62
     7
 10
955.66411000000005
 20
-493.55595699999998
 30
0.0
  0
VERTEX
  5
1341
  8
0
  6
CONTINUOUS
 62
     7
 10
955.42695299999991
 20
-494.17638899999992
 30
0.0
  0
VERTEX
  5
1342
  8
0
  6
CONTINUOUS
 62
     7
 10
955.23150699999997
 20
-494.811196
 30
0.0
  0
VERTEX
  5
1343
  8
0
  6
CONTINUOUS
 62
     7
 10
955.07863299999985
 20
-495.4575769999999
 30
0.0
  0
VERTEX
  5
1344
  8
0
  6
CONTINUOUS
 62
     7
 10
954.96900600000015
 20
-496.1126809999999
 30
0.0
  0
VERTEX
  5
1345
  8
0
  6
CONTINUOUS
 62
     7
 10
954.90310999999997
 20
-496.773617
 30
0.0
  0
VERTEX
  5
1346
  8
0
  6
CONTINUOUS
 62
     7
 10
954.88123499999995
 20
-497.43747000000002
 30
0.0
  0
VERTEX
  5
1347
  8
0
  6
CONTINUOUS
 62
     7
 10
954.89418599999988
 20
-544.09723799999995
 30
0.0
  0
VERTEX
  5
1348
  8
0
  6
CONTINUOUS
 62
     7
 10
943.89418599999988
 20
-544.09723799999995
 30
0.0
  0
VERTEX
  5
1349
  8
0
  6
CONTINUOUS
 62
     7
 10
943.89418599999988
 20
-535.09723799999995
 30
0.0
  0
VERTEX
  5
134A
  8
0
  6
CONTINUOUS
 62
     7
 10
943.86335899999995
 20
-534.31264699999986
 30
0.0
  0
VERTEX
  5
134B
  8
0
  6
CONTINUOUS
 62
     7
 10
943.7710689999999
 20
-533.53289299999994
 30
0.0
  0
VERTEX
  5
134C
  8
0
  6
CONTINUOUS
 62
     7
 10
943.61788500000011
 20
-532.7627839999999
 30
0.0
  0
VERTEX
  5
134D
  8
0
  6
CONTINUOUS
 62
     7
 10
943.40475100000003
 20
-532.00706799999989
 30
0.0
  0
VERTEX
  5
134E
  8
0
  6
CONTINUOUS
 62
     7
 10
943.13298100000009
 20
-531.27040299999987
 30
0.0
  0
VERTEX
  5
134F
  8
0
  6
CONTINUOUS
 62
     7
 10
942.80425100000002
 20
-530.55733299999986
 30
0.0
  0
VERTEX
  5
1350
  8
0
  6
CONTINUOUS
 62
     7
 10
942.42058699999995
 20
-529.872252
 30
0.0
  0
VERTEX
  5
1351
  8
0
  6
CONTINUOUS
 62
     7
 10
941.98435600000005
 20
-529.21938499999999
 30
0.0
  0
VERTEX
  5
1352
  8
0
  6
CONTINUOUS
 62
     7
 10
941.49824499999977
 20
-528.60275699999988
 30
0.0
  0
VERTEX
  5
1353
  8
0
  6
CONTINUOUS
 62
     7
 10
940.96525299999996
 20
-528.02616999999987
 30
0.0
  0
VERTEX
  5
1354
  8
0
  6
CONTINUOUS
 62
     7
 10
940.38866600000006
 20
-527.49317800000006
 30
0.0
  0
VERTEX
  5
1355
  8
0
  6
CONTINUOUS
 62
     7
 10
939.77203799999995
 20
-527.00706799999989
 30
0.0
  0
VERTEX
  5
1356
  8
0
  6
CONTINUOUS
 62
     7
 10
939.11917100000005
 20
-526.57083599999987
 30
0.0
  0
VERTEX
  5
1357
  8
0
  6
CONTINUOUS
 62
     7
 10
938.43409099999997
 20
-526.18717199999992
 30
0.0
  0
VERTEX
  5
1358
  8
0
  6
CONTINUOUS
 62
     7
 10
937.72101999999995
 20
-525.85844199999997
 30
0.0
  0
VERTEX
  5
1359
  8
0
  6
CONTINUOUS
 62
     7
 10
936.98435600000005
 20
-525.58667200000002
 30
0.0
  0
VERTEX
  5
135A
  8
0
  6
CONTINUOUS
 62
     7
 10
936.22863900000004
 20
-525.37353799999994
 30
0.0
  0
VERTEX
  5
135B
  8
0
  6
CONTINUOUS
 62
     7
 10
935.45853000000011
 20
-525.22035400000004
 30
0.0
  0
VERTEX
  5
135C
  8
0
  6
CONTINUOUS
 62
     7
 10
934.67877699999997
 20
-525.12806399999999
 30
0.0
  0
VERTEX
  5
135D
  8
0
  6
CONTINUOUS
 62
     7
 10
933.89418599999999
 20
-525.09723799999995
 30
0.0
  0
VERTEX
  5
135E
  8
0
  6
CONTINUOUS
 62
     7
 10
920.89418599999988
 20
-525.09723799999995
 30
0.0
  0
VERTEX
  5
135F
  8
0
  6
CONTINUOUS
 62
     7
 10
920.50189
 20
-525.08182399999998
 30
0.0
  0
VERTEX
  5
1360
  8
0
  6
CONTINUOUS
 62
     7
 10
920.11201300000005
 20
-525.03567899999985
 30
0.0
  0
VERTEX
  5
1361
  8
0
  6
CONTINUOUS
 62
     7
 10
919.72695899999985
 20
-524.95908699999995
 30
0.0
  0
VERTEX
  5
1362
  8
0
  6
CONTINUOUS
 62
     7
 10
919.34910100000002
 20
-524.85252000000003
 30
0.0
  0
VERTEX
  5
1363
  8
0
  6
CONTINUOUS
 62
     7
 10
918.98076899999978
 20
-524.71663499999988
 30
0.0
  0
VERTEX
  5
1364
  8
0
  6
CONTINUOUS
 62
     7
 10
918.624233
 20
-524.55227000000002
 30
0.0
  0
VERTEX
  5
1365
  8
0
  6
CONTINUOUS
 62
     7
 10
918.2816929999999
 20
-524.36043800000004
 30
0.0
  0
VERTEX
  5
1366
  8
0
  6
CONTINUOUS
 62
     7
 10
917.95525899999996
 20
-524.14232300000003
 30
0.0
  0
VERTEX
  5
1367
  8
0
  6
CONTINUOUS
 62
     7
 10
917.64694499999985
 20
-523.89926700000001
 30
0.0
  0
VERTEX
  5
1368
  8
0
  6
CONTINUOUS
 62
     7
 10
917.35865200000001
 20
-523.63277199999993
 30
0.0
  0
VERTEX
  5
1369
  8
0
  6
CONTINUOUS
 62
     7
 10
917.09215600000005
 20
-523.34447799999998
 30
0.0
  0
VERTEX
  5
136A
  8
0
  6
CONTINUOUS
 62
     7
 10
916.84910100000002
 20
-523.03616399999987
 30
0.0
  0
VERTEX
  5
136B
  8
0
  6
CONTINUOUS
 62
     7
 10
916.63098500000012
 20
-522.70973000000004
 30
0.0
  0
VERTEX
  5
136C
  8
0
  6
CONTINUOUS
 62
     7
 10
916.43915299999992
 20
-522.36719000000005
 30
0.0
  0
VERTEX
  5
136D
  8
0
  6
CONTINUOUS
 62
     7
 10
916.27478800000006
 20
-522.01065499999993
 30
0.0
  0
VERTEX
  5
136E
  8
0
  6
CONTINUOUS
 62
     7
 10
916.1389029999998
 20
-521.64232300000003
 30
0.0
  0
VERTEX
  5
136F
  8
0
  6
CONTINUOUS
 62
     7
 10
916.03233599999987
 20
-521.26446399999986
 30
0.0
  0
VERTEX
  5
1370
  8
0
  6
CONTINUOUS
 62
     7
 10
915.95574399999998
 20
-520.87941000000001
 30
0.0
  0
VERTEX
  5
1371
  8
0
  6
CONTINUOUS
 62
     7
 10
915.90959899999996
 20
-520.48953300000005
 30
0.0
  0
VERTEX
  5
1372
  8
0
  6
CONTINUOUS
 62
     7
 10
915.89418599999999
 20
-520.09723799999995
 30
0.0
  0
VERTEX
  5
1373
  8
0
  6
CONTINUOUS
 62
     7
 10
915.89418599999999
 20
-491.02279299999992
 30
0.0
  0
VERTEX
  5
1374
  8
0
  6
CONTINUOUS
 62
     7
 10
915.90525700000001
 20
-490.6902399999999
 30
0.0
  0
VERTEX
  5
1375
  8
0
  6
CONTINUOUS
 62
     7
 10
915.93842200000006
 20
-490.35916099999997
 30
0.0
  0
VERTEX
  5
1376
  8
0
  6
CONTINUOUS
 62
     7
 10
915.99353399999995
 20
-490.0310199999999
 30
0.0
  0
VERTEX
  5
1377
  8
0
  6
CONTINUOUS
 62
     7
 10
916.07034900000008
 20
-489.70727099999988
 30
0.0
  0
VERTEX
  5
1378
  8
0
  6
CONTINUOUS
 62
     7
 10
916.16852599999982
 20
-489.38934799999998
 30
0.0
  0
VERTEX
  5
1379
  8
0
  6
CONTINUOUS
 62
     7
 10
916.28763099999992
 20
-489.0786589999999
 30
0.0
  0
VERTEX
  5
137A
  8
0
  6
CONTINUOUS
 62
     7
 10
916.42713599999979
 20
-488.77657999999991
 30
0.0
  0
VERTEX
  5
137B
  8
0
  6
CONTINUOUS
 62
     7
 10
916.58642400000008
 20
-488.48444799999999
 30
0.0
  0
VERTEX
  5
137C
  8
0
  6
CONTINUOUS
 62
     7
 10
916.76478900000006
 20
-488.20355799999999
 30
0.0
  0
VERTEX
  5
137D
  8
0
  6
CONTINUOUS
 62
     7
 10
916.96144200000003
 20
-487.9351519999999
 30
0.0
  0
VERTEX
  5
137E
  8
0
  6
CONTINUOUS
 62
     7
 10
917.1755099999998
 20
-487.68042000000003
 30
0.0
  0
VERTEX
  5
137F
  8
0
  6
CONTINUOUS
 62
     7
 10
917.40604699999994
 20
-487.44049000000001
 30
0.0
  0
VERTEX
  5
1380
  8
0
  6
CONTINUOUS
 62
     7
 10
917.65203200000008
 20
-487.2164249999999
 30
0.0
  0
VERTEX
  5
1381
  8
0
  6
CONTINUOUS
 62
     7
 10
917.91237399999989
 20
-487.00921599999998
 30
0.0
  0
VERTEX
  5
1382
  8
0
  6
CONTINUOUS
 62
     7
 10
918.18592100000001
 20
-486.81978099999992
 30
0.0
  0
VERTEX
  5
1383
  8
0
  6
CONTINUOUS
 62
     7
 10
918.47146299999997
 20
-486.64895999999999
 30
0.0
  0
VERTEX
  5
1384
  8
0
  6
CONTINUOUS
 62
     7
 10
918.76773299999991
 20
-486.49750799999993
 30
0.0
  0
VERTEX
  5
1385
  8
0
  6
CONTINUOUS
 62
     7
 10
919.07341999999994
 20
-486.36609699999991
 30
0.0
  0
VERTEX
  5
1386
  8
0
  6
CONTINUOUS
 62
     7
 10
919.38717100000008
 20
-486.25530800000001
 30
0.0
  0
SEQEND
  5
1387
  8
0
  6
CONTINUOUS
 62
     7
  0
DIMENSION
  5
566
  8
LAYER01
 62
     7
  2
*D4
 10
1368.134879
 20
-495.227576
 30
0.0
 11
1338.134879
 21
-445.227576
 31
0.0
 53
90.0
 13
1291.9512790000001
 23
-395.227576
 33
0.0
 14
1291.9512790000001
 24
-495.227576
 34
0.0
 50
90.0
  0
LINE
  5
567
  8
0
  6
CONTINUOUS
 62
     7
 10
897.89418599999999
 20
-544.09723799999995
 30
0.0
 11
943.89418599999988
 21
-544.09723799999995
 31
0.0
  0
LINE
  5
569
  8
LAYER01
  6
CONTINUOUS
 62
     5
 10
1268.3353420000001
 20
-495.227576
 30
0.0
 11
973.34839099999999
 21
-495.227576
 31
0.0
  0
LINE
  5
56A
  8
0
  6
CONTINUOUS
 62
     7
 10
888.51992399999995
 20
-395.14648399999999
 30
0.0
 11
1291.9512790000001
 21
-395.227576
 31
0.0
  0
DIMENSION
  5
56B
  8
LAYER01
 62
     7
  2
*D5
 10
736.28763600000002
 20
-395.097238
 30
0.0
 11
706.28763600000002
 21
-279.597238
 31
0.0
 53
90.0
 13
765.46270000000004
 23
-365.097238
 33
0.0
 14
765.46270000000004
 24
-395.097238
 34
0.0
 50
90.0
  0
DIMENSION
  5
56C
  8
LAYER01
 62
     7
  2
*D6
 10
-221.659908
 20
1581.1341649999999
 30
0.0
 11
-251.659908
 21
1321.1341649999999
 31
0.0
 53
90.0
 13
-17.256076
 23
1061.1341649999999
 33
0.0
 14
-17.256076
 24
1581.1341649999999
 34
0.0
 50
90.0
  0
DIMENSION
  5
56D
  8
LAYER01
 62
     7
  2
*D7
 10
-135.08176
 20
1461.1341649999999
 30
0.0
 11
-165.08176
 21
1261.1341649999999
 31
0.0
 53
90.0
 13
-17.256076
 23
1061.1341649999999
 33
0.0
 14
-17.256076
 24
1461.1341649999999
 34
0.0
 50
90.0
  0
INSERT
  5
56E
  8
LAYER01
  2
TRIGO-G10
 10
0.0
 20
0.0
 30
0.0
  0
TEXT
  5
56F
  8
LAYER01
  6
STRICHPUNKTIERT
 62
     7
 10
2197.3133330000001
 20
-100.565921
 30
0.0
 40
60.0
  1
http://www.varicor.org
  0
TEXT
  5
570
  8
LAYER01
  6
VERDECKT
 62
     1
 10
2934.3935550000001
 20
-409.51439900000003
 30
0.0
 40
32.5
  1
A. Sprenger GmbH
  7
SIMPLEX
  0
TEXT
  5
571
  8
LAYER01
  6
CONTINUOUS
 62
     7
 10
2923.8503519999999
 20
-208.24623
 30
0.0
 40
9.75
  1
Diese Zeichnung ist geistiges Eigentum der A. Sprenger GmbH
  7
SIMPLEX
  0
TEXT
  5
572
  8
LAYER01
  6
CONTINUOUS
 62
     7
 10
2923.8503519999999
 20
-224.96051600000001
 30
0.0
 40
9.75
  1
und urheberrechtlich geschützt. Ohne unsere Zustimmung darf 
  7
SIMPLEX
  0
TEXT
  5
573
  8
LAYER01
  6
CONTINUOUS
 62
     7
 10
2923.8503519999999
 20
-241.674802
 30
0.0
 40
9.75
  1
sie in keiner Form verwendet oder Dritten zugänglich gemacht
  7
SIMPLEX
  0
TEXT
  5
574
  8
LAYER01
  6
CONTINUOUS
 62
     7
 10
2923.8503519999999
 20
-258.38908700000002
 30
0.0
 40
9.75
  1
werden. (§106 Urheberrecht)
  7
SIMPLEX
  0
TEXT
  5
575
  8
LAYER01
  6
VERDECKT
 62
     1
 10
2934.3935550000001
 20
-537.15214900000001
 30
0.0
 40
45.499999999999993
  1
Trigo
  7
SIMPLEX
  0
TEXT
  5
576
  8
LAYER01
  6
VERDECKT
 62
     1
 10
2633.2276729999999
 20
-484.76463699999988
 30
0.0
 40
13.0
  1
Jan. 2015
  7
SIMPLEX
  0
TEXT
  5
577
  8
LAYER01
  6
VERDECKT
 62
     1
 10
2758.231976
 20
-484.8121349999999
 30
0.0
 40
13.0
  1
b.s.
  7
SIMPLEX
  0
TEXT
  5
579
  8
LAYER01
  6
VERDECKT
 62
     1
 10
3020.1204010000001
 20
-325.69259399999999
 30
0.0
 40
13.0
  1
1 : 10 (DIN A3)
  7
SIMPLEX
  0
TEXT
  5
57A
  8
LAYER01
  6
VERDECKT
 62
     1
 10
3355.1675730000002
 20
-325.69259399999999
 30
0.0
 40
13.0
  1
trigo.skd
  7
SIMPLEX
  0
POLYLINE
  5
57B
  8
0
  6
CONTINUOUS
 62
     7
 66
     1
 10
0.0
 20
0.0
 30
0.0
 70
     1
  0
VERTEX
  5
1388
  8
0
  6
CONTINUOUS
 62
     7
 10
1733.258736
 20
1462.013602
 30
0.0
  0
VERTEX
  5
1389
  8
0
  6
CONTINUOUS
 62
     7
 10
1233.258736
 20
1462.013602
 30
0.0
  0
VERTEX
  5
138A
  8
0
  6
CONTINUOUS
 62
     7
 10
1233.258736
 20
1062.013602
 30
0.0
  0
VERTEX
  5
138B
  8
0
  6
CONTINUOUS
 62
     7
 10
1733.258736
 20
1062.013602
 30
0.0
  0
SEQEND
  5
138C
  8
0
  6
CONTINUOUS
 62
     7
  0
POLYLINE
  5
581
  8
0
  6
CONTINUOUS
 62
     7
 66
     1
 10
0.0
 20
0.0
 30
0.0
 70
     1
  0
VERTEX
  5
138D
  8
0
  6
CONTINUOUS
 62
     7
 10
733.25873599999989
 20
1462.013602
 30
0.0
  0
VERTEX
  5
138E
  8
0
  6
CONTINUOUS
 62
     7
 10
233.258736
 20
1462.013602
 30
0.0
  0
VERTEX
  5
138F
  8
0
  6
CONTINUOUS
 62
     7
 10
233.258736
 20
1062.013602
 30
0.0
  0
VERTEX
  5
1390
  8
0
  6
CONTINUOUS
 62
     7
 10
733.25873599999989
 20
1062.013602
 30
0.0
  0
SEQEND
  5
1391
  8
0
  6
CONTINUOUS
 62
     7
  0
LINE
  5
587
  8
LAYER01
  6
CONTINUOUS
 62
     7
 10
-17.256076
 20
1061.1341649999999
 30
0.0
 11
-17.256076
 21
1581.1341649999999
 31
0.0
  0
LINE
  5
588
  8
LAYER01
  6
CONTINUOUS
 62
     7
 10
483.30475599999988
 20
1541.5435660000001
 30
0.0
 11
483.30475599999988
 21
1405.0440619999999
 31
0.0
  0
LINE
  5
589
  8
LAYER01
  6
CONTINUOUS
 62
     7
 10
1483.304756
 20
1541.5435660000001
 30
0.0
 11
1483.304756
 21
1405.0440619999999
 31
0.0
  0
LINE
  5
58A
  8
LAYER01
  6
CONTINUOUS
 62
     7
 10
1982.7439240000001
 20
1061.1341649999999
 30
0.0
 11
1982.7439240000001
 21
1581.1341649999999
 31
0.0
  0
LINE
  5
58B
  8
LAYER01
  6
VERDECKT
 62
     7
 10
-17.256076
 20
107.31079699999999
 30
0.0
 11
1982.7439240000001
 21
107.31079699999999
 31
0.0
  0
LINE
  5
58C
  8
LAYER01
  6
CONTINUOUS
 62
     7
 10
-17.256076
 20
95.310796999999994
 30
0.0
 11
1982.7439240000001
 21
95.310796999999994
 31
0.0
  0
LINE
  5
58D
  8
LAYER01
  6
CONTINUOUS
 62
     7
 10
-17.256076
 20
615.31079699999987
 30
0.0
 11
1982.7439240000001
 21
615.31079699999987
 31
0.0
  0
LINE
  5
58E
  8
LAYER01
  6
CONTINUOUS
 62
     7
 10
-17.256076
 20
603.31079699999987
 30
0.0
 11
1982.7439240000001
 21
603.31079699999987
 31
0.0
  0
DIMENSION
  5
58F
  8
LAYER01
 62
     7
  2
*D10
 10
-17.256076
 20
785.26043400000003
 30
0.0
 11
1037.7439240000001
 21
815.26043399999992
 31
0.0
 13
1982.7439240000001
 23
619.74338699999998
 33
0.0
 14
-17.256076
 24
615.31079699999987
 34
0.0
  0
LINE
  5
590
  8
LAYER01
  6
VERDECKT
 62
     7
 10
-17.256076
 20
1073.1341649999999
 30
0.0
 11
1982.7439240000001
 21
1073.1341649999999
 31
0.0
  0
LINE
  5
591
  8
LAYER01
  6
CONTINUOUS
 62
     7
 10
-17.256076
 20
1061.1341649999999
 30
0.0
 11
1982.7439240000001
 21
1061.1341649999999
 31
0.0
  0
POLYLINE
  5
592
  8
0
  6
CONTINUOUS
 62
     7
 66
     1
 10
0.0
 20
0.0
 30
0.0
 70
     1
  0
VERTEX
  5
1392
  8
0
  6
CONTINUOUS
 62
     7
 10
1233.258736
 20
496.19023399999992
 30
0.0
  0
VERTEX
  5
1393
  8
0
  6
CONTINUOUS
 62
     7
 10
733.25873599999989
 20
496.19023399999992
 30
0.0
  0
VERTEX
  5
1394
  8
0
  6
CONTINUOUS
 62
     7
 10
733.25873599999989
 20
96.190234000000004
 30
0.0
  0
VERTEX
  5
1395
  8
0
  6
CONTINUOUS
 62
     7
 10
1233.258736
 20
96.190234000000004
 30
0.0
  0
SEQEND
  5
1396
  8
0
  6
CONTINUOUS
 62
     7
  0
DIMENSION
  5
598
  8
LAYER01
 62
     7
  2
*D11
 10
733.25873599999989
 20
-32.139136999999998
 30
0.0
 11
983.25873599999989
 21
-2.139136999999999
 31
0.0
 13
1233.258736
 23
96.190234000000004
 33
0.0
 14
733.25873599999989
 24
96.190234000000004
 34
0.0
  0
LINE
  5
599
  8
0
  6
CONTINUOUS
 62
     7
 10
733.2639079999999
 20
471.16485899999998
 30
0.0
 11
1233.253784
 21
471.16485899999998
 31
0.0
  0
LINE
  5
59A
  8
LAYER01
  6
CONTINUOUS
 62
     7
 10
931.40363300000001
 20
544.98018699999989
 30
0.0
 11
1040.2502199999999
 21
544.98018699999989
 31
0.0
  0
CIRCLE
  5
59B
  8
0
  6
CONTINUOUS
 62
     7
 10
983.304756
 20
544.98018699999989
 30
0.0
 40
17.5
  0
POLYLINE
  5
59C
  8
0
  6
CONTINUOUS
 62
     7
 66
     1
 10
0.0
 20
0.0
 30
0.0
 70
     1
  0
VERTEX
  5
1397
  8
0
  6
CONTINUOUS
 62
     7
 10
998.35291600000005
 20
477.11165599999998
 30
0.0
 42
-0.4593930000000001
  0
VERTEX
  5
1398
  8
0
  6
CONTINUOUS
 62
     7
 10
998.37177499999996
 20
471.099469
 30
0.0
  0
VERTEX
  5
1399
  8
0
  6
CONTINUOUS
 62
     7
 10
968.37177499999984
 20
471.099469
 30
0.0
 42
-0.394721
  0
VERTEX
  5
139A
  8
0
  6
CONTINUOUS
 62
     7
 10
968.35291600000005
 20
477.11165599999998
 30
0.0
 42
-0.4
  0
SEQEND
  5
139B
  8
0
  6
CONTINUOUS
 62
     7
  0
DIMENSION
  5
5A2
  8
LAYER01
 62
     7
  2
*D12
 10
983.304756
 20
697.45122500000002
 30
0.0
 11
1545.5243399999999
 21
727.45122500000002
 31
0.0
 13
1982.7439240000001
 23
619.74338699999998
 33
0.0
 14
983.304756
 24
619.74338699999998
 34
0.0
  0
DIMENSION
  5
5A3
  8
LAYER01
 62
     7
  2
*D13
 10
-17.256076
 20
697.45122500000002
 30
0.0
 11
545.52434000000005
 21
727.45122500000002
 31
0.0
 13
983.304756
 23
619.74338699999998
 33
0.0
 14
-17.256076
 24
619.74338699999998
 34
0.0
  0
LINE
  5
5A4
  8
LAYER01
  6
CONTINUOUS
 62
     7
 10
-17.256076
 20
95.310796999999994
 30
0.0
 11
-17.256076
 21
615.31079699999987
 31
0.0
  0
LINE
  5
5A5
  8
LAYER01
  6
CONTINUOUS
 62
     7
 10
983.304756
 20
575.7201980000001
 30
0.0
 11
983.304756
 21
439.22069499999998
 31
0.0
  0
DIMENSION
  5
5A6
  8
LAYER01
 62
     7
  2
*D14
 10
233.258736
 20
933.68423100000007
 30
0.0
 11
483.258736
 21
963.68423099999995
 31
0.0
 13
733.25873599999989
 23
1062.013602
 33
0.0
 14
233.258736
 24
1062.013602
 34
0.0
  0
LINE
  5
5A7
  8
LAYER01
  6
CONTINUOUS
 62
     7
 10
1982.7439240000001
 20
95.310796999999994
 30
0.0
 11
1982.7439240000001
 21
615.31079699999987
 31
0.0
  0
DIMENSION
  5
5A8
  8
LAYER01
 62
     7
  2
*D15
 10
1233.258736
 20
933.68423100000007
 30
0.0
 11
1483.258736
 21
963.68423099999995
 31
0.0
 13
1733.258736
 23
1062.013602
 33
0.0
 14
1233.258736
 24
1062.013602
 34
0.0
  0
LINE
  5
5A9
  8
LAYER01
  6
CONTINUOUS
 62
     7
 10
-17.256076
 20
1581.1341649999999
 30
0.0
 11
1982.7439240000001
 21
1581.1341649999999
 31
0.0
  0
LINE
  5
5AA
  8
LAYER01
  6
CONTINUOUS
 62
     7
 10
-17.256076
 20
1569.1341649999999
 30
0.0
 11
1982.7439240000001
 21
1569.1341649999999
 31
0.0
  0
DIMENSION
  5
5AB
  8
LAYER01
 62
     7
  2
*D16
 10
-17.256076
 20
1751.0838020000001
 30
0.0
 11
1050.2439240000001
 21
1781.0838020000001
 31
0.0
 13
1982.7439240000001
 23
1585.5667550000001
 33
0.0
 14
-17.256076
 24
1581.1341649999999
 34
0.0
  0
DIMENSION
  5
5AC
  8
LAYER01
 62
     7
  2
*D17
 10
1483.304756
 20
1665.5524780000001
 30
0.0
 11
1040.804756
 21
1695.5524780000001
 31
0.0
 13
483.30475599999988
 23
1581.1341649999999
 33
0.0
 14
1483.304756
 24
1581.1341649999999
 34
0.0
  0
LINE
  5
5AD
  8
0
  6
CONTINUOUS
 62
     7
 10
233.26390799999999
 20
1436.9882270000001
 30
0.0
 11
733.253784
 21
1436.9882270000001
 31
0.0
  0
LINE
  5
5AE
  8
LAYER01
  6
CONTINUOUS
 62
     7
 10
431.40363300000001
 20
1510.803555
 30
0.0
 11
540.2502199999999
 21
1510.803555
 31
0.0
  0
DIMENSION
  5
5AF
  8
LAYER01
 62
     7
  2
*D18
 10
483.30475599999988
 20
1665.5524780000001
 30
0.0
 11
303.02434
 21
1695.5524780000001
 31
0.0
 13
-17.256076
 23
1581.1341649999999
 33
0.0
 14
483.30475599999988
 24
1581.1341649999999
 34
0.0
  0
CIRCLE
  5
5B0
  8
0
  6
CONTINUOUS
 62
     7
 10
483.30475599999988
 20
1510.803555
 30
0.0
 40
17.5
  0
POLYLINE
  5
5B1
  8
0
  6
CONTINUOUS
 62
     7
 66
     1
 10
0.0
 20
0.0
 30
0.0
 70
     1
  0
VERTEX
  5
139C
  8
0
  6
CONTINUOUS
 62
     7
 10
498.35291599999988
 20
1442.9350240000001
 30
0.0
 42
-0.4593930000000001
  0
VERTEX
  5
139D
  8
0
  6
CONTINUOUS
 62
     7
 10
498.37177500000001
 20
1436.9228370000001
 30
0.0
  0
VERTEX
  5
139E
  8
0
  6
CONTINUOUS
 62
     7
 10
468.37177500000001
 20
1436.9228370000001
 30
0.0
 42
-0.394721
  0
VERTEX
  5
139F
  8
0
  6
CONTINUOUS
 62
     7
 10
468.35291599999988
 20
1442.9350240000001
 30
0.0
 42
-0.4
  0
SEQEND
  5
13A0
  8
0
  6
CONTINUOUS
 62
     7
  0
LINE
  5
5B7
  8
0
  6
CONTINUOUS
 62
     7
 10
1233.2639079999999
 20
1436.9882270000001
 30
0.0
 11
1733.253784
 21
1436.9882270000001
 31
0.0
  0
LINE
  5
5B8
  8
LAYER01
  6
CONTINUOUS
 62
     7
 10
1431.4036329999999
 20
1510.803555
 30
0.0
 11
1540.2502199999999
 21
1510.803555
 31
0.0
  0
DIMENSION
  5
5B9
  8
LAYER01
 62
     7
  2
*D19
 10
1982.7439240000001
 20
1663.2745930000001
 30
0.0
 11
1795.5243399999999
 21
1693.2745930000001
 31
0.0
 13
1483.304756
 23
1581.1341649999999
 33
0.0
 14
1982.7439240000001
 24
1581.1341649999999
 34
0.0
  0
CIRCLE
  5
5BA
  8
0
  6
CONTINUOUS
 62
     7
 10
1483.304756
 20
1510.803555
 30
0.0
 40
17.5
  0
POLYLINE
  5
5BB
  8
0
  6
CONTINUOUS
 62
     7
 66
     1
 10
0.0
 20
0.0
 30
0.0
 70
     1
  0
VERTEX
  5
13A1
  8
0
  6
CONTINUOUS
 62
     7
 10
1498.3529160000001
 20
1442.9350240000001
 30
0.0
 42
-0.4593930000000001
  0
VERTEX
  5
13A2
  8
0
  6
CONTINUOUS
 62
     7
 10
1498.3717750000001
 20
1436.9228370000001
 30
0.0
  0
VERTEX
  5
13A3
  8
0
  6
CONTINUOUS
 62
     7
 10
1468.3717750000001
 20
1436.9228370000001
 30
0.0
 42
-0.394721
  0
VERTEX
  5
13A4
  8
0
  6
CONTINUOUS
 62
     7
 10
1468.3529160000001
 20
1442.9350240000001
 30
0.0
 42
-0.4
  0
SEQEND
  5
13A5
  8
0
  6
CONTINUOUS
 62
     7
  0
INSERT
  5
5C1
  8
LAYER01
  2
TRIGO-G22
 10
0.0
 20
0.0
 30
0.0
  0
ENDSEC
  0
EOF
