  0
SECTION
  2
HEADER
  9
$ACADVER
  1
AC1009
  9
$INSBASE
 10
0.0
 20
0.0
 30
0.0
  9
$EXTMIN
 10
-1174.1338335164039
 20
-713.19786174787896
 30
-0.0015258207003583
  9
$EXTMAX
 10
1508.274308238638
 20
1132.345045670738
 30
0.0000000349246037
  9
$LIMMIN
 10
-1323.594595
 20
-840.18608700000004
  9
$LIMMAX
 10
1646.405405
 20
1259.813913
  9
$ORTHOMODE
 70
     1
  9
$REGENMODE
 70
     1
  9
$FILLMODE
 70
     1
  9
$QTEXTMODE
 70
     0
  9
$MIRRTEXT
 70
     0
  9
$DRAGMODE
 70
     2
  9
$LTSCALE
 40
5.0
  9
$OSMODE
 70
    37
  9
$ATTMODE
 70
     1
  9
$TEXTSIZE
 40
0.0
  9
$TRACEWID
 40
0.05
  9
$TEXTSTYLE
  7
STANDARD
  9
$CLAYER
  8
LAYER01
  9
$CELTYPE
  6
CONTINUOUS
  9
$CECOLOR
 62
     7
  9
$DIMSCALE
 40
1.0
  9
$DIMASZ
 40
0.18
  9
$DIMEXO
 40
0.0625
  9
$DIMDLI
 40
0.38
  9
$DIMRND
 40
0.0
  9
$DIMDLE
 40
0.0
  9
$DIMEXE
 40
0.18
  9
$DIMTP
 40
0.0
  9
$DIMTM
 40
0.0
  9
$DIMTXT
 40
0.18
  9
$DIMCEN
 40
0.09
  9
$DIMTSZ
 40
0.0
  9
$DIMTOL
 70
     0
  9
$DIMLIM
 70
     0
  9
$DIMTIH
 70
     1
  9
$DIMTOH
 70
     1
  9
$DIMSE1
 70
     0
  9
$DIMSE2
 70
     0
  9
$DIMTAD
 70
     0
  9
$DIMZIN
 70
     0
  9
$DIMBLK
  1

  9
$DIMASO
 70
     1
  9
$DIMSHO
 70
     1
  9
$DIMPOST
  1

  9
$DIMAPOST
  1

  9
$DIMALT
 70
     0
  9
$DIMALTD
 70
     2
  9
$DIMALTF
 40
25.399999999999999
  9
$DIMLFAC
 40
1.0
  9
$DIMTOFL
 70
     0
  9
$DIMTVP
 40
0.0
  9
$DIMTIX
 70
     0
  9
$DIMSOXD
 70
     0
  9
$DIMSAH
 70
     0
  9
$DIMBLK1
  1

  9
$DIMBLK2
  1

  9
$DIMSTYLE
  2
STANDARD
  9
$DIMCLRD
 70
     0
  9
$DIMCLRE
 70
     0
  9
$DIMCLRT
 70
     0
  9
$DIMTFAC
 40
1.0
  9
$DIMGAP
 40
0.09
  9
$LUNITS
 70
     2
  9
$LUPREC
 70
     4
  9
$SKETCHINC
 40
0.1
  9
$FILLETRAD
 40
11.0
  9
$AUNITS
 70
     0
  9
$AUPREC
 70
     0
  9
$MENU
  1
acad
  9
$ELEVATION
 40
0.0
  9
$PELEVATION
 40
0.0
  9
$THICKNESS
 40
0.0
  9
$LIMCHECK
 70
     0
  9
$BLIPMODE
 70
     0
  9
$CHAMFERA
 40
0.0
  9
$CHAMFERB
 40
0.0
  9
$SKPOLY
 70
     0
  9
$TDCREATE
 40
11547593.874025499
  9
$TDUPDATE
 40
2458625.3096490279
  9
$TDINDWG
 40
0.0131360417
  9
$TDUSRTIMER
 40
0.0131359838
  9
$USRTIMER
 70
     1
  9
$ANGBASE
 50
0.0
  9
$ANGDIR
 70
     0
  9
$PDMODE
 70
     0
  9
$PDSIZE
 40
0.0
  9
$PLINEWID
 40
3.0
  9
$COORDS
 70
     0
  9
$SPLFRAME
 70
     0
  9
$SPLINETYPE
 70
     6
  9
$SPLINESEGS
 70
    10
  9
$ATTDIA
 70
     0
  9
$ATTREQ
 70
     1
  9
$HANDLING
 70
     1
  9
$HANDSEED
  5
1859
  9
$SURFTAB1
 70
     6
  9
$SURFTAB2
 70
     6
  9
$SURFTYPE
 70
     6
  9
$SURFU
 70
     6
  9
$SURFV
 70
     6
  9
$UCSNAME
  2

  9
$UCSORG
 10
0.0
 20
0.0
 30
0.0
  9
$UCSXDIR
 10
1.0
 20
0.0
 30
0.0
  9
$UCSYDIR
 10
0.0
 20
1.0
 30
0.0
  9
$PUCSNAME
  2

  9
$PUCSORG
 10
0.0
 20
0.0
 30
0.0
  9
$PUCSXDIR
 10
1.0
 20
0.0
 30
0.0
  9
$PUCSYDIR
 10
0.0
 20
1.0
 30
0.0
  9
$USERI1
 70
     0
  9
$USERI2
 70
     0
  9
$USERI3
 70
     0
  9
$USERI4
 70
     0
  9
$USERI5
 70
     0
  9
$USERR1
 40
0.0
  9
$USERR2
 40
0.0
  9
$USERR3
 40
0.0
  9
$USERR4
 40
0.0
  9
$USERR5
 40
0.0
  9
$WORLDVIEW
 70
     1
  9
$SHADEDGE
 70
     3
  9
$SHADEDIF
 70
    70
  9
$TILEMODE
 70
     1
  9
$MAXACTVP
 70
    64
  9
$PLIMCHECK
 70
     0
  9
$PEXTMIN
 10
1.0000000000000000E+020
 20
1.0000000000000000E+020
 30
1.0000000000000000E+020
  9
$PEXTMAX
 10
-1.0000000000000000E+020
 20
-1.0000000000000000E+020
 30
-1.0000000000000000E+020
  9
$PLIMMIN
 10
0.0
 20
0.0
  9
$PLIMMAX
 10
12.0
 20
9.0
  9
$UNITMODE
 70
     0
  9
$VISRETAIN
 70
     1
  9
$PLINEGEN
 70
     0
  9
$PSLTSCALE
 70
     1
  0
ENDSEC
  0
SECTION
  2
TABLES
  0
TABLE
  2
VPORT
 70
     1
  0
VPORT
  2
*ACTIVE
 70
     0
 10
0.0
 20
0.0
 11
1.0
 21
1.0
 12
161.4054049999998
 22
209.81391300000021
 13
0.0
 23
0.0
 14
1.0
 24
1.0
 15
0.0
 25
0.0
 16
0.0
 26
0.0
 36
1.0
 17
0.0
 27
0.0
 37
0.0
 40
2117.451523545707
 41
1.7406380027739241
 42
50.0
 43
0.0
 44
0.0
 50
0.0
 51
0.0
 71
     0
 72
   100
 73
     1
 74
     1
 75
     0
 76
     0
 77
     0
 78
     0
  0
ENDTAB
  0
TABLE
  2
LTYPE
 70
    11
  0
LTYPE
  2
CONTINUOUS
 70
     0
  3
Solid line
 72
    65
 73
     0
 40
0.0
  0
LTYPE
  2
GESTRICHELT
 70
     0
  3
__ __ __ __ __ __ __ __ __ __ __ __ __ __ __
 72
    65
 73
     2
 40
0.75
 49
0.5
 49
-0.25
  0
LTYPE
  2
VERDECKT
 70
     0
  3
_ _ _ _ _ _ _ _ _ _ _ _ _ _ _ _ _ _ _ _ _ _ 
 72
    65
 73
     2
 40
0.25
 49
0.125
 49
-0.125
  0
LTYPE
  2
MITTELLINIE
 70
     0
  3
____ _ ____ _ ____ _ ____ _ ____ _ ____ _ __
 72
    65
 73
     4
 40
2.0
 49
1.25
 49
-0.25
 49
0.25
 49
-0.25
  0
LTYPE
  2
PHANTOM
 70
     0
  3
_____ _ _ _____ _ _ _____ _ _ _____ _ _ ____
 72
    65
 73
     6
 40
2.5
 49
1.25
 49
-0.25
 49
0.25
 49
-0.25
 49
0.25
 49
-0.25
  0
LTYPE
  2
PUNKTIERT
 70
     0
  3
............................................
 72
    65
 73
     2
 40
0.25
 49
0.0
 49
-0.25
  0
LTYPE
  2
STRICHPUNKTIERT
 70
     0
  3
__ . __ . __ . __ . __ . __ . __ . __ . __ .
 72
    65
 73
     4
 40
1.0
 49
0.5
 49
-0.25
 49
0.0
 49
-0.25
  0
LTYPE
  2
RAND
 70
     0
  3
__ __ . __ __ . __ __ . __ __ . __ __ . __ _
 72
    65
 73
     6
 40
1.75
 49
0.5
 49
-0.25
 49
0.5
 49
-0.25
 49
0.0
 49
-0.25
  0
LTYPE
  2
TRENNLINIE
 70
     0
  3
__ . . __ . . __ . . __ . . __ . . __ . . __
 72
    65
 73
     6
 40
1.25
 49
0.5
 49
-0.25
 49
0.0
 49
-0.25
 49
0.0
 49
-0.25
  0
LTYPE
  2
ENG_PUNKTIERT
 70
     0
  3
Schließen                                   
 72
    65
 73
     2
 40
0.1
 49
0.05
 49
-0.05
  0
LTYPE
  2
CLOSE
 70
     0
  3
                                            
 72
    65
 73
     0
 40
0.0
  0
ENDTAB
  0
TABLE
  2
LAYER
 70
   255
  0
LAYER
  2
0
 70
     0
 62
     7
  6
CONTINUOUS
  0
LAYER
  2
LAYER01
 70
     0
 62
     7
  6
CONTINUOUS
  0
LAYER
  2
LAYER02
 70
     0
 62
     7
  6
CONTINUOUS
  0
LAYER
  2
LAYER03
 70
     0
 62
     7
  6
CONTINUOUS
  0
LAYER
  2
LAYER04
 70
     0
 62
     7
  6
CONTINUOUS
  0
LAYER
  2
LAYER05
 70
     0
 62
     7
  6
CONTINUOUS
  0
LAYER
  2
LAYER06
 70
     0
 62
     7
  6
CONTINUOUS
  0
LAYER
  2
LAYER07
 70
     0
 62
     7
  6
CONTINUOUS
  0
LAYER
  2
LAYER08
 70
     0
 62
     7
  6
CONTINUOUS
  0
LAYER
  2
LAYER09
 70
     0
 62
     7
  6
CONTINUOUS
  0
LAYER
  2
LAYER10
 70
     0
 62
     7
  6
CONTINUOUS
  0
LAYER
  2
2
 70
     0
 62
     7
  6
CONTINUOUS
  0
LAYER
  2
5
 70
     0
 62
     7
  6
CONTINUOUS
  0
LAYER
  2
RAUMAUFM
 70
     0
 62
     7
  6
CONTINUOUS
  0
LAYER
  2
EINRICHT
 70
     0
 62
     7
  6
CONTINUOUS
  0
LAYER
  2
HILFE
 70
     0
 62
     7
  6
CONTINUOUS
  0
LAYER
  2
SCHNITTE
 70
     0
 62
     7
  6
CONTINUOUS
  0
LAYER
  2
SCHRAFF1
 70
     0
 62
     7
  6
CONTINUOUS
  0
LAYER
  2
SCHRAFF2
 70
     0
 62
     7
  6
CONTINUOUS
  0
LAYER
  2
BEMASS-1
 70
     0
 62
     7
  6
CONTINUOUS
  0
LAYER
  2
BEMASS-2
 70
     0
 62
     7
  6
CONTINUOUS
  0
LAYER
  2
TEXT
 70
     0
 62
     7
  6
CONTINUOUS
  0
LAYER
  2
SYMBOLE
 70
     0
 62
     7
  6
CONTINUOUS
  0
LAYER
  2
RAHMEN
 70
     0
 62
     7
  6
CONTINUOUS
  0
LAYER
  2
SCHRIFTF
 70
     0
 62
     7
  6
CONTINUOUS
  0
LAYER
  2
ACHSEN
 70
     0
 62
     7
  6
CONTINUOUS
  0
LAYER
  2
ZEICHN
 70
     0
 62
     7
  6
CONTINUOUS
  0
LAYER
  2
7
 70
     0
 62
     7
  6
CONTINUOUS
  0
LAYER
  2
1
 70
     0
 62
     7
  6
CONTINUOUS
  0
LAYER
  2
6
 70
     0
 62
     7
  6
CONTINUOUS
  0
LAYER
  2
4
 70
     0
 62
     7
  6
CONTINUOUS
  0
LAYER
  2
GRUNDEBENE
 70
     0
 62
     7
  6
CONTINUOUS
  0
LAYER
  2
GRUNDRISS
 70
     0
 62
     7
  6
CONTINUOUS
  0
LAYER
  2
BEMASSUNGGRUNDRISS
 70
     0
 62
     7
  6
CONTINUOUS
  0
LAYER
  2
WANDELEMENTE
 70
     0
 62
     7
  6
CONTINUOUS
  0
LAYER
  2
KUECHE
 70
     0
 62
     7
  6
CONTINUOUS
  0
LAYER
  2
THEKEBROETCHEN
 70
     0
 62
     7
  6
CONTINUOUS
  0
LAYER
  2
CENTERLINIE
 70
     0
 62
     7
  6
CONTINUOUS
  0
LAYER
  2
UMRISSE
 70
     0
 62
     7
  6
CONTINUOUS
  0
LAYER
  2
MAUER
 70
     0
 62
     7
  6
CONTINUOUS
  0
LAYER
  2
SCHRAFFUR
 70
     0
 62
     7
  6
CONTINUOUS
  0
LAYER
  2
MASSLINIE
 70
     0
 62
     7
  6
CONTINUOUS
  0
LAYER
  2
PV
 70
     0
 62
     7
  6
CONTINUOUS
  0
LAYER
  2
BESCHRIFTUNG
 70
     0
 62
     7
  6
CONTINUOUS
  0
LAYER
  2
AS
 70
     0
 62
     7
  6
CONTINUOUS
  0
LAYER
  2
PL
 70
     0
 62
     7
  6
CONTINUOUS
  0
LAYER
  2
UK
 70
     0
 62
     7
  6
CONTINUOUS
  0
LAYER
  2
TEXT3
 70
     0
 62
     7
  6
CONTINUOUS
  0
LAYER
  2
TEXT7
 70
     0
 62
     7
  6
CONTINUOUS
  0
LAYER
  2
BEPL1
 70
     0
 62
     7
  6
CONTINUOUS
  0
LAYER
  2
BEPL2
 70
     0
 62
     7
  6
CONTINUOUS
  0
LAYER
  2
BEPL2V
 70
     0
 62
     7
  6
CONTINUOUS
  0
LAYER
  2
BEPL4
 70
     0
 62
     7
  6
CONTINUOUS
  0
LAYER
  2
BEPL
 70
     0
 62
     7
  6
CONTINUOUS
  0
LAYER
  2
UK1
 70
     0
 62
     7
  6
CONTINUOUS
  0
LAYER
  2
UK2
 70
     0
 62
     7
  6
CONTINUOUS
  0
LAYER
  2
UK2V
 70
     0
 62
     7
  6
CONTINUOUS
  0
LAYER
  2
UK3
 70
     0
 62
     7
  6
CONTINUOUS
  0
LAYER
  2
TEXT2
 70
     0
 62
     7
  6
CONTINUOUS
  0
LAYER
  2
HILF2S
 70
     0
 62
     7
  6
CONTINUOUS
  0
LAYER
  2
UK1V
 70
     0
 62
     7
  6
CONTINUOUS
  0
LAYER
  2
GAIN_ZRA
 70
     0
 62
     7
  6
CONTINUOUS
  0
LAYER
  2
GAIN_ZSF
 70
     0
 62
     7
  6
CONTINUOUS
  0
LAYER
  2
RAHM4
 70
     0
 62
     7
  6
CONTINUOUS
  0
LAYER
  2
KORPUSBAND
 70
     0
 62
     7
  6
CONTINUOUS
  0
LAYER
  2
E---LGPL--------
 70
     0
 62
     7
  6
CONTINUOUS
  0
LAYER
  2
E---NPFL--------
 70
     0
 62
     7
  6
CONTINUOUS
  0
LAYER
  2
E---PLNKTXT-----
 70
     0
 62
     7
  6
CONTINUOUS
  0
LAYER
  2
E---PLNK--------
 70
     0
 62
     7
  6
CONTINUOUS
  0
LAYER
  2
E---PLNR--------
 70
     0
 62
     7
  6
CONTINUOUS
  0
LAYER
  2
D547_ARCHICAD
 70
     0
 62
     7
  6
CONTINUOUS
  0
LAYER
  2
D547_E---TEXT--------
 70
     0
 62
     7
  6
CONTINUOUS
  0
LAYER
  2
E---LEGD--------
 70
     0
 62
     7
  6
CONTINUOUS
  0
LAYER
  2
D43_ARCHICAD
 70
     0
 62
     7
  6
CONTINUOUS
  0
LAYER
  2
D43_FENSTER_VON_B---FASS--
 70
     0
 62
     7
  6
CONTINUOUS
  0
LAYER
  2
D43_E---SCHN--------
 70
     0
 62
     7
  6
CONTINUOUS
  0
LAYER
  2
D43_B---MW-N--------
 70
     0
 62
     7
  6
CONTINUOUS
  0
LAYER
  2
D43_B---DECK--------
 70
     0
 62
     7
  6
CONTINUOUS
  0
LAYER
  2
D43_B---MW-S--------
 70
     0
 62
     7
  6
CONTINUOUS
  0
LAYER
  2
D43_B---MW----------
 70
     0
 62
     7
  6
CONTINUOUS
  0
LAYER
  2
D43_B---FASS--------
 70
     0
 62
     7
  6
CONTINUOUS
  0
LAYER
  2
D43_E---RASG--------
 70
     0
 62
     7
  6
CONTINUOUS
  0
LAYER
  2
D40_ARCHICAD
 70
     0
 62
     7
  6
CONTINUOUS
  0
LAYER
  2
D40_E---MW--------
 70
     0
 62
     7
  6
CONTINUOUS
  0
LAYER
  2
D40_E---FASSKON-----
 70
     0
 62
     7
  6
CONTINUOUS
  0
LAYER
  2
D40_TÜREN_VON_B---MW-N----
 70
     0
 62
     7
  6
CONTINUOUS
  0
LAYER
  2
D40_E---MW-L------
 70
     0
 62
     7
  6
CONTINUOUS
  0
LAYER
  2
D40_TÜREN_VON_B---MW------
 70
     0
 62
     7
  6
CONTINUOUS
  0
LAYER
  2
D40_E---VERM--------
 70
     0
 62
     7
  6
CONTINUOUS
  0
LAYER
  2
D40_FENSTER_VON_E---MW-L--
 70
     0
 62
     7
  6
CONTINUOUS
  0
LAYER
  2
D40_FENSTER_VON_B---MW-N--
 70
     0
 62
     7
  6
CONTINUOUS
  0
LAYER
  2
D40_E---SCHN--------
 70
     0
 62
     7
  6
CONTINUOUS
  0
LAYER
  2
D40_E---AUFZ--------
 70
     0
 62
     7
  6
CONTINUOUS
  0
LAYER
  2
D40_E---DECK--------
 70
     0
 62
     7
  6
CONTINUOUS
  0
LAYER
  2
D40_E---RAUMINF-----
 70
     0
 62
     7
  6
CONTINUOUS
  0
LAYER
  2
D40_E---TEXT--------
 70
     0
 62
     7
  6
CONTINUOUS
  0
LAYER
  2
D40_B---TEXT--------
 70
     0
 62
     7
  6
CONTINUOUS
  0
LAYER
  2
D40_B---MW-N--------
 70
     0
 62
     7
  6
CONTINUOUS
  0
LAYER
  2
D40_B---DECK--------
 70
     0
 62
     7
  6
CONTINUOUS
  0
LAYER
  2
D40_B---AUFZ--------
 70
     0
 62
     7
  6
CONTINUOUS
  0
LAYER
  2
D40_B---MW-S--------
 70
     0
 62
     7
  6
CONTINUOUS
  0
LAYER
  2
D40_B---MW----------
 70
     0
 62
     7
  6
CONTINUOUS
  0
LAYER
  2
D40_E---MOEB--------
 70
     0
 62
     7
  6
CONTINUOUS
  0
LAYER
  2
D40_B---UMGB--------
 70
     0
 62
     7
  6
CONTINUOUS
  0
LAYER
  2
D40_B---FASS--------
 70
     0
 62
     7
  6
CONTINUOUS
  0
LAYER
  2
D40_E---DACH--------
 70
     0
 62
     7
  6
CONTINUOUS
  0
LAYER
  2
D40_E---BODE--------
 70
     0
 62
     7
  6
CONTINUOUS
  0
LAYER
  2
D40_E---TREP--------
 70
     0
 62
     7
  6
CONTINUOUS
  0
LAYER
  2
D40_E---RASG--------
 70
     0
 62
     7
  6
CONTINUOUS
  0
LAYER
  2
D40_B---MW-K--------
 70
     0
 62
     7
  6
CONTINUOUS
  0
LAYER
  2
D40_E---FASSGLA-----
 70
     0
 62
     7
  6
CONTINUOUS
  0
LAYER
  2
D40_B---VERM--------
 70
     0
 62
     7
  6
CONTINUOUS
  0
LAYER
  2
D40_E---UMGBGSG-----
 70
     0
 62
     7
  6
CONTINUOUS
  0
LAYER
  2
D40_E---RASF--------
 70
     0
 62
     7
  6
CONTINUOUS
  0
LAYER
  2
D40_E---PFLA--------
 70
     0
 62
     7
  6
CONTINUOUS
  0
LAYER
  2
D40_E---KONS-ST-----
 70
     0
 62
     7
  6
CONTINUOUS
  0
LAYER
  2
D40_E---WERB--------
 70
     0
 62
     7
  6
CONTINUOUS
  0
LAYER
  2
D40_E---TUERINF-----
 70
     0
 62
     7
  6
CONTINUOUS
  0
LAYER
  2
D40_E---WOLK--------
 70
     0
 62
     7
  6
CONTINUOUS
  0
LAYER
  2
D40_B---MW-L--------
 70
     0
 62
     7
  6
CONTINUOUS
  0
LAYER
  2
D40_B---SANI--------
 70
     0
 62
     7
  6
CONTINUOUS
  0
LAYER
  2
D40_E---SANI--------
 70
     0
 62
     7
  6
CONTINUOUS
  0
LAYER
  2
D40_E---MW-K------
 70
     0
 62
     7
  6
CONTINUOUS
  0
LAYER
  2
D40_E---OBJE--------
 70
     0
 62
     7
  6
CONTINUOUS
  0
LAYER
  2
D40_E---ASPR--------
 70
     0
 62
     7
  6
CONTINUOUS
  0
LAYER
  2
D40_E---VERMTGA-----
 70
     0
 62
     7
  6
CONTINUOUS
  0
LAYER
  2
D40_E---PARK--------
 70
     0
 62
     7
  6
CONTINUOUS
  0
LAYER
  2
D40_E---ISOL--------
 70
     0
 62
     7
  6
CONTINUOUS
  0
LAYER
  2
D40_E---TUER--------
 70
     0
 62
     7
  6
CONTINUOUS
  0
LAYER
  2
D40_E---MW--BRA---
 70
     0
 62
     7
  6
CONTINUOUS
  0
LAYER
  2
D41_ARCHICAD
 70
     0
 62
     7
  6
CONTINUOUS
  0
LAYER
  2
D41_E---MW--------
 70
     0
 62
     7
  6
CONTINUOUS
  0
LAYER
  2
D41_E---FASSKON-----
 70
     0
 62
     7
  6
CONTINUOUS
  0
LAYER
  2
D41_TÜREN_VON_B---MW-N----
 70
     0
 62
     7
  6
CONTINUOUS
  0
LAYER
  2
D41_E---MW-L------
 70
     0
 62
     7
  6
CONTINUOUS
  0
LAYER
  2
D41_TÜREN_VON_B---MW------
 70
     0
 62
     7
  6
CONTINUOUS
  0
LAYER
  2
D41_E---VERM--------
 70
     0
 62
     7
  6
CONTINUOUS
  0
LAYER
  2
D41_FENSTER_VON_E---MW-L--
 70
     0
 62
     7
  6
CONTINUOUS
  0
LAYER
  2
D41_FENSTER_VON_B---MW-N--
 70
     0
 62
     7
  6
CONTINUOUS
  0
LAYER
  2
D41_E---SCHN--------
 70
     0
 62
     7
  6
CONTINUOUS
  0
LAYER
  2
D41_E---AUFZ--------
 70
     0
 62
     7
  6
CONTINUOUS
  0
LAYER
  2
D41_E---DECK--------
 70
     0
 62
     7
  6
CONTINUOUS
  0
LAYER
  2
D41_E---RAUMINF-----
 70
     0
 62
     7
  6
CONTINUOUS
  0
LAYER
  2
D41_E---TEXT--------
 70
     0
 62
     7
  6
CONTINUOUS
  0
LAYER
  2
D41_B---TEXT--------
 70
     0
 62
     7
  6
CONTINUOUS
  0
LAYER
  2
D41_B---MW-N--------
 70
     0
 62
     7
  6
CONTINUOUS
  0
LAYER
  2
D41_B---DECK--------
 70
     0
 62
     7
  6
CONTINUOUS
  0
LAYER
  2
D41_B---AUFZ--------
 70
     0
 62
     7
  6
CONTINUOUS
  0
LAYER
  2
D41_B---MW-S--------
 70
     0
 62
     7
  6
CONTINUOUS
  0
LAYER
  2
D41_B---MW----------
 70
     0
 62
     7
  6
CONTINUOUS
  0
LAYER
  2
D41_E---MOEB--------
 70
     0
 62
     7
  6
CONTINUOUS
  0
LAYER
  2
D41_B---UMGB--------
 70
     0
 62
     7
  6
CONTINUOUS
  0
LAYER
  2
D41_B---FASS--------
 70
     0
 62
     7
  6
CONTINUOUS
  0
LAYER
  2
D41_E---DACH--------
 70
     0
 62
     7
  6
CONTINUOUS
  0
LAYER
  2
D41_E---BODE--------
 70
     0
 62
     7
  6
CONTINUOUS
  0
LAYER
  2
D41_E---TREP--------
 70
     0
 62
     7
  6
CONTINUOUS
  0
LAYER
  2
D41_E---RASG--------
 70
     0
 62
     7
  6
CONTINUOUS
  0
LAYER
  2
D41_B---MW-K--------
 70
     0
 62
     7
  6
CONTINUOUS
  0
LAYER
  2
D41_E---FASSGLA-----
 70
     0
 62
     7
  6
CONTINUOUS
  0
LAYER
  2
D41_B---VERM--------
 70
     0
 62
     7
  6
CONTINUOUS
  0
LAYER
  2
D41_E---UMGBGSG-----
 70
     0
 62
     7
  6
CONTINUOUS
  0
LAYER
  2
D41_E---RASF--------
 70
     0
 62
     7
  6
CONTINUOUS
  0
LAYER
  2
D41_E---PFLA--------
 70
     0
 62
     7
  6
CONTINUOUS
  0
LAYER
  2
D41_E---KONS-ST-----
 70
     0
 62
     7
  6
CONTINUOUS
  0
LAYER
  2
D41_E---WERB--------
 70
     0
 62
     7
  6
CONTINUOUS
  0
LAYER
  2
D41_E---TUERINF-----
 70
     0
 62
     7
  6
CONTINUOUS
  0
LAYER
  2
D41_E---WOLK--------
 70
     0
 62
     7
  6
CONTINUOUS
  0
LAYER
  2
D41_B---MW-L--------
 70
     0
 62
     7
  6
CONTINUOUS
  0
LAYER
  2
D41_B---SANI--------
 70
     0
 62
     7
  6
CONTINUOUS
  0
LAYER
  2
D41_E---SANI--------
 70
     0
 62
     7
  6
CONTINUOUS
  0
LAYER
  2
D41_E---MW-K------
 70
     0
 62
     7
  6
CONTINUOUS
  0
LAYER
  2
D41_E---OBJE--------
 70
     0
 62
     7
  6
CONTINUOUS
  0
LAYER
  2
D41_E---ASPR--------
 70
     0
 62
     7
  6
CONTINUOUS
  0
LAYER
  2
D41_E---VERMTGA-----
 70
     0
 62
     7
  6
CONTINUOUS
  0
LAYER
  2
D41_E---PARK--------
 70
     0
 62
     7
  6
CONTINUOUS
  0
LAYER
  2
D41_E---ISOL--------
 70
     0
 62
     7
  6
CONTINUOUS
  0
LAYER
  2
D41_E---TUER--------
 70
     0
 62
     7
  6
CONTINUOUS
  0
LAYER
  2
D41_E---MW--BRA---
 70
     0
 62
     7
  6
CONTINUOUS
  0
LAYER
  2
D42_ARCHICAD
 70
     0
 62
     7
  6
CONTINUOUS
  0
LAYER
  2
D42_FENSTER_VON_B---FASS--
 70
     0
 62
     7
  6
CONTINUOUS
  0
LAYER
  2
D42_E---SCHN--------
 70
     0
 62
     7
  6
CONTINUOUS
  0
LAYER
  2
D42_B---MW-N--------
 70
     0
 62
     7
  6
CONTINUOUS
  0
LAYER
  2
D42_B---DECK--------
 70
     0
 62
     7
  6
CONTINUOUS
  0
LAYER
  2
D42_B---MW-S--------
 70
     0
 62
     7
  6
CONTINUOUS
  0
LAYER
  2
D42_B---MW----------
 70
     0
 62
     7
  6
CONTINUOUS
  0
LAYER
  2
D42_B---FASS--------
 70
     0
 62
     7
  6
CONTINUOUS
  0
LAYER
  2
D42_E---RASG--------
 70
     0
 62
     7
  6
CONTINUOUS
  0
LAYER
  2
CONSTRUCTION_CLASS
 70
     0
 62
     7
  6
CONTINUOUS
  0
LAYER
  2
PATTERN_CLASS
 70
     0
 62
     7
  6
CONTINUOUS
  0
LAYER
  2
KONSTRUKTION
 70
     0
 62
     7
  6
CONTINUOUS
  0
LAYER
  2
BEMAßUNG
 70
     0
 62
     7
  6
CONTINUOUS
  0
LAYER
  2
HILFSGEOMETRIE
 70
     0
 62
     7
  6
CONTINUOUS
  0
LAYER
  2
UNSICHTBAR
 70
     0
 62
     7
  6
CONTINUOUS
  0
LAYER
  2
LOGO
 70
     0
 62
     7
  6
CONTINUOUS
  0
LAYER
  2
VERWALTUNG
 70
     0
 62
     7
  6
CONTINUOUS
  0
LAYER
  2
UNSICHTBARE_GEWINDE
 70
     0
 62
     7
  6
CONTINUOUS
  0
LAYER
  2
SICHTBARE_GEWINDE
 70
     0
 62
     7
  6
CONTINUOUS
  0
LAYER
  2
DEFPOINTS
 70
     0
 62
     7
  6
CONTINUOUS
  0
LAYER
  2
THICK
 70
     0
 62
     7
  6
CONTINUOUS
  0
LAYER
  2
HIDDEN
 70
     0
 62
     7
  6
CONTINUOUS
  0
LAYER
  2
SCHRAFFURGRUNDRISS
 70
     0
 62
     7
  6
CONTINUOUS
  0
LAYER
  2
BEMASSUNG_GRUNDRISS
 70
     0
 62
     7
  6
CONTINUOUS
  0
LAYER
  2
STATIK
 70
     0
 62
     7
  6
CONTINUOUS
  0
LAYER
  2
TÜREN
 70
     0
 62
     7
  6
CONTINUOUS
  0
LAYER
  2
SANITÄR
 70
     0
 62
     7
  6
CONTINUOUS
  0
LAYER
  2
BEMASSUNG_GIPSKARTON
 70
     0
 62
     7
  6
CONTINUOUS
  0
LAYER
  2
EINRICHTUNGEN
 70
     0
 62
     7
  6
CONTINUOUS
  0
LAYER
  2
BECKEN
 70
     0
 62
     7
  6
CONTINUOUS
  0
LAYER
  2
BELEUCHTUNG
 70
     0
 62
     7
  6
CONTINUOUS
  0
LAYER
  2
BESCHRIFTUNGEN
 70
     0
 62
     7
  6
CONTINUOUS
  0
LAYER
  2
ELEKTRO_1__DOSEN_SCHALTER
 70
     0
 62
     7
  6
CONTINUOUS
  0
LAYER
  2
DEFAULT_1
 70
     0
 62
     7
  6
CONTINUOUS
  0
LAYER
  2
AM_0
 70
     0
 62
     7
  6
CONTINUOUS
  0
LAYER
  2
FRAME0_7
 70
     0
 62
     7
  6
CONTINUOUS
  0
LAYER
  2
AM_BOR
 70
     0
 62
     7
  6
CONTINUOUS
  0
LAYER
  2
RAHM2
 70
     0
 62
     7
  6
CONTINUOUS
  0
LAYER
  2
RAHM3
 70
     0
 62
     7
  6
CONTINUOUS
  0
LAYER
  2
FRAME0_5
 70
     0
 62
     7
  6
CONTINUOUS
  0
LAYER
  2
8
 70
     0
 62
     7
  6
CONTINUOUS
  0
LAYER
  2
AM_5
 70
     0
 62
     7
  6
CONTINUOUS
  0
LAYER
  2
AM_7
 70
     0
 62
     7
  6
CONTINUOUS
  0
LAYER
  2
HILFSLINIEN
 70
     0
 62
     7
  6
CONTINUOUS
  0
LAYER
  2
DRAWING_TEMPLATE
 70
     0
 62
     7
  6
CONTINUOUS
  0
LAYER
  2
TECHNOBOX_EXTERNALREFSYMBO
 70
     0
 62
     7
  6
CONTINUOUS
  0
LAYER
  2
TECHNOBOX_POLYCLIPSYMBOL_L
 70
     0
 62
     7
  6
CONTINUOUS
  0
LAYER
  2
100
 70
     0
 62
     7
  6
CONTINUOUS
  0
LAYER
  2
101
 70
     0
 62
     7
  6
CONTINUOUS
  0
LAYER
  2
KONTUR
 70
     0
 62
     7
  6
CONTINUOUS
  0
LAYER
  2
MITTELLINIE
 70
     0
 62
     7
  6
CONTINUOUS
  0
LAYER
  2
GESTRICHELT
 70
     0
 62
     7
  6
CONTINUOUS
  0
LAYER
  2
HILFSLINIE
 70
     0
 62
     7
  6
CONTINUOUS
  0
LAYER
  2
TEXT-25
 70
     0
 62
     7
  6
CONTINUOUS
  0
LAYER
  2
TEXT35
 70
     0
 62
     7
  6
CONTINUOUS
  0
LAYER
  2
TEXT-50
 70
     0
 62
     7
  6
CONTINUOUS
  0
LAYER
  2
TEXT-70
 70
     0
 62
     7
  6
CONTINUOUS
  0
LAYER
  2
ANSICHTSFENSTER
 70
     0
 62
     7
  6
CONTINUOUS
  0
LAYER
  2
KERA0
 70
     0
 62
     7
  6
CONTINUOUS
  0
LAYER
  2
KERA1
 70
     0
 62
     7
  6
CONTINUOUS
  0
LAYER
  2
KERA2
 70
     0
 62
     7
  6
CONTINUOUS
  0
LAYER
  2
KERA3
 70
     0
 62
     7
  6
CONTINUOUS
  0
LAYER
  2
KERA4
 70
     0
 62
     7
  6
CONTINUOUS
  0
LAYER
  2
KERA5
 70
     0
 62
     7
  6
CONTINUOUS
  0
LAYER
  2
KERA6
 70
     0
 62
     7
  6
CONTINUOUS
  0
LAYER
  2
KERA7
 70
     0
 62
     7
  6
CONTINUOUS
  0
LAYER
  2
20
 70
     0
 62
     7
  6
CONTINUOUS
  0
LAYER
  2
50
 70
     0
 62
     7
  6
CONTINUOUS
  0
LAYER
  2
FORMAT
 70
     0
 62
     7
  6
CONTINUOUS
  0
LAYER
  2
EBENE_1
 70
     0
 62
     7
  6
CONTINUOUS
  0
LAYER
  2
EBENE_2
 70
     0
 62
     7
  6
CONTINUOUS
  0
LAYER
  2
EBENE_5
 70
     0
 62
     7
  6
CONTINUOUS
  0
LAYER
  2
3
 70
     0
 62
     7
  6
CONTINUOUS
  0
LAYER
  2
GEB-KONTUR-A
 70
     0
 62
     7
  6
CONTINUOUS
  0
LAYER
  2
GEB-SYMETRIE
 70
     0
 62
     7
  6
CONTINUOUS
  0
LAYER
  2
GEB-ART-NR
 70
     0
 62
     7
  6
CONTINUOUS
  0
LAYER
  2
PROJECTION
 70
     0
 62
     7
  6
CONTINUOUS
  0
ENDTAB
  0
TABLE
  2
STYLE
 70
     3
  0
STYLE
  2
STANDARD
 70
     0
 40
0.0
 41
1.0
 50
0.0
 71
     0
 42
0.0
  3
txt
  4

  0
STYLE
  2
ANNOTATIVE
 70
     0
 40
0.0
 41
1.0
 50
0.0
 71
     0
 42
0.2
  3
txt
  4

  0
STYLE
  2
SIMPLEX
 70
     0
 40
0.0
 41
1.0
 50
0.0
 71
     0
 42
0.0
  3
simplex
  4

  0
ENDTAB
  0
TABLE
  2
VIEW
 70
     0
  0
ENDTAB
  0
TABLE
  2
UCS
 70
     0
  0
ENDTAB
  0
TABLE
  2
APPID
 70
     3
  0
APPID
  2
ACAD
 70
     0
  0
APPID
  2
ACADANNOTATIVE
 70
     0
  0
APPID
  2
ACAD_MLEADERVER
 70
     0
  0
ENDTAB
  0
TABLE
  2
DIMSTYLE
 70
     2
  0
DIMSTYLE
  2
STANDARD
 70
     0
  3

  4

  5

  6

  7

 40
1.0
 41
0.18
 42
0.0625
 43
0.38
 44
0.18
 45
0.0
 46
0.0
 47
0.0
 48
0.0
140
0.18
141
0.09
142
0.0
143
25.399999999999999
144
1.0
145
0.0
146
1.0
147
0.09
 71
     0
 72
     0
 73
     1
 74
     1
 75
     0
 76
     0
 77
     0
 78
     0
170
     0
171
     2
172
     0
173
     0
174
     0
175
     0
176
     0
177
     0
178
     0
  0
DIMSTYLE
  2
ANNOTATIVE
 70
     0
  3

  4

  5

  6

  7

 40
1.0
 41
0.18
 42
0.0625
 43
0.38
 44
0.18
 45
0.0
 46
0.0
 47
0.0
 48
0.0
140
0.18
141
0.09
142
0.0
143
25.399999999999999
144
1.0
145
0.0
146
1.0
147
0.09
 71
     0
 72
     0
 73
     1
 74
     1
 75
     0
 76
     0
 77
     0
 78
     0
170
     0
171
     2
172
     0
173
     0
174
     0
175
     0
176
     0
177
     0
178
     0
  0
ENDTAB
  0
ENDSEC
  0
SECTION
  2
BLOCKS
  0
BLOCK
  8
0
  2
$MODEL_SPACE
 70
     0
 10
0.0
 20
0.0
 30
0.0
  3
$MODEL_SPACE
  1

  0
ENDBLK
  5
76
  8
0
  0
BLOCK
 67
     1
  8
0
  2
$PAPER_SPACE
 70
     0
 10
0.0
 20
0.0
 30
0.0
  3
$PAPER_SPACE
  1

  0
ENDBLK
  5
72
 67
     1
  8
0
  0
BLOCK
  8
0
  2
*D0
 70
     1
 10
0.0
 20
0.0
 30
0.0
  3
*D0
  1

  0
LINE
  5
186
  8
LAYER01
 62
     7
 10
72.922627000000006
 20
714.49030199999993
 30
0.0
 11
-517.07734699999992
 21
714.49030199999993
 31
0.0
  0
LINE
  5
187
  8
LAYER01
 62
     7
 10
72.922627000000006
 20
579.56210999999985
 30
0.0
 11
72.922627000000006
 21
729.49030199999993
 31
0.0
  0
LINE
  5
188
  8
LAYER01
 62
     7
 10
-517.07734699999992
 20
579.56210999999985
 30
0.0
 11
-517.07734699999992
 21
729.49030199999993
 31
0.0
  0
SOLID
  5
189
  8
LAYER01
 62
     7
 10
48.922626999999991
 20
718.49014199999999
 30
0.0
 11
72.922627000000006
 21
714.49030199999993
 31
0.0
 12
48.922626999999991
 22
710.49046199999998
 32
0.0
 13
48.922626999999991
 23
710.49046199999998
 33
0.0
  0
SOLID
  5
18A
  8
LAYER01
 62
     7
 10
-493.07734699999997
 20
718.49014199999999
 30
0.0
 11
-517.07734699999992
 21
714.49030199999993
 31
0.0
 12
-493.07734699999997
 22
710.49046199999998
 32
0.0
 13
-493.07734699999997
 23
710.49046199999998
 33
0.0
  0
TEXT
  5
18B
  8
LAYER01
  6
CONTINUOUS
 62
     7
 10
-245.00883099999999
 20
729.49030199999993
 30
0.0
 40
30.0
  1
590
  0
POINT
  5
18C
  8
LAYER01
 62
     7
 10
72.922627000000006
 20
567.56210999999985
 30
0.0
  0
POINT
  5
18D
  8
LAYER01
 62
     7
 10
-517.07734699999992
 20
567.56210999999985
 30
0.0
  0
POINT
  5
18E
  8
LAYER01
 62
     7
 10
-517.07734699999992
 20
714.49030199999993
 30
0.0
  0
ENDBLK
  5
18F
  8
0
  0
BLOCK
  8
0
  2
*D1
 70
     1
 10
0.0
 20
0.0
 30
0.0
  3
*D1
  1

  0
LINE
  5
192
  8
LAYER01
 62
     7
 10
47.922651000000002
 20
636.82905400000004
 30
0.0
 11
-492.07736999999997
 21
636.82905400000004
 31
0.0
  0
LINE
  5
193
  8
LAYER01
 62
     7
 10
47.922651000000002
 20
579.56210999999985
 30
0.0
 11
47.922651000000002
 21
651.82905400000004
 31
0.0
  0
LINE
  5
194
  8
LAYER01
 62
     7
 10
-492.07736999999997
 20
579.56210999999985
 30
0.0
 11
-492.07736999999997
 21
651.82905400000004
 31
0.0
  0
SOLID
  5
195
  8
LAYER01
 62
     7
 10
23.922650999999998
 20
640.82889399999999
 30
0.0
 11
47.922651000000002
 21
636.82905400000004
 31
0.0
 12
23.922650999999998
 22
632.82921399999998
 32
0.0
 13
23.922650999999998
 23
632.82921399999998
 33
0.0
  0
SOLID
  5
196
  8
LAYER01
 62
     7
 10
-468.07736999999997
 20
640.82889399999999
 30
0.0
 11
-492.07736999999997
 21
636.82905400000004
 31
0.0
 12
-468.07736999999997
 22
632.82921399999998
 32
0.0
 13
-468.07736999999997
 23
632.82921399999998
 33
0.0
  0
TEXT
  5
197
  8
LAYER01
  6
CONTINUOUS
 62
     7
 10
-245.00883099999999
 20
651.82905400000004
 30
0.0
 40
30.0
  1
540
  0
POINT
  5
198
  8
LAYER01
 62
     7
 10
47.922651000000002
 20
567.56210999999985
 30
0.0
  0
POINT
  5
199
  8
LAYER01
 62
     7
 10
-492.07736999999997
 20
567.56210999999985
 30
0.0
  0
POINT
  5
19A
  8
LAYER01
 62
     7
 10
-492.07736999999997
 20
636.82905400000004
 30
0.0
  0
ENDBLK
  5
19B
  8
0
  0
BLOCK
  8
0
  2
UBS70-G3
 70
     0
 10
0.0
 20
0.0
 30
0.0
  3
UBS70-G3
  1

  0
ENDBLK
  5
19E
  8
0
  0
BLOCK
  8
0
  2
UBS70-G5
 70
     0
 10
0.0
 20
0.0
 30
0.0
  3
UBS70-G5
  1

  0
TEXT
  5
1A1
  8
LAYER01
  6
VERDECKT
 62
     1
 10
727.03283499999986
 20
-489.1183769999999
 30
0.0
 40
7.0
  1
A. Sprenger GmbH
  7
SIMPLEX
  0
TEXT
  5
1A2
  8
LAYER01
  6
VERDECKT
 62
     1
 10
727.03283499999986
 20
-501.1183769999999
 30
0.0
 40
7.0
  1
Berner Str. 10
  7
SIMPLEX
  0
TEXT
  5
1A3
  8
LAYER01
  6
VERDECKT
 62
     1
 10
727.03283499999986
 20
-513.1183769999999
 30
0.0
 40
7.0
  1
60437 Frankfurt
  7
SIMPLEX
  0
TEXT
  5
1A4
  8
LAYER01
  6
VERDECKT
 62
     1
 10
727.03283499999986
 20
-525.1183769999999
 30
0.0
 40
7.0
  1
Tel.: 069 - 507 27 41
  7
SIMPLEX
  0
TEXT
  5
1A5
  8
LAYER01
  6
VERDECKT
 62
     1
 10
727.03283499999986
 20
-537.11837700000001
 30
0.0
 40
7.0
  1
Fax: 069 - 507 72 91
  7
SIMPLEX
  0
TEXT
  5
1A6
  8
LAYER01
  6
VERDECKT
 62
     1
 10
727.03283499999986
 20
-549.11837700000001
 30
0.0
 40
7.0
  1
info@varicor.org
  7
SIMPLEX
  0
ENDBLK
  5
1A7
  8
0
  0
BLOCK
  8
0
  2
UBS70-G4
 70
     0
 10
0.0
 20
0.0
 30
0.0
  3
UBS70-G4
  1

  0
TEXT
  5
1AA
  8
LAYER01
  6
CONTINUOUS
 62
     1
 10
1462.605753
 20
-653.67450800000006
 30
0.0
 40
7.0
  1
Blatt
  7
SIMPLEX
  0
LINE
  5
1AB
  8
LAYER01
  6
CONTINUOUS
 62
     1
 10
717.10575300000005
 20
-604.67450799999995
 30
0.0
 11
1137.105753
 21
-604.67450799999995
 31
0.0
  0
LINE
  5
1AC
  8
LAYER01
  6
CONTINUOUS
 62
     1
 10
717.10575300000005
 20
-622.17450799999995
 30
0.0
 11
1137.105753
 21
-622.17450799999995
 31
0.0
  0
LINE
  5
1AD
  8
LAYER01
  6
CONTINUOUS
 62
     1
 10
717.10575300000005
 20
-639.67450799999995
 30
0.0
 11
1508.105753
 21
-639.67450799999995
 31
0.0
  0
LINE
  5
1AE
  8
LAYER01
  6
CONTINUOUS
 62
     1
 10
717.10575300000005
 20
-692.17450799999995
 30
0.0
 11
1508.105753
 21
-692.17450799999995
 31
0.0
  0
LINE
  5
1AF
  8
LAYER01
  6
CONTINUOUS
 62
     1
 10
717.10575300000005
 20
-552.17450799999995
 30
0.0
 11
1508.105753
 21
-552.17450799999995
 31
0.0
  0
POLYLINE
  5
1B0
  8
LAYER01
  6
CONTINUOUS
 62
     1
 66
     1
 10
0.0
 20
0.0
 30
0.0
 70
     1
  0
VERTEX
  5
1437
  8
LAYER01
  6
CONTINUOUS
 62
     1
 10
717.10575300000005
 20
-713.17450799999995
 30
0.0
  0
VERTEX
  5
1438
  8
LAYER01
  6
CONTINUOUS
 62
     1
 10
717.10575300000005
 20
-478.674508
 30
0.0
  0
VERTEX
  5
1439
  8
LAYER01
  6
CONTINUOUS
 62
     1
 10
1508.105753
 20
-478.674508
 30
0.0
  0
VERTEX
  5
143A
  8
LAYER01
  6
CONTINUOUS
 62
     1
 10
1508.105753
 20
-713.17450799999995
 30
0.0
  0
SEQEND
  5
143B
  8
LAYER01
  6
CONTINUOUS
 62
     1
  0
LINE
  5
1B6
  8
LAYER01
  6
CONTINUOUS
 62
     1
 10
717.10575300000005
 20
-569.67450799999995
 30
0.0
 11
1137.105753
 21
-569.67450799999995
 31
0.0
  0
LINE
  5
1B7
  8
LAYER01
  6
CONTINUOUS
 62
     1
 10
717.10575300000005
 20
-587.17450800000006
 30
0.0
 11
1137.105753
 21
-587.17450800000006
 31
0.0
  0
LINE
  5
1B8
  8
LAYER01
  6
CONTINUOUS
 62
     1
 10
944.60575299999994
 20
-478.674508
 30
0.0
 11
944.60575299999994
 21
-713.17450799999995
 31
0.0
  0
INSERT
  5
1B9
  8
LAYER01
  2
UBS70-G5
 10
0.0
 20
0.0
 30
0.0
  0
LINE
  5
1BA
  8
LAYER01
  6
CONTINUOUS
 62
     1
 10
717.10575300000005
 20
-674.67450800000006
 30
0.0
 11
944.60575299999994
 21
-674.67450800000006
 31
0.0
  0
LINE
  5
1BB
  8
LAYER01
  6
CONTINUOUS
 62
     1
 10
717.10575300000005
 20
-657.17450799999995
 30
0.0
 11
944.60575299999994
 21
-657.17450799999995
 31
0.0
  0
LINE
  5
1BC
  8
LAYER01
  6
CONTINUOUS
 62
     1
 10
748.60575300000005
 20
-552.17450799999995
 30
0.0
 11
748.60575300000005
 21
-713.17450799999995
 31
0.0
  0
TEXT
  5
1BD
  8
LAYER01
  6
CONTINUOUS
 62
     1
 10
722.98523799999987
 20
-706.17450799999995
 30
0.0
 40
6.6500000000000004
  1
Zust
  7
SIMPLEX
  0
LINE
  5
1BE
  8
LAYER01
  6
CONTINUOUS
 62
     1
 10
859.05498399999988
 20
-713.17450799999995
 30
0.0
 11
859.05498399999988
 21
-552.17450799999995
 31
0.0
  0
LINE
  5
1BF
  8
LAYER01
  6
CONTINUOUS
 62
     1
 10
913.10575299999994
 20
-552.17450799999995
 30
0.0
 11
913.10575299999994
 21
-713.17450799999995
 31
0.0
  0
TEXT
  5
1C0
  8
LAYER01
  6
CONTINUOUS
 62
     1
 10
779.49573199999986
 20
-706.17450799999995
 30
0.0
 40
6.6500000000000004
  1
Änderung
  7
SIMPLEX
  0
TEXT
  5
1C1
  8
LAYER01
  6
CONTINUOUS
 62
     1
 10
868.90365399999996
 20
-706.17450799999995
 30
0.0
 40
6.6500000000000004
  1
Datum
  7
SIMPLEX
  0
TEXT
  5
1C2
  8
LAYER01
  6
CONTINUOUS
 62
     1
 10
915.74048499999981
 20
-706.17450799999995
 30
0.0
 40
6.6500000000000004
  1
Name
  7
SIMPLEX
  0
LINE
  5
1C3
  8
LAYER01
  6
CONTINUOUS
 62
     1
 10
1508.105753
 20
-506.674508
 30
0.0
 11
1137.105753
 21
-506.674508
 31
0.0
  0
LINE
  5
1C4
  8
LAYER01
  6
CONTINUOUS
 62
     1
 10
990.10575299999994
 20
-622.17450799999995
 30
0.0
 11
990.10575299999994
 21
-552.17450799999995
 31
0.0
  0
TEXT
  5
1C5
  8
LAYER01
  6
CONTINUOUS
 62
     1
 10
951.60575299999994
 20
-583.67450799999995
 30
0.0
 40
7.0
  1
Bearb.
  7
SIMPLEX
  0
TEXT
  5
1C6
  8
LAYER01
  6
CONTINUOUS
 62
     1
 10
951.60575299999994
 20
-618.67450799999995
 30
0.0
 40
7.0
  1
Norm
  7
SIMPLEX
  0
TEXT
  5
1C7
  8
LAYER01
  6
CONTINUOUS
 62
     1
 10
951.60575299999994
 20
-601.17450799999995
 30
0.0
 40
7.0
  1
Gepr.
  7
SIMPLEX
  0
TEXT
  5
1C8
  8
LAYER01
  6
CONTINUOUS
 62
     1
 10
1007.605753
 20
-566.17450800000006
 30
0.0
 40
7.0
  1
Datum
  7
SIMPLEX
  0
TEXT
  5
1C9
  8
LAYER01
  6
CONTINUOUS
 62
     1
 10
1077.605753
 20
-566.17450800000006
 30
0.0
 40
7.0
  1
Name
  7
SIMPLEX
  0
TEXT
  5
1CA
  8
LAYER01
  6
CONTINUOUS
 62
     1
 10
1490.605753
 20
-688.67450799999995
 30
0.0
 40
7.0
  1
Bl.
  7
SIMPLEX
  0
LINE
  5
1CB
  8
LAYER01
  6
CONTINUOUS
 62
     1
 10
1137.105753
 20
-713.17450799999995
 30
0.0
 11
1137.105753
 21
-478.674508
 31
0.0
  0
LINE
  5
1CC
  8
LAYER01
  6
CONTINUOUS
 62
     1
 10
1056.605753
 20
-639.67450799999995
 30
0.0
 11
1056.605753
 21
-478.674508
 31
0.0
  0
LINE
  5
1CD
  8
LAYER01
  6
CONTINUOUS
 62
     1
 10
1357.605753
 20
-478.674508
 30
0.0
 11
1357.605753
 21
-506.674508
 31
0.0
  0
TEXT
  5
1CE
  8
LAYER01
  6
CONTINUOUS
 62
     1
 10
1144.7315530000001
 20
-496.54550899999992
 30
0.0
 40
7.0
  1
Maßstab
  7
SIMPLEX
  0
LINE
  5
1CF
  8
LAYER01
  6
CONTINUOUS
 62
     1
 10
1455.605753
 20
-639.67450799999995
 30
0.0
 11
1455.605753
 21
-692.17450799999995
 31
0.0
  0
LINE
  5
1D0
  8
LAYER01
  6
CONTINUOUS
 62
     1
 10
1455.605753
 20
-674.67450800000006
 30
0.0
 11
1508.105753
 21
-674.67450800000006
 31
0.0
  0
ENDBLK
  5
1D1
  8
0
  0
BLOCK
  8
0
  2
*D5
 70
     1
 10
0.0
 20
0.0
 30
0.0
  3
*D5
  1

  0
LINE
  5
1D4
  8
LAYER01
 62
     7
 10
-576.32114799999988
 20
542.56210399999998
 30
0.0
 11
-576.32114799999988
 21
222.56211200000001
 31
0.0
  0
LINE
  5
1D5
  8
LAYER01
 62
     7
 10
-529.07734699999992
 20
542.56210399999998
 30
0.0
 11
-591.32114799999999
 21
542.56210399999998
 31
0.0
  0
LINE
  5
1D6
  8
LAYER01
 62
     7
 10
-529.07734699999992
 20
222.56211200000001
 30
0.0
 11
-591.32114799999999
 21
222.56211200000001
 31
0.0
  0
SOLID
  5
1D7
  8
LAYER01
 62
     7
 10
-580.32098799999994
 20
518.56210399999998
 30
0.0
 11
-576.32114799999988
 21
542.56210399999998
 31
0.0
 12
-572.32130800000004
 22
518.56210399999998
 32
0.0
 13
-572.32130800000004
 23
518.56210399999998
 33
0.0
  0
SOLID
  5
1D8
  8
LAYER01
 62
     7
 10
-580.32098799999994
 20
246.56211200000001
 30
0.0
 11
-576.32114799999988
 21
222.56211200000001
 31
0.0
 12
-572.32130800000004
 22
246.56211200000001
 32
0.0
 13
-572.32130800000004
 23
246.56211200000001
 33
0.0
  0
TEXT
  5
1D9
  8
LAYER01
  6
CONTINUOUS
 62
     7
 10
-591.32114799999999
 20
359.63063700000009
 30
0.0
 40
30.0
  1
320
 50
90.0
  0
POINT
  5
1DA
  8
LAYER01
 62
     7
 10
-517.07734699999992
 20
542.56210399999998
 30
0.0
  0
POINT
  5
1DB
  8
LAYER01
 62
     7
 10
-517.07734699999992
 20
222.56211200000001
 30
0.0
  0
POINT
  5
1DC
  8
LAYER01
 62
     7
 10
-576.32114799999988
 20
222.56211200000001
 30
0.0
  0
ENDBLK
  5
1DD
  8
0
  0
BLOCK
  8
0
  2
*D6
 70
     1
 10
0.0
 20
0.0
 30
0.0
  3
*D6
  1

  0
LINE
  5
1E0
  8
LAYER01
 62
     7
 10
-661.32046799999989
 20
567.56210999999985
 30
0.0
 11
-661.32046799999989
 21
197.562106
 31
0.0
  0
LINE
  5
1E1
  8
LAYER01
 62
     7
 10
-529.07734699999992
 20
567.56210999999985
 30
0.0
 11
-676.32046800000001
 21
567.56210999999985
 31
0.0
  0
LINE
  5
1E2
  8
LAYER01
 62
     7
 10
-529.07734699999992
 20
197.562106
 30
0.0
 11
-676.32046800000001
 21
197.562106
 31
0.0
  0
SOLID
  5
1E3
  8
LAYER01
 62
     7
 10
-665.32030799999995
 20
543.56210999999985
 30
0.0
 11
-661.32046799999989
 21
567.56210999999985
 31
0.0
 12
-657.32062800000006
 22
543.56210999999985
 32
0.0
 13
-657.32062800000006
 23
543.56210999999985
 33
0.0
  0
SOLID
  5
1E4
  8
LAYER01
 62
     7
 10
-665.32030799999995
 20
221.562106
 30
0.0
 11
-661.32046799999989
 21
197.562106
 31
0.0
 12
-657.32062800000006
 22
221.562106
 32
0.0
 13
-657.32062800000006
 23
221.562106
 33
0.0
  0
TEXT
  5
1E5
  8
LAYER01
  6
CONTINUOUS
 62
     7
 10
-676.32046800000001
 20
359.63063700000009
 30
0.0
 40
30.0
  1
370
 50
90.0
  0
POINT
  5
1E6
  8
LAYER01
 62
     7
 10
-517.07734699999992
 20
567.56210999999985
 30
0.0
  0
POINT
  5
1E7
  8
LAYER01
 62
     7
 10
-517.07734699999992
 20
197.562106
 30
0.0
  0
POINT
  5
1E8
  8
LAYER01
 62
     7
 10
-661.32046799999989
 20
197.562106
 30
0.0
  0
ENDBLK
  5
1E9
  8
0
  0
BLOCK
  8
0
  2
*D7
 70
     1
 10
0.0
 20
0.0
 30
0.0
  3
*D7
  1

  0
LINE
  5
1EC
  8
LAYER01
 62
     7
 10
-512.32184500000005
 20
566.07652999999993
 30
0.0
 11
-560.42199500000004
 21
644.16712399999994
 31
0.0
  0
LINE
  5
1ED
  8
LAYER01
 62
     7
 10
-560.42199500000004
 20
644.16712399999994
 30
0.0
 11
-593.44331299999999
 21
644.16712399999994
 31
0.0
  0
SOLID
  5
1EE
  8
LAYER01
 62
     7
 10
-521.50297699999999
 20
588.60885199999996
 30
0.0
 11
-512.32184500000005
 21
566.07652999999993
 31
0.0
 12
-528.31424100000004
 22
584.41343099999995
 32
0.0
 13
-528.31424100000004
 23
584.41343099999995
 33
0.0
  0
TEXT
  5
1EF
  8
LAYER01
  6
CONTINUOUS
 62
     7
 10
-658.58679699999993
 20
629.16712399999994
 30
0.0
 40
30.0
  1
R10
  0
POINT
  5
1F0
  8
LAYER01
 62
     7
 10
-507.07735999999989
 20
557.56210799999985
 30
0.0
  0
POINT
  5
1F1
  8
LAYER01
 62
     7
 10
-560.42199500000004
 20
644.16712399999994
 30
0.0
  0
ENDBLK
  5
1F2
  8
0
  0
BLOCK
  8
0
  2
*D8
 70
     1
 10
0.0
 20
0.0
 30
0.0
  3
*D8
  1

  0
LINE
  5
1F5
  8
LAYER01
 62
     7
 10
-291.84260699999999
 20
449.4527589999999
 30
0.0
 11
-152.31211200000001
 21
449.4527589999999
 31
0.0
  0
LINE
  5
1F6
  8
LAYER01
 62
     7
 10
-291.84260699999999
 20
504.03288199999997
 30
0.0
 11
-291.84260699999999
 21
434.4527589999999
 31
0.0
  0
LINE
  5
1F7
  8
LAYER01
 62
     7
 10
-152.31211200000001
 20
504.03288199999997
 30
0.0
 11
-152.31211200000001
 21
434.4527589999999
 31
0.0
  0
SOLID
  5
1F8
  8
LAYER01
 62
     7
 10
-267.84260699999999
 20
445.45291900000001
 30
0.0
 11
-291.84260699999999
 21
449.4527589999999
 31
0.0
 12
-267.84260699999999
 22
453.45259900000002
 32
0.0
 13
-267.84260699999999
 23
453.45259900000002
 33
0.0
  0
SOLID
  5
1F9
  8
LAYER01
 62
     7
 10
-176.31211200000001
 20
445.45291900000001
 30
0.0
 11
-152.31211200000001
 21
449.4527589999999
 31
0.0
 12
-176.31211200000001
 22
453.45259900000002
 32
0.0
 13
-176.31211200000001
 23
453.45259900000002
 33
0.0
  0
TEXT
  5
1FA
  8
LAYER01
  6
CONTINUOUS
 62
     7
 10
-244.56156899999999
 20
464.45275900000001
 30
0.0
 40
30.0
  1
140
  0
POINT
  5
1FB
  8
LAYER01
 62
     7
 10
-291.84260699999999
 20
516.03288200000009
 30
0.0
  0
POINT
  5
1FC
  8
LAYER01
 62
     7
 10
-152.31211200000001
 20
516.03288200000009
 30
0.0
  0
POINT
  5
1FD
  8
LAYER01
 62
     7
 10
-152.31211200000001
 20
449.4527589999999
 30
0.0
  0
ENDBLK
  5
1FE
  8
0
  0
BLOCK
  8
0
  2
*D9
 70
     1
 10
0.0
 20
0.0
 30
0.0
  3
*D9
  1

  0
LINE
  5
201
  8
LAYER01
 62
     7
 10
189.20050000000001
 20
416.68693100000002
 30
0.0
 11
559.20050000000003
 21
416.68693100000002
 31
0.0
  0
LINE
  5
202
  8
LAYER01
 62
     7
 10
189.20050000000001
 20
298.916788
 30
0.0
 11
189.20050000000001
 21
431.6869309999999
 31
0.0
  0
LINE
  5
203
  8
LAYER01
 62
     7
 10
559.20050000000003
 20
298.916788
 30
0.0
 11
559.20050000000003
 21
431.6869309999999
 31
0.0
  0
SOLID
  5
204
  8
LAYER01
 62
     7
 10
213.20050000000001
 20
412.68709100000001
 30
0.0
 11
189.20050000000001
 21
416.68693100000002
 31
0.0
 12
213.20050000000001
 22
420.68677100000002
 32
0.0
 13
213.20050000000001
 23
420.68677100000002
 33
0.0
  0
SOLID
  5
205
  8
LAYER01
 62
     7
 10
535.20050000000003
 20
412.68709100000001
 30
0.0
 11
559.20050000000003
 21
416.68693100000002
 31
0.0
 12
535.20050000000003
 22
420.68677100000002
 32
0.0
 13
535.20050000000003
 23
420.68677100000002
 33
0.0
  0
TEXT
  5
206
  8
LAYER01
  6
CONTINUOUS
 62
     7
 10
351.26902899999999
 20
431.6869309999999
 30
0.0
 40
30.0
  1
370
  0
POINT
  5
207
  8
LAYER01
 62
     7
 10
189.20050000000001
 20
286.916788
 30
0.0
  0
POINT
  5
208
  8
LAYER01
 62
     7
 10
559.20050000000003
 20
286.916788
 30
0.0
  0
POINT
  5
209
  8
LAYER01
 62
     7
 10
559.20050000000003
 20
416.68693100000002
 30
0.0
  0
ENDBLK
  5
20A
  8
0
  0
BLOCK
  8
0
  2
*D10
 70
     1
 10
0.0
 20
0.0
 30
0.0
  3
*D10
  1

  0
LINE
  5
20D
  8
LAYER01
 62
     7
 10
534.20050000000003
 20
365.58288099999999
 30
0.0
 11
214.33184600000001
 21
365.58288099999999
 31
0.0
  0
LINE
  5
20E
  8
LAYER01
 62
     7
 10
534.20050000000003
 20
300.402038
 30
0.0
 11
534.20050000000003
 21
380.58288099999999
 31
0.0
  0
LINE
  5
20F
  8
LAYER01
 62
     7
 10
214.33184600000001
 20
300.402038
 30
0.0
 11
214.33184600000001
 21
380.58288099999999
 31
0.0
  0
SOLID
  5
210
  8
LAYER01
 62
     7
 10
510.20049999999998
 20
369.58272099999999
 30
0.0
 11
534.20050000000003
 21
365.58288099999999
 31
0.0
 12
510.20049999999998
 22
361.58304099999998
 32
0.0
 13
510.20049999999998
 23
361.58304099999998
 33
0.0
  0
SOLID
  5
211
  8
LAYER01
 62
     7
 10
238.33184600000001
 20
369.58272099999999
 30
0.0
 11
214.33184600000001
 21
365.58288099999999
 31
0.0
 12
238.33184600000001
 22
361.58304099999998
 32
0.0
 13
238.33184600000001
 23
361.58304099999998
 33
0.0
  0
TEXT
  5
212
  8
LAYER01
  6
CONTINUOUS
 62
     7
 10
351.33470199999999
 20
380.58288099999999
 30
0.0
 40
30.0
  1
320
  0
POINT
  5
213
  8
LAYER01
 62
     7
 10
534.20050000000003
 20
288.402038
 30
0.0
  0
POINT
  5
214
  8
LAYER01
 62
     7
 10
214.33184600000001
 20
288.402038
 30
0.0
  0
POINT
  5
215
  8
LAYER01
 62
     7
 10
214.33184600000001
 20
365.58288099999999
 30
0.0
  0
ENDBLK
  5
216
  8
0
  0
BLOCK
  8
0
  2
*D11
 70
     1
 10
0.0
 20
0.0
 30
0.0
  3
*D11
  1

  0
LINE
  5
219
  8
LAYER01
 62
     7
 10
540.93564500000002
 20
45.131679999999989
 30
0.0
 11
588.93564500000002
 21
45.131679999999989
 31
0.0
  0
LINE
  5
21A
  8
LAYER01
 62
     7
 10
494.93564500000002
 20
45.131679999999989
 30
0.0
 11
446.93564500000002
 21
45.131679999999989
 31
0.0
  0
LINE
  5
21B
  8
LAYER01
 62
     7
 10
540.93564500000002
 20
106.274006
 30
0.0
 11
540.93564500000002
 21
30.131679999999999
 31
0.0
  0
LINE
  5
21C
  8
LAYER01
 62
     7
 10
494.93564500000002
 20
106.274006
 30
0.0
 11
494.93564500000002
 21
30.131679999999999
 31
0.0
  0
SOLID
  5
21D
  8
LAYER01
 62
     7
 10
564.93564499999991
 20
49.131520000000002
 30
0.0
 11
540.93564500000002
 21
45.131679999999989
 31
0.0
 12
564.93564499999991
 22
41.131839999999997
 32
0.0
 13
564.93564499999991
 23
41.131839999999997
 33
0.0
  0
SOLID
  5
21E
  8
LAYER01
 62
     7
 10
470.93564500000002
 20
49.131520000000002
 30
0.0
 11
494.93564500000002
 21
45.131679999999989
 31
0.0
 12
470.93564500000002
 22
41.131839999999997
 32
0.0
 13
470.93564500000002
 23
41.131839999999997
 33
0.0
  0
TEXT
  5
21F
  8
LAYER01
  6
CONTINUOUS
 62
     7
 10
434.05670900000001
 20
60.131680000000003
 30
0.0
 40
30.0
  1
%%C46
  0
POINT
  5
220
  8
LAYER01
 62
     7
 10
540.93564500000002
 20
118.274006
 30
0.0
  0
POINT
  5
221
  8
LAYER01
 62
     7
 10
494.93564500000002
 20
118.274006
 30
0.0
  0
POINT
  5
222
  8
LAYER01
 62
     7
 10
494.93564500000002
 20
45.131679999999989
 30
0.0
  0
ENDBLK
  5
223
  8
0
  0
BLOCK
  8
0
  2
*D12
 70
     1
 10
0.0
 20
0.0
 30
0.0
  3
*D12
  1

  0
LINE
  5
226
  8
LAYER01
 62
     7
 10
517.93564500000002
 20
-25.431832
 30
0.0
 11
469.93564500000002
 21
-25.431832
 31
0.0
  0
LINE
  5
227
  8
LAYER01
 62
     7
 10
559.20050000000003
 20
-25.431832
 30
0.0
 11
607.20050000000003
 21
-25.431832
 31
0.0
  0
LINE
  5
228
  8
LAYER01
 62
     7
 10
517.93564500000002
 20
106.274006
 30
0.0
 11
517.93564500000002
 21
-40.431832
 31
0.0
  0
LINE
  5
229
  8
LAYER01
 62
     7
 10
559.20050000000003
 20
106.274006
 30
0.0
 11
559.20050000000003
 21
-40.431832
 31
0.0
  0
SOLID
  5
22A
  8
LAYER01
 62
     7
 10
493.93564500000002
 20
-29.431671999999999
 30
0.0
 11
517.93564500000002
 21
-25.431832
 31
0.0
 12
493.93564500000002
 22
-21.431992000000001
 32
0.0
 13
493.93564500000002
 23
-21.431992000000001
 33
0.0
  0
SOLID
  5
22B
  8
LAYER01
 62
     7
 10
583.20050000000003
 20
-29.431671999999999
 30
0.0
 11
559.20050000000003
 21
-25.431832
 31
0.0
 12
583.20050000000003
 22
-21.431992000000001
 32
0.0
 13
583.20050000000003
 23
-21.431992000000001
 33
0.0
  0
TEXT
  5
22C
  8
LAYER01
  6
CONTINUOUS
 62
     7
 10
622.20050000000003
 20
-10.431832
 30
0.0
 40
30.0
  1
41
  0
POINT
  5
22D
  8
LAYER01
 62
     7
 10
517.93564500000002
 20
118.274006
 30
0.0
  0
POINT
  5
22E
  8
LAYER01
 62
     7
 10
559.20050000000003
 20
118.274006
 30
0.0
  0
POINT
  5
22F
  8
LAYER01
 62
     7
 10
559.20050000000003
 20
-25.431832
 30
0.0
  0
ENDBLK
  5
230
  8
0
  0
BLOCK
  8
0
  2
*D13
 70
     1
 10
0.0
 20
0.0
 30
0.0
  3
*D13
  1

  0
LINE
  5
233
  8
LAYER01
 62
     7
 10
517.93564500000002
 20
2.6974390000000001
 30
0.0
 11
469.93564500000002
 21
2.6974390000000001
 31
0.0
  0
LINE
  5
234
  8
LAYER01
 62
     7
 10
559.20050000000003
 20
2.6974390000000001
 30
0.0
 11
607.20050000000003
 21
2.6974390000000001
 31
0.0
  0
LINE
  5
235
  8
LAYER01
 62
     7
 10
517.93564500000002
 20
106.274006
 30
0.0
 11
517.93564500000002
 21
-12.302561000000001
 31
0.0
  0
LINE
  5
236
  8
LAYER01
 62
     7
 10
559.20050000000003
 20
106.274006
 30
0.0
 11
559.20050000000003
 21
-12.302561000000001
 31
0.0
  0
SOLID
  5
237
  8
LAYER01
 62
     7
 10
493.93564500000002
 20
-1.302400999999999
 30
0.0
 11
517.93564500000002
 21
2.6974390000000001
 31
0.0
 12
493.93564500000002
 22
6.6972789999999991
 32
0.0
 13
493.93564500000002
 23
6.6972789999999991
 33
0.0
  0
SOLID
  5
238
  8
LAYER01
 62
     7
 10
583.20050000000003
 20
-1.302400999999999
 30
0.0
 11
559.20050000000003
 21
2.6974390000000001
 31
0.0
 12
583.20050000000003
 22
6.6972789999999991
 32
0.0
 13
583.20050000000003
 23
6.6972789999999991
 33
0.0
  0
TEXT
  5
239
  8
LAYER01
  6
CONTINUOUS
 62
     7
 10
622.20050000000003
 20
17.697438999999999
 30
0.0
 40
30.0
  1
41
  0
POINT
  5
23A
  8
LAYER01
 62
     7
 10
517.93564500000002
 20
118.274006
 30
0.0
  0
POINT
  5
23B
  8
LAYER01
 62
     7
 10
559.20050000000003
 20
118.274006
 30
0.0
  0
POINT
  5
23C
  8
LAYER01
 62
     7
 10
559.20050000000003
 20
2.6974390000000001
 30
0.0
  0
ENDBLK
  5
23D
  8
0
  0
BLOCK
  8
0
  2
*D14
 70
     1
 10
0.0
 20
0.0
 30
0.0
  3
*D14
  1

  0
LINE
  5
240
  8
LAYER01
 62
     7
 10
765.93429400000002
 20
288.402038
 30
0.0
 11
765.93429400000002
 21
118.274006
 31
0.0
  0
LINE
  5
241
  8
LAYER01
 62
     7
 10
571.20050000000003
 20
288.402038
 30
0.0
 11
780.93429400000002
 21
288.402038
 31
0.0
  0
LINE
  5
242
  8
LAYER01
 62
     7
 10
571.20050000000003
 20
118.274006
 30
0.0
 11
780.93429400000002
 21
118.274006
 31
0.0
  0
SOLID
  5
243
  8
LAYER01
 62
     7
 10
761.93445399999996
 20
264.402038
 30
0.0
 11
765.93429400000002
 21
288.402038
 31
0.0
 12
769.93413399999997
 22
264.402038
 32
0.0
 13
769.93413399999997
 23
264.402038
 33
0.0
  0
SOLID
  5
244
  8
LAYER01
 62
     7
 10
761.93445399999996
 20
142.27400600000001
 30
0.0
 11
765.93429400000002
 21
118.274006
 31
0.0
 12
769.93413399999997
 22
142.27400600000001
 32
0.0
 13
769.93413399999997
 23
142.27400600000001
 33
0.0
  0
TEXT
  5
245
  8
LAYER01
  6
CONTINUOUS
 62
     7
 10
750.93429400000002
 20
180.40655100000001
 30
0.0
 40
30.0
  1
170
 50
90.0
  0
POINT
  5
246
  8
LAYER01
 62
     7
 10
559.20050000000003
 20
288.402038
 30
0.0
  0
POINT
  5
247
  8
LAYER01
 62
     7
 10
559.20050000000003
 20
118.274006
 30
0.0
  0
POINT
  5
248
  8
LAYER01
 62
     7
 10
765.93429400000002
 20
118.274006
 30
0.0
  0
ENDBLK
  5
249
  8
0
  0
BLOCK
  8
0
  2
*D15
 70
     1
 10
0.0
 20
0.0
 30
0.0
  3
*D15
  1

  0
LINE
  5
24C
  8
LAYER01
 62
     7
 10
634.46052599999985
 20
288.402038
 30
0.0
 11
634.46052599999985
 21
178.01448600000001
 31
0.0
  0
LINE
  5
24D
  8
LAYER01
 62
     7
 10
571.20050000000003
 20
288.402038
 30
0.0
 11
649.46052599999996
 21
288.402038
 31
0.0
  0
LINE
  5
24E
  8
LAYER01
 62
     7
 10
571.20050000000003
 20
178.01448600000001
 30
0.0
 11
649.46052599999996
 21
178.01448600000001
 31
0.0
  0
SOLID
  5
24F
  8
LAYER01
 62
     7
 10
630.4606859999999
 20
264.402038
 30
0.0
 11
634.46052599999985
 21
288.402038
 31
0.0
 12
638.46036600000002
 22
264.402038
 32
0.0
 13
638.46036600000002
 23
264.402038
 33
0.0
  0
SOLID
  5
250
  8
LAYER01
 62
     7
 10
630.4606859999999
 20
202.01448600000001
 30
0.0
 11
634.46052599999985
 21
178.01448600000001
 31
0.0
 12
638.46036600000002
 22
202.01448600000001
 32
0.0
 13
638.46036600000002
 23
202.01448600000001
 33
0.0
  0
TEXT
  5
251
  8
LAYER01
  6
CONTINUOUS
 62
     7
 10
619.46052599999985
 20
210.276791
 30
0.0
 40
30.0
  1
110
 50
90.0
  0
POINT
  5
252
  8
LAYER01
 62
     7
 10
559.20050000000003
 20
288.402038
 30
0.0
  0
POINT
  5
253
  8
LAYER01
 62
     7
 10
559.20050000000003
 20
178.01448600000001
 30
0.0
  0
POINT
  5
254
  8
LAYER01
 62
     7
 10
634.46052599999985
 20
178.01448600000001
 30
0.0
  0
ENDBLK
  5
255
  8
0
  0
BLOCK
  8
0
  2
*D16
 70
     1
 10
0.0
 20
0.0
 30
0.0
  3
*D16
  1

  0
LINE
  5
258
  8
LAYER01
 62
     7
 10
696.22262199999989
 20
288.402038
 30
0.0
 11
696.22262199999989
 21
138.27400600000001
 31
0.0
  0
LINE
  5
259
  8
LAYER01
 62
     7
 10
571.20050000000003
 20
288.402038
 30
0.0
 11
711.222622
 21
288.402038
 31
0.0
  0
LINE
  5
25A
  8
LAYER01
 62
     7
 10
571.20050000000003
 20
138.27400600000001
 30
0.0
 11
711.222622
 21
138.27400600000001
 31
0.0
  0
SOLID
  5
25B
  8
LAYER01
 62
     7
 10
692.22278200000005
 20
264.402038
 30
0.0
 11
696.22262199999989
 21
288.402038
 31
0.0
 12
700.22246199999995
 22
264.402038
 32
0.0
 13
700.22246199999995
 23
264.402038
 33
0.0
  0
SOLID
  5
25C
  8
LAYER01
 62
     7
 10
692.22278200000005
 20
162.27400600000001
 30
0.0
 11
696.22262199999989
 21
138.27400600000001
 31
0.0
 12
700.22246199999995
 22
162.27400600000001
 32
0.0
 13
700.22246199999995
 23
162.27400600000001
 33
0.0
  0
TEXT
  5
25D
  8
LAYER01
  6
CONTINUOUS
 62
     7
 10
681.222622
 20
190.40655100000001
 30
0.0
 40
30.0
  1
150
 50
90.0
  0
POINT
  5
25E
  8
LAYER01
 62
     7
 10
559.20050000000003
 20
288.402038
 30
0.0
  0
POINT
  5
25F
  8
LAYER01
 62
     7
 10
559.20050000000003
 20
138.27400600000001
 30
0.0
  0
POINT
  5
260
  8
LAYER01
 62
     7
 10
696.22262199999989
 20
138.27400600000001
 30
0.0
  0
ENDBLK
  5
261
  8
0
  0
BLOCK
  8
0
  2
HORIZON-G11
 70
     0
 10
0.0
 20
0.0
 30
0.0
  3
HORIZON-G11
  1

  0
POLYLINE
  5
99C
  8
LAYER01
  6
CONTINUOUS
 62
     7
 66
     1
 10
0.0
 20
0.0
 30
0.0
 70
     1
  0
VERTEX
  5
1687
  8
LAYER01
  6
CONTINUOUS
 62
     7
 10
5217.7496709999996
 20
-1244.987672
 30
0.0
  0
VERTEX
  5
1688
  8
LAYER01
  6
CONTINUOUS
 62
     7
 10
5259.1793579999994
 20
-1244.987672
 30
0.0
  0
VERTEX
  5
1689
  8
LAYER01
  6
CONTINUOUS
 62
     7
 10
5311.2073369999989
 20
-1363.495846
 30
0.0
  0
VERTEX
  5
168A
  8
LAYER01
  6
CONTINUOUS
 62
     7
 10
5363.2353159999993
 20
-1244.987672
 30
0.0
  0
VERTEX
  5
168B
  8
LAYER01
  6
CONTINUOUS
 62
     7
 10
5406.5919649999996
 20
-1244.987672
 30
0.0
  0
VERTEX
  5
168C
  8
LAYER01
  6
CONTINUOUS
 62
     7
 10
5311.2073369999989
 20
-1456.953512
 30
0.0
  0
VERTEX
  5
168D
  8
LAYER01
  6
CONTINUOUS
 62
     7
 10
5217.7496709999996
 20
-1244.987672
 30
0.0
  0
VERTEX
  5
168E
  8
LAYER01
  6
CONTINUOUS
 62
     7
 10
5217.7496709999996
 20
-1244.987672
 30
0.0
  0
SEQEND
  5
168F
  8
LAYER01
  6
CONTINUOUS
 62
     7
  0
POLYLINE
  5
99D
  8
LAYER01
  6
CONTINUOUS
 62
     7
 66
     1
 10
0.0
 20
0.0
 30
0.0
 70
     1
  0
VERTEX
  5
1690
  8
LAYER01
  6
CONTINUOUS
 62
     7
 10
5359.3813909999999
 20
-1389.509836
 30
0.0
  0
VERTEX
  5
1691
  8
LAYER01
  6
CONTINUOUS
 62
     7
 10
5373.8336079999999
 20
-1355.7879969999999
 30
0.0
  0
VERTEX
  5
1692
  8
LAYER01
  6
CONTINUOUS
 62
     7
 10
5436.4598779999997
 20
-1355.7879969999999
 30
0.0
  0
VERTEX
  5
1693
  8
LAYER01
  6
CONTINUOUS
 62
     7
 10
5404.6650020000006
 20
-1286.417359
 30
0.0
  0
VERTEX
  5
1694
  8
LAYER01
  6
CONTINUOUS
 62
     7
 10
5422.9711429999998
 20
-1242.097229
 30
0.0
  0
VERTEX
  5
1695
  8
LAYER01
  6
CONTINUOUS
 62
     7
 10
5508.7209600000006
 20
-1423.2316740000001
 30
0.0
  0
VERTEX
  5
1696
  8
LAYER01
  6
CONTINUOUS
 62
     7
 10
5508.7209600000006
 20
-1244.987672
 30
0.0
  0
VERTEX
  5
1697
  8
LAYER01
  6
CONTINUOUS
 62
     7
 10
5623.3752090000007
 20
-1244.987672
 30
0.0
  0
VERTEX
  5
1698
  8
LAYER01
  6
CONTINUOUS
 62
     7
 10
5623.3752090000007
 20
-1244.987672
 30
0.0
  0
VERTEX
  5
1699
  8
LAYER01
  6
CONTINUOUS
 62
     7
 10
5633.9735009999986
 20
-1246.9146350000001
 30
0.0
  0
VERTEX
  5
169A
  8
LAYER01
  6
CONTINUOUS
 62
     7
 10
5643.6083119999994
 20
-1250.7685590000001
 30
0.0
  0
VERTEX
  5
169B
  8
LAYER01
  6
CONTINUOUS
 62
     7
 10
5652.2796420000004
 20
-1257.5129260000001
 30
0.0
  0
VERTEX
  5
169C
  8
LAYER01
  6
CONTINUOUS
 62
     7
 10
5659.987490999999
 20
-1264.257294
 30
0.0
  0
VERTEX
  5
169D
  8
LAYER01
  6
CONTINUOUS
 62
     7
 10
5666.7318580000001
 20
-1272.9286239999999
 30
0.0
  0
VERTEX
  5
169E
  8
LAYER01
  6
CONTINUOUS
 62
     7
 10
5671.5492640000002
 20
-1282.563435
 30
0.0
  0
VERTEX
  5
169F
  8
LAYER01
  6
CONTINUOUS
 62
     7
 10
5675.4031880000002
 20
-1294.1252079999999
 30
0.0
  0
VERTEX
  5
16A0
  8
LAYER01
  6
CONTINUOUS
 62
     7
 10
5676.366669
 20
-1304.7235000000001
 30
0.0
  0
VERTEX
  5
16A1
  8
LAYER01
  6
CONTINUOUS
 62
     7
 10
5676.366669
 20
-1304.7235000000001
 30
0.0
  0
VERTEX
  5
16A2
  8
LAYER01
  6
CONTINUOUS
 62
     7
 10
5676.366669
 20
-1316.285273
 30
0.0
  0
VERTEX
  5
16A3
  8
LAYER01
  6
CONTINUOUS
 62
     7
 10
5674.4397070000014
 20
-1325.9200840000001
 30
0.0
  0
VERTEX
  5
16A4
  8
LAYER01
  6
CONTINUOUS
 62
     7
 10
5670.5857829999986
 20
-1335.554895
 30
0.0
  0
VERTEX
  5
16A5
  8
LAYER01
  6
CONTINUOUS
 62
     7
 10
5665.7683770000003
 20
-1344.226224
 30
0.0
  0
VERTEX
  5
16A6
  8
LAYER01
  6
CONTINUOUS
 62
     7
 10
5659.0240100000001
 20
-1351.9340729999999
 30
0.0
  0
VERTEX
  5
16A7
  8
LAYER01
  6
CONTINUOUS
 62
     7
 10
5651.3161609999997
 20
-1358.678441
 30
0.0
  0
VERTEX
  5
16A8
  8
LAYER01
  6
CONTINUOUS
 62
     7
 10
5642.6448310000014
 20
-1363.495846
 30
0.0
  0
VERTEX
  5
16A9
  8
LAYER01
  6
CONTINUOUS
 62
     7
 10
5632.0465389999999
 20
-1367.3497709999999
 30
0.0
  0
VERTEX
  5
16AA
  8
LAYER01
  6
CONTINUOUS
 62
     7
 10
5693.7093290000003
 20
-1449.2456629999999
 30
0.0
  0
VERTEX
  5
16AB
  8
LAYER01
  6
CONTINUOUS
 62
     7
 10
5693.7093290000003
 20
-1244.987672
 30
0.0
  0
VERTEX
  5
16AC
  8
LAYER01
  6
CONTINUOUS
 62
     7
 10
5734.1755350000012
 20
-1244.987672
 30
0.0
  0
VERTEX
  5
16AD
  8
LAYER01
  6
CONTINUOUS
 62
     7
 10
5734.1755350000012
 20
-1451.1726249999999
 30
0.0
  0
VERTEX
  5
16AE
  8
LAYER01
  6
CONTINUOUS
 62
     7
 10
5647.4622369999997
 20
-1451.1726249999999
 30
0.0
  0
VERTEX
  5
16AF
  8
LAYER01
  6
CONTINUOUS
 62
     7
 10
5563.6393820000003
 20
-1344.226224
 30
0.0
  0
VERTEX
  5
16B0
  8
LAYER01
  6
CONTINUOUS
 62
     7
 10
5606.0325499999999
 20
-1344.226224
 30
0.0
  0
VERTEX
  5
16B1
  8
LAYER01
  6
CONTINUOUS
 62
     7
 10
5606.0325499999999
 20
-1344.226224
 30
0.0
  0
VERTEX
  5
16B2
  8
LAYER01
  6
CONTINUOUS
 62
     7
 10
5611.8134360000013
 20
-1343.262743
 30
0.0
  0
VERTEX
  5
16B3
  8
LAYER01
  6
CONTINUOUS
 62
     7
 10
5617.5943229999993
 20
-1341.335781
 30
0.0
  0
VERTEX
  5
16B4
  8
LAYER01
  6
CONTINUOUS
 62
     7
 10
5622.411728
 20
-1338.445338
 30
0.0
  0
VERTEX
  5
16B5
  8
LAYER01
  6
CONTINUOUS
 62
     7
 10
5627.2291340000002
 20
-1334.591414
 30
0.0
  0
VERTEX
  5
16B6
  8
LAYER01
  6
CONTINUOUS
 62
     7
 10
5630.1195770000013
 20
-1329.7740080000001
 30
0.0
  0
VERTEX
  5
16B7
  8
LAYER01
  6
CONTINUOUS
 62
     7
 10
5633.0100199999997
 20
-1323.9931220000001
 30
0.0
  0
VERTEX
  5
16B8
  8
LAYER01
  6
CONTINUOUS
 62
     7
 10
5634.9369820000002
 20
-1318.212235
 30
0.0
  0
VERTEX
  5
16B9
  8
LAYER01
  6
CONTINUOUS
 62
     7
 10
5634.9369820000002
 20
-1311.4678670000001
 30
0.0
  0
VERTEX
  5
16BA
  8
LAYER01
  6
CONTINUOUS
 62
     7
 10
5634.9369820000002
 20
-1311.4678670000001
 30
0.0
  0
VERTEX
  5
16BB
  8
LAYER01
  6
CONTINUOUS
 62
     7
 10
5634.9369820000002
 20
-1305.6869810000001
 30
0.0
  0
VERTEX
  5
16BC
  8
LAYER01
  6
CONTINUOUS
 62
     7
 10
5633.0100199999997
 20
-1299.9060939999999
 30
0.0
  0
VERTEX
  5
16BD
  8
LAYER01
  6
CONTINUOUS
 62
     7
 10
5631.0830580000002
 20
-1294.1252079999999
 30
0.0
  0
VERTEX
  5
16BE
  8
LAYER01
  6
CONTINUOUS
 62
     7
 10
5627.2291340000002
 20
-1289.307802
 30
0.0
  0
VERTEX
  5
16BF
  8
LAYER01
  6
CONTINUOUS
 62
     7
 10
5623.3752090000007
 20
-1285.453878
 30
0.0
  0
VERTEX
  5
16C0
  8
LAYER01
  6
CONTINUOUS
 62
     7
 10
5617.5943229999993
 20
-1282.563435
 30
0.0
  0
VERTEX
  5
16C1
  8
LAYER01
  6
CONTINUOUS
 62
     7
 10
5611.8134360000013
 20
-1280.636473
 30
0.0
  0
VERTEX
  5
16C2
  8
LAYER01
  6
CONTINUOUS
 62
     7
 10
5606.0325499999999
 20
-1279.672992
 30
0.0
  0
VERTEX
  5
16C3
  8
LAYER01
  6
CONTINUOUS
 62
     7
 10
5552.0776089999999
 20
-1279.672992
 30
0.0
  0
VERTEX
  5
16C4
  8
LAYER01
  6
CONTINUOUS
 62
     7
 10
5552.0776089999999
 20
-1451.1726249999999
 30
0.0
  0
VERTEX
  5
16C5
  8
LAYER01
  6
CONTINUOUS
 62
     7
 10
5482.7069709999996
 20
-1451.1726249999999
 30
0.0
  0
VERTEX
  5
16C6
  8
LAYER01
  6
CONTINUOUS
 62
     7
 10
5453.8025379999999
 20
-1389.509836
 30
0.0
  0
VERTEX
  5
16C7
  8
LAYER01
  6
CONTINUOUS
 62
     7
 10
5359.3813909999999
 20
-1389.509836
 30
0.0
  0
VERTEX
  5
16C8
  8
LAYER01
  6
CONTINUOUS
 62
     7
 10
5359.3813909999999
 20
-1389.509836
 30
0.0
  0
SEQEND
  5
16C9
  8
LAYER01
  6
CONTINUOUS
 62
     7
  0
POLYLINE
  5
99E
  8
LAYER01
  6
CONTINUOUS
 62
     7
 66
     1
 10
0.0
 20
0.0
 30
0.0
 70
     1
  0
VERTEX
  5
16CA
  8
LAYER01
  6
CONTINUOUS
 62
     7
 10
5921.0908659999996
 20
-1258.476408
 30
0.0
  0
VERTEX
  5
16CB
  8
LAYER01
  6
CONTINUOUS
 62
     7
 10
5895.0768760000001
 20
-1291.2347649999999
 30
0.0
  0
VERTEX
  5
16CC
  8
LAYER01
  6
CONTINUOUS
 62
     7
 10
5895.0768760000001
 20
-1291.2347649999999
 30
0.0
  0
VERTEX
  5
16CD
  8
LAYER01
  6
CONTINUOUS
 62
     7
 10
5886.405546
 20
-1285.453878
 30
0.0
  0
VERTEX
  5
16CE
  8
LAYER01
  6
CONTINUOUS
 62
     7
 10
5877.7342170000002
 20
-1280.636473
 30
0.0
  0
VERTEX
  5
16CF
  8
LAYER01
  6
CONTINUOUS
 62
     7
 10
5868.0994060000003
 20
-1277.7460289999999
 30
0.0
  0
VERTEX
  5
16D0
  8
LAYER01
  6
CONTINUOUS
 62
     7
 10
5857.5011139999997
 20
-1277.7460289999999
 30
0.0
  0
VERTEX
  5
16D1
  8
LAYER01
  6
CONTINUOUS
 62
     7
 10
5857.5011139999997
 20
-1277.7460289999999
 30
0.0
  0
VERTEX
  5
16D2
  8
LAYER01
  6
CONTINUOUS
 62
     7
 10
5850.756746
 20
-1277.7460289999999
 30
0.0
  0
VERTEX
  5
16D3
  8
LAYER01
  6
CONTINUOUS
 62
     7
 10
5844.0123789999998
 20
-1278.7095099999999
 30
0.0
  0
VERTEX
  5
16D4
  8
LAYER01
  6
CONTINUOUS
 62
     7
 10
5837.2680110000001
 20
-1280.636473
 30
0.0
  0
VERTEX
  5
16D5
  8
LAYER01
  6
CONTINUOUS
 62
     7
 10
5830.5236429999986
 20
-1283.526916
 30
0.0
  0
VERTEX
  5
16D6
  8
LAYER01
  6
CONTINUOUS
 62
     7
 10
5824.742757
 20
-1286.417359
 30
0.0
  0
VERTEX
  5
16D7
  8
LAYER01
  6
CONTINUOUS
 62
     7
 10
5819.9253509999999
 20
-1290.271283
 30
0.0
  0
VERTEX
  5
16D8
  8
LAYER01
  6
CONTINUOUS
 62
     7
 10
5814.1444650000003
 20
-1294.1252079999999
 30
0.0
  0
VERTEX
  5
16D9
  8
LAYER01
  6
CONTINUOUS
 62
     7
 10
5810.29054
 20
-1298.9426129999999
 30
0.0
  0
VERTEX
  5
16DA
  8
LAYER01
  6
CONTINUOUS
 62
     7
 10
5805.4731350000002
 20
-1304.7235000000001
 30
0.0
  0
VERTEX
  5
16DB
  8
LAYER01
  6
CONTINUOUS
 62
     7
 10
5802.582692
 20
-1310.5043860000001
 30
0.0
  0
VERTEX
  5
16DC
  8
LAYER01
  6
CONTINUOUS
 62
     7
 10
5798.7287669999996
 20
-1316.285273
 30
0.0
  0
VERTEX
  5
16DD
  8
LAYER01
  6
CONTINUOUS
 62
     7
 10
5795.8383240000003
 20
-1322.066159
 30
0.0
  0
VERTEX
  5
16DE
  8
LAYER01
  6
CONTINUOUS
 62
     7
 10
5793.9113619999998
 20
-1328.8105270000001
 30
0.0
  0
VERTEX
  5
16DF
  8
LAYER01
  6
CONTINUOUS
 62
     7
 10
5792.9478809999991
 20
-1335.554895
 30
0.0
  0
VERTEX
  5
16E0
  8
LAYER01
  6
CONTINUOUS
 62
     7
 10
5791.9844000000003
 20
-1342.299262
 30
0.0
  0
VERTEX
  5
16E1
  8
LAYER01
  6
CONTINUOUS
 62
     7
 10
5791.0209189999996
 20
-1350.0071109999999
 30
0.0
  0
VERTEX
  5
16E2
  8
LAYER01
  6
CONTINUOUS
 62
     7
 10
5791.0209189999996
 20
-1350.0071109999999
 30
0.0
  0
VERTEX
  5
16E3
  8
LAYER01
  6
CONTINUOUS
 62
     7
 10
5791.9844000000003
 20
-1356.751479
 30
0.0
  0
VERTEX
  5
16E4
  8
LAYER01
  6
CONTINUOUS
 62
     7
 10
5792.9478809999991
 20
-1363.495846
 30
0.0
  0
VERTEX
  5
16E5
  8
LAYER01
  6
CONTINUOUS
 62
     7
 10
5793.9113619999998
 20
-1370.2402139999999
 30
0.0
  0
VERTEX
  5
16E6
  8
LAYER01
  6
CONTINUOUS
 62
     7
 10
5796.801805000001
 20
-1376.0210999999999
 30
0.0
  0
VERTEX
  5
16E7
  8
LAYER01
  6
CONTINUOUS
 62
     7
 10
5798.7287669999996
 20
-1381.8019870000001
 30
0.0
  0
VERTEX
  5
16E8
  8
LAYER01
  6
CONTINUOUS
 62
     7
 10
5802.582692
 20
-1387.5828730000001
 30
0.0
  0
VERTEX
  5
16E9
  8
LAYER01
  6
CONTINUOUS
 62
     7
 10
5806.436616
 20
-1393.36376
 30
0.0
  0
VERTEX
  5
16EA
  8
LAYER01
  6
CONTINUOUS
 62
     7
 10
5810.29054
 20
-1398.181165
 30
0.0
  0
VERTEX
  5
16EB
  8
LAYER01
  6
CONTINUOUS
 62
     7
 10
5815.107946000001
 20
-1402.9985710000001
 30
0.0
  0
VERTEX
  5
16EC
  8
LAYER01
  6
CONTINUOUS
 62
     7
 10
5819.9253509999999
 20
-1406.8524950000001
 30
0.0
  0
VERTEX
  5
16ED
  8
LAYER01
  6
CONTINUOUS
 62
     7
 10
5825.7062380000007
 20
-1409.7429380000001
 30
0.0
  0
VERTEX
  5
16EE
  8
LAYER01
  6
CONTINUOUS
 62
     7
 10
5831.4871240000002
 20
-1412.633382
 30
0.0
  0
VERTEX
  5
16EF
  8
LAYER01
  6
CONTINUOUS
 62
     7
 10
5838.2314919999999
 20
-1415.523825
 30
0.0
  0
VERTEX
  5
16F0
  8
LAYER01
  6
CONTINUOUS
 62
     7
 10
5844.0123789999998
 20
-1417.450787
 30
0.0
  0
VERTEX
  5
16F1
  8
LAYER01
  6
CONTINUOUS
 62
     7
 10
5850.756746
 20
-1418.414268
 30
0.0
  0
VERTEX
  5
16F2
  8
LAYER01
  6
CONTINUOUS
 62
     7
 10
5858.4645950000004
 20
-1418.414268
 30
0.0
  0
VERTEX
  5
16F3
  8
LAYER01
  6
CONTINUOUS
 62
     7
 10
5858.4645950000004
 20
-1418.414268
 30
0.0
  0
VERTEX
  5
16F4
  8
LAYER01
  6
CONTINUOUS
 62
     7
 10
5869.062887000001
 20
-1417.450787
 30
0.0
  0
VERTEX
  5
16F5
  8
LAYER01
  6
CONTINUOUS
 62
     7
 10
5877.7342170000002
 20
-1415.523825
 30
0.0
  0
VERTEX
  5
16F6
  8
LAYER01
  6
CONTINUOUS
 62
     7
 10
5886.405546
 20
-1410.7064190000001
 30
0.0
  0
VERTEX
  5
16F7
  8
LAYER01
  6
CONTINUOUS
 62
     7
 10
5895.0768760000001
 20
-1404.9255330000001
 30
0.0
  0
VERTEX
  5
16F8
  8
LAYER01
  6
CONTINUOUS
 62
     7
 10
5920.1273849999998
 20
-1438.647371
 30
0.0
  0
VERTEX
  5
16F9
  8
LAYER01
  6
CONTINUOUS
 62
     7
 10
5920.1273849999998
 20
-1438.647371
 30
0.0
  0
VERTEX
  5
16FA
  8
LAYER01
  6
CONTINUOUS
 62
     7
 10
5905.6751679999998
 20
-1447.3187009999999
 30
0.0
  0
VERTEX
  5
16FB
  8
LAYER01
  6
CONTINUOUS
 62
     7
 10
5897.9673189999994
 20
-1450.2091439999999
 30
0.0
  0
VERTEX
  5
16FC
  8
LAYER01
  6
CONTINUOUS
 62
     7
 10
5891.2229520000001
 20
-1453.0995869999999
 30
0.0
  0
VERTEX
  5
16FD
  8
LAYER01
  6
CONTINUOUS
 62
     7
 10
5883.5151029999997
 20
-1455.02655
 30
0.0
  0
VERTEX
  5
16FE
  8
LAYER01
  6
CONTINUOUS
 62
     7
 10
5875.8072540000003
 20
-1455.990031
 30
0.0
  0
VERTEX
  5
16FF
  8
LAYER01
  6
CONTINUOUS
 62
     7
 10
5858.4645950000004
 20
-1456.953512
 30
0.0
  0
VERTEX
  5
1700
  8
LAYER01
  6
CONTINUOUS
 62
     7
 10
5858.4645950000004
 20
-1456.953512
 30
0.0
  0
VERTEX
  5
1701
  8
LAYER01
  6
CONTINUOUS
 62
     7
 10
5846.902822
 20
-1455.990031
 30
0.0
  0
VERTEX
  5
1702
  8
LAYER01
  6
CONTINUOUS
 62
     7
 10
5836.3045299999994
 20
-1454.0630679999999
 30
0.0
  0
VERTEX
  5
1703
  8
LAYER01
  6
CONTINUOUS
 62
     7
 10
5825.7062380000007
 20
-1452.1361059999999
 30
0.0
  0
VERTEX
  5
1704
  8
LAYER01
  6
CONTINUOUS
 62
     7
 10
5816.0714269999999
 20
-1448.2821819999999
 30
0.0
  0
VERTEX
  5
1705
  8
LAYER01
  6
CONTINUOUS
 62
     7
 10
5806.436616
 20
-1443.464776
 30
0.0
  0
VERTEX
  5
1706
  8
LAYER01
  6
CONTINUOUS
 62
     7
 10
5797.7652859999998
 20
-1438.647371
 30
0.0
  0
VERTEX
  5
1707
  8
LAYER01
  6
CONTINUOUS
 62
     7
 10
5789.093957
 20
-1431.9030029999999
 30
0.0
  0
VERTEX
  5
1708
  8
LAYER01
  6
CONTINUOUS
 62
     7
 10
5781.3861079999988
 20
-1425.1586359999999
 30
0.0
  0
VERTEX
  5
1709
  8
LAYER01
  6
CONTINUOUS
 62
     7
 10
5773.6782590000003
 20
-1417.450787
 30
0.0
  0
VERTEX
  5
170A
  8
LAYER01
  6
CONTINUOUS
 62
     7
 10
5767.8973729999998
 20
-1408.7794570000001
 30
0.0
  0
VERTEX
  5
170B
  8
LAYER01
  6
CONTINUOUS
 62
     7
 10
5762.1164859999999
 20
-1400.1081280000001
 30
0.0
  0
VERTEX
  5
170C
  8
LAYER01
  6
CONTINUOUS
 62
     7
 10
5757.2990810000001
 20
-1390.473317
 30
0.0
  0
VERTEX
  5
170D
  8
LAYER01
  6
CONTINUOUS
 62
     7
 10
5754.4086370000005
 20
-1380.8385060000001
 30
0.0
  0
VERTEX
  5
170E
  8
LAYER01
  6
CONTINUOUS
 62
     7
 10
5751.5181939999993
 20
-1370.2402139999999
 30
0.0
  0
VERTEX
  5
170F
  8
LAYER01
  6
CONTINUOUS
 62
     7
 10
5749.5912319999998
 20
-1359.641922
 30
0.0
  0
VERTEX
  5
1710
  8
LAYER01
  6
CONTINUOUS
 62
     7
 10
5748.627751
 20
-1348.0801489999999
 30
0.0
  0
VERTEX
  5
1711
  8
LAYER01
  6
CONTINUOUS
 62
     7
 10
5748.627751
 20
-1348.0801489999999
 30
0.0
  0
VERTEX
  5
1712
  8
LAYER01
  6
CONTINUOUS
 62
     7
 10
5749.5912319999998
 20
-1337.481857
 30
0.0
  0
VERTEX
  5
1713
  8
LAYER01
  6
CONTINUOUS
 62
     7
 10
5751.5181939999993
 20
-1325.9200840000001
 30
0.0
  0
VERTEX
  5
1714
  8
LAYER01
  6
CONTINUOUS
 62
     7
 10
5753.4451560000007
 20
-1316.285273
 30
0.0
  0
VERTEX
  5
1715
  8
LAYER01
  6
CONTINUOUS
 62
     7
 10
5757.2990810000001
 20
-1305.6869810000001
 30
0.0
  0
VERTEX
  5
1716
  8
LAYER01
  6
CONTINUOUS
 62
     7
 10
5762.1164859999999
 20
-1296.0521699999999
 30
0.0
  0
VERTEX
  5
1717
  8
LAYER01
  6
CONTINUOUS
 62
     7
 10
5766.9338909999997
 20
-1287.38084
 30
0.0
  0
VERTEX
  5
1718
  8
LAYER01
  6
CONTINUOUS
 62
     7
 10
5773.6782590000003
 20
-1278.7095099999999
 30
0.0
  0
VERTEX
  5
1719
  8
LAYER01
  6
CONTINUOUS
 62
     7
 10
5780.4226269999999
 20
-1271.0016619999999
 30
0.0
  0
VERTEX
  5
171A
  8
LAYER01
  6
CONTINUOUS
 62
     7
 10
5788.130474999999
 20
-1264.257294
 30
0.0
  0
VERTEX
  5
171B
  8
LAYER01
  6
CONTINUOUS
 62
     7
 10
5796.801805000001
 20
-1257.5129260000001
 30
0.0
  0
VERTEX
  5
171C
  8
LAYER01
  6
CONTINUOUS
 62
     7
 10
5805.4731350000002
 20
-1252.6955210000001
 30
0.0
  0
VERTEX
  5
171D
  8
LAYER01
  6
CONTINUOUS
 62
     7
 10
5815.107946000001
 20
-1247.8781160000001
 30
0.0
  0
VERTEX
  5
171E
  8
LAYER01
  6
CONTINUOUS
 62
     7
 10
5824.742757
 20
-1244.024191
 30
0.0
  0
VERTEX
  5
171F
  8
LAYER01
  6
CONTINUOUS
 62
     7
 10
5835.3410490000006
 20
-1241.133748
 30
0.0
  0
VERTEX
  5
1720
  8
LAYER01
  6
CONTINUOUS
 62
     7
 10
5846.902822
 20
-1240.170267
 30
0.0
  0
VERTEX
  5
1721
  8
LAYER01
  6
CONTINUOUS
 62
     7
 10
5857.5011139999997
 20
-1239.206786
 30
0.0
  0
VERTEX
  5
1722
  8
LAYER01
  6
CONTINUOUS
 62
     7
 10
5857.5011139999997
 20
-1239.206786
 30
0.0
  0
VERTEX
  5
1723
  8
LAYER01
  6
CONTINUOUS
 62
     7
 10
5874.8437729999996
 20
-1240.170267
 30
0.0
  0
VERTEX
  5
1724
  8
LAYER01
  6
CONTINUOUS
 62
     7
 10
5883.5151029999997
 20
-1241.133748
 30
0.0
  0
VERTEX
  5
1725
  8
LAYER01
  6
CONTINUOUS
 62
     7
 10
5891.2229520000001
 20
-1243.06071
 30
0.0
  0
VERTEX
  5
1726
  8
LAYER01
  6
CONTINUOUS
 62
     7
 10
5897.9673189999994
 20
-1245.951153
 30
0.0
  0
VERTEX
  5
1727
  8
LAYER01
  6
CONTINUOUS
 62
     7
 10
5905.6751679999998
 20
-1248.8415970000001
 30
0.0
  0
VERTEX
  5
1728
  8
LAYER01
  6
CONTINUOUS
 62
     7
 10
5913.383017000001
 20
-1253.6590020000001
 30
0.0
  0
VERTEX
  5
1729
  8
LAYER01
  6
CONTINUOUS
 62
     7
 10
5921.0908659999996
 20
-1258.476408
 30
0.0
  0
VERTEX
  5
172A
  8
LAYER01
  6
CONTINUOUS
 62
     7
 10
5921.0908659999996
 20
-1258.476408
 30
0.0
  0
SEQEND
  5
172B
  8
LAYER01
  6
CONTINUOUS
 62
     7
  0
POLYLINE
  5
99F
  8
LAYER01
  6
CONTINUOUS
 62
     7
 66
     1
 10
0.0
 20
0.0
 30
0.0
 70
     1
  0
VERTEX
  5
172C
  8
LAYER01
  6
CONTINUOUS
 62
     7
 10
6014.5485310000004
 20
-1240.170267
 30
0.0
  0
VERTEX
  5
172D
  8
LAYER01
  6
CONTINUOUS
 62
     7
 10
6014.5485310000004
 20
-1240.170267
 30
0.0
  0
VERTEX
  5
172E
  8
LAYER01
  6
CONTINUOUS
 62
     7
 10
6003.9502389999989
 20
-1241.133748
 30
0.0
  0
VERTEX
  5
172F
  8
LAYER01
  6
CONTINUOUS
 62
     7
 10
5992.3884660000003
 20
-1242.097229
 30
0.0
  0
VERTEX
  5
1730
  8
LAYER01
  6
CONTINUOUS
 62
     7
 10
5982.7536549999986
 20
-1244.987672
 30
0.0
  0
VERTEX
  5
1731
  8
LAYER01
  6
CONTINUOUS
 62
     7
 10
5972.1553629999999
 20
-1248.8415970000001
 30
0.0
  0
VERTEX
  5
1732
  8
LAYER01
  6
CONTINUOUS
 62
     7
 10
5962.520552
 20
-1252.6955210000001
 30
0.0
  0
VERTEX
  5
1733
  8
LAYER01
  6
CONTINUOUS
 62
     7
 10
5953.8492229999993
 20
-1258.476408
 30
0.0
  0
VERTEX
  5
1734
  8
LAYER01
  6
CONTINUOUS
 62
     7
 10
5945.177893
 20
-1264.257294
 30
0.0
  0
VERTEX
  5
1735
  8
LAYER01
  6
CONTINUOUS
 62
     7
 10
5937.4700439999997
 20
-1271.9651429999999
 30
0.0
  0
VERTEX
  5
1736
  8
LAYER01
  6
CONTINUOUS
 62
     7
 10
5930.725676
 20
-1279.672992
 30
0.0
  0
VERTEX
  5
1737
  8
LAYER01
  6
CONTINUOUS
 62
     7
 10
5923.9813090000007
 20
-1287.38084
 30
0.0
  0
VERTEX
  5
1738
  8
LAYER01
  6
CONTINUOUS
 62
     7
 10
5918.2004219999999
 20
-1296.0521699999999
 30
0.0
  0
VERTEX
  5
1739
  8
LAYER01
  6
CONTINUOUS
 62
     7
 10
5913.383017000001
 20
-1305.6869810000001
 30
0.0
  0
VERTEX
  5
173A
  8
LAYER01
  6
CONTINUOUS
 62
     7
 10
5910.4925739999999
 20
-1316.285273
 30
0.0
  0
VERTEX
  5
173B
  8
LAYER01
  6
CONTINUOUS
 62
     7
 10
5907.6021299999993
 20
-1325.9200840000001
 30
0.0
  0
VERTEX
  5
173C
  8
LAYER01
  6
CONTINUOUS
 62
     7
 10
5905.6751679999998
 20
-1337.481857
 30
0.0
  0
VERTEX
  5
173D
  8
LAYER01
  6
CONTINUOUS
 62
     7
 10
5904.711687
 20
-1348.0801489999999
 30
0.0
  0
VERTEX
  5
173E
  8
LAYER01
  6
CONTINUOUS
 62
     7
 10
5904.711687
 20
-1348.0801489999999
 30
0.0
  0
VERTEX
  5
173F
  8
LAYER01
  6
CONTINUOUS
 62
     7
 10
5905.6751679999998
 20
-1359.641922
 30
0.0
  0
VERTEX
  5
1740
  8
LAYER01
  6
CONTINUOUS
 62
     7
 10
5906.6386490000014
 20
-1370.2402139999999
 30
0.0
  0
VERTEX
  5
1741
  8
LAYER01
  6
CONTINUOUS
 62
     7
 10
5909.5290930000001
 20
-1380.8385060000001
 30
0.0
  0
VERTEX
  5
1742
  8
LAYER01
  6
CONTINUOUS
 62
     7
 10
5913.383017000001
 20
-1390.473317
 30
0.0
  0
VERTEX
  5
1743
  8
LAYER01
  6
CONTINUOUS
 62
     7
 10
5917.2369409999992
 20
-1400.1081280000001
 30
0.0
  0
VERTEX
  5
1744
  8
LAYER01
  6
CONTINUOUS
 62
     7
 10
5923.017828
 20
-1408.7794570000001
 30
0.0
  0
VERTEX
  5
1745
  8
LAYER01
  6
CONTINUOUS
 62
     7
 10
5928.7987139999996
 20
-1417.450787
 30
0.0
  0
VERTEX
  5
1746
  8
LAYER01
  6
CONTINUOUS
 62
     7
 10
5935.5430820000001
 20
-1425.1586359999999
 30
0.0
  0
VERTEX
  5
1747
  8
LAYER01
  6
CONTINUOUS
 62
     7
 10
5943.2509310000014
 20
-1432.866485
 30
0.0
  0
VERTEX
  5
1748
  8
LAYER01
  6
CONTINUOUS
 62
     7
 10
5951.9222600000003
 20
-1438.647371
 30
0.0
  0
VERTEX
  5
1749
  8
LAYER01
  6
CONTINUOUS
 62
     7
 10
5960.5935900000004
 20
-1444.4282579999999
 30
0.0
  0
VERTEX
  5
174A
  8
LAYER01
  6
CONTINUOUS
 62
     7
 10
5970.2284009999994
 20
-1449.2456629999999
 30
0.0
  0
VERTEX
  5
174B
  8
LAYER01
  6
CONTINUOUS
 62
     7
 10
5979.8632119999993
 20
-1453.0995869999999
 30
0.0
  0
VERTEX
  5
174C
  8
LAYER01
  6
CONTINUOUS
 62
     7
 10
5990.4615039999999
 20
-1455.02655
 30
0.0
  0
VERTEX
  5
174D
  8
LAYER01
  6
CONTINUOUS
 62
     7
 10
6001.0597959999996
 20
-1456.953512
 30
0.0
  0
VERTEX
  5
174E
  8
LAYER01
  6
CONTINUOUS
 62
     7
 10
6011.6580880000001
 20
-1457.916993
 30
0.0
  0
VERTEX
  5
174F
  8
LAYER01
  6
CONTINUOUS
 62
     7
 10
6011.6580880000001
 20
-1457.916993
 30
0.0
  0
VERTEX
  5
1750
  8
LAYER01
  6
CONTINUOUS
 62
     7
 10
6023.2198609999996
 20
-1456.953512
 30
0.0
  0
VERTEX
  5
1751
  8
LAYER01
  6
CONTINUOUS
 62
     7
 10
6033.8181530000002
 20
-1455.02655
 30
0.0
  0
VERTEX
  5
1752
  8
LAYER01
  6
CONTINUOUS
 62
     7
 10
6044.4164450000007
 20
-1452.1361059999999
 30
0.0
  0
VERTEX
  5
1753
  8
LAYER01
  6
CONTINUOUS
 62
     7
 10
6054.0512560000006
 20
-1448.2821819999999
 30
0.0
  0
VERTEX
  5
1754
  8
LAYER01
  6
CONTINUOUS
 62
     7
 10
6063.6860669999996
 20
-1443.464776
 30
0.0
  0
VERTEX
  5
1755
  8
LAYER01
  6
CONTINUOUS
 62
     7
 10
6072.3573960000012
 20
-1437.68389
 30
0.0
  0
VERTEX
  5
1756
  8
LAYER01
  6
CONTINUOUS
 62
     7
 10
6081.0287259999986
 20
-1431.9030029999999
 30
0.0
  0
VERTEX
  5
1757
  8
LAYER01
  6
CONTINUOUS
 62
     7
 10
6088.7365749999999
 20
-1424.1951550000001
 30
0.0
  0
VERTEX
  5
1758
  8
LAYER01
  6
CONTINUOUS
 62
     7
 10
6095.4809429999996
 20
-1416.487306
 30
0.0
  0
VERTEX
  5
1759
  8
LAYER01
  6
CONTINUOUS
 62
     7
 10
6101.261829
 20
-1407.8159760000001
 30
0.0
  0
VERTEX
  5
175A
  8
LAYER01
  6
CONTINUOUS
 62
     7
 10
6106.0792350000002
 20
-1399.144646
 30
0.0
  0
VERTEX
  5
175B
  8
LAYER01
  6
CONTINUOUS
 62
     7
 10
6110.896639999999
 20
-1389.509836
 30
0.0
  0
VERTEX
  5
175C
  8
LAYER01
  6
CONTINUOUS
 62
     7
 10
6114.7505639999999
 20
-1378.911544
 30
0.0
  0
VERTEX
  5
175D
  8
LAYER01
  6
CONTINUOUS
 62
     7
 10
6116.6775260000004
 20
-1368.3132519999999
 30
0.0
  0
VERTEX
  5
175E
  8
LAYER01
  6
CONTINUOUS
 62
     7
 10
6117.6410079999987
 20
-1357.71496
 30
0.0
  0
VERTEX
  5
175F
  8
LAYER01
  6
CONTINUOUS
 62
     7
 10
6118.6044890000003
 20
-1346.1531869999999
 30
0.0
  0
VERTEX
  5
1760
  8
LAYER01
  6
CONTINUOUS
 62
     7
 10
6118.6044890000003
 20
-1346.1531869999999
 30
0.0
  0
VERTEX
  5
1761
  8
LAYER01
  6
CONTINUOUS
 62
     7
 10
6117.6410079999987
 20
-1335.554895
 30
0.0
  0
VERTEX
  5
1762
  8
LAYER01
  6
CONTINUOUS
 62
     7
 10
6115.7140449999997
 20
-1324.9566030000001
 30
0.0
  0
VERTEX
  5
1763
  8
LAYER01
  6
CONTINUOUS
 62
     7
 10
6112.8236020000004
 20
-1315.321792
 30
0.0
  0
VERTEX
  5
1764
  8
LAYER01
  6
CONTINUOUS
 62
     7
 10
6109.9331590000002
 20
-1305.6869810000001
 30
0.0
  0
VERTEX
  5
1765
  8
LAYER01
  6
CONTINUOUS
 62
     7
 10
6105.115753
 20
-1297.0156509999999
 30
0.0
  0
VERTEX
  5
1766
  8
LAYER01
  6
CONTINUOUS
 62
     7
 10
6100.2983479999994
 20
-1288.344321
 30
0.0
  0
VERTEX
  5
1767
  8
LAYER01
  6
CONTINUOUS
 62
     7
 10
6094.5174610000004
 20
-1279.672992
 30
0.0
  0
VERTEX
  5
1768
  8
LAYER01
  6
CONTINUOUS
 62
     7
 10
6087.7730940000001
 20
-1272.9286239999999
 30
0.0
  0
VERTEX
  5
1769
  8
LAYER01
  6
CONTINUOUS
 62
     7
 10
6080.0652450000007
 20
-1266.184256
 30
0.0
  0
VERTEX
  5
176A
  8
LAYER01
  6
CONTINUOUS
 62
     7
 10
6072.3573960000012
 20
-1259.439889
 30
0.0
  0
VERTEX
  5
176B
  8
LAYER01
  6
CONTINUOUS
 62
     7
 10
6063.6860669999996
 20
-1254.6224830000001
 30
0.0
  0
VERTEX
  5
176C
  8
LAYER01
  6
CONTINUOUS
 62
     7
 10
6055.0147370000004
 20
-1249.8050780000001
 30
0.0
  0
VERTEX
  5
176D
  8
LAYER01
  6
CONTINUOUS
 62
     7
 10
6045.3799259999987
 20
-1245.951153
 30
0.0
  0
VERTEX
  5
176E
  8
LAYER01
  6
CONTINUOUS
 62
     7
 10
6035.7451149999997
 20
-1243.06071
 30
0.0
  0
VERTEX
  5
176F
  8
LAYER01
  6
CONTINUOUS
 62
     7
 10
6025.146823
 20
-1241.133748
 30
0.0
  0
VERTEX
  5
1770
  8
LAYER01
  6
CONTINUOUS
 62
     7
 10
6014.5485310000004
 20
-1240.170267
 30
0.0
  0
VERTEX
  5
1771
  8
LAYER01
  6
CONTINUOUS
 62
     7
 10
6014.5485310000004
 20
-1240.170267
 30
0.0
  0
SEQEND
  5
1772
  8
LAYER01
  6
CONTINUOUS
 62
     7
  0
POLYLINE
  5
9A0
  8
LAYER01
  6
CONTINUOUS
 62
     7
 66
     1
 10
0.0
 20
0.0
 30
0.0
 70
     1
  0
VERTEX
  5
1773
  8
LAYER01
  6
CONTINUOUS
 62
     7
 10
6011.6580880000001
 20
-1418.414268
 30
0.0
  0
VERTEX
  5
1774
  8
LAYER01
  6
CONTINUOUS
 62
     7
 10
6011.6580880000001
 20
-1418.414268
 30
0.0
  0
VERTEX
  5
1775
  8
LAYER01
  6
CONTINUOUS
 62
     7
 10
6004.9137200000014
 20
-1417.450787
 30
0.0
  0
VERTEX
  5
1776
  8
LAYER01
  6
CONTINUOUS
 62
     7
 10
5998.1693530000002
 20
-1416.487306
 30
0.0
  0
VERTEX
  5
1777
  8
LAYER01
  6
CONTINUOUS
 62
     7
 10
5991.4249849999997
 20
-1415.523825
 30
0.0
  0
VERTEX
  5
1778
  8
LAYER01
  6
CONTINUOUS
 62
     7
 10
5984.680617
 20
-1412.633382
 30
0.0
  0
VERTEX
  5
1779
  8
LAYER01
  6
CONTINUOUS
 62
     7
 10
5978.8997310000013
 20
-1409.7429380000001
 30
0.0
  0
VERTEX
  5
177A
  8
LAYER01
  6
CONTINUOUS
 62
     7
 10
5973.1188439999996
 20
-1405.8890140000001
 30
0.0
  0
VERTEX
  5
177B
  8
LAYER01
  6
CONTINUOUS
 62
     7
 10
5968.3014389999998
 20
-1402.0350900000001
 30
0.0
  0
VERTEX
  5
177C
  8
LAYER01
  6
CONTINUOUS
 62
     7
 10
5963.4840329999997
 20
-1397.217684
 30
0.0
  0
VERTEX
  5
177D
  8
LAYER01
  6
CONTINUOUS
 62
     7
 10
5958.6666279999999
 20
-1392.400279
 30
0.0
  0
VERTEX
  5
177E
  8
LAYER01
  6
CONTINUOUS
 62
     7
 10
5954.8127039999999
 20
-1387.5828730000001
 30
0.0
  0
VERTEX
  5
177F
  8
LAYER01
  6
CONTINUOUS
 62
     7
 10
5951.9222600000003
 20
-1381.8019870000001
 30
0.0
  0
VERTEX
  5
1780
  8
LAYER01
  6
CONTINUOUS
 62
     7
 10
5949.031817
 20
-1375.0576189999999
 30
0.0
  0
VERTEX
  5
1781
  8
LAYER01
  6
CONTINUOUS
 62
     7
 10
5946.1413739999989
 20
-1369.2767329999999
 30
0.0
  0
VERTEX
  5
1782
  8
LAYER01
  6
CONTINUOUS
 62
     7
 10
5945.177893
 20
-1362.532365
 30
0.0
  0
VERTEX
  5
1783
  8
LAYER01
  6
CONTINUOUS
 62
     7
 10
5943.2509310000014
 20
-1355.7879969999999
 30
0.0
  0
VERTEX
  5
1784
  8
LAYER01
  6
CONTINUOUS
 62
     7
 10
5943.2509310000014
 20
-1348.0801489999999
 30
0.0
  0
VERTEX
  5
1785
  8
LAYER01
  6
CONTINUOUS
 62
     7
 10
5943.2509310000014
 20
-1348.0801489999999
 30
0.0
  0
VERTEX
  5
1786
  8
LAYER01
  6
CONTINUOUS
 62
     7
 10
5944.2144120000003
 20
-1341.335781
 30
0.0
  0
VERTEX
  5
1787
  8
LAYER01
  6
CONTINUOUS
 62
     7
 10
5945.177893
 20
-1334.591414
 30
0.0
  0
VERTEX
  5
1788
  8
LAYER01
  6
CONTINUOUS
 62
     7
 10
5947.1048549999996
 20
-1327.8470460000001
 30
0.0
  0
VERTEX
  5
1789
  8
LAYER01
  6
CONTINUOUS
 62
     7
 10
5949.031817
 20
-1321.102678
 30
0.0
  0
VERTEX
  5
178A
  8
LAYER01
  6
CONTINUOUS
 62
     7
 10
5951.9222600000003
 20
-1315.321792
 30
0.0
  0
VERTEX
  5
178B
  8
LAYER01
  6
CONTINUOUS
 62
     7
 10
5955.7761849999997
 20
-1309.5409050000001
 30
0.0
  0
VERTEX
  5
178C
  8
LAYER01
  6
CONTINUOUS
 62
     7
 10
5959.6301089999997
 20
-1304.7235000000001
 30
0.0
  0
VERTEX
  5
178D
  8
LAYER01
  6
CONTINUOUS
 62
     7
 10
5964.4475149999989
 20
-1299.9060939999999
 30
0.0
  0
VERTEX
  5
178E
  8
LAYER01
  6
CONTINUOUS
 62
     7
 10
5969.2649199999996
 20
-1295.0886889999999
 30
0.0
  0
VERTEX
  5
178F
  8
LAYER01
  6
CONTINUOUS
 62
     7
 10
5974.0823250000012
 20
-1291.2347649999999
 30
0.0
  0
VERTEX
  5
1790
  8
LAYER01
  6
CONTINUOUS
 62
     7
 10
5979.8632119999993
 20
-1287.38084
 30
0.0
  0
VERTEX
  5
1791
  8
LAYER01
  6
CONTINUOUS
 62
     7
 10
5986.6075799999999
 20
-1284.490397
 30
0.0
  0
VERTEX
  5
1792
  8
LAYER01
  6
CONTINUOUS
 62
     7
 10
5992.3884660000003
 20
-1282.563435
 30
0.0
  0
VERTEX
  5
1793
  8
LAYER01
  6
CONTINUOUS
 62
     7
 10
5999.132834
 20
-1280.636473
 30
0.0
  0
VERTEX
  5
1794
  8
LAYER01
  6
CONTINUOUS
 62
     7
 10
6005.8772010000002
 20
-1279.672992
 30
0.0
  0
VERTEX
  5
1795
  8
LAYER01
  6
CONTINUOUS
 62
     7
 10
6013.5850499999988
 20
-1279.672992
 30
0.0
  0
VERTEX
  5
1796
  8
LAYER01
  6
CONTINUOUS
 62
     7
 10
6013.5850499999988
 20
-1279.672992
 30
0.0
  0
VERTEX
  5
1797
  8
LAYER01
  6
CONTINUOUS
 62
     7
 10
6020.3294180000003
 20
-1280.636473
 30
0.0
  0
VERTEX
  5
1798
  8
LAYER01
  6
CONTINUOUS
 62
     7
 10
6027.0737849999996
 20
-1281.599954
 30
0.0
  0
VERTEX
  5
1799
  8
LAYER01
  6
CONTINUOUS
 62
     7
 10
6032.8546720000004
 20
-1283.526916
 30
0.0
  0
VERTEX
  5
179A
  8
LAYER01
  6
CONTINUOUS
 62
     7
 10
6039.5990389999997
 20
-1285.453878
 30
0.0
  0
VERTEX
  5
179B
  8
LAYER01
  6
CONTINUOUS
 62
     7
 10
6044.4164450000007
 20
-1288.344321
 30
0.0
  0
VERTEX
  5
179C
  8
LAYER01
  6
CONTINUOUS
 62
     7
 10
6050.1973310000003
 20
-1292.1982459999999
 30
0.0
  0
VERTEX
  5
179D
  8
LAYER01
  6
CONTINUOUS
 62
     7
 10
6055.0147370000004
 20
-1296.0521699999999
 30
0.0
  0
VERTEX
  5
179E
  8
LAYER01
  6
CONTINUOUS
 62
     7
 10
6059.8321420000011
 20
-1299.9060939999999
 30
0.0
  0
VERTEX
  5
179F
  8
LAYER01
  6
CONTINUOUS
 62
     7
 10
6063.6860669999996
 20
-1304.7235000000001
 30
0.0
  0
VERTEX
  5
17A0
  8
LAYER01
  6
CONTINUOUS
 62
     7
 10
6067.5399909999996
 20
-1310.5043860000001
 30
0.0
  0
VERTEX
  5
17A1
  8
LAYER01
  6
CONTINUOUS
 62
     7
 10
6071.3939149999987
 20
-1315.321792
 30
0.0
  0
VERTEX
  5
17A2
  8
LAYER01
  6
CONTINUOUS
 62
     7
 10
6074.2843590000002
 20
-1321.102678
 30
0.0
  0
VERTEX
  5
17A3
  8
LAYER01
  6
CONTINUOUS
 62
     7
 10
6076.2113209999989
 20
-1327.8470460000001
 30
0.0
  0
VERTEX
  5
17A4
  8
LAYER01
  6
CONTINUOUS
 62
     7
 10
6078.1382830000011
 20
-1333.6279320000001
 30
0.0
  0
VERTEX
  5
17A5
  8
LAYER01
  6
CONTINUOUS
 62
     7
 10
6079.101764
 20
-1340.3723
 30
0.0
  0
VERTEX
  5
17A6
  8
LAYER01
  6
CONTINUOUS
 62
     7
 10
6079.101764
 20
-1347.1166679999999
 30
0.0
  0
VERTEX
  5
17A7
  8
LAYER01
  6
CONTINUOUS
 62
     7
 10
6079.101764
 20
-1347.1166679999999
 30
0.0
  0
VERTEX
  5
17A8
  8
LAYER01
  6
CONTINUOUS
 62
     7
 10
6079.101764
 20
-1354.8245159999999
 30
0.0
  0
VERTEX
  5
17A9
  8
LAYER01
  6
CONTINUOUS
 62
     7
 10
6078.1382830000011
 20
-1361.568884
 30
0.0
  0
VERTEX
  5
17AA
  8
LAYER01
  6
CONTINUOUS
 62
     7
 10
6077.1748020000005
 20
-1368.3132519999999
 30
0.0
  0
VERTEX
  5
17AB
  8
LAYER01
  6
CONTINUOUS
 62
     7
 10
6074.2843590000002
 20
-1374.0941379999999
 30
0.0
  0
VERTEX
  5
17AC
  8
LAYER01
  6
CONTINUOUS
 62
     7
 10
6072.3573960000012
 20
-1380.8385060000001
 30
0.0
  0
VERTEX
  5
17AD
  8
LAYER01
  6
CONTINUOUS
 62
     7
 10
6068.5034720000003
 20
-1386.6193920000001
 30
0.0
  0
VERTEX
  5
17AE
  8
LAYER01
  6
CONTINUOUS
 62
     7
 10
6064.6495480000003
 20
-1392.400279
 30
0.0
  0
VERTEX
  5
17AF
  8
LAYER01
  6
CONTINUOUS
 62
     7
 10
6059.8321420000011
 20
-1397.217684
 30
0.0
  0
VERTEX
  5
17B0
  8
LAYER01
  6
CONTINUOUS
 62
     7
 10
6055.0147370000004
 20
-1402.0350900000001
 30
0.0
  0
VERTEX
  5
17B1
  8
LAYER01
  6
CONTINUOUS
 62
     7
 10
6050.1973310000003
 20
-1405.8890140000001
 30
0.0
  0
VERTEX
  5
17B2
  8
LAYER01
  6
CONTINUOUS
 62
     7
 10
6044.4164450000007
 20
-1409.7429380000001
 30
0.0
  0
VERTEX
  5
17B3
  8
LAYER01
  6
CONTINUOUS
 62
     7
 10
6038.6355579999999
 20
-1412.633382
 30
0.0
  0
VERTEX
  5
17B4
  8
LAYER01
  6
CONTINUOUS
 62
     7
 10
6031.8911909999988
 20
-1414.560344
 30
0.0
  0
VERTEX
  5
17B5
  8
LAYER01
  6
CONTINUOUS
 62
     7
 10
6025.146823
 20
-1416.487306
 30
0.0
  0
VERTEX
  5
17B6
  8
LAYER01
  6
CONTINUOUS
 62
     7
 10
6018.4024550000004
 20
-1417.450787
 30
0.0
  0
VERTEX
  5
17B7
  8
LAYER01
  6
CONTINUOUS
 62
     7
 10
6011.6580880000001
 20
-1418.414268
 30
0.0
  0
VERTEX
  5
17B8
  8
LAYER01
  6
CONTINUOUS
 62
     7
 10
6011.6580880000001
 20
-1418.414268
 30
0.0
  0
SEQEND
  5
17B9
  8
LAYER01
  6
CONTINUOUS
 62
     7
  0
POLYLINE
  5
9A1
  8
LAYER01
  6
CONTINUOUS
 62
     7
 66
     1
 10
0.0
 20
0.0
 30
0.0
 70
     1
  0
VERTEX
  5
17BA
  8
LAYER01
  6
CONTINUOUS
 62
     7
 10
6088.7365749999999
 20
-1244.987672
 30
0.0
  0
VERTEX
  5
17BB
  8
LAYER01
  6
CONTINUOUS
 62
     7
 10
6190.8655699999999
 20
-1244.987672
 30
0.0
  0
VERTEX
  5
17BC
  8
LAYER01
  6
CONTINUOUS
 62
     7
 10
6190.8655699999999
 20
-1244.987672
 30
0.0
  0
VERTEX
  5
17BD
  8
LAYER01
  6
CONTINUOUS
 62
     7
 10
6202.4273430000003
 20
-1246.9146350000001
 30
0.0
  0
VERTEX
  5
17BE
  8
LAYER01
  6
CONTINUOUS
 62
     7
 10
6213.0256350000009
 20
-1251.7320400000001
 30
0.0
  0
VERTEX
  5
17BF
  8
LAYER01
  6
CONTINUOUS
 62
     7
 10
6221.6969650000001
 20
-1257.5129260000001
 30
0.0
  0
VERTEX
  5
17C0
  8
LAYER01
  6
CONTINUOUS
 62
     7
 10
6229.4048140000014
 20
-1265.220775
 30
0.0
  0
VERTEX
  5
17C1
  8
LAYER01
  6
CONTINUOUS
 62
     7
 10
6236.1491810000007
 20
-1272.9286239999999
 30
0.0
  0
VERTEX
  5
17C2
  8
LAYER01
  6
CONTINUOUS
 62
     7
 10
6240.966586999999
 20
-1282.563435
 30
0.0
  0
VERTEX
  5
17C3
  8
LAYER01
  6
CONTINUOUS
 62
     7
 10
6243.8570300000001
 20
-1294.1252079999999
 30
0.0
  0
VERTEX
  5
17C4
  8
LAYER01
  6
CONTINUOUS
 62
     7
 10
6244.8205109999999
 20
-1304.7235000000001
 30
0.0
  0
VERTEX
  5
17C5
  8
LAYER01
  6
CONTINUOUS
 62
     7
 10
6244.8205109999999
 20
-1304.7235000000001
 30
0.0
  0
VERTEX
  5
17C6
  8
LAYER01
  6
CONTINUOUS
 62
     7
 10
6243.8570300000001
 20
-1316.285273
 30
0.0
  0
VERTEX
  5
17C7
  8
LAYER01
  6
CONTINUOUS
 62
     7
 10
6241.9300679999997
 20
-1325.9200840000001
 30
0.0
  0
VERTEX
  5
17C8
  8
LAYER01
  6
CONTINUOUS
 62
     7
 10
6238.0761439999997
 20
-1335.554895
 30
0.0
  0
VERTEX
  5
17C9
  8
LAYER01
  6
CONTINUOUS
 62
     7
 10
6233.2587380000004
 20
-1344.226224
 30
0.0
  0
VERTEX
  5
17CA
  8
LAYER01
  6
CONTINUOUS
 62
     7
 10
6226.5143710000002
 20
-1351.9340729999999
 30
0.0
  0
VERTEX
  5
17CB
  8
LAYER01
  6
CONTINUOUS
 62
     7
 10
6219.7700029999996
 20
-1357.71496
 30
0.0
  0
VERTEX
  5
17CC
  8
LAYER01
  6
CONTINUOUS
 62
     7
 10
6210.1351919999997
 20
-1363.495846
 30
0.0
  0
VERTEX
  5
17CD
  8
LAYER01
  6
CONTINUOUS
 62
     7
 10
6200.5003809999998
 20
-1367.3497709999999
 30
0.0
  0
VERTEX
  5
17CE
  8
LAYER01
  6
CONTINUOUS
 62
     7
 10
6263.1266519999999
 20
-1451.1726249999999
 30
0.0
  0
VERTEX
  5
17CF
  8
LAYER01
  6
CONTINUOUS
 62
     7
 10
6214.9525969999986
 20
-1451.1726249999999
 30
0.0
  0
VERTEX
  5
17D0
  8
LAYER01
  6
CONTINUOUS
 62
     7
 10
6131.1297430000004
 20
-1344.226224
 30
0.0
  0
VERTEX
  5
17D1
  8
LAYER01
  6
CONTINUOUS
 62
     7
 10
6178.3403159999989
 20
-1344.226224
 30
0.0
  0
VERTEX
  5
17D2
  8
LAYER01
  6
CONTINUOUS
 62
     7
 10
6178.3403159999989
 20
-1344.226224
 30
0.0
  0
VERTEX
  5
17D3
  8
LAYER01
  6
CONTINUOUS
 62
     7
 10
6184.1212029999997
 20
-1342.299262
 30
0.0
  0
VERTEX
  5
17D4
  8
LAYER01
  6
CONTINUOUS
 62
     7
 10
6188.9386079999986
 20
-1340.3723
 30
0.0
  0
VERTEX
  5
17D5
  8
LAYER01
  6
CONTINUOUS
 62
     7
 10
6192.7925320000013
 20
-1336.518376
 30
0.0
  0
VERTEX
  5
17D6
  8
LAYER01
  6
CONTINUOUS
 62
     7
 10
6196.6464569999989
 20
-1332.6644510000001
 30
0.0
  0
VERTEX
  5
17D7
  8
LAYER01
  6
CONTINUOUS
 62
     7
 10
6199.5369000000001
 20
-1327.8470460000001
 30
0.0
  0
VERTEX
  5
17D8
  8
LAYER01
  6
CONTINUOUS
 62
     7
 10
6202.4273430000003
 20
-1323.02964
 30
0.0
  0
VERTEX
  5
17D9
  8
LAYER01
  6
CONTINUOUS
 62
     7
 10
6203.3908240000001
 20
-1317.248754
 30
0.0
  0
VERTEX
  5
17DA
  8
LAYER01
  6
CONTINUOUS
 62
     7
 10
6203.3908240000001
 20
-1311.4678670000001
 30
0.0
  0
VERTEX
  5
17DB
  8
LAYER01
  6
CONTINUOUS
 62
     7
 10
6203.3908240000001
 20
-1311.4678670000001
 30
0.0
  0
VERTEX
  5
17DC
  8
LAYER01
  6
CONTINUOUS
 62
     7
 10
6203.3908240000001
 20
-1305.6869810000001
 30
0.0
  0
VERTEX
  5
17DD
  8
LAYER01
  6
CONTINUOUS
 62
     7
 10
6201.4638619999996
 20
-1300.8695749999999
 30
0.0
  0
VERTEX
  5
17DE
  8
LAYER01
  6
CONTINUOUS
 62
     7
 10
6199.5369000000001
 20
-1296.0521699999999
 30
0.0
  0
VERTEX
  5
17DF
  8
LAYER01
  6
CONTINUOUS
 62
     7
 10
6196.6464569999989
 20
-1291.2347649999999
 30
0.0
  0
VERTEX
  5
17E0
  8
LAYER01
  6
CONTINUOUS
 62
     7
 10
6192.7925320000013
 20
-1287.38084
 30
0.0
  0
VERTEX
  5
17E1
  8
LAYER01
  6
CONTINUOUS
 62
     7
 10
6188.9386079999986
 20
-1284.490397
 30
0.0
  0
VERTEX
  5
17E2
  8
LAYER01
  6
CONTINUOUS
 62
     7
 10
6183.1577219999999
 20
-1281.599954
 30
0.0
  0
VERTEX
  5
17E3
  8
LAYER01
  6
CONTINUOUS
 62
     7
 10
6178.3403159999989
 20
-1279.672992
 30
0.0
  0
VERTEX
  5
17E4
  8
LAYER01
  6
CONTINUOUS
 62
     7
 10
6123.4218940000001
 20
-1279.672992
 30
0.0
  0
VERTEX
  5
17E5
  8
LAYER01
  6
CONTINUOUS
 62
     7
 10
6088.7365749999999
 20
-1244.987672
 30
0.0
  0
VERTEX
  5
17E6
  8
LAYER01
  6
CONTINUOUS
 62
     7
 10
6088.7365749999999
 20
-1244.987672
 30
0.0
  0
SEQEND
  5
17E7
  8
LAYER01
  6
CONTINUOUS
 62
     7
  0
POLYLINE
  5
9A2
  8
LAYER01
  6
CONTINUOUS
 62
     7
 66
     1
 10
0.0
 20
0.0
 30
0.0
 70
     1
  0
VERTEX
  5
17E8
  8
LAYER01
  6
CONTINUOUS
 62
     7
 10
6289.140641
 20
-1296.0521699999999
 30
0.0
  0
VERTEX
  5
17E9
  8
LAYER01
  6
CONTINUOUS
 62
     7
 10
6289.140641
 20
-1296.0521699999999
 30
0.0
  0
VERTEX
  5
17EA
  8
LAYER01
  6
CONTINUOUS
 62
     7
 10
6293.9580470000001
 20
-1295.0886889999999
 30
0.0
  0
VERTEX
  5
17EB
  8
LAYER01
  6
CONTINUOUS
 62
     7
 10
6298.7754519999999
 20
-1294.1252079999999
 30
0.0
  0
VERTEX
  5
17EC
  8
LAYER01
  6
CONTINUOUS
 62
     7
 10
6303.592858
 20
-1291.2347649999999
 30
0.0
  0
VERTEX
  5
17ED
  8
LAYER01
  6
CONTINUOUS
 62
     7
 10
6307.446782
 20
-1288.344321
 30
0.0
  0
VERTEX
  5
17EE
  8
LAYER01
  6
CONTINUOUS
 62
     7
 10
6310.3372250000011
 20
-1284.490397
 30
0.0
  0
VERTEX
  5
17EF
  8
LAYER01
  6
CONTINUOUS
 62
     7
 10
6312.2641869999998
 20
-1280.636473
 30
0.0
  0
VERTEX
  5
17F0
  8
LAYER01
  6
CONTINUOUS
 62
     7
 10
6314.1911499999997
 20
-1275.8190669999999
 30
0.0
  0
VERTEX
  5
17F1
  8
LAYER01
  6
CONTINUOUS
 62
     7
 10
6314.1911499999997
 20
-1270.0381809999999
 30
0.0
  0
VERTEX
  5
17F2
  8
LAYER01
  6
CONTINUOUS
 62
     7
 10
6314.1911499999997
 20
-1270.0381809999999
 30
0.0
  0
VERTEX
  5
17F3
  8
LAYER01
  6
CONTINUOUS
 62
     7
 10
6314.1911499999997
 20
-1265.220775
 30
0.0
  0
VERTEX
  5
17F4
  8
LAYER01
  6
CONTINUOUS
 62
     7
 10
6312.2641869999998
 20
-1260.40337
 30
0.0
  0
VERTEX
  5
17F5
  8
LAYER01
  6
CONTINUOUS
 62
     7
 10
6310.3372250000011
 20
-1256.5494450000001
 30
0.0
  0
VERTEX
  5
17F6
  8
LAYER01
  6
CONTINUOUS
 62
     7
 10
6307.446782
 20
-1252.6955210000001
 30
0.0
  0
VERTEX
  5
17F7
  8
LAYER01
  6
CONTINUOUS
 62
     7
 10
6303.592858
 20
-1249.8050780000001
 30
0.0
  0
VERTEX
  5
17F8
  8
LAYER01
  6
CONTINUOUS
 62
     7
 10
6298.7754519999999
 20
-1246.9146350000001
 30
0.0
  0
VERTEX
  5
17F9
  8
LAYER01
  6
CONTINUOUS
 62
     7
 10
6293.9580470000001
 20
-1245.951153
 30
0.0
  0
VERTEX
  5
17FA
  8
LAYER01
  6
CONTINUOUS
 62
     7
 10
6289.140641
 20
-1244.987672
 30
0.0
  0
VERTEX
  5
17FB
  8
LAYER01
  6
CONTINUOUS
 62
     7
 10
6289.140641
 20
-1244.987672
 30
0.0
  0
VERTEX
  5
17FC
  8
LAYER01
  6
CONTINUOUS
 62
     7
 10
6284.3232360000002
 20
-1245.951153
 30
0.0
  0
VERTEX
  5
17FD
  8
LAYER01
  6
CONTINUOUS
 62
     7
 10
6279.5058300000001
 20
-1246.9146350000001
 30
0.0
  0
VERTEX
  5
17FE
  8
LAYER01
  6
CONTINUOUS
 62
     7
 10
6274.6884250000003
 20
-1249.8050780000001
 30
0.0
  0
VERTEX
  5
17FF
  8
LAYER01
  6
CONTINUOUS
 62
     7
 10
6270.8345009999994
 20
-1252.6955210000001
 30
0.0
  0
VERTEX
  5
1800
  8
LAYER01
  6
CONTINUOUS
 62
     7
 10
6267.9440569999997
 20
-1256.5494450000001
 30
0.0
  0
VERTEX
  5
1801
  8
LAYER01
  6
CONTINUOUS
 62
     7
 10
6266.0170950000002
 20
-1260.40337
 30
0.0
  0
VERTEX
  5
1802
  8
LAYER01
  6
CONTINUOUS
 62
     7
 10
6264.0901329999988
 20
-1265.220775
 30
0.0
  0
VERTEX
  5
1803
  8
LAYER01
  6
CONTINUOUS
 62
     7
 10
6264.0901329999988
 20
-1270.0381809999999
 30
0.0
  0
VERTEX
  5
1804
  8
LAYER01
  6
CONTINUOUS
 62
     7
 10
6264.0901329999988
 20
-1270.0381809999999
 30
0.0
  0
VERTEX
  5
1805
  8
LAYER01
  6
CONTINUOUS
 62
     7
 10
6264.0901329999988
 20
-1275.8190669999999
 30
0.0
  0
VERTEX
  5
1806
  8
LAYER01
  6
CONTINUOUS
 62
     7
 10
6266.0170950000002
 20
-1280.636473
 30
0.0
  0
VERTEX
  5
1807
  8
LAYER01
  6
CONTINUOUS
 62
     7
 10
6267.9440569999997
 20
-1284.490397
 30
0.0
  0
VERTEX
  5
1808
  8
LAYER01
  6
CONTINUOUS
 62
     7
 10
6270.8345009999994
 20
-1288.344321
 30
0.0
  0
VERTEX
  5
1809
  8
LAYER01
  6
CONTINUOUS
 62
     7
 10
6274.6884250000003
 20
-1291.2347649999999
 30
0.0
  0
VERTEX
  5
180A
  8
LAYER01
  6
CONTINUOUS
 62
     7
 10
6279.5058300000001
 20
-1294.1252079999999
 30
0.0
  0
VERTEX
  5
180B
  8
LAYER01
  6
CONTINUOUS
 62
     7
 10
6284.3232360000002
 20
-1295.0886889999999
 30
0.0
  0
VERTEX
  5
180C
  8
LAYER01
  6
CONTINUOUS
 62
     7
 10
6289.140641
 20
-1296.0521699999999
 30
0.0
  0
VERTEX
  5
180D
  8
LAYER01
  6
CONTINUOUS
 62
     7
 10
6289.140641
 20
-1296.0521699999999
 30
0.0
  0
SEQEND
  5
180E
  8
LAYER01
  6
CONTINUOUS
 62
     7
  0
POLYLINE
  5
9A3
  8
LAYER01
  6
CONTINUOUS
 62
     7
 66
     1
 10
0.0
 20
0.0
 30
0.0
 70
     1
  0
VERTEX
  5
180F
  8
LAYER01
  6
CONTINUOUS
 62
     7
 10
6289.140641
 20
-1248.8415970000001
 30
0.0
  0
VERTEX
  5
1810
  8
LAYER01
  6
CONTINUOUS
 62
     7
 10
6289.140641
 20
-1248.8415970000001
 30
0.0
  0
VERTEX
  5
1811
  8
LAYER01
  6
CONTINUOUS
 62
     7
 10
6292.9945659999994
 20
-1249.8050780000001
 30
0.0
  0
VERTEX
  5
1812
  8
LAYER01
  6
CONTINUOUS
 62
     7
 10
6296.8484899999994
 20
-1250.7685590000001
 30
0.0
  0
VERTEX
  5
1813
  8
LAYER01
  6
CONTINUOUS
 62
     7
 10
6300.7024140000003
 20
-1252.6955210000001
 30
0.0
  0
VERTEX
  5
1814
  8
LAYER01
  6
CONTINUOUS
 62
     7
 10
6303.592858
 20
-1255.5859640000001
 30
0.0
  0
VERTEX
  5
1815
  8
LAYER01
  6
CONTINUOUS
 62
     7
 10
6306.4833010000002
 20
-1258.476408
 30
0.0
  0
VERTEX
  5
1816
  8
LAYER01
  6
CONTINUOUS
 62
     7
 10
6308.4102630000007
 20
-1262.330332
 30
0.0
  0
VERTEX
  5
1817
  8
LAYER01
  6
CONTINUOUS
 62
     7
 10
6310.3372250000011
 20
-1266.184256
 30
0.0
  0
VERTEX
  5
1818
  8
LAYER01
  6
CONTINUOUS
 62
     7
 10
6310.3372250000011
 20
-1270.0381809999999
 30
0.0
  0
VERTEX
  5
1819
  8
LAYER01
  6
CONTINUOUS
 62
     7
 10
6310.3372250000011
 20
-1270.0381809999999
 30
0.0
  0
VERTEX
  5
181A
  8
LAYER01
  6
CONTINUOUS
 62
     7
 10
6310.3372250000011
 20
-1274.8555859999999
 30
0.0
  0
VERTEX
  5
181B
  8
LAYER01
  6
CONTINUOUS
 62
     7
 10
6308.4102630000007
 20
-1278.7095099999999
 30
0.0
  0
VERTEX
  5
181C
  8
LAYER01
  6
CONTINUOUS
 62
     7
 10
6306.4833010000002
 20
-1282.563435
 30
0.0
  0
VERTEX
  5
181D
  8
LAYER01
  6
CONTINUOUS
 62
     7
 10
6303.592858
 20
-1285.453878
 30
0.0
  0
VERTEX
  5
181E
  8
LAYER01
  6
CONTINUOUS
 62
     7
 10
6300.7024140000003
 20
-1288.344321
 30
0.0
  0
VERTEX
  5
181F
  8
LAYER01
  6
CONTINUOUS
 62
     7
 10
6296.8484899999994
 20
-1290.271283
 30
0.0
  0
VERTEX
  5
1820
  8
LAYER01
  6
CONTINUOUS
 62
     7
 10
6292.9945659999994
 20
-1291.2347649999999
 30
0.0
  0
VERTEX
  5
1821
  8
LAYER01
  6
CONTINUOUS
 62
     7
 10
6289.140641
 20
-1291.2347649999999
 30
0.0
  0
VERTEX
  5
1822
  8
LAYER01
  6
CONTINUOUS
 62
     7
 10
6289.140641
 20
-1291.2347649999999
 30
0.0
  0
VERTEX
  5
1823
  8
LAYER01
  6
CONTINUOUS
 62
     7
 10
6285.286717
 20
-1291.2347649999999
 30
0.0
  0
VERTEX
  5
1824
  8
LAYER01
  6
CONTINUOUS
 62
     7
 10
6280.4693109999998
 20
-1290.271283
 30
0.0
  0
VERTEX
  5
1825
  8
LAYER01
  6
CONTINUOUS
 62
     7
 10
6277.5788679999987
 20
-1288.344321
 30
0.0
  0
VERTEX
  5
1826
  8
LAYER01
  6
CONTINUOUS
 62
     7
 10
6273.7249439999996
 20
-1285.453878
 30
0.0
  0
VERTEX
  5
1827
  8
LAYER01
  6
CONTINUOUS
 62
     7
 10
6271.797982
 20
-1282.563435
 30
0.0
  0
VERTEX
  5
1828
  8
LAYER01
  6
CONTINUOUS
 62
     7
 10
6269.8710189999993
 20
-1278.7095099999999
 30
0.0
  0
VERTEX
  5
1829
  8
LAYER01
  6
CONTINUOUS
 62
     7
 10
6267.9440569999997
 20
-1274.8555859999999
 30
0.0
  0
VERTEX
  5
182A
  8
LAYER01
  6
CONTINUOUS
 62
     7
 10
6267.9440569999997
 20
-1270.0381809999999
 30
0.0
  0
VERTEX
  5
182B
  8
LAYER01
  6
CONTINUOUS
 62
     7
 10
6267.9440569999997
 20
-1270.0381809999999
 30
0.0
  0
VERTEX
  5
182C
  8
LAYER01
  6
CONTINUOUS
 62
     7
 10
6267.9440569999997
 20
-1266.184256
 30
0.0
  0
VERTEX
  5
182D
  8
LAYER01
  6
CONTINUOUS
 62
     7
 10
6269.8710189999993
 20
-1262.330332
 30
0.0
  0
VERTEX
  5
182E
  8
LAYER01
  6
CONTINUOUS
 62
     7
 10
6271.797982
 20
-1258.476408
 30
0.0
  0
VERTEX
  5
182F
  8
LAYER01
  6
CONTINUOUS
 62
     7
 10
6273.7249439999996
 20
-1255.5859640000001
 30
0.0
  0
VERTEX
  5
1830
  8
LAYER01
  6
CONTINUOUS
 62
     7
 10
6277.5788679999987
 20
-1252.6955210000001
 30
0.0
  0
VERTEX
  5
1831
  8
LAYER01
  6
CONTINUOUS
 62
     7
 10
6280.4693109999998
 20
-1250.7685590000001
 30
0.0
  0
VERTEX
  5
1832
  8
LAYER01
  6
CONTINUOUS
 62
     7
 10
6285.286717
 20
-1249.8050780000001
 30
0.0
  0
VERTEX
  5
1833
  8
LAYER01
  6
CONTINUOUS
 62
     7
 10
6289.140641
 20
-1248.8415970000001
 30
0.0
  0
VERTEX
  5
1834
  8
LAYER01
  6
CONTINUOUS
 62
     7
 10
6289.140641
 20
-1248.8415970000001
 30
0.0
  0
SEQEND
  5
1835
  8
LAYER01
  6
CONTINUOUS
 62
     7
  0
POLYLINE
  5
9A4
  8
LAYER01
  6
CONTINUOUS
 62
     7
 66
     1
 10
0.0
 20
0.0
 30
0.0
 70
     1
  0
VERTEX
  5
1836
  8
LAYER01
  6
CONTINUOUS
 62
     7
 10
6292.9945659999994
 20
-1271.9651429999999
 30
0.0
  0
VERTEX
  5
1837
  8
LAYER01
  6
CONTINUOUS
 62
     7
 10
6292.9945659999994
 20
-1271.9651429999999
 30
0.0
  0
VERTEX
  5
1838
  8
LAYER01
  6
CONTINUOUS
 62
     7
 10
6295.8850089999996
 20
-1271.0016619999999
 30
0.0
  0
VERTEX
  5
1839
  8
LAYER01
  6
CONTINUOUS
 62
     7
 10
6298.7754519999999
 20
-1270.0381809999999
 30
0.0
  0
VERTEX
  5
183A
  8
LAYER01
  6
CONTINUOUS
 62
     7
 10
6300.7024140000003
 20
-1267.147737
 30
0.0
  0
VERTEX
  5
183B
  8
LAYER01
  6
CONTINUOUS
 62
     7
 10
6300.7024140000003
 20
-1264.257294
 30
0.0
  0
VERTEX
  5
183C
  8
LAYER01
  6
CONTINUOUS
 62
     7
 10
6300.7024140000003
 20
-1264.257294
 30
0.0
  0
VERTEX
  5
183D
  8
LAYER01
  6
CONTINUOUS
 62
     7
 10
6300.7024140000003
 20
-1260.40337
 30
0.0
  0
VERTEX
  5
183E
  8
LAYER01
  6
CONTINUOUS
 62
     7
 10
6297.8119710000001
 20
-1257.5129260000001
 30
0.0
  0
VERTEX
  5
183F
  8
LAYER01
  6
CONTINUOUS
 62
     7
 10
6294.9215279999989
 20
-1256.5494450000001
 30
0.0
  0
VERTEX
  5
1840
  8
LAYER01
  6
CONTINUOUS
 62
     7
 10
6291.0676030000013
 20
-1256.5494450000001
 30
0.0
  0
VERTEX
  5
1841
  8
LAYER01
  6
CONTINUOUS
 62
     7
 10
6279.5058300000001
 20
-1256.5494450000001
 30
0.0
  0
VERTEX
  5
1842
  8
LAYER01
  6
CONTINUOUS
 62
     7
 10
6279.5058300000001
 20
-1284.490397
 30
0.0
  0
VERTEX
  5
1843
  8
LAYER01
  6
CONTINUOUS
 62
     7
 10
6283.3597549999986
 20
-1284.490397
 30
0.0
  0
VERTEX
  5
1844
  8
LAYER01
  6
CONTINUOUS
 62
     7
 10
6283.3597549999986
 20
-1271.9651429999999
 30
0.0
  0
VERTEX
  5
1845
  8
LAYER01
  6
CONTINUOUS
 62
     7
 10
6289.140641
 20
-1271.9651429999999
 30
0.0
  0
VERTEX
  5
1846
  8
LAYER01
  6
CONTINUOUS
 62
     7
 10
6295.8850089999996
 20
-1284.490397
 30
0.0
  0
VERTEX
  5
1847
  8
LAYER01
  6
CONTINUOUS
 62
     7
 10
6300.7024140000003
 20
-1284.490397
 30
0.0
  0
VERTEX
  5
1848
  8
LAYER01
  6
CONTINUOUS
 62
     7
 10
6292.9945659999994
 20
-1271.9651429999999
 30
0.0
  0
VERTEX
  5
1849
  8
LAYER01
  6
CONTINUOUS
 62
     7
 10
6292.9945659999994
 20
-1271.9651429999999
 30
0.0
  0
SEQEND
  5
184A
  8
LAYER01
  6
CONTINUOUS
 62
     7
  0
POLYLINE
  5
9A5
  8
LAYER01
  6
CONTINUOUS
 62
     7
 66
     1
 10
0.0
 20
0.0
 30
0.0
 70
     1
  0
VERTEX
  5
184B
  8
LAYER01
  6
CONTINUOUS
 62
     7
 10
6290.1041219999988
 20
-1260.40337
 30
0.0
  0
VERTEX
  5
184C
  8
LAYER01
  6
CONTINUOUS
 62
     7
 10
6290.1041219999988
 20
-1260.40337
 30
0.0
  0
VERTEX
  5
184D
  8
LAYER01
  6
CONTINUOUS
 62
     7
 10
6294.9215279999989
 20
-1261.366851
 30
0.0
  0
VERTEX
  5
184E
  8
LAYER01
  6
CONTINUOUS
 62
     7
 10
6296.8484899999994
 20
-1262.330332
 30
0.0
  0
VERTEX
  5
184F
  8
LAYER01
  6
CONTINUOUS
 62
     7
 10
6296.8484899999994
 20
-1264.257294
 30
0.0
  0
VERTEX
  5
1850
  8
LAYER01
  6
CONTINUOUS
 62
     7
 10
6296.8484899999994
 20
-1264.257294
 30
0.0
  0
VERTEX
  5
1851
  8
LAYER01
  6
CONTINUOUS
 62
     7
 10
6295.8850089999996
 20
-1266.184256
 30
0.0
  0
VERTEX
  5
1852
  8
LAYER01
  6
CONTINUOUS
 62
     7
 10
6293.9580470000001
 20
-1267.147737
 30
0.0
  0
VERTEX
  5
1853
  8
LAYER01
  6
CONTINUOUS
 62
     7
 10
6288.1771600000002
 20
-1268.111218
 30
0.0
  0
VERTEX
  5
1854
  8
LAYER01
  6
CONTINUOUS
 62
     7
 10
6283.3597549999986
 20
-1268.111218
 30
0.0
  0
VERTEX
  5
1855
  8
LAYER01
  6
CONTINUOUS
 62
     7
 10
6283.3597549999986
 20
-1260.40337
 30
0.0
  0
VERTEX
  5
1856
  8
LAYER01
  6
CONTINUOUS
 62
     7
 10
6290.1041219999988
 20
-1260.40337
 30
0.0
  0
VERTEX
  5
1857
  8
LAYER01
  6
CONTINUOUS
 62
     7
 10
6290.1041219999988
 20
-1260.40337
 30
0.0
  0
SEQEND
  5
1858
  8
LAYER01
  6
CONTINUOUS
 62
     7
  0
ENDBLK
  5
9A6
  8
0
  0
ENDSEC
  0
SECTION
  2
ENTITIES
  0
DIMENSION
  5
262
  8
LAYER01
 62
     7
  2
*D0
 10
-517.07734699999992
 20
714.49030199999993
 30
0.0
 11
-221.17503500000001
 21
744.49030199999993
 31
0.0
 13
72.922627000000006
 23
567.56210999999985
 33
0.0
 14
-517.07734699999992
 24
567.56210999999985
 34
0.0
  0
LINE
  5
263
  8
0
  6
CONTINUOUS
 62
     7
 10
-507.0773559999999
 20
197.562106
 30
0.0
 11
62.922637000000002
 21
197.562106
 31
0.0
  0
LINE
  5
264
  8
0
  6
CONTINUOUS
 62
     7
 10
-482.08843699999989
 20
222.56211200000001
 30
0.0
 11
37.933717000000001
 21
222.56211200000001
 31
0.0
  0
LINE
  5
265
  8
0
  6
CONTINUOUS
 62
     7
 10
-482.09105899999992
 20
542.56210399999998
 30
0.0
 11
37.936340000000001
 21
542.56210399999998
 31
0.0
  0
LINE
  5
266
  8
0
  6
CONTINUOUS
 62
     7
 10
62.922637000000002
 20
567.56210999999985
 30
0.0
 11
-507.0773559999999
 21
567.56210999999985
 31
0.0
  0
DIMENSION
  5
267
  8
LAYER01
 62
     7
  2
*D1
 10
-492.07736999999997
 20
636.82905400000004
 30
0.0
 11
-221.17503500000001
 21
666.82905400000004
 31
0.0
 13
47.922651000000002
 23
567.56210999999985
 33
0.0
 14
-492.07736999999997
 24
567.56210999999985
 34
0.0
  0
INSERT
  5
269
  8
LAYER01
  2
UBS70-G3
 10
0.0
 20
0.0
 30
0.0
  0
INSERT
  5
26A
  8
LAYER01
  2
UBS70-G4
 10
0.0
 20
0.0
 30
0.0
  0
TEXT
  5
26B
  8
LAYER01
  6
VERDECKT
 62
     1
 10
1158.434006
 20
-542.01096699999994
 30
0.0
 40
17.5
  1
A. Sprenger GmbH
  7
SIMPLEX
  0
TEXT
  5
26C
  8
LAYER01
  6
CONTINUOUS
 62
     7
 10
1152.756897
 20
-433.63579900000002
 30
0.0
 40
5.25
  1
Diese Zeichnung ist geistiges Eigentum der A. Sprenger GmbH
  7
SIMPLEX
  0
TEXT
  5
26D
  8
LAYER01
  6
CONTINUOUS
 62
     7
 10
1152.756897
 20
-442.63579900000002
 30
0.0
 40
5.25
  1
und urheberrechtlich geschützt. Ohne unsere Zustimmung darf 
  7
SIMPLEX
  0
TEXT
  5
26E
  8
LAYER01
  6
CONTINUOUS
 62
     7
 10
1152.756897
 20
-451.63579900000002
 30
0.0
 40
5.25
  1
sie in keiner Form verwendet oder Dritten zugänglich gemacht
  7
SIMPLEX
  0
TEXT
  5
26F
  8
LAYER01
  6
CONTINUOUS
 62
     7
 10
1152.756897
 20
-460.63579900000002
 30
0.0
 40
5.25
  1
werden. (§106 Urheberrecht)
  7
SIMPLEX
  0
TEXT
  5
271
  8
LAYER01
  6
VERDECKT
 62
     1
 10
996.26776199999995
 20
-582.53032599999995
 30
0.0
 40
7.0
  1
Mai 2019
  7
SIMPLEX
  0
TEXT
  5
272
  8
LAYER01
  6
VERDECKT
 62
     1
 10
1063.5777720000001
 20
-582.55590199999995
 30
0.0
 40
7.0
  1
b.s.
  7
SIMPLEX
  0
TEXT
  5
273
  8
LAYER01
  6
VERDECKT
 62
     1
 10
1204.5946160000001
 20
-496.876149
 30
0.0
 40
7.0
  1
1 : 10 (DIN A4)
  7
SIMPLEX
  0
POLYLINE
  5
274
  8
LAYER01
  6
CONTINUOUS
 62
     7
 66
     1
 10
0.0
 20
0.0
 30
0.0
 70
     1
  0
VERTEX
  5
143C
  8
LAYER01
  6
CONTINUOUS
 62
     7
 10
-1174.0580050000001
 20
-713.17450799999995
 30
0.0
  0
VERTEX
  5
143D
  8
LAYER01
  6
CONTINUOUS
 62
     7
 10
-1174.0580050000001
 20
1132.326333
 30
0.0
  0
VERTEX
  5
143E
  8
LAYER01
  6
CONTINUOUS
 62
     7
 10
1508.105753
 20
1132.326333
 30
0.0
  0
VERTEX
  5
143F
  8
LAYER01
  6
CONTINUOUS
 62
     7
 10
1508.105753
 20
-713.17450799999995
 30
0.0
  0
SEQEND
  5
1440
  8
LAYER01
  6
CONTINUOUS
 62
     7
  0
TEXT
  5
27A
  8
LAYER01
  6
VERDECKT
 62
     1
 10
1158.434006
 20
-610.73898599999995
 30
0.0
 40
24.5
  1
UBS70
  7
SIMPLEX
  0
TEXT
  5
27B
  8
LAYER01
  6
VERDECKT
 62
     1
 10
1385.004631
 20
-496.876149
 30
0.0
 40
7.0
  1
ubs70.skd
  7
SIMPLEX
  0
DIMENSION
  5
27C
  8
LAYER01
 62
     7
  2
*D5
 10
-576.32114799999988
 20
222.56211200000001
 30
0.0
 11
-606.32114799999988
 21
383.46443299999999
 31
0.0
 53
90.0
 13
-517.07734699999992
 23
542.56210399999998
 33
0.0
 14
-517.07734699999992
 24
222.56211200000001
 34
0.0
 50
90.0
  0
DIMENSION
  5
27D
  8
LAYER01
 62
     7
  2
*D6
 10
-661.32046799999989
 20
197.562106
 30
0.0
 11
-691.32046799999989
 21
383.46443299999999
 31
0.0
 53
90.0
 13
-517.07734699999992
 23
567.56210999999985
 33
0.0
 14
-517.07734699999992
 24
197.562106
 34
0.0
 50
90.0
  0
LINE
  5
27E
  8
0
  6
CONTINUOUS
 62
     7
 10
-492.07736999999997
 20
532.57580800000005
 30
0.0
 11
-492.07736999999997
 21
232.55131399999999
 31
0.0
  0
LINE
  5
27F
  8
0
  6
CONTINUOUS
 62
     7
 10
-517.07734699999992
 20
557.56210499999986
 30
0.0
 11
-517.07734699999992
 21
207.56211099999999
 31
0.0
  0
POLYLINE
  5
280
  8
0
  6
CONTINUOUS
 62
     7
 66
     1
 10
0.0
 20
0.0
 30
0.0
 70
     4
  0
VERTEX
  5
281
  8
FORMAT
 62
     7
 10
-482.08845000000002
 20
222.562285
 30
0.0
 70
    16
  0
VERTEX
  5
282
  8
FORMAT
 62
     7
 10
-482.08845000000002
 20
222.562285
 30
0.0
 70
     8
  0
VERTEX
  5
283
  8
FORMAT
 62
     7
 10
-482.12255299999998
 20
222.56259800000001
 30
0.0
 70
     8
  0
VERTEX
  5
284
  8
FORMAT
 62
     7
 10
-482.15868699999987
 20
222.56295700000001
 30
0.0
 70
     8
  0
VERTEX
  5
285
  8
FORMAT
 62
     7
 10
-482.19670599999989
 20
222.56338500000001
 30
0.0
 70
     8
  0
VERTEX
  5
286
  8
FORMAT
 62
     7
 10
-482.2364639999999
 20
222.56390999999999
 30
0.0
 70
     8
  0
VERTEX
  5
287
  8
FORMAT
 62
     7
 10
-482.27781199999993
 20
222.56455600000001
 30
0.0
 70
     8
  0
VERTEX
  5
288
  8
FORMAT
 62
     7
 10
-482.320605
 20
222.56535
 30
0.0
 70
     8
  0
VERTEX
  5
289
  8
FORMAT
 62
     7
 10
-482.36469499999998
 20
222.566315
 30
0.0
 70
     8
  0
VERTEX
  5
28A
  8
FORMAT
 62
     7
 10
-482.4099359999999
 20
222.56747799999999
 30
0.0
 70
     8
  0
VERTEX
  5
28B
  8
FORMAT
 62
     7
 10
-482.4561799999999
 20
222.56886499999999
 30
0.0
 70
     8
  0
VERTEX
  5
28C
  8
FORMAT
 62
     7
 10
-482.50328200000001
 20
222.57050000000001
 30
0.0
 70
     8
  0
VERTEX
  5
28D
  8
FORMAT
 62
     7
 10
-482.50328200000001
 20
222.57050000000001
 30
0.0
 70
     8
  0
VERTEX
  5
28E
  8
FORMAT
 62
     7
 10
-482.52712100000002
 20
222.57141899999999
 30
0.0
 70
     8
  0
VERTEX
  5
28F
  8
FORMAT
 62
     7
 10
-482.55119999999988
 20
222.57241400000001
 30
0.0
 70
     8
  0
VERTEX
  5
290
  8
FORMAT
 62
     7
 10
-482.57558099999989
 20
222.57349199999999
 30
0.0
 70
     8
  0
VERTEX
  5
291
  8
FORMAT
 62
     7
 10
-482.600326
 20
222.574659
 30
0.0
 70
     8
  0
VERTEX
  5
292
  8
FORMAT
 62
     7
 10
-482.62549799999999
 20
222.57592299999999
 30
0.0
 70
     8
  0
VERTEX
  5
293
  8
FORMAT
 62
     7
 10
-482.65115800000001
 20
222.57729
 30
0.0
 70
     8
  0
VERTEX
  5
294
  8
FORMAT
 62
     7
 10
-482.677369
 20
222.57876899999999
 30
0.0
 70
     8
  0
VERTEX
  5
295
  8
FORMAT
 62
     7
 10
-482.70419299999998
 20
222.580365
 30
0.0
 70
     8
  0
VERTEX
  5
296
  8
FORMAT
 62
     7
 10
-482.73169200000001
 20
222.582086
 30
0.0
 70
     8
  0
VERTEX
  5
297
  8
FORMAT
 62
     7
 10
-482.759928
 20
222.58393899999999
 30
0.0
 70
     8
  0
VERTEX
  5
298
  8
FORMAT
 62
     7
 10
-482.759928
 20
222.58393899999999
 30
0.0
 70
     8
  0
VERTEX
  5
299
  8
FORMAT
 62
     7
 10
-482.78894100000002
 20
222.58592999999999
 30
0.0
 70
     8
  0
VERTEX
  5
29A
  8
FORMAT
 62
     7
 10
-482.81867099999988
 20
222.58805599999999
 30
0.0
 70
     8
  0
VERTEX
  5
29B
  8
FORMAT
 62
     7
 10
-482.8490359999999
 20
222.590315
 30
0.0
 70
     8
  0
VERTEX
  5
29C
  8
FORMAT
 62
     7
 10
-482.879955
 20
222.592703
 30
0.0
 70
     8
  0
VERTEX
  5
29D
  8
FORMAT
 62
     7
 10
-482.91134499999998
 20
222.59521799999999
 30
0.0
 70
     8
  0
VERTEX
  5
29E
  8
FORMAT
 62
     7
 10
-482.9431239999999
 20
222.59785600000001
 30
0.0
 70
     8
  0
VERTEX
  5
29F
  8
FORMAT
 62
     7
 10
-482.975211
 20
222.600615
 30
0.0
 70
     8
  0
VERTEX
  5
2A0
  8
FORMAT
 62
     7
 10
-483.00752199999999
 20
222.60348999999999
 30
0.0
 70
     8
  0
VERTEX
  5
2A1
  8
FORMAT
 62
     7
 10
-483.03997699999991
 20
222.60647900000001
 30
0.0
 70
     8
  0
VERTEX
  5
2A2
  8
FORMAT
 62
     7
 10
-483.07249200000001
 20
222.609579
 30
0.0
 70
     8
  0
VERTEX
  5
2A3
  8
FORMAT
 62
     7
 10
-483.07249200000001
 20
222.609579
 30
0.0
 70
     8
  0
VERTEX
  5
2A4
  8
FORMAT
 62
     7
 10
-483.10500000000002
 20
222.612787
 30
0.0
 70
     8
  0
VERTEX
  5
2A5
  8
FORMAT
 62
     7
 10
-483.13748600000002
 20
222.61610200000001
 30
0.0
 70
     8
  0
VERTEX
  5
2A6
  8
FORMAT
 62
     7
 10
-483.16995099999991
 20
222.61952400000001
 30
0.0
 70
     8
  0
VERTEX
  5
2A7
  8
FORMAT
 62
     7
 10
-483.20239499999991
 20
222.623053
 30
0.0
 70
     8
  0
VERTEX
  5
2A8
  8
FORMAT
 62
     7
 10
-483.2348179999999
 20
222.626688
 30
0.0
 70
     8
  0
VERTEX
  5
2A9
  8
FORMAT
 62
     7
 10
-483.26722000000001
 20
222.63042999999999
 30
0.0
 70
     8
  0
VERTEX
  5
2AA
  8
FORMAT
 62
     7
 10
-483.2996
 20
222.63427799999991
 30
0.0
 70
     8
  0
VERTEX
  5
2AB
  8
FORMAT
 62
     7
 10
-483.33195899999998
 20
222.63823199999999
 30
0.0
 70
     8
  0
VERTEX
  5
2AC
  8
FORMAT
 62
     7
 10
-483.36429699999991
 20
222.642291
 30
0.0
 70
     8
  0
VERTEX
  5
2AD
  8
FORMAT
 62
     7
 10
-483.396613
 20
222.646455
 30
0.0
 70
     8
  0
VERTEX
  5
2AE
  8
FORMAT
 62
     7
 10
-483.396613
 20
222.646455
 30
0.0
 70
     8
  0
VERTEX
  5
2AF
  8
FORMAT
 62
     7
 10
-483.42890899999992
 20
222.65072499999999
 30
0.0
 70
     8
  0
VERTEX
  5
2B0
  8
FORMAT
 62
     7
 10
-483.46118300000001
 20
222.65509900000001
 30
0.0
 70
     8
  0
VERTEX
  5
2B1
  8
FORMAT
 62
     7
 10
-483.49343499999998
 20
222.65957900000001
 30
0.0
 70
     8
  0
VERTEX
  5
2B2
  8
FORMAT
 62
     7
 10
-483.52566699999988
 20
222.664164
 30
0.0
 70
     8
  0
VERTEX
  5
2B3
  8
FORMAT
 62
     7
 10
-483.55787699999991
 20
222.66885500000001
 30
0.0
 70
     8
  0
VERTEX
  5
2B4
  8
FORMAT
 62
     7
 10
-483.59006599999998
 20
222.67365100000001
 30
0.0
 70
     8
  0
VERTEX
  5
2B5
  8
FORMAT
 62
     7
 10
-483.62223399999988
 20
222.678552
 30
0.0
 70
     8
  0
VERTEX
  5
2B6
  8
FORMAT
 62
     7
 10
-483.65438
 20
222.683558
 30
0.0
 70
     8
  0
VERTEX
  5
2B7
  8
FORMAT
 62
     7
 10
-483.68650600000001
 20
222.688671
 30
0.0
 70
     8
  0
VERTEX
  5
2B8
  8
FORMAT
 62
     7
 10
-483.7186099999999
 20
222.69388900000001
 30
0.0
 70
     8
  0
VERTEX
  5
2B9
  8
FORMAT
 62
     7
 10
-483.7186099999999
 20
222.69388900000001
 30
0.0
 70
     8
  0
VERTEX
  5
2BA
  8
FORMAT
 62
     7
 10
-483.75069200000002
 20
222.69921199999999
 30
0.0
 70
     8
  0
VERTEX
  5
2BB
  8
FORMAT
 62
     7
 10
-483.78275400000001
 20
222.70464100000001
 30
0.0
 70
     8
  0
VERTEX
  5
2BC
  8
FORMAT
 62
     7
 10
-483.81479400000001
 20
222.71017599999999
 30
0.0
 70
     8
  0
VERTEX
  5
2BD
  8
FORMAT
 62
     7
 10
-483.84681299999988
 20
222.71581699999999
 30
0.0
 70
     8
  0
VERTEX
  5
2BE
  8
FORMAT
 62
     7
 10
-483.87880999999999
 20
222.721563
 30
0.0
 70
     8
  0
VERTEX
  5
2BF
  8
FORMAT
 62
     7
 10
-483.91078700000003
 20
222.72741500000001
 30
0.0
 70
     8
  0
VERTEX
  5
2C0
  8
FORMAT
 62
     7
 10
-483.9427419999999
 20
222.733373
 30
0.0
 70
     8
  0
VERTEX
  5
2C1
  8
FORMAT
 62
     7
 10
-483.97467599999987
 20
222.73943600000001
 30
0.0
 70
     8
  0
VERTEX
  5
2C2
  8
FORMAT
 62
     7
 10
-484.00658800000002
 20
222.74560399999999
 30
0.0
 70
     8
  0
VERTEX
  5
2C3
  8
FORMAT
 62
     7
 10
-484.03847899999988
 20
222.751879
 30
0.0
 70
     8
  0
VERTEX
  5
2C4
  8
FORMAT
 62
     7
 10
-484.03847899999988
 20
222.751879
 30
0.0
 70
     8
  0
VERTEX
  5
2C5
  8
FORMAT
 62
     7
 10
-484.07034900000002
 20
222.75825800000001
 30
0.0
 70
     8
  0
VERTEX
  5
2C6
  8
FORMAT
 62
     7
 10
-484.10219799999999
 20
222.76474300000001
 30
0.0
 70
     8
  0
VERTEX
  5
2C7
  8
FORMAT
 62
     7
 10
-484.13402500000001
 20
222.771334
 30
0.0
 70
     8
  0
VERTEX
  5
2C8
  8
FORMAT
 62
     7
 10
-484.16583200000002
 20
222.778031
 30
0.0
 70
     8
  0
VERTEX
  5
2C9
  8
FORMAT
 62
     7
 10
-484.19761699999992
 20
222.78483199999999
 30
0.0
 70
     8
  0
VERTEX
  5
2CA
  8
FORMAT
 62
     7
 10
-484.22937999999999
 20
222.79174
 30
0.0
 70
     8
  0
VERTEX
  5
2CB
  8
FORMAT
 62
     7
 10
-484.261122
 20
222.798753
 30
0.0
 70
     8
  0
VERTEX
  5
2CC
  8
FORMAT
 62
     7
 10
-484.29284299999989
 20
222.805871
 30
0.0
 70
     8
  0
VERTEX
  5
2CD
  8
FORMAT
 62
     7
 10
-484.32454299999989
 20
222.813095
 30
0.0
 70
     8
  0
VERTEX
  5
2CE
  8
FORMAT
 62
     7
 10
-484.35622199999989
 20
222.820425
 30
0.0
 70
     8
  0
VERTEX
  5
2CF
  8
FORMAT
 62
     7
 10
-484.35622199999989
 20
222.820425
 30
0.0
 70
     8
  0
VERTEX
  5
2D0
  8
FORMAT
 62
     7
 10
-484.38787899999988
 20
222.82785999999999
 30
0.0
 70
     8
  0
VERTEX
  5
2D1
  8
FORMAT
 62
     7
 10
-484.41951499999999
 20
222.83540099999999
 30
0.0
 70
     8
  0
VERTEX
  5
2D2
  8
FORMAT
 62
     7
 10
-484.45112899999992
 20
222.84304700000001
 30
0.0
 70
     8
  0
VERTEX
  5
2D3
  8
FORMAT
 62
     7
 10
-484.48272299999991
 20
222.85079899999999
 30
0.0
 70
     8
  0
VERTEX
  5
2D4
  8
FORMAT
 62
     7
 10
-484.514295
 20
222.85865699999999
 30
0.0
 70
     8
  0
VERTEX
  5
2D5
  8
FORMAT
 62
     7
 10
-484.54584499999999
 20
222.86662000000001
 30
0.0
 70
     8
  0
VERTEX
  5
2D6
  8
FORMAT
 62
     7
 10
-484.57737500000002
 20
222.87468799999999
 30
0.0
 70
     8
  0
VERTEX
  5
2D7
  8
FORMAT
 62
     7
 10
-484.60888299999999
 20
222.88286199999999
 30
0.0
 70
     8
  0
VERTEX
  5
2D8
  8
FORMAT
 62
     7
 10
-484.64037000000002
 20
222.891142
 30
0.0
 70
     8
  0
VERTEX
  5
2D9
  8
FORMAT
 62
     7
 10
-484.67183499999987
 20
222.899528
 30
0.0
 70
     8
  0
VERTEX
  5
2DA
  8
FORMAT
 62
     7
 10
-484.67183499999987
 20
222.899528
 30
0.0
 70
     8
  0
VERTEX
  5
2DB
  8
FORMAT
 62
     7
 10
-484.70327900000001
 20
222.908018
 30
0.0
 70
     8
  0
VERTEX
  5
2DC
  8
FORMAT
 62
     7
 10
-484.73470199999991
 20
222.91661500000001
 30
0.0
 70
     8
  0
VERTEX
  5
2DD
  8
FORMAT
 62
     7
 10
-484.76610399999998
 20
222.92531700000001
 30
0.0
 70
     8
  0
VERTEX
  5
2DE
  8
FORMAT
 62
     7
 10
-484.79748499999988
 20
222.934124
 30
0.0
 70
     8
  0
VERTEX
  5
2DF
  8
FORMAT
 62
     7
 10
-484.82884400000012
 20
222.943038
 30
0.0
 70
     8
  0
VERTEX
  5
2E0
  8
FORMAT
 62
     7
 10
-484.8601809999999
 20
222.952056
 30
0.0
 70
     8
  0
VERTEX
  5
2E1
  8
FORMAT
 62
     7
 10
-484.89149800000001
 20
222.96118000000001
 30
0.0
 70
     8
  0
VERTEX
  5
2E2
  8
FORMAT
 62
     7
 10
-484.9227929999999
 20
222.97040999999999
 30
0.0
 70
     8
  0
VERTEX
  5
2E3
  8
FORMAT
 62
     7
 10
-484.95406700000001
 20
222.97974500000001
 30
0.0
 70
     8
  0
VERTEX
  5
2E4
  8
FORMAT
 62
     7
 10
-484.98531900000012
 20
222.98918599999999
 30
0.0
 70
     8
  0
VERTEX
  5
2E5
  8
FORMAT
 62
     7
 10
-484.98531900000012
 20
222.98918599999999
 30
0.0
 70
     8
  0
VERTEX
  5
2E6
  8
FORMAT
 62
     7
 10
-485.01655
 20
222.99873199999999
 30
0.0
 70
     8
  0
VERTEX
  5
2E7
  8
FORMAT
 62
     7
 10
-485.04775999999993
 20
223.00838400000001
 30
0.0
 70
     8
  0
VERTEX
  5
2E8
  8
FORMAT
 62
     7
 10
-485.07894800000003
 20
223.01814100000001
 30
0.0
 70
     8
  0
VERTEX
  5
2E9
  8
FORMAT
 62
     7
 10
-485.11011500000001
 20
223.02800400000001
 30
0.0
 70
     8
  0
VERTEX
  5
2EA
  8
FORMAT
 62
     7
 10
-485.14126099999999
 20
223.03797299999999
 30
0.0
 70
     8
  0
VERTEX
  5
2EB
  8
FORMAT
 62
     7
 10
-485.1723859999999
 20
223.048047
 30
0.0
 70
     8
  0
VERTEX
  5
2EC
  8
FORMAT
 62
     7
 10
-485.20348899999988
 20
223.05822599999999
 30
0.0
 70
     8
  0
VERTEX
  5
2ED
  8
FORMAT
 62
     7
 10
-485.23457100000002
 20
223.068512
 30
0.0
 70
     8
  0
VERTEX
  5
2EE
  8
FORMAT
 62
     7
 10
-485.26563199999998
 20
223.078903
 30
0.0
 70
     8
  0
VERTEX
  5
2EF
  8
FORMAT
 62
     7
 10
-485.296672
 20
223.08940000000001
 30
0.0
 70
     8
  0
VERTEX
  5
2F0
  8
FORMAT
 62
     7
 10
-485.296672
 20
223.08940000000001
 30
0.0
 70
     8
  0
VERTEX
  5
2F1
  8
FORMAT
 62
     7
 10
-485.32777499999997
 20
223.10003499999999
 30
0.0
 70
     8
  0
VERTEX
  5
2F2
  8
FORMAT
 62
     7
 10
-485.35935999999992
 20
223.110975
 30
0.0
 70
     8
  0
VERTEX
  5
2F3
  8
FORMAT
 62
     7
 10
-485.39193099999989
 20
223.12241900000001
 30
0.0
 70
     8
  0
VERTEX
  5
2F4
  8
FORMAT
 62
     7
 10
-485.42599299999989
 20
223.13456500000001
 30
0.0
 70
     8
  0
VERTEX
  5
2F5
  8
FORMAT
 62
     7
 10
-485.46204799999998
 20
223.14761300000001
 30
0.0
 70
     8
  0
VERTEX
  5
2F6
  8
FORMAT
 62
     7
 10
-485.5006009999999
 20
223.16176100000001
 30
0.0
 70
     8
  0
VERTEX
  5
2F7
  8
FORMAT
 62
     7
 10
-485.54215499999992
 20
223.17720700000001
 30
0.0
 70
     8
  0
VERTEX
  5
2F8
  8
FORMAT
 62
     7
 10
-485.58721299999991
 20
223.194152
 30
0.0
 70
     8
  0
VERTEX
  5
2F9
  8
FORMAT
 62
     7
 10
-485.63628099999988
 20
223.212794
 30
0.0
 70
     8
  0
VERTEX
  5
2FA
  8
FORMAT
 62
     7
 10
-485.68986100000001
 20
223.23333099999999
 30
0.0
 70
     8
  0
VERTEX
  5
2FB
  8
FORMAT
 62
     7
 10
-485.68986100000001
 20
223.23333099999999
 30
0.0
 70
     8
  0
VERTEX
  5
2FC
  8
FORMAT
 62
     7
 10
-485.74836399999992
 20
223.255954
 30
0.0
 70
     8
  0
VERTEX
  5
2FD
  8
FORMAT
 62
     7
 10
-485.81182999999999
 20
223.28080800000001
 30
0.0
 70
     8
  0
VERTEX
  5
2FE
  8
FORMAT
 62
     7
 10
-485.88020599999999
 20
223.308032
 30
0.0
 70
     8
  0
VERTEX
  5
2FF
  8
FORMAT
 62
     7
 10
-485.95344
 20
223.33776499999999
 30
0.0
 70
     8
  0
VERTEX
  5
300
  8
FORMAT
 62
     7
 10
-486.03147699999988
 20
223.37014199999999
 30
0.0
 70
     8
  0
VERTEX
  5
301
  8
FORMAT
 62
     7
 10
-486.11426499999999
 20
223.405303
 30
0.0
 70
     8
  0
VERTEX
  5
302
  8
FORMAT
 62
     7
 10
-486.20175
 20
223.44338400000001
 30
0.0
 70
     8
  0
VERTEX
  5
303
  8
FORMAT
 62
     7
 10
-486.29388099999989
 20
223.48452399999999
 30
0.0
 70
     8
  0
VERTEX
  5
304
  8
FORMAT
 62
     7
 10
-486.39060299999989
 20
223.52886000000001
 30
0.0
 70
     8
  0
VERTEX
  5
305
  8
FORMAT
 62
     7
 10
-486.49186399999991
 20
223.57652999999999
 30
0.0
 70
     8
  0
VERTEX
  5
306
  8
FORMAT
 62
     7
 10
-486.49186399999991
 20
223.57652999999999
 30
0.0
 70
     8
  0
VERTEX
  5
307
  8
FORMAT
 62
     7
 10
-486.59758799999992
 20
223.62768700000001
 30
0.0
 70
     8
  0
VERTEX
  5
308
  8
FORMAT
 62
     7
 10
-486.70760799999999
 20
223.68255500000001
 30
0.0
 70
     8
  0
VERTEX
  5
309
  8
FORMAT
 62
     7
 10
-486.82173599999999
 20
223.74136999999999
 30
0.0
 70
     8
  0
VERTEX
  5
30A
  8
FORMAT
 62
     7
 10
-486.93978099999993
 20
223.804371
 30
0.0
 70
     8
  0
VERTEX
  5
30B
  8
FORMAT
 62
     7
 10
-487.061555
 20
223.87179699999999
 30
0.0
 70
     8
  0
VERTEX
  5
30C
  8
FORMAT
 62
     7
 10
-487.186869
 20
223.94388499999999
 30
0.0
 70
     8
  0
VERTEX
  5
30D
  8
FORMAT
 62
     7
 10
-487.31553300000002
 20
224.02087399999999
 30
0.0
 70
     8
  0
VERTEX
  5
30E
  8
FORMAT
 62
     7
 10
-487.44735800000001
 20
224.103002
 30
0.0
 70
     8
  0
VERTEX
  5
30F
  8
FORMAT
 62
     7
 10
-487.582154
 20
224.190506
 30
0.0
 70
     8
  0
VERTEX
  5
310
  8
FORMAT
 62
     7
 10
-487.71973300000002
 20
224.283627
 30
0.0
 70
     8
  0
VERTEX
  5
311
  8
FORMAT
 62
     7
 10
-487.71973300000002
 20
224.283627
 30
0.0
 70
     8
  0
VERTEX
  5
312
  8
FORMAT
 62
     7
 10
-487.85984999999988
 20
224.382507
 30
0.0
 70
     8
  0
VERTEX
  5
313
  8
FORMAT
 62
     7
 10
-488.00203499999992
 20
224.486921
 30
0.0
 70
     8
  0
VERTEX
  5
314
  8
FORMAT
 62
     7
 10
-488.14576599999998
 20
224.59654699999999
 30
0.0
 70
     8
  0
VERTEX
  5
315
  8
FORMAT
 62
     7
 10
-488.29051599999991
 20
224.71106599999999
 30
0.0
 70
     8
  0
VERTEX
  5
316
  8
FORMAT
 62
     7
 10
-488.43576300000001
 20
224.83015599999999
 30
0.0
 70
     8
  0
VERTEX
  5
317
  8
FORMAT
 62
     7
 10
-488.58098200000001
 20
224.953498
 30
0.0
 70
     8
  0
VERTEX
  5
318
  8
FORMAT
 62
     7
 10
-488.72564799999998
 20
225.080771
 30
0.0
 70
     8
  0
VERTEX
  5
319
  8
FORMAT
 62
     7
 10
-488.869237
 20
225.21165400000001
 30
0.0
 70
     8
  0
VERTEX
  5
31A
  8
FORMAT
 62
     7
 10
-489.01122500000002
 20
225.34582700000001
 30
0.0
 70
     8
  0
VERTEX
  5
31B
  8
FORMAT
 62
     7
 10
-489.15108700000002
 20
225.48296999999999
 30
0.0
 70
     8
  0
VERTEX
  5
31C
  8
FORMAT
 62
     7
 10
-489.15108700000002
 20
225.48296999999999
 30
0.0
 70
     8
  0
VERTEX
  5
31D
  8
FORMAT
 62
     7
 10
-489.28834000000001
 20
225.622739
 30
0.0
 70
     8
  0
VERTEX
  5
31E
  8
FORMAT
 62
     7
 10
-489.42265900000001
 20
225.76470399999999
 30
0.0
 70
     8
  0
VERTEX
  5
31F
  8
FORMAT
 62
     7
 10
-489.55376199999989
 20
225.90840800000001
 30
0.0
 70
     8
  0
VERTEX
  5
320
  8
FORMAT
 62
     7
 10
-489.68136299999992
 20
226.05339900000001
 30
0.0
 70
     8
  0
VERTEX
  5
321
  8
FORMAT
 62
     7
 10
-489.80518099999989
 20
226.19922
 30
0.0
 70
     8
  0
VERTEX
  5
322
  8
FORMAT
 62
     7
 10
-489.92493100000002
 20
226.34541899999999
 30
0.0
 70
     8
  0
VERTEX
  5
323
  8
FORMAT
 62
     7
 10
-490.04032899999987
 20
226.49153999999999
 30
0.0
 70
     8
  0
VERTEX
  5
324
  8
FORMAT
 62
     7
 10
-490.15109199999989
 20
226.63712899999999
 30
0.0
 70
     8
  0
VERTEX
  5
325
  8
FORMAT
 62
     7
 10
-490.25693699999999
 20
226.78173100000001
 30
0.0
 70
     8
  0
VERTEX
  5
326
  8
FORMAT
 62
     7
 10
-490.35757899999987
 20
226.924893
 30
0.0
 70
     8
  0
VERTEX
  5
327
  8
FORMAT
 62
     7
 10
-490.35757899999987
 20
226.924893
 30
0.0
 70
     8
  0
VERTEX
  5
328
  8
FORMAT
 62
     7
 10
-490.45281799999992
 20
227.066205
 30
0.0
 70
     8
  0
VERTEX
  5
329
  8
FORMAT
 62
     7
 10
-490.54278199999999
 20
227.205443
 30
0.0
 70
     8
  0
VERTEX
  5
32A
  8
FORMAT
 62
     7
 10
-490.62768199999999
 20
227.34242900000001
 30
0.0
 70
     8
  0
VERTEX
  5
32B
  8
FORMAT
 62
     7
 10
-490.70772899999997
 20
227.47698399999999
 30
0.0
 70
     8
  0
VERTEX
  5
32C
  8
FORMAT
 62
     7
 10
-490.7831339999999
 20
227.60892999999999
 30
0.0
 70
     8
  0
VERTEX
  5
32D
  8
FORMAT
 62
     7
 10
-490.854108
 20
227.738089
 30
0.0
 70
     8
  0
VERTEX
  5
32E
  8
FORMAT
 62
     7
 10
-490.920862
 20
227.864282
 30
0.0
 70
     8
  0
VERTEX
  5
32F
  8
FORMAT
 62
     7
 10
-490.98360799999989
 20
227.98733100000001
 30
0.0
 70
     8
  0
VERTEX
  5
330
  8
FORMAT
 62
     7
 10
-491.04255499999999
 20
228.107057
 30
0.0
 70
     8
  0
VERTEX
  5
331
  8
FORMAT
 62
     7
 10
-491.09791399999989
 20
228.22328200000001
 30
0.0
 70
     8
  0
VERTEX
  5
332
  8
FORMAT
 62
     7
 10
-491.09791399999989
 20
228.22328200000001
 30
0.0
 70
     8
  0
VERTEX
  5
333
  8
FORMAT
 62
     7
 10
-491.14988699999998
 20
228.335848
 30
0.0
 70
     8
  0
VERTEX
  5
334
  8
FORMAT
 62
     7
 10
-491.198624
 20
228.44467800000001
 30
0.0
 70
     8
  0
VERTEX
  5
335
  8
FORMAT
 62
     7
 10
-491.24426899999997
 20
228.54971599999999
 30
0.0
 70
     8
  0
VERTEX
  5
336
  8
FORMAT
 62
     7
 10
-491.28696300000001
 20
228.650904
 30
0.0
 70
     8
  0
VERTEX
  5
337
  8
FORMAT
 62
     7
 10
-491.32684599999999
 20
228.748187
 30
0.0
 70
     8
  0
VERTEX
  5
338
  8
FORMAT
 62
     7
 10
-491.36406199999988
 20
228.84150700000001
 30
0.0
 70
     8
  0
VERTEX
  5
339
  8
FORMAT
 62
     7
 10
-491.39875000000001
 20
228.93080800000001
 30
0.0
 70
     8
  0
VERTEX
  5
33A
  8
FORMAT
 62
     7
 10
-491.43105400000002
 20
229.01603399999999
 30
0.0
 70
     8
  0
VERTEX
  5
33B
  8
FORMAT
 62
     7
 10
-491.4611139999999
 20
229.097127
 30
0.0
 70
     8
  0
VERTEX
  5
33C
  8
FORMAT
 62
     7
 10
-491.48907300000002
 20
229.17403200000001
 30
0.0
 70
     8
  0
VERTEX
  5
33D
  8
FORMAT
 62
     7
 10
-491.48907300000002
 20
229.17403200000001
 30
0.0
 70
     8
  0
VERTEX
  5
33E
  8
FORMAT
 62
     7
 10
-491.51507500000002
 20
229.24677299999999
 30
0.0
 70
     8
  0
VERTEX
  5
33F
  8
FORMAT
 62
     7
 10
-491.53928200000001
 20
229.31569999999999
 30
0.0
 70
     8
  0
VERTEX
  5
340
  8
FORMAT
 62
     7
 10
-491.56185699999997
 20
229.38124199999999
 30
0.0
 70
     8
  0
VERTEX
  5
341
  8
FORMAT
 62
     7
 10
-491.58296699999988
 20
229.44383199999999
 30
0.0
 70
     8
  0
VERTEX
  5
342
  8
FORMAT
 62
     7
 10
-491.60277600000001
 20
229.50389999999999
 30
0.0
 70
     8
  0
VERTEX
  5
343
  8
FORMAT
 62
     7
 10
-491.62144699999988
 20
229.56187700000001
 30
0.0
 70
     8
  0
VERTEX
  5
344
  8
FORMAT
 62
     7
 10
-491.63914699999992
 20
229.61819299999999
 30
0.0
 70
     8
  0
VERTEX
  5
345
  8
FORMAT
 62
     7
 10
-491.65604000000002
 20
229.673281
 30
0.0
 70
     8
  0
VERTEX
  5
346
  8
FORMAT
 62
     7
 10
-491.67228999999998
 20
229.72756899999999
 30
0.0
 70
     8
  0
VERTEX
  5
347
  8
FORMAT
 62
     7
 10
-491.688063
 20
229.78148999999999
 30
0.0
 70
     8
  0
VERTEX
  5
348
  8
FORMAT
 62
     7
 10
-491.688063
 20
229.78148999999999
 30
0.0
 70
     8
  0
VERTEX
  5
349
  8
FORMAT
 62
     7
 10
-491.70349499999998
 20
229.83540199999999
 30
0.0
 70
     8
  0
VERTEX
  5
34A
  8
FORMAT
 62
     7
 10
-491.71861399999989
 20
229.889377
 30
0.0
 70
     8
  0
VERTEX
  5
34B
  8
FORMAT
 62
     7
 10
-491.73342099999991
 20
229.94341499999999
 30
0.0
 70
     8
  0
VERTEX
  5
34C
  8
FORMAT
 62
     7
 10
-491.74791599999998
 20
229.99751599999999
 30
0.0
 70
     8
  0
VERTEX
  5
34D
  8
FORMAT
 62
     7
 10
-491.76209899999998
 20
230.051681
 30
0.0
 70
     8
  0
VERTEX
  5
34E
  8
FORMAT
 62
     7
 10
-491.77596999999997
 20
230.105909
 30
0.0
 70
     8
  0
VERTEX
  5
34F
  8
FORMAT
 62
     7
 10
-491.7895299999999
 20
230.1602
 30
0.0
 70
     8
  0
VERTEX
  5
350
  8
FORMAT
 62
     7
 10
-491.80277799999999
 20
230.21455399999999
 30
0.0
 70
     8
  0
VERTEX
  5
351
  8
FORMAT
 62
     7
 10
-491.8157149999999
 20
230.26897199999999
 30
0.0
 70
     8
  0
VERTEX
  5
352
  8
FORMAT
 62
     7
 10
-491.82834200000002
 20
230.323453
 30
0.0
 70
     8
  0
VERTEX
  5
353
  8
FORMAT
 62
     7
 10
-491.82834200000002
 20
230.323453
 30
0.0
 70
     8
  0
VERTEX
  5
354
  8
FORMAT
 62
     7
 10
-491.84065800000002
 20
230.37799799999999
 30
0.0
 70
     8
  0
VERTEX
  5
355
  8
FORMAT
 62
     7
 10
-491.85266200000001
 20
230.43260599999999
 30
0.0
 70
     8
  0
VERTEX
  5
356
  8
FORMAT
 62
     7
 10
-491.86435499999988
 20
230.487278
 30
0.0
 70
     8
  0
VERTEX
  5
357
  8
FORMAT
 62
     7
 10
-491.87573499999991
 20
230.542012
 30
0.0
 70
     8
  0
VERTEX
  5
358
  8
FORMAT
 62
     7
 10
-491.88680099999988
 20
230.59681
 30
0.0
 70
     8
  0
VERTEX
  5
359
  8
FORMAT
 62
     7
 10
-491.8975529999999
 20
230.65167199999999
 30
0.0
 70
     8
  0
VERTEX
  5
35A
  8
FORMAT
 62
     7
 10
-491.90798999999998
 20
230.70659599999999
 30
0.0
 70
     8
  0
VERTEX
  5
35B
  8
FORMAT
 62
     7
 10
-491.91811200000001
 20
230.761584
 30
0.0
 70
     8
  0
VERTEX
  5
35C
  8
FORMAT
 62
     7
 10
-491.92791599999998
 20
230.81663499999999
 30
0.0
 70
     8
  0
VERTEX
  5
35D
  8
FORMAT
 62
     7
 10
-491.93740400000002
 20
230.87174899999999
 30
0.0
 70
     8
  0
VERTEX
  5
35E
  8
FORMAT
 62
     7
 10
-491.93740400000002
 20
230.87174899999999
 30
0.0
 70
     8
  0
VERTEX
  5
35F
  8
FORMAT
 62
     7
 10
-491.94657199999989
 20
230.92690300000001
 30
0.0
 70
     8
  0
VERTEX
  5
360
  8
FORMAT
 62
     7
 10
-491.95541199999991
 20
230.981979
 30
0.0
 70
     8
  0
VERTEX
  5
361
  8
FORMAT
 62
     7
 10
-491.96391599999998
 20
231.03683899999999
 30
0.0
 70
     8
  0
VERTEX
  5
362
  8
FORMAT
 62
     7
 10
-491.97207400000002
 20
231.091341
 30
0.0
 70
     8
  0
VERTEX
  5
363
  8
FORMAT
 62
     7
 10
-491.97987699999982
 20
231.14534399999999
 30
0.0
 70
     8
  0
VERTEX
  5
364
  8
FORMAT
 62
     7
 10
-491.98731499999991
 20
231.19871000000001
 30
0.0
 70
     8
  0
VERTEX
  5
365
  8
FORMAT
 62
     7
 10
-491.99437899999992
 20
231.25129799999999
 30
0.0
 70
     8
  0
VERTEX
  5
366
  8
FORMAT
 62
     7
 10
-492.00105999999988
 20
231.302967
 30
0.0
 70
     8
  0
VERTEX
  5
367
  8
FORMAT
 62
     7
 10
-492.00734799999998
 20
231.353577
 30
0.0
 70
     8
  0
VERTEX
  5
368
  8
FORMAT
 62
     7
 10
-492.01323400000001
 20
231.40298799999999
 30
0.0
 70
     8
  0
VERTEX
  5
369
  8
FORMAT
 62
     7
 10
-492.01323400000001
 20
231.40298799999999
 30
0.0
 70
     8
  0
VERTEX
  5
36A
  8
FORMAT
 62
     7
 10
-492.01871399999999
 20
231.4511
 30
0.0
 70
     8
  0
VERTEX
  5
36B
  8
FORMAT
 62
     7
 10
-492.02380399999998
 20
231.49797799999999
 30
0.0
 70
     8
  0
VERTEX
  5
36C
  8
FORMAT
 62
     7
 10
-492.028524
 20
231.54372499999999
 30
0.0
 70
     8
  0
VERTEX
  5
36D
  8
FORMAT
 62
     7
 10
-492.03289599999988
 20
231.58844500000001
 30
0.0
 70
     8
  0
VERTEX
  5
36E
  8
FORMAT
 62
     7
 10
-492.03694000000002
 20
231.63224299999999
 30
0.0
 70
     8
  0
VERTEX
  5
36F
  8
FORMAT
 62
     7
 10
-492.0406769999999
 20
231.67522399999999
 30
0.0
 70
     8
  0
VERTEX
  5
370
  8
FORMAT
 62
     7
 10
-492.044129
 20
231.717491
 30
0.0
 70
     8
  0
VERTEX
  5
371
  8
FORMAT
 62
     7
 10
-492.04731500000003
 20
231.75914800000001
 30
0.0
 70
     8
  0
VERTEX
  5
372
  8
FORMAT
 62
     7
 10
-492.05025699999999
 20
231.80029999999999
 30
0.0
 70
     8
  0
VERTEX
  5
373
  8
FORMAT
 62
     7
 10
-492.052975
 20
231.84105199999999
 30
0.0
 70
     8
  0
VERTEX
  5
374
  8
FORMAT
 62
     7
 10
-492.052975
 20
231.84105199999999
 30
0.0
 70
     8
  0
VERTEX
  5
375
  8
FORMAT
 62
     7
 10
-492.05781100000002
 20
231.92158900000001
 30
0.0
 70
     8
  0
VERTEX
  5
376
  8
FORMAT
 62
     7
 10
-492.06191100000001
 20
232.000688
 30
0.0
 70
     8
  0
VERTEX
  5
377
  8
FORMAT
 62
     7
 10
-492.06535200000002
 20
232.07809399999999
 30
0.0
 70
     8
  0
VERTEX
  5
378
  8
FORMAT
 62
     7
 10
-492.06820800000003
 20
232.15355500000001
 30
0.0
 70
     8
  0
VERTEX
  5
379
  8
FORMAT
 62
     7
 10
-492.07055600000001
 20
232.22681800000001
 30
0.0
 70
     8
  0
VERTEX
  5
37A
  8
FORMAT
 62
     7
 10
-492.07246900000013
 20
232.297631
 30
0.0
 70
     8
  0
VERTEX
  5
37B
  8
FORMAT
 62
     7
 10
-492.07402300000001
 20
232.36573899999999
 30
0.0
 70
     8
  0
VERTEX
  5
37C
  8
FORMAT
 62
     7
 10
-492.07529399999999
 20
232.43088900000001
 30
0.0
 70
     8
  0
VERTEX
  5
37D
  8
FORMAT
 62
     7
 10
-492.07635599999998
 20
232.49283
 30
0.0
 70
     8
  0
VERTEX
  5
37E
  8
FORMAT
 62
     7
 10
-492.07728399999991
 20
232.55130700000001
 30
0.0
 70
     8
  0
VERTEX
  5
37F
  8
FORMAT
 62
     7
 10
-482.198576
 20
222.56328199999999
 30
0.0
 70
    16
  0
VERTEX
  5
380
  8
FORMAT
 62
     7
 10
-482.41823099999988
 20
222.56527
 30
0.0
 70
    16
  0
VERTEX
  5
381
  8
FORMAT
 62
     7
 10
-482.7466
 20
222.58162300000001
 30
0.0
 70
    16
  0
VERTEX
  5
382
  8
FORMAT
 62
     7
 10
-483.07284599999991
 20
222.607786
 30
0.0
 70
    16
  0
VERTEX
  5
383
  8
FORMAT
 62
     7
 10
-483.39696800000002
 20
222.64470499999999
 30
0.0
 70
    16
  0
VERTEX
  5
384
  8
FORMAT
 62
     7
 10
-483.71896400000003
 20
222.692127
 30
0.0
 70
    16
  0
VERTEX
  5
385
  8
FORMAT
 62
     7
 10
-484.03883400000001
 20
222.75012000000001
 30
0.0
 70
    16
  0
VERTEX
  5
386
  8
FORMAT
 62
     7
 10
-484.3565759999999
 20
222.81866500000001
 30
0.0
 70
    16
  0
VERTEX
  5
387
  8
FORMAT
 62
     7
 10
-484.67219
 20
222.89776800000001
 30
0.0
 70
    16
  0
VERTEX
  5
388
  8
FORMAT
 62
     7
 10
-484.9856749999999
 20
222.98742799999999
 30
0.0
 70
    16
  0
VERTEX
  5
389
  8
FORMAT
 62
     7
 10
-485.29702500000002
 20
223.087638
 30
0.0
 70
    16
  0
VERTEX
  5
38A
  8
FORMAT
 62
     7
 10
-485.60625899999991
 20
223.19842
 30
0.0
 70
    16
  0
VERTEX
  5
38B
  8
FORMAT
 62
     7
 10
-486.41710399999999
 20
223.51867200000001
 30
0.0
 70
    16
  0
VERTEX
  5
38C
  8
FORMAT
 62
     7
 10
-487.676511
 20
224.18606800000001
 30
0.0
 70
    16
  0
VERTEX
  5
38D
  8
FORMAT
 62
     7
 10
-489.19524999999999
 20
225.438817
 30
0.0
 70
    16
  0
VERTEX
  5
38E
  8
FORMAT
 62
     7
 10
-490.44900999999999
 20
226.95648299999999
 30
0.0
 70
    16
  0
VERTEX
  5
38F
  8
FORMAT
 62
     7
 10
-491.15418299999988
 20
228.284605
 30
0.0
 70
    16
  0
VERTEX
  5
390
  8
FORMAT
 62
     7
 10
-491.52174400000013
 20
229.244788
 30
0.0
 70
    16
  0
VERTEX
  5
391
  8
FORMAT
 62
     7
 10
-491.69327900000002
 20
229.780439
 30
0.0
 70
    16
  0
VERTEX
  5
392
  8
FORMAT
 62
     7
 10
-491.83351699999992
 20
230.322396
 30
0.0
 70
    16
  0
VERTEX
  5
393
  8
FORMAT
 62
     7
 10
-491.94270499999999
 20
230.87069700000001
 30
0.0
 70
    16
  0
VERTEX
  5
394
  8
FORMAT
 62
     7
 10
-492.02008799999999
 20
231.425309
 30
0.0
 70
    16
  0
VERTEX
  5
395
  8
FORMAT
 62
     7
 10
-492.06843700000002
 20
231.986221
 30
0.0
 70
    16
  0
VERTEX
  5
396
  8
FORMAT
 62
     7
 10
-492.07432799999998
 20
232.362437
 30
0.0
 70
    16
  0
VERTEX
  5
397
  8
FORMAT
 62
     7
 10
-492.07728399999991
 20
232.55130700000001
 30
0.0
 70
    16
  0
SEQEND
  5
398
  8
FORMAT
 62
     7
  0
ARC
  5
399
  8
0
  6
CONTINUOUS
 62
     7
 10
-507.07735999999989
 20
207.56210799999999
 30
0.0
 40
10.0
 50
180.0
 51
270.0
  0
DIMENSION
  5
39A
  8
LAYER01
 62
     7
  2
*D7
 10
-507.07735999999989
 20
557.56210799999985
 30
0.0
 11
-633.05058699999995
 21
644.16712399999994
 31
0.0
 70
     4
 15
-512.32184500000005
 25
566.07652999999993
 35
0.0
 40
91.715676999999999
  0
POLYLINE
  5
39B
  8
0
  6
CONTINUOUS
 62
     7
 66
     1
 10
0.0
 20
0.0
 30
0.0
 70
     4
  0
VERTEX
  5
39C
  8
FORMAT
 62
     7
 10
-492.07736999999997
 20
532.57580800000005
 30
0.0
 70
    16
  0
VERTEX
  5
39D
  8
FORMAT
 62
     7
 10
-492.07736999999997
 20
532.57580800000005
 30
0.0
 70
     8
  0
VERTEX
  5
39E
  8
FORMAT
 62
     7
 10
-492.04274599999991
 20
532.92374900000004
 30
0.0
 70
     8
  0
VERTEX
  5
39F
  8
FORMAT
 62
     7
 10
-492.0032809999999
 20
533.29191300000002
 30
0.0
 70
     8
  0
VERTEX
  5
3A0
  8
FORMAT
 62
     7
 10
-491.9563389999999
 20
533.67804699999988
 30
0.0
 70
     8
  0
VERTEX
  5
3A1
  8
FORMAT
 62
     7
 10
-491.89928600000002
 20
534.07989899999995
 30
0.0
 70
     8
  0
VERTEX
  5
3A2
  8
FORMAT
 62
     7
 10
-491.82948399999992
 20
534.49521799999991
 30
0.0
 70
     8
  0
VERTEX
  5
3A3
  8
FORMAT
 62
     7
 10
-491.74430099999989
 20
534.92174999999986
 30
0.0
 70
     8
  0
VERTEX
  5
3A4
  8
FORMAT
 62
     7
 10
-491.641099
 20
535.35724400000004
 30
0.0
 70
     8
  0
VERTEX
  5
3A5
  8
FORMAT
 62
     7
 10
-491.51724299999989
 20
535.79944699999999
 30
0.0
 70
     8
  0
VERTEX
  5
3A6
  8
FORMAT
 62
     7
 10
-491.37009899999998
 20
536.24610800000005
 30
0.0
 70
     8
  0
VERTEX
  5
3A7
  8
FORMAT
 62
     7
 10
-491.19702999999998
 20
536.69497299999989
 30
0.0
 70
     8
  0
VERTEX
  5
3A8
  8
FORMAT
 62
     7
 10
-491.19702999999998
 20
536.69497299999989
 30
0.0
 70
     8
  0
VERTEX
  5
3A9
  8
FORMAT
 62
     7
 10
-491.099917
 20
536.919578
 30
0.0
 70
     8
  0
VERTEX
  5
3AA
  8
FORMAT
 62
     7
 10
-490.99513499999989
 20
537.144183
 30
0.0
 70
     8
  0
VERTEX
  5
3AB
  8
FORMAT
 62
     7
 10
-490.88215699999989
 20
537.36880099999985
 30
0.0
 70
     8
  0
VERTEX
  5
3AC
  8
FORMAT
 62
     7
 10
-490.76045199999987
 20
537.59344399999998
 30
0.0
 70
     8
  0
VERTEX
  5
3AD
  8
FORMAT
 62
     7
 10
-490.62949199999991
 20
537.8181239999999
 30
0.0
 70
     8
  0
VERTEX
  5
3AE
  8
FORMAT
 62
     7
 10
-490.48874899999998
 20
538.04285400000003
 30
0.0
 70
     8
  0
VERTEX
  5
3AF
  8
FORMAT
 62
     7
 10
-490.337694
 20
538.2676449999999
 30
0.0
 70
     8
  0
VERTEX
  5
3B0
  8
FORMAT
 62
     7
 10
-490.17579799999999
 20
538.49251100000004
 30
0.0
 70
     8
  0
VERTEX
  5
3B1
  8
FORMAT
 62
     7
 10
-490.00253199999997
 20
538.71746199999995
 30
0.0
 70
     8
  0
VERTEX
  5
3B2
  8
FORMAT
 62
     7
 10
-489.81736899999999
 20
538.94251199999985
 30
0.0
 70
     8
  0
VERTEX
  5
3B3
  8
FORMAT
 62
     7
 10
-489.81736899999999
 20
538.94251199999985
 30
0.0
 70
     8
  0
VERTEX
  5
3B4
  8
FORMAT
 62
     7
 10
-489.62014499999998
 20
539.16744199999994
 30
0.0
 70
     8
  0
VERTEX
  5
3B5
  8
FORMAT
 62
     7
 10
-489.41216500000002
 20
539.39111100000002
 30
0.0
 70
     8
  0
VERTEX
  5
3B6
  8
FORMAT
 62
     7
 10
-489.19510199999991
 20
539.61214800000005
 30
0.0
 70
     8
  0
VERTEX
  5
3B7
  8
FORMAT
 62
     7
 10
-488.97062699999992
 20
539.82917999999995
 30
0.0
 70
     8
  0
VERTEX
  5
3B8
  8
FORMAT
 62
     7
 10
-488.74041099999999
 20
540.04083700000001
 30
0.0
 70
     8
  0
VERTEX
  5
3B9
  8
FORMAT
 62
     7
 10
-488.50612599999988
 20
540.24574500000006
 30
0.0
 70
     8
  0
VERTEX
  5
3BA
  8
FORMAT
 62
     7
 10
-488.26944299999991
 20
540.44253499999991
 30
0.0
 70
     8
  0
VERTEX
  5
3BB
  8
FORMAT
 62
     7
 10
-488.03203499999989
 20
540.62983299999985
 30
0.0
 70
     8
  0
VERTEX
  5
3BC
  8
FORMAT
 62
     7
 10
-487.79557199999999
 20
540.80626900000004
 30
0.0
 70
     8
  0
VERTEX
  5
3BD
  8
FORMAT
 62
     7
 10
-487.56172599999991
 20
540.97047099999986
 30
0.0
 70
     8
  0
VERTEX
  5
3BE
  8
FORMAT
 62
     7
 10
-487.56172599999991
 20
540.97047099999986
 30
0.0
 70
     8
  0
VERTEX
  5
3BF
  8
FORMAT
 62
     7
 10
-487.33184699999998
 20
541.12143600000002
 30
0.0
 70
     8
  0
VERTEX
  5
3C0
  8
FORMAT
 62
     7
 10
-487.10599500000001
 20
541.25963999999988
 30
0.0
 70
     8
  0
VERTEX
  5
3C1
  8
FORMAT
 62
     7
 10
-486.88390799999991
 20
541.38592599999993
 30
0.0
 70
     8
  0
VERTEX
  5
3C2
  8
FORMAT
 62
     7
 10
-486.66532399999988
 20
541.50114099999985
 30
0.0
 70
     8
  0
VERTEX
  5
3C3
  8
FORMAT
 62
     7
 10
-486.44998099999992
 20
541.6061269999999
 30
0.0
 70
     8
  0
VERTEX
  5
3C4
  8
FORMAT
 62
     7
 10
-486.237618
 20
541.701729
 30
0.0
 70
     8
  0
VERTEX
  5
3C5
  8
FORMAT
 62
     7
 10
-486.02797199999998
 20
541.78879299999994
 30
0.0
 70
     8
  0
VERTEX
  5
3C6
  8
FORMAT
 62
     7
 10
-485.8207809999999
 20
541.86816199999998
 30
0.0
 70
     8
  0
VERTEX
  5
3C7
  8
FORMAT
 62
     7
 10
-485.61578399999991
 20
541.94068099999993
 30
0.0
 70
     8
  0
VERTEX
  5
3C8
  8
FORMAT
 62
     7
 10
-485.41271899999998
 20
542.00719500000002
 30
0.0
 70
     8
  0
VERTEX
  5
3C9
  8
FORMAT
 62
     7
 10
-485.41271899999998
 20
542.00719500000002
 30
0.0
 70
     8
  0
VERTEX
  5
3CA
  8
FORMAT
 62
     7
 10
-485.01207399999998
 20
542.12476900000001
 30
0.0
 70
     8
  0
VERTEX
  5
3CB
  8
FORMAT
 62
     7
 10
-484.62043699999998
 20
542.22356600000001
 30
0.0
 70
     8
  0
VERTEX
  5
3CC
  8
FORMAT
 62
     7
 10
-484.24013600000001
 20
542.30545499999994
 30
0.0
 70
     8
  0
VERTEX
  5
3CD
  8
FORMAT
 62
     7
 10
-483.87350099999992
 20
542.37230199999988
 30
0.0
 70
     8
  0
VERTEX
  5
3CE
  8
FORMAT
 62
     7
 10
-483.52285999999992
 20
542.42597599999988
 30
0.0
 70
     8
  0
VERTEX
  5
3CF
  8
FORMAT
 62
     7
 10
-483.19054000000011
 20
542.46834299999989
 30
0.0
 70
     8
  0
VERTEX
  5
3D0
  8
FORMAT
 62
     7
 10
-482.878872
 20
542.50127199999986
 30
0.0
 70
     8
  0
VERTEX
  5
3D1
  8
FORMAT
 62
     7
 10
-482.59018399999991
 20
542.52662999999995
 30
0.0
 70
     8
  0
VERTEX
  5
3D2
  8
FORMAT
 62
     7
 10
-482.32680299999998
 20
542.54628500000001
 30
0.0
 70
     8
  0
VERTEX
  5
3D3
  8
FORMAT
 62
     7
 10
-482.09105899999992
 20
542.56210399999998
 30
0.0
 70
     8
  0
VERTEX
  5
3D4
  8
FORMAT
 62
     7
 10
-491.96709699999991
 20
533.69940499999996
 30
0.0
 70
    16
  0
VERTEX
  5
3D5
  8
FORMAT
 62
     7
 10
-491.74654399999991
 20
535.94667100000004
 30
0.0
 70
    16
  0
VERTEX
  5
3D6
  8
FORMAT
 62
     7
 10
-490.02448399999997
 20
538.94066699999985
 30
0.0
 70
    16
  0
VERTEX
  5
3D7
  8
FORMAT
 62
     7
 10
-487.4902469999999
 20
541.19723699999986
 30
0.0
 70
    16
  0
VERTEX
  5
3D8
  8
FORMAT
 62
     7
 10
-484.68310199999991
 20
542.39187100000004
 30
0.0
 70
    16
  0
VERTEX
  5
3D9
  8
FORMAT
 62
     7
 10
-482.82822399999998
 20
542.51369099999988
 30
0.0
 70
    16
  0
VERTEX
  5
3DA
  8
FORMAT
 62
     7
 10
-482.09105899999992
 20
542.56210399999998
 30
0.0
 70
    16
  0
SEQEND
  5
3DB
  8
FORMAT
 62
     7
  0
ARC
  5
3DC
  8
0
  6
CONTINUOUS
 62
     7
 10
-507.07735999999989
 20
557.56210799999985
 30
0.0
 40
10.0
 50
90.0
 51
180.0
  0
LINE
  5
3DD
  8
0
  6
CONTINUOUS
 62
     7
 10
-282.577359
 20
521.48541
 30
0.0
 11
-282.577359
 21
518.79725599999995
 31
0.0
  0
LINE
  5
3DE
  8
0
  6
CONTINUOUS
 62
     7
 10
-282.577359
 20
518.79725599999995
 30
0.0
 11
-161.57736
 21
518.79725599999995
 31
0.0
  0
LINE
  5
3DF
  8
0
  6
CONTINUOUS
 62
     7
 10
-161.57736
 20
518.79725599999995
 30
0.0
 11
-161.57736
 21
521.48541
 31
0.0
  0
LINE
  5
3E0
  8
0
  6
CONTINUOUS
 62
     7
 10
-161.57736
 20
533.79725599999995
 30
0.0
 11
-282.577359
 21
533.79725599999995
 31
0.0
  0
LINE
  5
3E1
  8
0
  6
CONTINUOUS
 62
     7
 10
-282.577359
 20
533.79725599999995
 30
0.0
 11
-282.577359
 21
531.10908700000005
 31
0.0
  0
LINE
  5
3E2
  8
0
  6
CONTINUOUS
 62
     7
 10
-161.57736
 20
531.10908700000005
 30
0.0
 11
-161.57736
 21
533.79725599999995
 31
0.0
  0
LINE
  5
3E3
  8
0
  6
CONTINUOUS
 62
     7
 10
-282.577359
 20
531.10908700000005
 30
0.0
 11
-282.577359
 21
521.48541
 31
0.0
  0
LINE
  5
3E4
  8
0
  6
CONTINUOUS
 62
     7
 10
-161.57736
 20
521.48541
 30
0.0
 11
-161.57736
 21
531.10908700000005
 31
0.0
  0
ARC
  5
3E5
  8
0
  6
CONTINUOUS
 62
     7
 10
-275.57736
 20
526.29725199999984
 30
0.0
 40
4.6331459999999991
 50
90.0
 51
270.0
  0
ARC
  5
3E6
  8
0
  6
CONTINUOUS
 62
     7
 10
-275.57736
 20
526.29725199999984
 30
0.0
 40
5.0
 50
90.0
 51
270.0
  0
LINE
  5
3E7
  8
0
  6
CONTINUOUS
 62
     7
 10
-168.577359
 20
530.93039199999987
 30
0.0
 11
-203.71050500000001
 21
530.93039199999987
 31
0.0
  0
LINE
  5
3E8
  8
0
  6
CONTINUOUS
 62
     7
 10
-240.44421399999999
 20
530.93039199999987
 30
0.0
 11
-203.71050500000001
 21
530.93039199999987
 31
0.0
  0
LINE
  5
3E9
  8
0
  6
CONTINUOUS
 62
     7
 10
-240.44421399999999
 20
530.93039199999987
 30
0.0
 11
-275.57736
 21
530.93039199999987
 31
0.0
  0
LINE
  5
3EA
  8
0
  6
CONTINUOUS
 62
     7
 10
-168.577359
 20
531.29725899999994
 30
0.0
 11
-275.57736
 21
531.29725899999994
 31
0.0
  0
LINE
  5
3EB
  8
0
  6
CONTINUOUS
 62
     7
 10
-275.57736
 20
521.29725299999996
 30
0.0
 11
-168.577359
 21
521.29725299999996
 31
0.0
  0
ARC
  5
3EC
  8
0
  6
CONTINUOUS
 62
     7
 10
-168.57736
 20
526.29725199999984
 30
0.0
 40
5.0
 50
270.0
 51
90.0
  0
ARC
  5
3ED
  8
0
  6
CONTINUOUS
 62
     7
 10
-168.57736
 20
526.29725199999984
 30
0.0
 40
4.6331459999999991
 50
270.0
 51
90.0
  0
LINE
  5
3EE
  8
0
  6
CONTINUOUS
 62
     7
 10
-275.57736
 20
521.66410499999995
 30
0.0
 11
-240.44421399999999
 21
521.66410499999995
 31
0.0
  0
LINE
  5
3EF
  8
0
  6
CONTINUOUS
 62
     7
 10
-203.71050500000001
 20
521.66410499999995
 30
0.0
 11
-240.44421399999999
 21
521.66410499999995
 31
0.0
  0
LINE
  5
3F0
  8
0
  6
CONTINUOUS
 62
     7
 10
-203.71050500000001
 20
521.66410499999995
 30
0.0
 11
-168.577359
 21
521.66410499999995
 31
0.0
  0
ARC
  5
3F1
  8
0
  6
CONTINUOUS
 62
     7
 10
-203.71050500000001
 20
526.29725199999984
 30
0.0
 40
4.6331459999999991
 50
270.0
 51
90.0
  0
ARC
  5
3F2
  8
0
  6
CONTINUOUS
 62
     7
 10
-240.44421399999999
 20
526.29725199999984
 30
0.0
 40
4.6331459999999991
 50
90.0
 51
270.0
  0
LINE
  5
3F3
  8
0
  6
CONTINUOUS
 62
     7
 10
-152.31211200000001
 20
521.02515800000003
 30
0.0
 11
-152.31211200000001
 21
527.31978099999992
 31
0.0
  0
LINE
  5
3F4
  8
0
  6
CONTINUOUS
 62
     7
 10
-291.84260699999999
 20
527.31978099999992
 30
0.0
 11
-291.84260699999999
 21
521.02515800000003
 31
0.0
  0
POLYLINE
  5
3F5
  8
0
  6
CONTINUOUS
 62
     7
 66
     1
 10
0.0
 20
0.0
 30
0.0
 70
     4
  0
VERTEX
  5
3F6
  8
FORMAT
 62
     7
 10
-291.84260699999999
 20
521.02515300000005
 30
0.0
 70
    16
  0
VERTEX
  5
3F7
  8
FORMAT
 62
     7
 10
-291.84260699999999
 20
521.02515300000005
 30
0.0
 70
     8
  0
VERTEX
  5
3F8
  8
FORMAT
 62
     7
 10
-291.84221500000001
 20
520.92881499999987
 30
0.0
 70
     8
  0
VERTEX
  5
3F9
  8
FORMAT
 62
     7
 10
-291.84050500000001
 20
520.83848699999987
 30
0.0
 70
     8
  0
VERTEX
  5
3FA
  8
FORMAT
 62
     7
 10
-291.837491
 20
520.75332400000002
 30
0.0
 70
     8
  0
VERTEX
  5
3FB
  8
FORMAT
 62
     7
 10
-291.83318800000001
 20
520.67248499999994
 30
0.0
 70
     8
  0
VERTEX
  5
3FC
  8
FORMAT
 62
     7
 10
-291.82760999999999
 20
520.59512400000006
 30
0.0
 70
     8
  0
VERTEX
  5
3FD
  8
FORMAT
 62
     7
 10
-291.82077099999998
 20
520.5204
 30
0.0
 70
     8
  0
VERTEX
  5
3FE
  8
FORMAT
 62
     7
 10
-291.81268499999999
 20
520.44746899999996
 30
0.0
 70
     8
  0
VERTEX
  5
3FF
  8
FORMAT
 62
     7
 10
-291.80336499999999
 20
520.3754889999999
 30
0.0
 70
     8
  0
VERTEX
  5
400
  8
FORMAT
 62
     7
 10
-291.79282699999999
 20
520.30361500000004
 30
0.0
 70
     8
  0
VERTEX
  5
401
  8
FORMAT
 62
     7
 10
-291.78108500000002
 20
520.23100499999998
 30
0.0
 70
     8
  0
VERTEX
  5
402
  8
FORMAT
 62
     7
 10
-291.78108500000002
 20
520.23100499999998
 30
0.0
 70
     8
  0
VERTEX
  5
403
  8
FORMAT
 62
     7
 10
-291.77476899999999
 20
520.19419200000004
 30
0.0
 70
     8
  0
VERTEX
  5
404
  8
FORMAT
 62
     7
 10
-291.76817199999999
 20
520.15706799999987
 30
0.0
 70
     8
  0
VERTEX
  5
405
  8
FORMAT
 62
     7
 10
-291.76130899999998
 20
520.11971799999992
 30
0.0
 70
     8
  0
VERTEX
  5
406
  8
FORMAT
 62
     7
 10
-291.75419799999997
 20
520.08222699999988
 30
0.0
 70
     8
  0
VERTEX
  5
407
  8
FORMAT
 62
     7
 10
-291.74685499999998
 20
520.04467799999998
 30
0.0
 70
     8
  0
VERTEX
  5
408
  8
FORMAT
 62
     7
 10
-291.73929600000002
 20
520.00715600000001
 30
0.0
 70
     8
  0
VERTEX
  5
409
  8
FORMAT
 62
     7
 10
-291.731537
 20
519.96974499999999
 30
0.0
 70
     8
  0
VERTEX
  5
40A
  8
FORMAT
 62
     7
 10
-291.7235950000001
 20
519.93252999999993
 30
0.0
 70
     8
  0
VERTEX
  5
40B
  8
FORMAT
 62
     7
 10
-291.715486
 20
519.89559500000007
 30
0.0
 70
     8
  0
VERTEX
  5
40C
  8
FORMAT
 62
     7
 10
-291.70722599999999
 20
519.85902399999986
 30
0.0
 70
     8
  0
VERTEX
  5
40D
  8
FORMAT
 62
     7
 10
-291.70722599999999
 20
519.85902399999986
 30
0.0
 70
     8
  0
VERTEX
  5
40E
  8
FORMAT
 62
     7
 10
-291.69024300000001
 20
519.78707599999996
 30
0.0
 70
     8
  0
VERTEX
  5
40F
  8
FORMAT
 62
     7
 10
-291.672392
 20
519.7161769999999
 30
0.0
 70
     8
  0
VERTEX
  5
410
  8
FORMAT
 62
     7
 10
-291.653344
 20
519.64558399999987
 30
0.0
 70
     8
  0
VERTEX
  5
411
  8
FORMAT
 62
     7
 10
-291.632768
 20
519.57455099999993
 30
0.0
 70
     8
  0
VERTEX
  5
412
  8
FORMAT
 62
     7
 10
-291.61033400000002
 20
519.50233400000002
 30
0.0
 70
     8
  0
VERTEX
  5
413
  8
FORMAT
 62
     7
 10
-291.585713
 20
519.42818799999998
 30
0.0
 70
     8
  0
VERTEX
  5
414
  8
FORMAT
 62
     7
 10
-291.55857300000002
 20
519.35136900000009
 30
0.0
 70
     8
  0
VERTEX
  5
415
  8
FORMAT
 62
     7
 10
-291.52858500000002
 20
519.27112999999997
 30
0.0
 70
     8
  0
VERTEX
  5
416
  8
FORMAT
 62
     7
 10
-291.49541899999991
 20
519.18672900000001
 30
0.0
 70
     8
  0
VERTEX
  5
417
  8
FORMAT
 62
     7
 10
-291.45874400000002
 20
519.09742000000006
 30
0.0
 70
     8
  0
VERTEX
  5
418
  8
FORMAT
 62
     7
 10
-291.84351199999998
 20
520.69307600000002
 30
0.0
 70
    16
  0
VERTEX
  5
419
  8
FORMAT
 62
     7
 10
-291.81157200000001
 20
520.366265
 30
0.0
 70
    16
  0
VERTEX
  5
41A
  8
FORMAT
 62
     7
 10
-291.68393800000001
 20
519.72286699999995
 30
0.0
 70
    16
  0
VERTEX
  5
41B
  8
FORMAT
 62
     7
 10
-291.58720799999998
 20
519.40412500000002
 30
0.0
 70
    16
  0
VERTEX
  5
41C
  8
FORMAT
 62
     7
 10
-291.45874400000002
 20
519.09742000000006
 30
0.0
 70
    16
  0
SEQEND
  5
41D
  8
FORMAT
 62
     7
  0
POLYLINE
  5
41E
  8
0
  6
CONTINUOUS
 62
     7
 66
     1
 10
0.0
 20
0.0
 30
0.0
 70
     4
  0
VERTEX
  5
41F
  8
FORMAT
 62
     7
 10
-291.45874199999997
 20
519.09742099999994
 30
0.0
 70
    16
  0
VERTEX
  5
420
  8
FORMAT
 62
     7
 10
-291.45874199999997
 20
519.09742099999994
 30
0.0
 70
     8
  0
VERTEX
  5
421
  8
FORMAT
 62
     7
 10
-291.42221499999999
 20
519.01181399999996
 30
0.0
 70
     8
  0
VERTEX
  5
422
  8
FORMAT
 62
     7
 10
-291.38667200000009
 20
518.93182300000001
 30
0.0
 70
     8
  0
VERTEX
  5
423
  8
FORMAT
 62
     7
 10
-291.35167000000001
 20
518.85648000000003
 30
0.0
 70
     8
  0
VERTEX
  5
424
  8
FORMAT
 62
     7
 10
-291.31676599999997
 20
518.78481900000008
 30
0.0
 70
     8
  0
VERTEX
  5
425
  8
FORMAT
 62
     7
 10
-291.28151600000001
 20
518.71587199999999
 30
0.0
 70
     8
  0
VERTEX
  5
426
  8
FORMAT
 62
     7
 10
-291.24547699999999
 20
518.64867500000003
 30
0.0
 70
     8
  0
VERTEX
  5
427
  8
FORMAT
 62
     7
 10
-291.20820600000002
 20
518.58225799999991
 30
0.0
 70
     8
  0
VERTEX
  5
428
  8
FORMAT
 62
     7
 10
-291.16925900000001
 20
518.51565700000003
 30
0.0
 70
     8
  0
VERTEX
  5
429
  8
FORMAT
 62
     7
 10
-291.12819200000001
 20
518.44790399999999
 30
0.0
 70
     8
  0
VERTEX
  5
42A
  8
FORMAT
 62
     7
 10
-291.08456200000001
 20
518.37803200000008
 30
0.0
 70
     8
  0
VERTEX
  5
42B
  8
FORMAT
 62
     7
 10
-291.08456200000001
 20
518.37803200000008
 30
0.0
 70
     8
  0
VERTEX
  5
42C
  8
FORMAT
 62
     7
 10
-291.06168000000002
 20
518.34205699999995
 30
0.0
 70
     8
  0
VERTEX
  5
42D
  8
FORMAT
 62
     7
 10
-291.03818100000001
 20
518.30553399999997
 30
0.0
 70
     8
  0
VERTEX
  5
42E
  8
FORMAT
 62
     7
 10
-291.0142029999999
 20
518.268685
 30
0.0
 70
     8
  0
VERTEX
  5
42F
  8
FORMAT
 62
     7
 10
-290.98988200000002
 20
518.23173399999985
 30
0.0
 70
     8
  0
VERTEX
  5
430
  8
FORMAT
 62
     7
 10
-290.965352
 20
518.19490399999995
 30
0.0
 70
     8
  0
VERTEX
  5
431
  8
FORMAT
 62
     7
 10
-290.94074999999998
 20
518.15841699999987
 30
0.0
 70
     8
  0
VERTEX
  5
432
  8
FORMAT
 62
     7
 10
-290.91621300000003
 20
518.12249699999995
 30
0.0
 70
     8
  0
VERTEX
  5
433
  8
FORMAT
 62
     7
 10
-290.89187500000003
 20
518.08736599999986
 30
0.0
 70
     8
  0
VERTEX
  5
434
  8
FORMAT
 62
     7
 10
-290.86787299999997
 20
518.05324800000005
 30
0.0
 70
     8
  0
VERTEX
  5
435
  8
FORMAT
 62
     7
 10
-290.84434199999998
 20
518.02036500000008
 30
0.0
 70
     8
  0
VERTEX
  5
436
  8
FORMAT
 62
     7
 10
-290.84434199999998
 20
518.02036500000008
 30
0.0
 70
     8
  0
VERTEX
  5
437
  8
FORMAT
 62
     7
 10
-290.82134600000001
 20
517.98884499999986
 30
0.0
 70
     8
  0
VERTEX
  5
438
  8
FORMAT
 62
     7
 10
-290.79864900000001
 20
517.9584309999999
 30
0.0
 70
     8
  0
VERTEX
  5
439
  8
FORMAT
 62
     7
 10
-290.77594399999998
 20
517.92877099999987
 30
0.0
 70
     8
  0
VERTEX
  5
43A
  8
FORMAT
 62
     7
 10
-290.75292400000001
 20
517.89951199999985
 30
0.0
 70
     8
  0
VERTEX
  5
43B
  8
FORMAT
 62
     7
 10
-290.72928100000001
 20
517.87030300000004
 30
0.0
 70
     8
  0
VERTEX
  5
43C
  8
FORMAT
 62
     7
 10
-290.70470699999998
 20
517.84078999999997
 30
0.0
 70
     8
  0
VERTEX
  5
43D
  8
FORMAT
 62
     7
 10
-290.67889500000001
 20
517.81062199999997
 30
0.0
 70
     8
  0
VERTEX
  5
43E
  8
FORMAT
 62
     7
 10
-290.65153600000002
 20
517.77944600000001
 30
0.0
 70
     8
  0
VERTEX
  5
43F
  8
FORMAT
 62
     7
 10
-290.62232399999999
 20
517.74690999999984
 30
0.0
 70
     8
  0
VERTEX
  5
440
  8
FORMAT
 62
     7
 10
-290.59095000000002
 20
517.71266100000003
 30
0.0
 70
     8
  0
VERTEX
  5
441
  8
FORMAT
 62
     7
 10
-290.59095000000002
 20
517.71266100000003
 30
0.0
 70
     8
  0
VERTEX
  5
442
  8
FORMAT
 62
     7
 10
-290.557232
 20
517.67648299999985
 30
0.0
 70
     8
  0
VERTEX
  5
443
  8
FORMAT
 62
     7
 10
-290.52149500000002
 20
517.63869499999998
 30
0.0
 70
     8
  0
VERTEX
  5
444
  8
FORMAT
 62
     7
 10
-290.48418500000002
 20
517.59975299999996
 30
0.0
 70
     8
  0
VERTEX
  5
445
  8
FORMAT
 62
     7
 10
-290.44575300000002
 20
517.560112
 30
0.0
 70
     8
  0
VERTEX
  5
446
  8
FORMAT
 62
     7
 10
-290.40664700000002
 20
517.52022699999986
 30
0.0
 70
     8
  0
VERTEX
  5
447
  8
FORMAT
 62
     7
 10
-290.36731700000001
 20
517.48055399999998
 30
0.0
 70
     8
  0
VERTEX
  5
448
  8
FORMAT
 62
     7
 10
-290.32820900000002
 20
517.44154800000001
 30
0.0
 70
     8
  0
VERTEX
  5
449
  8
FORMAT
 62
     7
 10
-290.28977500000002
 20
517.40366500000005
 30
0.0
 70
     8
  0
VERTEX
  5
44A
  8
FORMAT
 62
     7
 10
-290.25246199999998
 20
517.36735899999985
 30
0.0
 70
     8
  0
VERTEX
  5
44B
  8
FORMAT
 62
     7
 10
-290.21672000000001
 20
517.33308499999998
 30
0.0
 70
     8
  0
VERTEX
  5
44C
  8
FORMAT
 62
     7
 10
-290.21672000000001
 20
517.33308499999998
 30
0.0
 70
     8
  0
VERTEX
  5
44D
  8
FORMAT
 62
     7
 10
-290.182863
 20
517.30117199999995
 30
0.0
 70
     8
  0
VERTEX
  5
44E
  8
FORMAT
 62
     7
 10
-290.15067700000009
 20
517.27143499999988
 30
0.0
 70
     8
  0
VERTEX
  5
44F
  8
FORMAT
 62
     7
 10
-290.11981200000002
 20
517.24356099999989
 30
0.0
 70
     8
  0
VERTEX
  5
450
  8
FORMAT
 62
     7
 10
-290.08991700000001
 20
517.21723699999995
 30
0.0
 70
     8
  0
VERTEX
  5
451
  8
FORMAT
 62
     7
 10
-290.06064500000002
 20
517.19215099999985
 30
0.0
 70
     8
  0
VERTEX
  5
452
  8
FORMAT
 62
     7
 10
-290.03164600000002
 20
517.16798999999992
 30
0.0
 70
     8
  0
VERTEX
  5
453
  8
FORMAT
 62
     7
 10
-290.00256999999999
 20
517.14444200000003
 30
0.0
 70
     8
  0
VERTEX
  5
454
  8
FORMAT
 62
     7
 10
-289.97306900000001
 20
517.12119399999995
 30
0.0
 70
     8
  0
VERTEX
  5
455
  8
FORMAT
 62
     7
 10
-289.942792
 20
517.09793300000001
 30
0.0
 70
     8
  0
VERTEX
  5
456
  8
FORMAT
 62
     7
 10
-289.91139199999998
 20
517.0743480000001
 30
0.0
 70
     8
  0
VERTEX
  5
457
  8
FORMAT
 62
     7
 10
-289.91139199999998
 20
517.0743480000001
 30
0.0
 70
     8
  0
VERTEX
  5
458
  8
FORMAT
 62
     7
 10
-289.87861299999997
 20
517.0501999999999
 30
0.0
 70
     8
  0
VERTEX
  5
459
  8
FORMAT
 62
     7
 10
-289.84458599999999
 20
517.02555599999994
 30
0.0
 70
     8
  0
VERTEX
  5
45A
  8
FORMAT
 62
     7
 10
-289.80953399999999
 20
517.00055599999985
 30
0.0
 70
     8
  0
VERTEX
  5
45B
  8
FORMAT
 62
     7
 10
-289.773684
 20
516.97534299999995
 30
0.0
 70
     8
  0
VERTEX
  5
45C
  8
FORMAT
 62
     7
 10
-289.737258
 20
516.9500559999999
 30
0.0
 70
     8
  0
VERTEX
  5
45D
  8
FORMAT
 62
     7
 10
-289.70048300000002
 20
516.92483799999991
 30
0.0
 70
     8
  0
VERTEX
  5
45E
  8
FORMAT
 62
     7
 10
-289.66358200000002
 20
516.89982899999995
 30
0.0
 70
     8
  0
VERTEX
  5
45F
  8
FORMAT
 62
     7
 10
-289.62678099999999
 20
516.87517200000002
 30
0.0
 70
     8
  0
VERTEX
  5
460
  8
FORMAT
 62
     7
 10
-289.590305
 20
516.85100499999999
 30
0.0
 70
     8
  0
VERTEX
  5
461
  8
FORMAT
 62
     7
 10
-289.55437699999999
 20
516.82747300000005
 30
0.0
 70
     8
  0
VERTEX
  5
462
  8
FORMAT
 62
     7
 10
-289.55437699999999
 20
516.82747300000005
 30
0.0
 70
     8
  0
VERTEX
  5
463
  8
FORMAT
 62
     7
 10
-289.48460699999998
 20
516.78260599999999
 30
0.0
 70
     8
  0
VERTEX
  5
464
  8
FORMAT
 62
     7
 10
-289.41697199999999
 20
516.74037699999985
 30
0.0
 70
     8
  0
VERTEX
  5
465
  8
FORMAT
 62
     7
 10
-289.35051099999998
 20
516.7003269999999
 30
0.0
 70
     8
  0
VERTEX
  5
466
  8
FORMAT
 62
     7
 10
-289.28426200000001
 20
516.66199699999993
 30
0.0
 70
     8
  0
VERTEX
  5
467
  8
FORMAT
 62
     7
 10
-289.217264
 20
516.62492699999984
 30
0.0
 70
     8
  0
VERTEX
  5
468
  8
FORMAT
 62
     7
 10
-289.14855799999998
 20
516.58865900000001
 30
0.0
 70
     8
  0
VERTEX
  5
469
  8
FORMAT
 62
     7
 10
-289.07718299999999
 20
516.55273199999988
 30
0.0
 70
     8
  0
VERTEX
  5
46A
  8
FORMAT
 62
     7
 10
-289.00217700000002
 20
516.51668800000004
 30
0.0
 70
     8
  0
VERTEX
  5
46B
  8
FORMAT
 62
     7
 10
-288.92257999999998
 20
516.48006799999985
 30
0.0
 70
     8
  0
VERTEX
  5
46C
  8
FORMAT
 62
     7
 10
-288.83743199999998
 20
516.44241299999987
 30
0.0
 70
     8
  0
VERTEX
  5
46D
  8
FORMAT
 62
     7
 10
-291.33485000000002
 20
518.80163300000004
 30
0.0
 70
    16
  0
VERTEX
  5
46E
  8
FORMAT
 62
     7
 10
-291.18471199999999
 20
518.52249699999993
 30
0.0
 70
    16
  0
VERTEX
  5
46F
  8
FORMAT
 62
     7
 10
-290.83421499999997
 20
517.99605699999995
 30
0.0
 70
    16
  0
VERTEX
  5
470
  8
FORMAT
 62
     7
 10
-290.63210400000003
 20
517.747074
 30
0.0
 70
    16
  0
VERTEX
  5
471
  8
FORMAT
 62
     7
 10
-290.183066
 20
517.29161599999986
 30
0.0
 70
    16
  0
VERTEX
  5
472
  8
FORMAT
 62
     7
 10
-289.93595099999999
 20
517.08497499999999
 30
0.0
 70
    16
  0
VERTEX
  5
473
  8
FORMAT
 62
     7
 10
-289.40999199999999
 20
516.72443199999998
 30
0.0
 70
    16
  0
VERTEX
  5
474
  8
FORMAT
 62
     7
 10
-289.13158099999998
 20
516.57016699999986
 30
0.0
 70
    16
  0
VERTEX
  5
475
  8
FORMAT
 62
     7
 10
-288.83743199999998
 20
516.44241299999987
 30
0.0
 70
    16
  0
SEQEND
  5
476
  8
FORMAT
 62
     7
  0
POLYLINE
  5
477
  8
0
  6
CONTINUOUS
 62
     7
 66
     1
 10
0.0
 20
0.0
 30
0.0
 70
     4
  0
VERTEX
  5
478
  8
FORMAT
 62
     7
 10
-288.83743199999998
 20
516.44241299999987
 30
0.0
 70
    16
  0
VERTEX
  5
479
  8
FORMAT
 62
     7
 10
-288.83743199999998
 20
516.44241299999987
 30
0.0
 70
     8
  0
VERTEX
  5
47A
  8
FORMAT
 62
     7
 10
-288.74568599999998
 20
516.40333999999996
 30
0.0
 70
     8
  0
VERTEX
  5
47B
  8
FORMAT
 62
     7
 10
-288.65910700000001
 20
516.36804600000005
 30
0.0
 70
     8
  0
VERTEX
  5
47C
  8
FORMAT
 62
     7
 10
-288.57690000000002
 20
516.33616900000004
 30
0.0
 70
     8
  0
VERTEX
  5
47D
  8
FORMAT
 62
     7
 10
-288.49827099999999
 20
516.30735000000004
 30
0.0
 70
     8
  0
VERTEX
  5
47E
  8
FORMAT
 62
     7
 10
-288.42242399999998
 20
516.28122599999995
 30
0.0
 70
     8
  0
VERTEX
  5
47F
  8
FORMAT
 62
     7
 10
-288.348568
 20
516.25743599999987
 30
0.0
 70
     8
  0
VERTEX
  5
480
  8
FORMAT
 62
     7
 10
-288.27590600000002
 20
516.23562000000004
 30
0.0
 70
     8
  0
VERTEX
  5
481
  8
FORMAT
 62
     7
 10
-288.20364499999999
 20
516.21541500000001
 30
0.0
 70
     8
  0
VERTEX
  5
482
  8
FORMAT
 62
     7
 10
-288.13099099999999
 20
516.196461
 30
0.0
 70
     8
  0
VERTEX
  5
483
  8
FORMAT
 62
     7
 10
-288.05714899999998
 20
516.17839700000002
 30
0.0
 70
     8
  0
VERTEX
  5
484
  8
FORMAT
 62
     7
 10
-288.05714899999998
 20
516.17839700000002
 30
0.0
 70
     8
  0
VERTEX
  5
485
  8
FORMAT
 62
     7
 10
-288.019566
 20
516.16959599999996
 30
0.0
 70
     8
  0
VERTEX
  5
486
  8
FORMAT
 62
     7
 10
-287.98157400000002
 20
516.16094599999997
 30
0.0
 70
     8
  0
VERTEX
  5
487
  8
FORMAT
 62
     7
 10
-287.94326000000001
 20
516.15246400000001
 30
0.0
 70
     8
  0
VERTEX
  5
488
  8
FORMAT
 62
     7
 10
-287.90471100000002
 20
516.14416900000003
 30
0.0
 70
     8
  0
VERTEX
  5
489
  8
FORMAT
 62
     7
 10
-287.86601300000001
 20
516.13607999999988
 30
0.0
 70
     8
  0
VERTEX
  5
48A
  8
FORMAT
 62
     7
 10
-287.82725399999998
 20
516.12821499999995
 30
0.0
 70
     8
  0
VERTEX
  5
48B
  8
FORMAT
 62
     7
 10
-287.78851900000001
 20
516.12059099999988
 30
0.0
 70
     8
  0
VERTEX
  5
48C
  8
FORMAT
 62
     7
 10
-287.74989599999998
 20
516.11322800000005
 30
0.0
 70
     8
  0
VERTEX
  5
48D
  8
FORMAT
 62
     7
 10
-287.71147100000002
 20
516.10614399999997
 30
0.0
 70
     8
  0
VERTEX
  5
48E
  8
FORMAT
 62
     7
 10
-287.6733319999999
 20
516.09935700000005
 30
0.0
 70
     8
  0
VERTEX
  5
48F
  8
FORMAT
 62
     7
 10
-287.6733319999999
 20
516.09935700000005
 30
0.0
 70
     8
  0
VERTEX
  5
490
  8
FORMAT
 62
     7
 10
-287.59799900000002
 20
516.08672499999989
 30
0.0
 70
     8
  0
VERTEX
  5
491
  8
FORMAT
 62
     7
 10
-287.52331600000002
 20
516.07537400000001
 30
0.0
 70
     8
  0
VERTEX
  5
492
  8
FORMAT
 62
     7
 10
-287.448442
 20
516.06532199999992
 30
0.0
 70
     8
  0
VERTEX
  5
493
  8
FORMAT
 62
     7
 10
-287.37254000000001
 20
516.05658700000004
 30
0.0
 70
     8
  0
VERTEX
  5
494
  8
FORMAT
 62
     7
 10
-287.29477200000002
 20
516.04918799999984
 30
0.0
 70
     8
  0
VERTEX
  5
495
  8
FORMAT
 62
     7
 10
-287.21429799999999
 20
516.04314399999998
 30
0.0
 70
     8
  0
VERTEX
  5
496
  8
FORMAT
 62
     7
 10
-287.13028000000003
 20
516.03847199999996
 30
0.0
 70
     8
  0
VERTEX
  5
497
  8
FORMAT
 62
     7
 10
-287.04188099999999
 20
516.03519299999994
 30
0.0
 70
     8
  0
VERTEX
  5
498
  8
FORMAT
 62
     7
 10
-286.94826
 20
516.03332399999988
 30
0.0
 70
     8
  0
VERTEX
  5
499
  8
FORMAT
 62
     7
 10
-286.84858100000002
 20
516.03288399999997
 30
0.0
 70
     8
  0
VERTEX
  5
49A
  8
FORMAT
 62
     7
 10
-288.52212200000002
 20
516.30546900000002
 30
0.0
 70
    16
  0
VERTEX
  5
49B
  8
FORMAT
 62
     7
 10
-288.19816300000002
 20
516.20356100000004
 30
0.0
 70
    16
  0
VERTEX
  5
49C
  8
FORMAT
 62
     7
 10
-287.534378
 20
516.06673499999988
 30
0.0
 70
    16
  0
VERTEX
  5
49D
  8
FORMAT
 62
     7
 10
-287.19187599999998
 20
516.03194900000005
 30
0.0
 70
    16
  0
VERTEX
  5
49E
  8
FORMAT
 62
     7
 10
-286.84858100000002
 20
516.03288399999997
 30
0.0
 70
    16
  0
SEQEND
  5
49F
  8
FORMAT
 62
     7
  0
LINE
  5
4A0
  8
0
  6
CONTINUOUS
 62
     7
 10
-286.84858000000003
 20
516.03288200000009
 30
0.0
 11
-157.30614
 21
516.03288200000009
 31
0.0
  0
POLYLINE
  5
4A1
  8
0
  6
CONTINUOUS
 62
     7
 66
     1
 10
0.0
 20
0.0
 30
0.0
 70
     4
  0
VERTEX
  5
4A2
  8
FORMAT
 62
     7
 10
-157.306139
 20
516.03288399999997
 30
0.0
 70
    16
  0
VERTEX
  5
4A3
  8
FORMAT
 62
     7
 10
-157.306139
 20
516.03288399999997
 30
0.0
 70
     8
  0
VERTEX
  5
4A4
  8
FORMAT
 62
     7
 10
-157.20700400000001
 20
516.03330599999993
 30
0.0
 70
     8
  0
VERTEX
  5
4A5
  8
FORMAT
 62
     7
 10
-157.11406400000001
 20
516.03512099999989
 30
0.0
 70
     8
  0
VERTEX
  5
4A6
  8
FORMAT
 62
     7
 10
-157.02645000000001
 20
516.03831400000001
 30
0.0
 70
     8
  0
VERTEX
  5
4A7
  8
FORMAT
 62
     7
 10
-156.94329500000001
 20
516.04286999999988
 30
0.0
 70
     8
  0
VERTEX
  5
4A8
  8
FORMAT
 62
     7
 10
-156.863731
 20
516.04877399999987
 30
0.0
 70
     8
  0
VERTEX
  5
4A9
  8
FORMAT
 62
     7
 10
-156.78689
 20
516.05601100000001
 30
0.0
 70
     8
  0
VERTEX
  5
4AA
  8
FORMAT
 62
     7
 10
-156.71190300000001
 20
516.06456600000001
 30
0.0
 70
     8
  0
VERTEX
  5
4AB
  8
FORMAT
 62
     7
 10
-156.63790499999999
 20
516.07442300000002
 30
0.0
 70
     8
  0
VERTEX
  5
4AC
  8
FORMAT
 62
     7
 10
-156.56402600000001
 20
516.08556799999997
 30
0.0
 70
     8
  0
VERTEX
  5
4AD
  8
FORMAT
 62
     7
 10
-156.48939899999999
 20
516.09798599999999
 30
0.0
 70
     8
  0
VERTEX
  5
4AE
  8
FORMAT
 62
     7
 10
-156.48939899999999
 20
516.09798599999999
 30
0.0
 70
     8
  0
VERTEX
  5
4AF
  8
FORMAT
 62
     7
 10
-156.45156600000001
 20
516.10466500000007
 30
0.0
 70
     8
  0
VERTEX
  5
4B0
  8
FORMAT
 62
     7
 10
-156.41341600000001
 20
516.11164099999985
 30
0.0
 70
     8
  0
VERTEX
  5
4B1
  8
FORMAT
 62
     7
 10
-156.375034
 20
516.11889699999995
 30
0.0
 70
     8
  0
VERTEX
  5
4B2
  8
FORMAT
 62
     7
 10
-156.33650900000001
 20
516.12641499999995
 30
0.0
 70
     8
  0
VERTEX
  5
4B3
  8
FORMAT
 62
     7
 10
-156.29792599999999
 20
516.13418000000001
 30
0.0
 70
     8
  0
VERTEX
  5
4B4
  8
FORMAT
 62
     7
 10
-156.25937200000001
 20
516.14217199999985
 30
0.0
 70
     8
  0
VERTEX
  5
4B5
  8
FORMAT
 62
     7
 10
-156.220934
 20
516.15037599999994
 30
0.0
 70
     8
  0
VERTEX
  5
4B6
  8
FORMAT
 62
     7
 10
-156.18269799999999
 20
516.15877399999988
 30
0.0
 70
     8
  0
VERTEX
  5
4B7
  8
FORMAT
 62
     7
 10
-156.14475100000001
 20
516.16734800000006
 30
0.0
 70
     8
  0
VERTEX
  5
4B8
  8
FORMAT
 62
     7
 10
-156.107179
 20
516.17608199999995
 30
0.0
 70
     8
  0
VERTEX
  5
4B9
  8
FORMAT
 62
     7
 10
-156.107179
 20
516.17608199999995
 30
0.0
 70
     8
  0
VERTEX
  5
4BA
  8
FORMAT
 62
     7
 10
-156.033265
 20
516.19403999999997
 30
0.0
 70
     8
  0
VERTEX
  5
4BB
  8
FORMAT
 62
     7
 10
-155.96043900000001
 20
516.21291599999995
 30
0.0
 70
     8
  0
VERTEX
  5
4BC
  8
FORMAT
 62
     7
 10
-155.88793999999999
 20
516.23305700000003
 30
0.0
 70
     8
  0
VERTEX
  5
4BD
  8
FORMAT
 62
     7
 10
-155.815009
 20
516.25481200000002
 30
0.0
 70
     8
  0
VERTEX
  5
4BE
  8
FORMAT
 62
     7
 10
-155.74088399999999
 20
516.27852999999993
 30
0.0
 70
     8
  0
VERTEX
  5
4BF
  8
FORMAT
 62
     7
 10
-155.664807
 20
516.30455800000004
 30
0.0
 70
     8
  0
VERTEX
  5
4C0
  8
FORMAT
 62
     7
 10
-155.586016
 20
516.33324500000003
 30
0.0
 70
     8
  0
VERTEX
  5
4C1
  8
FORMAT
 62
     7
 10
-155.50375099999999
 20
516.36493899999994
 30
0.0
 70
     8
  0
VERTEX
  5
4C2
  8
FORMAT
 62
     7
 10
-155.41725199999999
 20
516.39998900000001
 30
0.0
 70
     8
  0
VERTEX
  5
4C3
  8
FORMAT
 62
     7
 10
-155.32576
 20
516.43874299999993
 30
0.0
 70
     8
  0
VERTEX
  5
4C4
  8
FORMAT
 62
     7
 10
-156.96440200000001
 20
516.03195300000004
 30
0.0
 70
    16
  0
VERTEX
  5
4C5
  8
FORMAT
 62
     7
 10
-156.62835000000001
 20
516.06575699999996
 30
0.0
 70
    16
  0
VERTEX
  5
4C6
  8
FORMAT
 62
     7
 10
-155.96726200000001
 20
516.20069999999998
 30
0.0
 70
    16
  0
VERTEX
  5
4C7
  8
FORMAT
 62
     7
 10
-155.639903
 20
516.30300399999987
 30
0.0
 70
    16
  0
VERTEX
  5
4C8
  8
FORMAT
 62
     7
 10
-155.32576
 20
516.43874299999993
 30
0.0
 70
    16
  0
SEQEND
  5
4C9
  8
FORMAT
 62
     7
  0
POLYLINE
  5
4CA
  8
0
  6
CONTINUOUS
 62
     7
 66
     1
 10
0.0
 20
0.0
 30
0.0
 70
     4
  0
VERTEX
  5
4CB
  8
FORMAT
 62
     7
 10
-155.32576
 20
516.43874299999993
 30
0.0
 70
    16
  0
VERTEX
  5
4CC
  8
FORMAT
 62
     7
 10
-155.32576
 20
516.43874299999993
 30
0.0
 70
     8
  0
VERTEX
  5
4CD
  8
FORMAT
 62
     7
 10
-155.240297
 20
516.47635300000002
 30
0.0
 70
     8
  0
VERTEX
  5
4CE
  8
FORMAT
 62
     7
 10
-155.16032999999999
 20
516.51298099999985
 30
0.0
 70
     8
  0
VERTEX
  5
4CF
  8
FORMAT
 62
     7
 10
-155.08490699999999
 20
516.54907999999989
 30
0.0
 70
     8
  0
VERTEX
  5
4D0
  8
FORMAT
 62
     7
 10
-155.01307399999999
 20
516.58510399999989
 30
0.0
 70
     8
  0
VERTEX
  5
4D1
  8
FORMAT
 62
     7
 10
-154.94387800000001
 20
516.62150699999995
 30
0.0
 70
     8
  0
VERTEX
  5
4D2
  8
FORMAT
 62
     7
 10
-154.87636599999999
 20
516.65874299999984
 30
0.0
 70
     8
  0
VERTEX
  5
4D3
  8
FORMAT
 62
     7
 10
-154.809586
 20
516.6972659999999
 30
0.0
 70
     8
  0
VERTEX
  5
4D4
  8
FORMAT
 62
     7
 10
-154.74258499999999
 20
516.73752899999988
 30
0.0
 70
     8
  0
VERTEX
  5
4D5
  8
FORMAT
 62
     7
 10
-154.674409
 20
516.77998700000001
 30
0.0
 70
     8
  0
VERTEX
  5
4D6
  8
FORMAT
 62
     7
 10
-154.604107
 20
516.82509200000004
 30
0.0
 70
     8
  0
VERTEX
  5
4D7
  8
FORMAT
 62
     7
 10
-154.604107
 20
516.82509200000004
 30
0.0
 70
     8
  0
VERTEX
  5
4D8
  8
FORMAT
 62
     7
 10
-154.56791899999999
 20
516.84874600000001
 30
0.0
 70
     8
  0
VERTEX
  5
4D9
  8
FORMAT
 62
     7
 10
-154.53119100000001
 20
516.87302999999986
 30
0.0
 70
     8
  0
VERTEX
  5
4DA
  8
FORMAT
 62
     7
 10
-154.49415400000001
 20
516.89779800000008
 30
0.0
 70
     8
  0
VERTEX
  5
4DB
  8
FORMAT
 62
     7
 10
-154.45703800000001
 20
516.92290500000001
 30
0.0
 70
     8
  0
VERTEX
  5
4DC
  8
FORMAT
 62
     7
 10
-154.420074
 20
516.94820500000003
 30
0.0
 70
     8
  0
VERTEX
  5
4DD
  8
FORMAT
 62
     7
 10
-154.38349199999999
 20
516.97355199999993
 30
0.0
 70
     8
  0
VERTEX
  5
4DE
  8
FORMAT
 62
     7
 10
-154.347522
 20
516.99880199999996
 30
0.0
 70
     8
  0
VERTEX
  5
4DF
  8
FORMAT
 62
     7
 10
-154.31239600000001
 20
517.02380800000003
 30
0.0
 70
     8
  0
VERTEX
  5
4E0
  8
FORMAT
 62
     7
 10
-154.27834300000001
 20
517.04842499999995
 30
0.0
 70
     8
  0
VERTEX
  5
4E1
  8
FORMAT
 62
     7
 10
-154.24559300000001
 20
517.07250699999986
 30
0.0
 70
     8
  0
VERTEX
  5
4E2
  8
FORMAT
 62
     7
 10
-154.24559300000001
 20
517.07250699999986
 30
0.0
 70
     8
  0
VERTEX
  5
4E3
  8
FORMAT
 62
     7
 10
-154.21428
 20
517.09598600000004
 30
0.0
 70
     8
  0
VERTEX
  5
4E4
  8
FORMAT
 62
     7
 10
-154.184146
 20
517.1191
 30
0.0
 70
     8
  0
VERTEX
  5
4E5
  8
FORMAT
 62
     7
 10
-154.154833
 20
517.14216399999998
 30
0.0
 70
     8
  0
VERTEX
  5
4E6
  8
FORMAT
 62
     7
 10
-154.12598600000001
 20
517.16549399999997
 30
0.0
 70
     8
  0
VERTEX
  5
4E7
  8
FORMAT
 62
     7
 10
-154.09724900000001
 20
517.18940499999985
 30
0.0
 70
     8
  0
VERTEX
  5
4E8
  8
FORMAT
 62
     7
 10
-154.06826599999999
 20
517.21421099999998
 30
0.0
 70
     8
  0
VERTEX
  5
4E9
  8
FORMAT
 62
     7
 10
-154.038681
 20
517.24022899999989
 30
0.0
 70
     8
  0
VERTEX
  5
4EA
  8
FORMAT
 62
     7
 10
-154.008137
 20
517.26777400000003
 30
0.0
 70
     8
  0
VERTEX
  5
4EB
  8
FORMAT
 62
     7
 10
-153.97628
 20
517.29716100000007
 30
0.0
 70
     8
  0
VERTEX
  5
4EC
  8
FORMAT
 62
     7
 10
-153.94275099999999
 20
517.3287049999999
 30
0.0
 70
     8
  0
VERTEX
  5
4ED
  8
FORMAT
 62
     7
 10
-153.94275099999999
 20
517.3287049999999
 30
0.0
 70
     8
  0
VERTEX
  5
4EE
  8
FORMAT
 62
     7
 10
-153.90733
 20
517.36259399999994
 30
0.0
 70
     8
  0
VERTEX
  5
4EF
  8
FORMAT
 62
     7
 10
-153.870327
 20
517.39850699999988
 30
0.0
 70
     8
  0
VERTEX
  5
4F0
  8
FORMAT
 62
     7
 10
-153.83218600000001
 20
517.43599699999993
 30
0.0
 70
     8
  0
VERTEX
  5
4F1
  8
FORMAT
 62
     7
 10
-153.793353
 20
517.47461399999986
 30
0.0
 70
     8
  0
VERTEX
  5
4F2
  8
FORMAT
 62
     7
 10
-153.75427099999999
 20
517.51391099999989
 30
0.0
 70
     8
  0
VERTEX
  5
4F3
  8
FORMAT
 62
     7
 10
-153.715386
 20
517.55343899999991
 30
0.0
 70
     8
  0
VERTEX
  5
4F4
  8
FORMAT
 62
     7
 10
-153.67714100000001
 20
517.59275000000002
 30
0.0
 70
     8
  0
VERTEX
  5
4F5
  8
FORMAT
 62
     7
 10
-153.639982
 20
517.63139599999988
 30
0.0
 70
     8
  0
VERTEX
  5
4F6
  8
FORMAT
 62
     7
 10
-153.604353
 20
517.66892900000005
 30
0.0
 70
     8
  0
VERTEX
  5
4F7
  8
FORMAT
 62
     7
 10
-153.57069799999999
 20
517.70489999999995
 30
0.0
 70
     8
  0
VERTEX
  5
4F8
  8
FORMAT
 62
     7
 10
-153.57069799999999
 20
517.70489999999995
 30
0.0
 70
     8
  0
VERTEX
  5
4F9
  8
FORMAT
 62
     7
 10
-153.53933799999999
 20
517.73899400000005
 30
0.0
 70
     8
  0
VERTEX
  5
4FA
  8
FORMAT
 62
     7
 10
-153.51009300000001
 20
517.7714289999999
 30
0.0
 70
     8
  0
VERTEX
  5
4FB
  8
FORMAT
 62
     7
 10
-153.48265900000001
 20
517.80255299999999
 30
0.0
 70
     8
  0
VERTEX
  5
4FC
  8
FORMAT
 62
     7
 10
-153.45673300000001
 20
517.832716
 30
0.0
 70
     8
  0
VERTEX
  5
4FD
  8
FORMAT
 62
     7
 10
-153.43200999999999
 20
517.86226899999997
 30
0.0
 70
     8
  0
VERTEX
  5
4FE
  8
FORMAT
 62
     7
 10
-153.408187
 20
517.8915599999998
 30
0.0
 70
     8
  0
VERTEX
  5
4FF
  8
FORMAT
 62
     7
 10
-153.384961
 20
517.92094099999986
 30
0.0
 70
     8
  0
VERTEX
  5
500
  8
FORMAT
 62
     7
 10
-153.36202700000001
 20
517.95075999999995
 30
0.0
 70
     8
  0
VERTEX
  5
501
  8
FORMAT
 62
     7
 10
-153.33908099999999
 20
517.98136699999986
 30
0.0
 70
     8
  0
VERTEX
  5
502
  8
FORMAT
 62
     7
 10
-153.31582
 20
518.01311199999986
 30
0.0
 70
     8
  0
VERTEX
  5
503
  8
FORMAT
 62
     7
 10
-153.31582
 20
518.01311199999986
 30
0.0
 70
     8
  0
VERTEX
  5
504
  8
FORMAT
 62
     7
 10
-153.292013
 20
518.04624899999999
 30
0.0
 70
     8
  0
VERTEX
  5
505
  8
FORMAT
 62
     7
 10
-153.26772600000001
 20
518.080646
 30
0.0
 70
     8
  0
VERTEX
  5
506
  8
FORMAT
 62
     7
 10
-153.24309600000001
 20
518.1160769999999
 30
0.0
 70
     8
  0
VERTEX
  5
507
  8
FORMAT
 62
     7
 10
-153.218264
 20
518.15231399999993
 30
0.0
 70
     8
  0
VERTEX
  5
508
  8
FORMAT
 62
     7
 10
-153.19336699999999
 20
518.18912899999998
 30
0.0
 70
     8
  0
VERTEX
  5
509
  8
FORMAT
 62
     7
 10
-153.168544
 20
518.22629600000005
 30
0.0
 70
     8
  0
VERTEX
  5
50A
  8
FORMAT
 62
     7
 10
-153.143933
 20
518.26358700000003
 30
0.0
 70
     8
  0
VERTEX
  5
50B
  8
FORMAT
 62
     7
 10
-153.119674
 20
518.30077599999993
 30
0.0
 70
     8
  0
VERTEX
  5
50C
  8
FORMAT
 62
     7
 10
-153.09590499999999
 20
518.33763399999987
 30
0.0
 70
     8
  0
VERTEX
  5
50D
  8
FORMAT
 62
     7
 10
-153.07276400000001
 20
518.37393399999985
 30
0.0
 70
     8
  0
VERTEX
  5
50E
  8
FORMAT
 62
     7
 10
-153.07276400000001
 20
518.37393399999985
 30
0.0
 70
     8
  0
VERTEX
  5
50F
  8
FORMAT
 62
     7
 10
-153.02866399999999
 20
518.44441900000004
 30
0.0
 70
     8
  0
VERTEX
  5
510
  8
FORMAT
 62
     7
 10
-152.98718400000001
 20
518.51273300000003
 30
0.0
 70
     8
  0
VERTEX
  5
511
  8
FORMAT
 62
     7
 10
-152.947879
 20
518.57984599999986
 30
0.0
 70
     8
  0
VERTEX
  5
512
  8
FORMAT
 62
     7
 10
-152.91029900000001
 20
518.64672699999994
 30
0.0
 70
     8
  0
VERTEX
  5
513
  8
FORMAT
 62
     7
 10
-152.873997
 20
518.71434399999998
 30
0.0
 70
     8
  0
VERTEX
  5
514
  8
FORMAT
 62
     7
 10
-152.838526
 20
518.78366700000004
 30
0.0
 70
     8
  0
VERTEX
  5
515
  8
FORMAT
 62
     7
 10
-152.803437
 20
518.85566399999993
 30
0.0
 70
     8
  0
VERTEX
  5
516
  8
FORMAT
 62
     7
 10
-152.768283
 20
518.93130499999995
 30
0.0
 70
     8
  0
VERTEX
  5
517
  8
FORMAT
 62
     7
 10
-152.73261600000001
 20
519.01155900000003
 30
0.0
 70
     8
  0
VERTEX
  5
518
  8
FORMAT
 62
     7
 10
-152.695989
 20
519.09739300000001
 30
0.0
 70
     8
  0
VERTEX
  5
519
  8
FORMAT
 62
     7
 10
-155.030666
 20
516.56625099999985
 30
0.0
 70
    16
  0
VERTEX
  5
51A
  8
FORMAT
 62
     7
 10
-154.749245
 20
516.72160800000006
 30
0.0
 70
    16
  0
VERTEX
  5
51B
  8
FORMAT
 62
     7
 10
-154.220024
 20
517.08384499999988
 30
0.0
 70
    16
  0
VERTEX
  5
51C
  8
FORMAT
 62
     7
 10
-153.97652600000001
 20
517.28749700000003
 30
0.0
 70
    16
  0
VERTEX
  5
51D
  8
FORMAT
 62
     7
 10
-153.53038100000001
 20
517.73839699999996
 30
0.0
 70
    16
  0
VERTEX
  5
51E
  8
FORMAT
 62
     7
 10
-153.3261399999999
 20
517.98831500000006
 30
0.0
 70
    16
  0
VERTEX
  5
51F
  8
FORMAT
 62
     7
 10
-152.97125600000001
 20
518.51991299999986
 30
0.0
 70
    16
  0
VERTEX
  5
520
  8
FORMAT
 62
     7
 10
-152.820178
 20
518.80089900000007
 30
0.0
 70
    16
  0
VERTEX
  5
521
  8
FORMAT
 62
     7
 10
-152.695989
 20
519.09739300000001
 30
0.0
 70
    16
  0
SEQEND
  5
522
  8
FORMAT
 62
     7
  0
POLYLINE
  5
523
  8
0
  6
CONTINUOUS
 62
     7
 66
     1
 10
0.0
 20
0.0
 30
0.0
 70
     4
  0
VERTEX
  5
524
  8
FORMAT
 62
     7
 10
-152.695988
 20
519.09739200000001
 30
0.0
 70
    16
  0
VERTEX
  5
525
  8
FORMAT
 62
     7
 10
-152.695988
 20
519.09739200000001
 30
0.0
 70
     8
  0
VERTEX
  5
526
  8
FORMAT
 62
     7
 10
-152.65933200000001
 20
519.18662300000005
 30
0.0
 70
     8
  0
VERTEX
  5
527
  8
FORMAT
 62
     7
 10
-152.62622400000001
 20
519.27080000000001
 30
0.0
 70
     8
  0
VERTEX
  5
528
  8
FORMAT
 62
     7
 10
-152.59632400000001
 20
519.35069699999985
 30
0.0
 70
     8
  0
VERTEX
  5
529
  8
FORMAT
 62
     7
 10
-152.56929299999999
 20
519.42708700000003
 30
0.0
 70
     8
  0
VERTEX
  5
52A
  8
FORMAT
 62
     7
 10
-152.544792
 20
519.50074400000005
 30
0.0
 70
     8
  0
VERTEX
  5
52B
  8
FORMAT
 62
     7
 10
-152.52248299999999
 20
519.57244100000003
 30
0.0
 70
     8
  0
VERTEX
  5
52C
  8
FORMAT
 62
     7
 10
-152.502026
 20
519.64295300000003
 30
0.0
 70
     8
  0
VERTEX
  5
52D
  8
FORMAT
 62
     7
 10
-152.483082
 20
519.71305199999995
 30
0.0
 70
     8
  0
VERTEX
  5
52E
  8
FORMAT
 62
     7
 10
-152.46531300000001
 20
519.78351399999985
 30
0.0
 70
     8
  0
VERTEX
  5
52F
  8
FORMAT
 62
     7
 10
-152.44837999999999
 20
519.85510999999985
 30
0.0
 70
     8
  0
VERTEX
  5
530
  8
FORMAT
 62
     7
 10
-152.44837999999999
 20
519.85510999999985
 30
0.0
 70
     8
  0
VERTEX
  5
531
  8
FORMAT
 62
     7
 10
-152.44013100000001
 20
519.89154599999995
 30
0.0
 70
     8
  0
VERTEX
  5
532
  8
FORMAT
 62
     7
 10
-152.43202299999999
 20
519.92837400000008
 30
0.0
 70
     8
  0
VERTEX
  5
533
  8
FORMAT
 62
     7
 10
-152.42407399999999
 20
519.96551199999999
 30
0.0
 70
     8
  0
VERTEX
  5
534
  8
FORMAT
 62
     7
 10
-152.41630000000001
 20
520.00287400000002
 30
0.0
 70
     8
  0
VERTEX
  5
535
  8
FORMAT
 62
     7
 10
-152.40871999999999
 20
520.04037599999992
 30
0.0
 70
     8
  0
VERTEX
  5
536
  8
FORMAT
 62
     7
 10
-152.40134900000001
 20
520.07793499999991
 30
0.0
 70
     8
  0
VERTEX
  5
537
  8
FORMAT
 62
     7
 10
-152.394206
 20
520.11546599999986
 30
0.0
 70
     8
  0
VERTEX
  5
538
  8
FORMAT
 62
     7
 10
-152.38730699999999
 20
520.15288399999986
 30
0.0
 70
     8
  0
VERTEX
  5
539
  8
FORMAT
 62
     7
 10
-152.38067000000001
 20
520.1901069999999
 30
0.0
 70
     8
  0
VERTEX
  5
53A
  8
FORMAT
 62
     7
 10
-152.374312
 20
520.22704800000008
 30
0.0
 70
     8
  0
VERTEX
  5
53B
  8
FORMAT
 62
     7
 10
-152.374312
 20
520.22704800000008
 30
0.0
 70
     8
  0
VERTEX
  5
53C
  8
FORMAT
 62
     7
 10
-152.362481
 20
520.30000099999995
 30
0.0
 70
     8
  0
VERTEX
  5
53D
  8
FORMAT
 62
     7
 10
-152.35185100000001
 20
520.37230899999986
 30
0.0
 70
     8
  0
VERTEX
  5
53E
  8
FORMAT
 62
     7
 10
-152.34244000000001
 20
520.44478499999991
 30
0.0
 70
     8
  0
VERTEX
  5
53F
  8
FORMAT
 62
     7
 10
-152.33426399999999
 20
520.51824199999987
 30
0.0
 70
     8
  0
VERTEX
  5
540
  8
FORMAT
 62
     7
 10
-152.32733999999999
 20
520.59349499999996
 30
0.0
 70
     8
  0
VERTEX
  5
541
  8
FORMAT
 62
     7
 10
-152.321687
 20
520.67135599999995
 30
0.0
 70
     8
  0
VERTEX
  5
542
  8
FORMAT
 62
     7
 10
-152.31732
 20
520.75263799999993
 30
0.0
 70
     8
  0
VERTEX
  5
543
  8
FORMAT
 62
     7
 10
-152.314258
 20
520.83815599999991
 30
0.0
 70
     8
  0
VERTEX
  5
544
  8
FORMAT
 62
     7
 10
-152.31251599999999
 20
520.92872299999999
 30
0.0
 70
     8
  0
VERTEX
  5
545
  8
FORMAT
 62
     7
 10
-152.31211300000001
 20
521.02515300000005
 30
0.0
 70
     8
  0
VERTEX
  5
546
  8
FORMAT
 62
     7
 10
-152.56751499999999
 20
519.40411200000005
 30
0.0
 70
    16
  0
VERTEX
  5
547
  8
FORMAT
 62
     7
 10
-152.47195500000001
 20
519.71849999999995
 30
0.0
 70
    16
  0
VERTEX
  5
548
  8
FORMAT
 62
     7
 10
-152.34373400000001
 20
520.36178399999994
 30
0.0
 70
    16
  0
VERTEX
  5
549
  8
FORMAT
 62
     7
 10
-152.31120799999999
 20
520.69304699999986
 30
0.0
 70
    16
  0
VERTEX
  5
54A
  8
FORMAT
 62
     7
 10
-152.31211300000001
 20
521.02515300000005
 30
0.0
 70
    16
  0
SEQEND
  5
54B
  8
FORMAT
 62
     7
  0
POLYLINE
  5
54C
  8
0
  6
CONTINUOUS
 62
     7
 66
     1
 10
0.0
 20
0.0
 30
0.0
 70
     4
  0
VERTEX
  5
54D
  8
FORMAT
 62
     7
 10
-152.31211300000001
 20
527.31977800000004
 30
0.0
 70
    16
  0
VERTEX
  5
54E
  8
FORMAT
 62
     7
 10
-152.31211300000001
 20
527.31977800000004
 30
0.0
 70
     8
  0
VERTEX
  5
54F
  8
FORMAT
 62
     7
 10
-152.31178399999999
 20
527.75631599999986
 30
0.0
 70
     8
  0
VERTEX
  5
550
  8
FORMAT
 62
     7
 10
-152.31079700000001
 20
528.19101000000001
 30
0.0
 70
     8
  0
VERTEX
  5
551
  8
FORMAT
 62
     7
 10
-152.30915200000001
 20
528.62385999999992
 30
0.0
 70
     8
  0
VERTEX
  5
552
  8
FORMAT
 62
     7
 10
-152.30685
 20
529.05486799999994
 30
0.0
 70
     8
  0
VERTEX
  5
553
  8
FORMAT
 62
     7
 10
-152.30389099999999
 20
529.48403199999996
 30
0.0
 70
     8
  0
VERTEX
  5
554
  8
FORMAT
 62
     7
 10
-152.300274
 20
529.91135499999984
 30
0.0
 70
     8
  0
VERTEX
  5
555
  8
FORMAT
 62
     7
 10
-152.29599999999999
 20
530.33683499999995
 30
0.0
 70
     8
  0
VERTEX
  5
556
  8
FORMAT
 62
     7
 10
-152.29106899999999
 20
530.76047400000004
 30
0.0
 70
     8
  0
VERTEX
  5
557
  8
FORMAT
 62
     7
 10
-152.285481
 20
531.18227200000001
 30
0.0
 70
     8
  0
VERTEX
  5
558
  8
FORMAT
 62
     7
 10
-152.279236
 20
531.60222800000008
 30
0.0
 70
     8
  0
VERTEX
  5
559
  8
FORMAT
 62
     7
 10
-152.31211300000001
 20
528.77797699999985
 30
0.0
 70
    16
  0
VERTEX
  5
55A
  8
FORMAT
 62
     7
 10
-152.30114699999999
 20
530.20544100000006
 30
0.0
 70
    16
  0
VERTEX
  5
55B
  8
FORMAT
 62
     7
 10
-152.279236
 20
531.60222800000008
 30
0.0
 70
    16
  0
SEQEND
  5
55C
  8
FORMAT
 62
     7
  0
ARC
  5
55D
  8
0
  6
CONTINUOUS
 62
     7
 10
-157.28844799999999
 20
531.58616700000005
 30
0.0
 40
5.0092400000000001
 50
0.183684
 51
89.816230000000004
  0
POLYLINE
  5
55E
  8
0
  6
CONTINUOUS
 62
     7
 66
     1
 10
0.0
 20
0.0
 30
0.0
 70
     4
  0
VERTEX
  5
55F
  8
FORMAT
 62
     7
 10
-291.87548300000009
 20
531.60222800000008
 30
0.0
 70
    16
  0
VERTEX
  5
560
  8
FORMAT
 62
     7
 10
-291.87548300000009
 20
531.60222800000008
 30
0.0
 70
     8
  0
VERTEX
  5
561
  8
FORMAT
 62
     7
 10
-291.869238
 20
531.18227200000001
 30
0.0
 70
     8
  0
VERTEX
  5
562
  8
FORMAT
 62
     7
 10
-291.86365000000001
 20
530.76047400000004
 30
0.0
 70
     8
  0
VERTEX
  5
563
  8
FORMAT
 62
     7
 10
-291.85871900000001
 20
530.33683499999995
 30
0.0
 70
     8
  0
VERTEX
  5
564
  8
FORMAT
 62
     7
 10
-291.854445
 20
529.91135499999984
 30
0.0
 70
     8
  0
VERTEX
  5
565
  8
FORMAT
 62
     7
 10
-291.85082799999998
 20
529.48403199999996
 30
0.0
 70
     8
  0
VERTEX
  5
566
  8
FORMAT
 62
     7
 10
-291.847869
 20
529.05486799999994
 30
0.0
 70
     8
  0
VERTEX
  5
567
  8
FORMAT
 62
     7
 10
-291.84556700000002
 20
528.62385999999992
 30
0.0
 70
     8
  0
VERTEX
  5
568
  8
FORMAT
 62
     7
 10
-291.84392300000002
 20
528.19101000000001
 30
0.0
 70
     8
  0
VERTEX
  5
569
  8
FORMAT
 62
     7
 10
-291.84293600000001
 20
527.75631599999986
 30
0.0
 70
     8
  0
VERTEX
  5
56A
  8
FORMAT
 62
     7
 10
-291.84260699999999
 20
527.31977800000004
 30
0.0
 70
     8
  0
VERTEX
  5
56B
  8
FORMAT
 62
     7
 10
-291.85357199999999
 20
530.20544100000006
 30
0.0
 70
    16
  0
VERTEX
  5
56C
  8
FORMAT
 62
     7
 10
-291.84260699999999
 20
528.77797699999985
 30
0.0
 70
    16
  0
VERTEX
  5
56D
  8
FORMAT
 62
     7
 10
-291.84260699999999
 20
527.31977800000004
 30
0.0
 70
    16
  0
SEQEND
  5
56E
  8
FORMAT
 62
     7
  0
ARC
  5
56F
  8
0
  6
CONTINUOUS
 62
     7
 10
-286.86627200000009
 20
531.58616700000005
 30
0.0
 40
5.0092400000000001
 50
90.183769999999996
 51
179.816316
  0
DIMENSION
  5
570
  8
LAYER01
 62
     7
  2
*D8
 10
-152.31211200000001
 20
449.4527589999999
 30
0.0
 11
-220.72777300000001
 21
479.4527589999999
 31
0.0
 13
-291.84260699999999
 23
516.03288200000009
 33
0.0
 14
-152.31211200000001
 24
516.03288200000009
 34
0.0
  0
DIMENSION
  5
571
  8
LAYER01
 62
     7
  2
*D9
 10
559.20050000000003
 20
416.68693100000002
 30
0.0
 11
375.102825
 21
446.6869309999999
 31
0.0
 13
189.20050000000001
 23
286.916788
 33
0.0
 14
559.20050000000003
 24
286.916788
 34
0.0
  0
LINE
  5
572
  8
0
  6
CONTINUOUS
 62
     7
 10
47.922651000000002
 20
532.57580800000005
 30
0.0
 11
47.922651000000002
 21
232.55131399999999
 31
0.0
  0
LINE
  5
573
  8
0
  6
CONTINUOUS
 62
     7
 10
72.922627000000006
 20
207.56211099999999
 30
0.0
 11
72.922627000000006
 21
557.56210499999986
 31
0.0
  0
LINE
  5
574
  8
0
  6
CONTINUOUS
 62
     7
 10
524.21420499999988
 20
288.402038
 30
0.0
 11
224.18969999999999
 21
288.402038
 31
0.0
  0
POLYLINE
  5
575
  8
0
  6
CONTINUOUS
 62
     7
 66
     1
 10
0.0
 20
0.0
 30
0.0
 70
     1
  0
VERTEX
  5
1441
  8
0
  6
CONTINUOUS
 62
     7
 10
211.80858599999999
 20
259.0048450000001
 30
0.0
  0
VERTEX
  5
1442
  8
0
  6
CONTINUOUS
 62
     7
 10
211.25882799999999
 20
259.89048600000001
 30
0.0
  0
VERTEX
  5
1443
  8
0
  6
CONTINUOUS
 62
     7
 10
210.72193100000001
 20
260.78318400000001
 30
0.0
  0
VERTEX
  5
1444
  8
0
  6
CONTINUOUS
 62
     7
 10
210.19825499999999
 20
261.68285200000003
 30
0.0
  0
VERTEX
  5
1445
  8
0
  6
CONTINUOUS
 62
     7
 10
209.68815900000001
 20
262.58940100000001
 30
0.0
  0
VERTEX
  5
1446
  8
0
  6
CONTINUOUS
 62
     7
 10
209.192002
 20
263.50274400000001
 30
0.0
  0
VERTEX
  5
1447
  8
0
  6
CONTINUOUS
 62
     7
 10
208.71014400000001
 20
264.42279300000001
 30
0.0
  0
VERTEX
  5
1448
  8
0
  6
CONTINUOUS
 62
     7
 10
208.24294399999999
 20
265.34946000000002
 30
0.0
  0
VERTEX
  5
1449
  8
0
  6
CONTINUOUS
 62
     7
 10
207.790761
 20
266.28265699999997
 30
0.0
  0
VERTEX
  5
144A
  8
0
  6
CONTINUOUS
 62
     7
 10
207.38034099999999
 20
267.16553699999997
 30
0.0
  0
VERTEX
  5
144B
  8
0
  6
CONTINUOUS
 62
     7
 10
207.293387
 20
267.35837299999997
 30
0.0
  0
VERTEX
  5
144C
  8
0
  6
CONTINUOUS
 62
     7
 10
206.967635
 20
268.09022299999998
 30
0.0
  0
VERTEX
  5
144D
  8
0
  6
CONTINUOUS
 62
     7
 10
206.77464499999999
 20
268.54038000000003
 30
0.0
  0
VERTEX
  5
144E
  8
0
  6
CONTINUOUS
 62
     7
 10
206.55225200000001
 20
269.06331899999998
 30
0.0
  0
VERTEX
  5
144F
  8
0
  6
CONTINUOUS
 62
     7
 10
206.13939400000001
 20
270.07898999999998
 30
0.0
  0
VERTEX
  5
1450
  8
0
  6
CONTINUOUS
 62
     7
 10
205.93602200000001
 20
270.55668900000001
 30
0.0
  0
VERTEX
  5
1451
  8
0
  6
CONTINUOUS
 62
     7
 10
205.90338700000001
 20
270.627409
 30
0.0
  0
VERTEX
  5
1452
  8
0
  6
CONTINUOUS
 62
     7
 10
205.70813000000001
 20
271.023188
 30
0.0
  0
VERTEX
  5
1453
  8
0
  6
CONTINUOUS
 62
     7
 10
205.63507200000001
 20
271.16076600000002
 30
0.0
  0
VERTEX
  5
1454
  8
0
  6
CONTINUOUS
 62
     7
 10
205.456334
 20
271.47723100000002
 30
0.0
  0
VERTEX
  5
1455
  8
0
  6
CONTINUOUS
 62
     7
 10
205.33540600000001
 20
271.67715900000002
 30
0.0
  0
VERTEX
  5
1456
  8
0
  6
CONTINUOUS
 62
     7
 10
205.18131199999999
 20
271.91759400000001
 30
0.0
  0
VERTEX
  5
1457
  8
0
  6
CONTINUOUS
 62
     7
 10
205.00545600000001
 20
272.17474900000002
 30
0.0
  0
VERTEX
  5
1458
  8
0
  6
CONTINUOUS
 62
     7
 10
204.883805
 20
272.34308900000002
 30
0.0
  0
VERTEX
  5
1459
  8
0
  6
CONTINUOUS
 62
     7
 10
204.646399
 20
272.65176200000002
 30
0.0
  0
VERTEX
  5
145A
  8
0
  6
CONTINUOUS
 62
     7
 10
204.564615
 20
272.75256899999999
 30
0.0
  0
VERTEX
  5
145B
  8
0
  6
CONTINUOUS
 62
     7
 10
204.25951599999999
 20
273.10649599999999
 30
0.0
  0
VERTEX
  5
145C
  8
0
  6
CONTINUOUS
 62
     7
 10
204.224603
 20
273.14493099999999
 30
0.0
  0
VERTEX
  5
145D
  8
0
  6
CONTINUOUS
 62
     7
 10
203.86468500000001
 20
273.51911799999999
 30
0.0
  0
VERTEX
  5
145E
  8
0
  6
CONTINUOUS
 62
     7
 10
203.84618399999999
 20
273.53733199999999
 30
0.0
  0
VERTEX
  5
145F
  8
0
  6
CONTINUOUS
 62
     7
 10
203.48583099999999
 20
273.87411900000001
 30
0.0
  0
VERTEX
  5
1460
  8
0
  6
CONTINUOUS
 62
     7
 10
203.40787700000001
 20
273.94273299999998
 30
0.0
  0
VERTEX
  5
1461
  8
0
  6
CONTINUOUS
 62
     7
 10
203.08906300000001
 20
274.20898
 30
0.0
  0
VERTEX
  5
1462
  8
0
  6
CONTINUOUS
 62
     7
 10
202.94615899999999
 20
274.32125400000001
 30
0.0
  0
VERTEX
  5
1463
  8
0
  6
CONTINUOUS
 62
     7
 10
202.67545000000001
 20
274.52279600000003
 30
0.0
  0
VERTEX
  5
1464
  8
0
  6
CONTINUOUS
 62
     7
 10
202.46267399999999
 20
274.67154599999998
 30
0.0
  0
VERTEX
  5
1465
  8
0
  6
CONTINUOUS
 62
     7
 10
202.24610699999999
 20
274.81472200000002
 30
0.0
  0
VERTEX
  5
1466
  8
0
  6
CONTINUOUS
 62
     7
 10
201.959146
 20
274.99236000000002
 30
0.0
  0
VERTEX
  5
1467
  8
0
  6
CONTINUOUS
 62
     7
 10
201.80219199999999
 20
275.08397100000002
 30
0.0
  0
VERTEX
  5
1468
  8
0
  6
CONTINUOUS
 62
     7
 10
201.43736899999999
 20
275.28255300000001
 30
0.0
  0
VERTEX
  5
1469
  8
0
  6
CONTINUOUS
 62
     7
 10
201.3449
 20
275.32981799999999
 30
0.0
  0
VERTEX
  5
146A
  8
0
  6
CONTINUOUS
 62
     7
 10
200.89920499999999
 20
275.54109099999999
 30
0.0
  0
VERTEX
  5
146B
  8
0
  6
CONTINUOUS
 62
     7
 10
200.87546399999999
 20
275.55159900000001
 30
0.0
  0
VERTEX
  5
146C
  8
0
  6
CONTINUOUS
 62
     7
 10
200.395151
 20
275.748717
 30
0.0
  0
VERTEX
  5
146D
  8
0
  6
CONTINUOUS
 62
     7
 10
200.34657100000001
 20
275.76705099999998
 30
0.0
  0
VERTEX
  5
146E
  8
0
  6
CONTINUOUS
 62
     7
 10
199.90525400000001
 20
275.92063999999999
 30
0.0
  0
VERTEX
  5
146F
  8
0
  6
CONTINUOUS
 62
     7
 10
199.78143700000001
 20
275.95962900000001
 30
0.0
  0
VERTEX
  5
1470
  8
0
  6
CONTINUOUS
 62
     7
 10
199.407095
 20
276.06690600000002
 30
0.0
  0
VERTEX
  5
1471
  8
0
  6
CONTINUOUS
 62
     7
 10
199.20581799999999
 20
276.11813699999999
 30
0.0
  0
VERTEX
  5
1472
  8
0
  6
CONTINUOUS
 62
     7
 10
198.902016
 20
276.187119
 30
0.0
  0
VERTEX
  5
1473
  8
0
  6
CONTINUOUS
 62
     7
 10
198.62176500000001
 20
276.24201099999999
 30
0.0
  0
VERTEX
  5
1474
  8
0
  6
CONTINUOUS
 62
     7
 10
198.391378
 20
276.28095500000001
 30
0.0
  0
VERTEX
  5
1475
  8
0
  6
CONTINUOUS
 62
     7
 10
198.031361
 20
276.33080899999999
 30
0.0
  0
VERTEX
  5
1476
  8
0
  6
CONTINUOUS
 62
     7
 10
197.87655799999999
 20
276.348163
 30
0.0
  0
VERTEX
  5
1477
  8
0
  6
CONTINUOUS
 62
     7
 10
197.43670900000001
 20
276.38421499999998
 30
0.0
  0
VERTEX
  5
1478
  8
0
  6
CONTINUOUS
 62
     7
 10
197.35894400000001
 20
276.38855999999998
 30
0.0
  0
VERTEX
  5
1479
  8
0
  6
CONTINUOUS
 62
     7
 10
196.83993100000001
 20
276.402038
 30
0.0
  0
VERTEX
  5
147A
  8
0
  6
CONTINUOUS
 62
     7
 10
189.20050000000001
 20
276.402038
 30
0.0
  0
VERTEX
  5
147B
  8
0
  6
CONTINUOUS
 62
     7
 10
189.20050000000001
 20
288.402038
 30
0.0
  0
VERTEX
  5
147C
  8
0
  6
CONTINUOUS
 62
     7
 10
214.20050000000001
 20
288.402038
 30
0.0
  0
VERTEX
  5
147D
  8
0
  6
CONTINUOUS
 62
     7
 10
214.46319199999999
 20
285.43153699999999
 30
0.0
  0
VERTEX
  5
147E
  8
0
  6
CONTINUOUS
 62
     7
 10
214.933055
 20
282.50095599999997
 30
0.0
  0
VERTEX
  5
147F
  8
0
  6
CONTINUOUS
 62
     7
 10
215.602901
 20
279.61108400000001
 30
0.0
  0
VERTEX
  5
1480
  8
0
  6
CONTINUOUS
 62
     7
 10
216.20221599999999
 20
277.63218599999999
 30
0.0
  0
VERTEX
  5
1481
  8
0
  6
CONTINUOUS
 62
     7
 10
216.23219900000001
 20
277.47086899999999
 30
0.0
  0
VERTEX
  5
1482
  8
0
  6
CONTINUOUS
 62
     7
 10
216.28955099999999
 20
277.34381100000002
 30
0.0
  0
VERTEX
  5
1483
  8
0
  6
CONTINUOUS
 62
     7
 10
216.46554
 20
276.76270899999997
 30
0.0
  0
VERTEX
  5
1484
  8
0
  6
CONTINUOUS
 62
     7
 10
217.51378199999999
 20
273.95661899999999
 30
0.0
  0
VERTEX
  5
1485
  8
0
  6
CONTINUOUS
 62
     7
 10
218.74043900000001
 20
271.193603
 30
0.0
  0
VERTEX
  5
1486
  8
0
  6
CONTINUOUS
 62
     7
 10
220.13832199999999
 20
268.47444899999999
 30
0.0
  0
VERTEX
  5
1487
  8
0
  6
CONTINUOUS
 62
     7
 10
220.819771
 20
267.30758900000001
 30
0.0
  0
VERTEX
  5
1488
  8
0
  6
CONTINUOUS
 62
     7
 10
220.899226
 20
267.13156600000002
 30
0.0
  0
VERTEX
  5
1489
  8
0
  6
CONTINUOUS
 62
     7
 10
221.02800300000001
 20
266.951031
 30
0.0
  0
VERTEX
  5
148A
  8
0
  6
CONTINUOUS
 62
     7
 10
221.70024100000001
 20
265.79994500000009
 30
0.0
  0
VERTEX
  5
148B
  8
0
  6
CONTINUOUS
 62
     7
 10
223.419006
 20
263.17088100000001
 30
0.0
  0
VERTEX
  5
148C
  8
0
  6
CONTINUOUS
 62
     7
 10
225.28743
 20
260.58804399999991
 30
0.0
  0
VERTEX
  5
148D
  8
0
  6
CONTINUOUS
 62
     7
 10
227.29832300000001
 20
258.05222400000002
 30
0.0
  0
VERTEX
  5
148E
  8
0
  6
CONTINUOUS
 62
     7
 10
227.74461600000001
 20
257.53484500000002
 30
0.0
  0
VERTEX
  5
148F
  8
0
  6
CONTINUOUS
 62
     7
 10
227.822464
 20
257.42570699999999
 30
0.0
  0
VERTEX
  5
1490
  8
0
  6
CONTINUOUS
 62
     7
 10
227.96439599999999
 20
257.280058
 30
0.0
  0
VERTEX
  5
1491
  8
0
  6
CONTINUOUS
 62
     7
 10
229.44449499999999
 20
255.56420700000001
 30
0.0
  0
VERTEX
  5
1492
  8
0
  6
CONTINUOUS
 62
     7
 10
231.71875700000001
 20
253.12478400000001
 30
0.0
  0
VERTEX
  5
1493
  8
0
  6
CONTINUOUS
 62
     7
 10
234.113921
 20
250.73474200000001
 30
0.0
  0
VERTEX
  5
1494
  8
0
  6
CONTINUOUS
 62
     7
 10
236.62279599999999
 20
248.394869
 30
0.0
  0
VERTEX
  5
1495
  8
0
  6
CONTINUOUS
 62
     7
 10
239.23819399999999
 20
246.10595499999999
 30
0.0
  0
VERTEX
  5
1496
  8
0
  6
CONTINUOUS
 62
     7
 10
241.95292599999999
 20
243.868787
 30
0.0
  0
VERTEX
  5
1497
  8
0
  6
CONTINUOUS
 62
     7
 10
244.75980200000001
 20
241.684155
 30
0.0
  0
VERTEX
  5
1498
  8
0
  6
CONTINUOUS
 62
     7
 10
246.77006800000001
 20
240.20256800000001
 30
0.0
  0
VERTEX
  5
1499
  8
0
  6
CONTINUOUS
 62
     7
 10
246.92110400000001
 20
240.08063100000001
 30
0.0
  0
VERTEX
  5
149A
  8
0
  6
CONTINUOUS
 62
     7
 10
247.06236999999999
 20
239.98713900000001
 30
0.0
  0
VERTEX
  5
149B
  8
0
  6
CONTINUOUS
 62
     7
 10
247.651633
 20
239.55284599999999
 30
0.0
  0
VERTEX
  5
149C
  8
0
  6
CONTINUOUS
 62
     7
 10
250.62123
 20
237.47564800000001
 30
0.0
  0
VERTEX
  5
149D
  8
0
  6
CONTINUOUS
 62
     7
 10
253.661404
 20
235.45335099999991
 30
0.0
  0
VERTEX
  5
149E
  8
0
  6
CONTINUOUS
 62
     7
 10
256.76496500000002
 20
233.48674299999999
 30
0.0
  0
VERTEX
  5
149F
  8
0
  6
CONTINUOUS
 62
     7
 10
258.14482700000002
 20
232.652592
 30
0.0
  0
VERTEX
  5
14A0
  8
0
  6
CONTINUOUS
 62
     7
 10
258.33827000000002
 20
232.52456900000001
 30
0.0
  0
VERTEX
  5
14A1
  8
0
  6
CONTINUOUS
 62
     7
 10
258.56558999999999
 20
232.398234
 30
0.0
  0
VERTEX
  5
14A2
  8
0
  6
CONTINUOUS
 62
     7
 10
259.92472500000002
 20
231.57661200000001
 30
0.0
  0
VERTEX
  5
14A3
  8
0
  6
CONTINUOUS
 62
     7
 10
263.13349399999998
 20
229.723747
 30
0.0
  0
VERTEX
  5
14A4
  8
0
  6
CONTINUOUS
 62
     7
 10
266.38408199999998
 20
227.92893599999999
 30
0.0
  0
VERTEX
  5
14A5
  8
0
  6
CONTINUOUS
 62
     7
 10
269.66930200000002
 20
226.19296700000001
 30
0.0
  0
VERTEX
  5
14A6
  8
0
  6
CONTINUOUS
 62
     7
 10
270.35879
 20
225.84405899999999
 30
0.0
  0
VERTEX
  5
14A7
  8
0
  6
CONTINUOUS
 62
     7
 10
270.49517500000002
 20
225.76826199999999
 30
0.0
  0
VERTEX
  5
14A8
  8
0
  6
CONTINUOUS
 62
     7
 10
270.69756599999999
 20
225.67262500000001
 30
0.0
  0
VERTEX
  5
14A9
  8
0
  6
CONTINUOUS
 62
     7
 10
272.98196300000001
 20
224.51662999999999
 30
0.0
  0
VERTEX
  5
14AA
  8
0
  6
CONTINUOUS
 62
     7
 10
276.31487700000002
 20
222.900712
 30
0.0
  0
VERTEX
  5
14AB
  8
0
  6
CONTINUOUS
 62
     7
 10
279.66085299999997
 20
221.346001
 30
0.0
  0
VERTEX
  5
14AC
  8
0
  6
CONTINUOUS
 62
     7
 10
283.01270399999999
 20
219.85328699999999
 30
0.0
  0
VERTEX
  5
14AD
  8
0
  6
CONTINUOUS
 62
     7
 10
284.25133799999998
 20
219.31752399999999
 30
0.0
  0
VERTEX
  5
14AE
  8
0
  6
CONTINUOUS
 62
     7
 10
285.48969299999999
 20
218.79015899999999
 30
0.0
  0
VERTEX
  5
14AF
  8
0
  6
CONTINUOUS
 62
     7
 10
286.72766799999999
 20
218.27102099999999
 30
0.0
  0
VERTEX
  5
14B0
  8
0
  6
CONTINUOUS
 62
     7
 10
287.58676500000001
 20
217.916214
 30
0.0
  0
VERTEX
  5
14B1
  8
0
  6
CONTINUOUS
 62
     7
 10
287.65584000000001
 20
217.88696200000001
 30
0.0
  0
VERTEX
  5
14B2
  8
0
  6
CONTINUOUS
 62
     7
 10
287.71230800000001
 20
217.86436499999999
 30
0.0
  0
VERTEX
  5
14B3
  8
0
  6
CONTINUOUS
 62
     7
 10
287.96516400000002
 20
217.75993600000001
 30
0.0
  0
VERTEX
  5
14B4
  8
0
  6
CONTINUOUS
 62
     7
 10
289.20208000000002
 20
217.256731
 30
0.0
  0
VERTEX
  5
14B5
  8
0
  6
CONTINUOUS
 62
     7
 10
290.43831699999998
 20
216.761233
 30
0.0
  0
VERTEX
  5
14B6
  8
0
  6
CONTINUOUS
 62
     7
 10
291.67377399999998
 20
216.273268
 30
0.0
  0
VERTEX
  5
14B7
  8
0
  6
CONTINUOUS
 62
     7
 10
292.21176400000002
 20
216.06383600000001
 30
0.0
  0
VERTEX
  5
14B8
  8
0
  6
CONTINUOUS
 62
     7
 10
292.291179
 20
216.03205700000001
 30
0.0
  0
VERTEX
  5
14B9
  8
0
  6
CONTINUOUS
 62
     7
 10
292.37656900000002
 20
215.99968000000001
 30
0.0
  0
VERTEX
  5
14BA
  8
0
  6
CONTINUOUS
 62
     7
 10
292.90835199999998
 20
215.792664
 30
0.0
  0
VERTEX
  5
14BB
  8
0
  6
CONTINUOUS
 62
     7
 10
294.14195100000001
 20
215.31924699999999
 30
0.0
  0
VERTEX
  5
14BC
  8
0
  6
CONTINUOUS
 62
     7
 10
295.37447000000009
 20
214.852845
 30
0.0
  0
VERTEX
  5
14BD
  8
0
  6
CONTINUOUS
 62
     7
 10
296.60581100000002
 20
214.393283
 30
0.0
  0
VERTEX
  5
14BE
  8
0
  6
CONTINUOUS
 62
     7
 10
296.86128400000001
 20
214.29922099999999
 30
0.0
  0
VERTEX
  5
14BF
  8
0
  6
CONTINUOUS
 62
     7
 10
296.91345000000001
 20
214.27944199999999
 30
0.0
  0
VERTEX
  5
14C0
  8
0
  6
CONTINUOUS
 62
     7
 10
296.98740699999991
 20
214.25278399999999
 30
0.0
  0
VERTEX
  5
14C1
  8
0
  6
CONTINUOUS
 62
     7
 10
297.83587199999999
 20
213.94039000000001
 30
0.0
  0
VERTEX
  5
14C2
  8
0
  6
CONTINUOUS
 62
     7
 10
299.06455299999999
 20
213.49399099999999
 30
0.0
  0
VERTEX
  5
14C3
  8
0
  6
CONTINUOUS
 62
     7
 10
300.29175600000002
 20
213.05391399999999
 30
0.0
  0
VERTEX
  5
14C4
  8
0
  6
CONTINUOUS
 62
     7
 10
301.51738
 20
212.61998600000001
 30
0.0
  0
VERTEX
  5
14C5
  8
0
  6
CONTINUOUS
 62
     7
 10
302.74132400000002
 20
212.19203300000001
 30
0.0
  0
VERTEX
  5
14C6
  8
0
  6
CONTINUOUS
 62
     7
 10
303.96348999999998
 20
211.769882
 30
0.0
  0
VERTEX
  5
14C7
  8
0
  6
CONTINUOUS
 62
     7
 10
305.18377600000002
 20
211.35336100000001
 30
0.0
  0
VERTEX
  5
14C8
  8
0
  6
CONTINUOUS
 62
     7
 10
306.03087599999998
 20
211.067543
 30
0.0
  0
VERTEX
  5
14C9
  8
0
  6
CONTINUOUS
 62
     7
 10
306.09769799999998
 20
211.04455999999999
 30
0.0
  0
VERTEX
  5
14CA
  8
0
  6
CONTINUOUS
 62
     7
 10
306.15434499999998
 20
211.02588399999999
 30
0.0
  0
VERTEX
  5
14CB
  8
0
  6
CONTINUOUS
 62
     7
 10
306.402083
 20
210.942295
 30
0.0
  0
VERTEX
  5
14CC
  8
0
  6
CONTINUOUS
 62
     7
 10
307.618312
 20
210.53651300000001
 30
0.0
  0
VERTEX
  5
14CD
  8
0
  6
CONTINUOUS
 62
     7
 10
308.83236099999999
 20
210.13584
 30
0.0
  0
VERTEX
  5
14CE
  8
0
  6
CONTINUOUS
 62
     7
 10
310.04413199999999
 20
209.740104
 30
0.0
  0
VERTEX
  5
14CF
  8
0
  6
CONTINUOUS
 62
     7
 10
310.57314200000002
 20
209.569085
 30
0.0
  0
VERTEX
  5
14D0
  8
0
  6
CONTINUOUS
 62
     7
 10
310.64913100000001
 20
209.54403300000001
 30
0.0
  0
VERTEX
  5
14D1
  8
0
  6
CONTINUOUS
 62
     7
 10
310.735005
 20
209.51675800000001
 30
0.0
  0
VERTEX
  5
14D2
  8
0
  6
CONTINUOUS
 62
     7
 10
311.25352400000003
 20
209.349131
 30
0.0
  0
VERTEX
  5
14D3
  8
0
  6
CONTINUOUS
 62
     7
 10
312.46043700000001
 20
208.962749
 30
0.0
  0
VERTEX
  5
14D4
  8
0
  6
CONTINUOUS
 62
     7
 10
313.66477099999997
 20
208.580783
 30
0.0
  0
VERTEX
  5
14D5
  8
0
  6
CONTINUOUS
 62
     7
 10
314.86642599999999
 20
208.20306199999999
 30
0.0
  0
VERTEX
  5
14D6
  8
0
  6
CONTINUOUS
 62
     7
 10
315.11724199999998
 20
208.12489099999999
 30
0.0
  0
VERTEX
  5
14D7
  8
0
  6
CONTINUOUS
 62
     7
 10
315.16640999999998
 20
208.109275
 30
0.0
  0
VERTEX
  5
14D8
  8
0
  6
CONTINUOUS
 62
     7
 10
315.24133899999998
 20
208.08621400000001
 30
0.0
  0
VERTEX
  5
14D9
  8
0
  6
CONTINUOUS
 62
     7
 10
316.06530299999997
 20
207.82941199999999
 30
0.0
  0
VERTEX
  5
14DA
  8
0
  6
CONTINUOUS
 62
     7
 10
317.261301
 20
207.45966000000001
 30
0.0
  0
VERTEX
  5
14DB
  8
0
  6
CONTINUOUS
 62
     7
 10
318.45432
 20
207.09363200000001
 30
0.0
  0
VERTEX
  5
14DC
  8
0
  6
CONTINUOUS
 62
     7
 10
319.64426099999997
 20
206.731156
 30
0.0
  0
VERTEX
  5
14DD
  8
0
  6
CONTINUOUS
 62
     7
 10
326.86807900000002
 20
204.58302
 30
0.0
  0
VERTEX
  5
14DE
  8
0
  6
CONTINUOUS
 62
     7
 10
333.97663499999999
 20
202.55757700000001
 30
0.0
  0
VERTEX
  5
14DF
  8
0
  6
CONTINUOUS
 62
     7
 10
340.97404799999998
 20
200.650633
 30
0.0
  0
VERTEX
  5
14E0
  8
0
  6
CONTINUOUS
 62
     7
 10
345.76154300000002
 20
199.40509499999999
 30
0.0
  0
VERTEX
  5
14E1
  8
0
  6
CONTINUOUS
 62
     7
 10
346.15164600000003
 20
199.295669
 30
0.0
  0
VERTEX
  5
14E2
  8
0
  6
CONTINUOUS
 62
     7
 10
346.46036299999997
 20
199.223287
 30
0.0
  0
VERTEX
  5
14E3
  8
0
  6
CONTINUOUS
 62
     7
 10
347.86443400000002
 20
198.85799700000001
 30
0.0
  0
VERTEX
  5
14E4
  8
0
  6
CONTINUOUS
 62
     7
 10
354.6519120000001
 20
197.17547500000001
 30
0.0
  0
VERTEX
  5
14E5
  8
0
  6
CONTINUOUS
 62
     7
 10
361.34060099999999
 20
195.59887699999999
 30
0.0
  0
VERTEX
  5
14E6
  8
0
  6
CONTINUOUS
 62
     7
 10
367.934619
 20
194.124009
 30
0.0
  0
VERTEX
  5
14E7
  8
0
  6
CONTINUOUS
 62
     7
 10
370.77462400000002
 20
193.52254099999999
 30
0.0
  0
VERTEX
  5
14E8
  8
0
  6
CONTINUOUS
 62
     7
 10
371.19741199999999
 20
193.42341400000001
 30
0.0
  0
VERTEX
  5
14E9
  8
0
  6
CONTINUOUS
 62
     7
 10
371.64429699999999
 20
193.338358
 30
0.0
  0
VERTEX
  5
14EA
  8
0
  6
CONTINUOUS
 62
     7
 10
374.43808300000001
 20
192.746679
 30
0.0
  0
VERTEX
  5
14EB
  8
0
  6
CONTINUOUS
 62
     7
 10
380.85511200000002
 20
191.462695
 30
0.0
  0
VERTEX
  5
14EC
  8
0
  6
CONTINUOUS
 62
     7
 10
387.18982499999998
 20
190.267865
 30
0.0
  0
VERTEX
  5
14ED
  8
0
  6
CONTINUOUS
 62
     7
 10
393.44634000000002
 20
189.157996
 30
0.0
  0
VERTEX
  5
14EE
  8
0
  6
CONTINUOUS
 62
     7
 10
394.735727
 20
188.94337100000001
 30
0.0
  0
VERTEX
  5
14EF
  8
0
  6
CONTINUOUS
 62
     7
 10
394.9987319999999
 20
188.89331300000001
 30
0.0
  0
VERTEX
  5
14F0
  8
0
  6
CONTINUOUS
 62
     7
 10
395.37323600000002
 20
188.837254
 30
0.0
  0
VERTEX
  5
14F1
  8
0
  6
CONTINUOUS
 62
     7
 10
399.62877400000002
 20
188.12889699999999
 30
0.0
  0
VERTEX
  5
14F2
  8
0
  6
CONTINUOUS
 62
     7
 10
405.74124599999999
 20
187.17637400000001
 30
0.0
  0
VERTEX
  5
14F3
  8
0
  6
CONTINUOUS
 62
     7
 10
411.78787399999999
 20
186.296235
 30
0.0
  0
VERTEX
  5
14F4
  8
0
  6
CONTINUOUS
 62
     7
 10
417.77277599999991
 20
185.48428899999999
 30
0.0
  0
VERTEX
  5
14F5
  8
0
  6
CONTINUOUS
 62
     7
 10
423.70007099999998
 20
184.73634199999989
 30
0.0
  0
VERTEX
  5
14F6
  8
0
  6
CONTINUOUS
 62
     7
 10
429.57387699999992
 20
184.048204
 30
0.0
  0
VERTEX
  5
14F7
  8
0
  6
CONTINUOUS
 62
     7
 10
435.39831099999998
 20
183.41568000000001
 30
0.0
  0
VERTEX
  5
14F8
  8
0
  6
CONTINUOUS
 62
     7
 10
439.43066799999991
 20
183.01022399999999
 30
0.0
  0
VERTEX
  5
14F9
  8
0
  6
CONTINUOUS
 62
     7
 10
439.736715
 20
182.9752629999999
 30
0.0
  0
VERTEX
  5
14FA
  8
0
  6
CONTINUOUS
 62
     7
 10
440.017473
 20
182.95122000000001
 30
0.0
  0
VERTEX
  5
14FB
  8
0
  6
CONTINUOUS
 62
     7
 10
441.17749299999991
 20
182.83457999999999
 30
0.0
  0
VERTEX
  5
14FC
  8
0
  6
CONTINUOUS
 62
     7
 10
446.91554000000002
 20
182.30071000000001
 30
0.0
  0
VERTEX
  5
14FD
  8
0
  6
CONTINUOUS
 62
     7
 10
452.61656999999991
 20
181.809879
 30
0.0
  0
VERTEX
  5
14FE
  8
0
  6
CONTINUOUS
 62
     7
 10
458.28470299999998
 20
181.35789399999999
 30
0.0
  0
VERTEX
  5
14FF
  8
0
  6
CONTINUOUS
 62
     7
 10
460.7790839999999
 20
181.17330100000001
 30
0.0
  0
VERTEX
  5
1500
  8
0
  6
CONTINUOUS
 62
     7
 10
461.10771899999997
 20
181.14515800000001
 30
0.0
  0
VERTEX
  5
1501
  8
0
  6
CONTINUOUS
 62
     7
 10
461.5499999999999
 20
181.11625000000001
 30
0.0
  0
VERTEX
  5
1502
  8
0
  6
CONTINUOUS
 62
     7
 10
463.9240549999999
 20
180.940562
 30
0.0
  0
VERTEX
  5
1503
  8
0
  6
CONTINUOUS
 62
     7
 10
469.53874500000001
 20
180.55369300000001
 30
0.0
  0
VERTEX
  5
1504
  8
0
  6
CONTINUOUS
 62
     7
 10
475.13289199999991
 20
180.19309200000001
 30
0.0
  0
VERTEX
  5
1505
  8
0
  6
CONTINUOUS
 62
     7
 10
480.71061400000002
 20
179.854569
 30
0.0
  0
VERTEX
  5
1506
  8
0
  6
CONTINUOUS
 62
     7
 10
481.915074
 20
179.785177
 30
0.0
  0
VERTEX
  5
1507
  8
0
  6
CONTINUOUS
 62
     7
 10
482.10295999999988
 20
179.772896
 30
0.0
  0
VERTEX
  5
1508
  8
0
  6
CONTINUOUS
 62
     7
 10
482.56990499999989
 20
179.74744999999999
 30
0.0
  0
VERTEX
  5
1509
  8
0
  6
CONTINUOUS
 62
     7
 10
486.276028
 20
179.53393
 30
0.0
  0
VERTEX
  5
150A
  8
0
  6
CONTINUOUS
 62
     7
 10
491.8332529999999
 20
179.22698399999999
 30
0.0
  0
VERTEX
  5
150B
  8
0
  6
CONTINUOUS
 62
     7
 10
497.38640700000002
 20
178.92953799999989
 30
0.0
  0
VERTEX
  5
150C
  8
0
  6
CONTINUOUS
 62
     7
 10
502.9396089999999
 20
178.63740000000001
 30
0.0
  0
VERTEX
  5
150D
  8
0
  6
CONTINUOUS
 62
     7
 10
503.19159999999988
 20
178.617806
 30
0.0
  0
VERTEX
  5
150E
  8
0
  6
CONTINUOUS
 62
     7
 10
503.44227899999993
 20
178.58550399999999
 30
0.0
  0
VERTEX
  5
150F
  8
0
  6
CONTINUOUS
 62
     7
 10
503.6910059999999
 20
178.54057499999999
 30
0.0
  0
VERTEX
  5
1510
  8
0
  6
CONTINUOUS
 62
     7
 10
503.93714399999999
 20
178.48313400000001
 30
0.0
  0
VERTEX
  5
1511
  8
0
  6
CONTINUOUS
 62
     7
 10
504.1800649999999
 20
178.41332800000001
 30
0.0
  0
VERTEX
  5
1512
  8
0
  6
CONTINUOUS
 62
     7
 10
504.41914800000012
 20
178.33133599999999
 30
0.0
  0
VERTEX
  5
1513
  8
0
  6
CONTINUOUS
 62
     7
 10
504.65378199999998
 20
178.23736600000001
 30
0.0
  0
VERTEX
  5
1514
  8
0
  6
CONTINUOUS
 62
     7
 10
504.8833679999999
 20
178.13165900000001
 30
0.0
  0
VERTEX
  5
1515
  8
0
  6
CONTINUOUS
 62
     7
 10
505.10731799999991
 20
178.01448600000001
 30
0.0
  0
VERTEX
  5
1516
  8
0
  6
CONTINUOUS
 62
     7
 10
505.325062
 20
177.886145
 30
0.0
  0
VERTEX
  5
1517
  8
0
  6
CONTINUOUS
 62
     7
 10
505.53604100000001
 20
177.74696499999999
 30
0.0
  0
VERTEX
  5
1518
  8
0
  6
CONTINUOUS
 62
     7
 10
505.73971699999993
 20
177.59729999999999
 30
0.0
  0
VERTEX
  5
1519
  8
0
  6
CONTINUOUS
 62
     7
 10
505.93556999999998
 20
177.437535
 30
0.0
  0
VERTEX
  5
151A
  8
0
  6
CONTINUOUS
 62
     7
 10
506.12309900000002
 20
177.26807600000001
 30
0.0
  0
VERTEX
  5
151B
  8
0
  6
CONTINUOUS
 62
     7
 10
506.30182499999989
 20
177.08935700000001
 30
0.0
  0
VERTEX
  5
151C
  8
0
  6
CONTINUOUS
 62
     7
 10
506.47129199999989
 20
176.90183500000001
 30
0.0
  0
VERTEX
  5
151D
  8
0
  6
CONTINUOUS
 62
     7
 10
506.63106499999998
 20
176.70598799999999
 30
0.0
  0
VERTEX
  5
151E
  8
0
  6
CONTINUOUS
 62
     7
 10
506.78073799999987
 20
176.502318
 30
0.0
  0
VERTEX
  5
151F
  8
0
  6
CONTINUOUS
 62
     7
 10
506.91992599999992
 20
176.29134400000001
 30
0.0
  0
VERTEX
  5
1520
  8
0
  6
CONTINUOUS
 62
     7
 10
507.04827599999987
 20
176.07360600000001
 30
0.0
  0
VERTEX
  5
1521
  8
0
  6
CONTINUOUS
 62
     7
 10
507.16545799999989
 20
175.84966
 30
0.0
  0
VERTEX
  5
1522
  8
0
  6
CONTINUOUS
 62
     7
 10
507.27117399999997
 20
175.62007800000001
 30
0.0
  0
VERTEX
  5
1523
  8
0
  6
CONTINUOUS
 62
     7
 10
507.36515300000002
 20
175.385448
 30
0.0
  0
VERTEX
  5
1524
  8
0
  6
CONTINUOUS
 62
     7
 10
507.44715500000001
 20
175.146368
 30
0.0
  0
VERTEX
  5
1525
  8
0
  6
CONTINUOUS
 62
     7
 10
507.5169709999999
 20
174.90344999999999
 30
0.0
  0
VERTEX
  5
1526
  8
0
  6
CONTINUOUS
 62
     7
 10
507.57442099999992
 20
174.65731400000001
 30
0.0
  0
VERTEX
  5
1527
  8
0
  6
CONTINUOUS
 62
     7
 10
507.61935999999992
 20
174.40859
 30
0.0
  0
VERTEX
  5
1528
  8
0
  6
CONTINUOUS
 62
     7
 10
507.65167300000002
 20
174.15791200000001
 30
0.0
  0
VERTEX
  5
1529
  8
0
  6
CONTINUOUS
 62
     7
 10
507.67127599999992
 20
173.90592100000001
 30
0.0
  0
VERTEX
  5
152A
  8
0
  6
CONTINUOUS
 62
     7
 10
508.13065999999992
 20
165.14035799999999
 30
0.0
  0
VERTEX
  5
152B
  8
0
  6
CONTINUOUS
 62
     7
 10
508.14999999999998
 20
164.89091999999999
 30
0.0
  0
VERTEX
  5
152C
  8
0
  6
CONTINUOUS
 62
     7
 10
508.17805599999991
 20
164.66750200000001
 30
0.0
  0
VERTEX
  5
152D
  8
0
  6
CONTINUOUS
 62
     7
 10
508.18179400000002
 20
164.64276100000001
 30
0.0
  0
VERTEX
  5
152E
  8
0
  6
CONTINUOUS
 62
     7
 10
508.22596099999998
 20
164.39650399999999
 30
0.0
  0
VERTEX
  5
152F
  8
0
  6
CONTINUOUS
 62
     7
 10
508.27012999999999
 20
164.20128099999999
 30
0.0
  0
VERTEX
  5
1530
  8
0
  6
CONTINUOUS
 62
     7
 10
508.28239100000002
 20
164.15276399999999
 30
0.0
  0
VERTEX
  5
1531
  8
0
  6
CONTINUOUS
 62
     7
 10
508.35094299999992
 20
163.91215199999999
 30
0.0
  0
VERTEX
  5
1532
  8
0
  6
CONTINUOUS
 62
     7
 10
508.40605099999988
 20
163.74590699999999
 30
0.0
  0
VERTEX
  5
1533
  8
0
  6
CONTINUOUS
 62
     7
 10
508.431444
 20
163.67527000000001
 30
0.0
  0
VERTEX
  5
1534
  8
0
  6
CONTINUOUS
 62
     7
 10
508.52369499999998
 20
163.442711
 30
0.0
  0
VERTEX
  5
1535
  8
0
  6
CONTINUOUS
 62
     7
 10
508.58458899999988
 20
163.30549400000001
 30
0.0
  0
VERTEX
  5
1536
  8
0
  6
CONTINUOUS
 62
     7
 10
508.62746199999998
 20
163.215059
 30
0.0
  0
VERTEX
  5
1537
  8
0
  6
CONTINUOUS
 62
     7
 10
508.74248799999992
 20
162.99288200000001
 30
0.0
  0
VERTEX
  5
1538
  8
0
  6
CONTINUOUS
 62
     7
 10
508.80413299999998
 20
162.88402099999999
 30
0.0
  0
VERTEX
  5
1539
  8
0
  6
CONTINUOUS
 62
     7
 10
508.86848300000003
 20
162.776736
 30
0.0
  0
VERTEX
  5
153A
  8
0
  6
CONTINUOUS
 62
     7
 10
509.00513199999989
 20
162.56716399999999
 30
0.0
  0
VERTEX
  5
153B
  8
0
  6
CONTINUOUS
 62
     7
 10
509.06269900000001
 20
162.48529400000001
 30
0.0
  0
VERTEX
  5
153C
  8
0
  6
CONTINUOUS
 62
     7
 10
509.15209299999992
 20
162.36469
 30
0.0
  0
VERTEX
  5
153D
  8
0
  6
CONTINUOUS
 62
     7
 10
509.30899899999997
 20
162.16981999999999
 30
0.0
  0
VERTEX
  5
153E
  8
0
  6
CONTINUOUS
 62
     7
 10
509.3579509999999
 20
162.11291600000001
 30
0.0
  0
VERTEX
  5
153F
  8
0
  6
CONTINUOUS
 62
     7
 10
509.4754549999999
 20
161.98304300000001
 30
0.0
  0
VERTEX
  5
1540
  8
0
  6
CONTINUOUS
 62
     7
 10
509.65104699999989
 20
161.80482599999999
 30
0.0
  0
VERTEX
  5
1541
  8
0
  6
CONTINUOUS
 62
     7
 10
509.68722300000002
 20
161.77025
 30
0.0
  0
VERTEX
  5
1542
  8
0
  6
CONTINUOUS
 62
     7
 10
509.83533299999999
 20
161.635616
 30
0.0
  0
VERTEX
  5
1543
  8
0
  6
CONTINUOUS
 62
     7
 10
510.02785199999988
 20
161.47583599999999
 30
0.0
  0
VERTEX
  5
1544
  8
0
  6
CONTINUOUS
 62
     7
 10
510.04753899999992
 20
161.46039200000001
 30
0.0
  0
VERTEX
  5
1545
  8
0
  6
CONTINUOUS
 62
     7
 10
510.22812399999998
 20
161.325886
 30
0.0
  0
VERTEX
  5
1546
  8
0
  6
CONTINUOUS
 62
     7
 10
510.43564500000002
 20
161.18614199999999
 30
0.0
  0
VERTEX
  5
1547
  8
0
  6
CONTINUOUS
 62
     7
 10
510.43564500000002
 20
158.402038
 30
0.0
  0
VERTEX
  5
1548
  8
0
  6
CONTINUOUS
 62
     7
 10
512.93564500000002
 20
158.402038
 30
0.0
  0
VERTEX
  5
1549
  8
0
  6
CONTINUOUS
 62
     7
 10
513.30249900000001
 20
151.402038
 30
0.0
  0
VERTEX
  5
154A
  8
0
  6
CONTINUOUS
 62
     7
 10
513.30249900000001
 20
138.27400600000001
 30
0.0
  0
VERTEX
  5
154B
  8
0
  6
CONTINUOUS
 62
     7
 10
494.93564500000002
 20
138.27400600000001
 30
0.0
  0
VERTEX
  5
154C
  8
0
  6
CONTINUOUS
 62
     7
 10
494.93564500000002
 20
118.274006
 30
0.0
  0
VERTEX
  5
154D
  8
0
  6
CONTINUOUS
 62
     7
 10
485.72344699999991
 20
118.274006
 30
0.0
  0
VERTEX
  5
154E
  8
0
  6
CONTINUOUS
 62
     7
 10
485.62167999999991
 20
118.276597
 30
0.0
  0
VERTEX
  5
154F
  8
0
  6
CONTINUOUS
 62
     7
 10
485.52017699999988
 20
118.284363
 30
0.0
  0
VERTEX
  5
1550
  8
0
  6
CONTINUOUS
 62
     7
 10
485.41919999999999
 20
118.29728299999999
 30
0.0
  0
VERTEX
  5
1551
  8
0
  6
CONTINUOUS
 62
     7
 10
485.31901199999987
 20
118.315325
 30
0.0
  0
VERTEX
  5
1552
  8
0
  6
CONTINUOUS
 62
     7
 10
485.21987100000001
 20
118.338442
 30
0.0
  0
VERTEX
  5
1553
  8
0
  6
CONTINUOUS
 62
     7
 10
485.12203499999998
 20
118.366573
 30
0.0
  0
VERTEX
  5
1554
  8
0
  6
CONTINUOUS
 62
     7
 10
485.025758
 20
118.39964500000001
 30
0.0
  0
VERTEX
  5
1555
  8
0
  6
CONTINUOUS
 62
     7
 10
484.931288
 20
118.437574
 30
0.0
  0
VERTEX
  5
1556
  8
0
  6
CONTINUOUS
 62
     7
 10
484.83886999999999
 20
118.480261
 30
0.0
  0
VERTEX
  5
1557
  8
0
  6
CONTINUOUS
 62
     7
 10
484.74874399999999
 20
118.52759500000001
 30
0.0
  0
VERTEX
  5
1558
  8
0
  6
CONTINUOUS
 62
     7
 10
484.66114299999998
 20
118.579453
 30
0.0
  0
VERTEX
  5
1559
  8
0
  6
CONTINUOUS
 62
     7
 10
484.57629400000002
 20
118.63570199999999
 30
0.0
  0
VERTEX
  5
155A
  8
0
  6
CONTINUOUS
 62
     7
 10
484.49441799999988
 20
118.696196
 30
0.0
  0
VERTEX
  5
155B
  8
0
  6
CONTINUOUS
 62
     7
 10
484.41572500000001
 20
118.760777
 30
0.0
  0
VERTEX
  5
155C
  8
0
  6
CONTINUOUS
 62
     7
 10
484.34042099999999
 20
118.829278
 30
0.0
  0
VERTEX
  5
155D
  8
0
  6
CONTINUOUS
 62
     7
 10
484.26870000000002
 20
118.901523
 30
0.0
  0
VERTEX
  5
155E
  8
0
  6
CONTINUOUS
 62
     7
 10
484.20074799999998
 20
118.977324
 30
0.0
  0
VERTEX
  5
155F
  8
0
  6
CONTINUOUS
 62
     7
 10
484.13673999999997
 20
119.056484
 30
0.0
  0
VERTEX
  5
1560
  8
0
  6
CONTINUOUS
 62
     7
 10
484.07684399999999
 20
119.13879799999999
 30
0.0
  0
VERTEX
  5
1561
  8
0
  6
CONTINUOUS
 62
     7
 10
484.02121399999999
 20
119.224053
 30
0.0
  0
VERTEX
  5
1562
  8
0
  6
CONTINUOUS
 62
     7
 10
483.96999399999999
 20
119.312029
 30
0.0
  0
VERTEX
  5
1563
  8
0
  6
CONTINUOUS
 62
     7
 10
483.923316
 20
119.402497
 30
0.0
  0
VERTEX
  5
1564
  8
0
  6
CONTINUOUS
 62
     7
 10
483.88130299999989
 20
119.495223
 30
0.0
  0
VERTEX
  5
1565
  8
0
  6
CONTINUOUS
 62
     7
 10
483.84406200000001
 20
119.589966
 30
0.0
  0
VERTEX
  5
1566
  8
0
  6
CONTINUOUS
 62
     7
 10
483.81169000000011
 20
119.686482
 30
0.0
  0
VERTEX
  5
1567
  8
0
  6
CONTINUOUS
 62
     7
 10
483.78427099999999
 20
119.78452
 30
0.0
  0
VERTEX
  5
1568
  8
0
  6
CONTINUOUS
 62
     7
 10
483.76187699999991
 20
119.883826
 30
0.0
  0
VERTEX
  5
1569
  8
0
  6
CONTINUOUS
 62
     7
 10
483.74456399999991
 20
119.984143
 30
0.0
  0
VERTEX
  5
156A
  8
0
  6
CONTINUOUS
 62
     7
 10
483.73237799999998
 20
120.085211
 30
0.0
  0
VERTEX
  5
156B
  8
0
  6
CONTINUOUS
 62
     7
 10
483.72535099999999
 20
120.186768
 30
0.0
  0
VERTEX
  5
156C
  8
0
  6
CONTINUOUS
 62
     7
 10
482.04033499999991
 20
158.77997500000001
 30
0.0
  0
VERTEX
  5
156D
  8
0
  6
CONTINUOUS
 62
     7
 10
482.00389899999999
 20
159.301365
 30
0.0
  0
VERTEX
  5
156E
  8
0
  6
CONTINUOUS
 62
     7
 10
481.98170199999993
 20
159.50926799999999
 30
0.0
  0
VERTEX
  5
156F
  8
0
  6
CONTINUOUS
 62
     7
 10
481.940271
 20
159.82013900000001
 30
0.0
  0
VERTEX
  5
1570
  8
0
  6
CONTINUOUS
 62
     7
 10
481.86990400000002
 20
160.23232200000001
 30
0.0
  0
VERTEX
  5
1571
  8
0
  6
CONTINUOUS
 62
     7
 10
481.84962399999989
 20
160.33488
 30
0.0
  0
VERTEX
  5
1572
  8
0
  6
CONTINUOUS
 62
     7
 10
481.73220700000002
 20
160.84418199999999
 30
0.0
  0
VERTEX
  5
1573
  8
0
  6
CONTINUOUS
 62
     7
 10
481.70553899999999
 20
160.945267
 30
0.0
  0
VERTEX
  5
1574
  8
0
  6
CONTINUOUS
 62
     7
 10
481.58834100000001
 20
161.346653
 30
0.0
  0
VERTEX
  5
1575
  8
0
  6
CONTINUOUS
 62
     7
 10
481.489486
 20
161.644285
 30
0.0
  0
VERTEX
  5
1576
  8
0
  6
CONTINUOUS
 62
     7
 10
481.41841699999992
 20
161.84092100000001
 30
0.0
  0
VERTEX
  5
1577
  8
0
  6
CONTINUOUS
 62
     7
 10
481.22290199999998
 20
162.325636
 30
0.0
  0
VERTEX
  5
1578
  8
0
  6
CONTINUOUS
 62
     7
 10
481.00232699999998
 20
162.799474
 30
0.0
  0
VERTEX
  5
1579
  8
0
  6
CONTINUOUS
 62
     7
 10
480.9072139999999
 20
162.98567199999999
 30
0.0
  0
VERTEX
  5
157A
  8
0
  6
CONTINUOUS
 62
     7
 10
480.75729699999988
 20
163.26114000000001
 30
0.0
  0
VERTEX
  5
157B
  8
0
  6
CONTINUOUS
 62
     7
 10
480.54411199999998
 20
163.62085999999999
 30
0.0
  0
VERTEX
  5
157C
  8
0
  6
CONTINUOUS
 62
     7
 10
480.48847999999992
 20
163.709372
 30
0.0
  0
VERTEX
  5
157D
  8
0
  6
CONTINUOUS
 62
     7
 10
480.19661100000002
 20
164.14294699999999
 30
0.0
  0
VERTEX
  5
157E
  8
0
  6
CONTINUOUS
 62
     7
 10
480.13553999999999
 20
164.227799
 30
0.0
  0
VERTEX
  5
157F
  8
0
  6
CONTINUOUS
 62
     7
 10
479.88248599999997
 20
164.56068099999999
 30
0.0
  0
VERTEX
  5
1580
  8
0
  6
CONTINUOUS
 62
     7
 10
479.68368400000003
 20
164.80323999999999
 30
0.0
  0
VERTEX
  5
1581
  8
0
  6
CONTINUOUS
 62
     7
 10
479.546966
 20
164.961431
 30
0.0
  0
VERTEX
  5
1582
  8
0
  6
CONTINUOUS
 62
     7
 10
479.19096399999989
 20
165.34410399999999
 30
0.0
  0
VERTEX
  5
1583
  8
0
  6
CONTINUOUS
 62
     7
 10
478.81545599999993
 20
165.70765299999999
 30
0.0
  0
VERTEX
  5
1584
  8
0
  6
CONTINUOUS
 62
     7
 10
478.66001799999992
 20
165.84749400000001
 30
0.0
  0
VERTEX
  5
1585
  8
0
  6
CONTINUOUS
 62
     7
 10
478.42146500000001
 20
166.051086
 30
0.0
  0
VERTEX
  5
1586
  8
0
  6
CONTINUOUS
 62
     7
 10
478.09368699999987
 20
166.31071700000001
 30
0.0
  0
VERTEX
  5
1587
  8
0
  6
CONTINUOUS
 62
     7
 10
478.01006799999999
 20
166.37346500000001
 30
0.0
  0
VERTEX
  5
1588
  8
0
  6
CONTINUOUS
 62
     7
 10
477.58238999999998
 20
166.67390900000001
 30
0.0
  0
VERTEX
  5
1589
  8
0
  6
CONTINUOUS
 62
     7
 10
477.495003
 20
166.731292
 30
0.0
  0
VERTEX
  5
158A
  8
0
  6
CONTINUOUS
 62
     7
 10
477.13959799999998
 20
166.951596
 30
0.0
  0
VERTEX
  5
158B
  8
0
  6
CONTINUOUS
 62
     7
 10
476.86716999999999
 20
167.10696799999999
 30
0.0
  0
VERTEX
  5
158C
  8
0
  6
CONTINUOUS
 62
     7
 10
476.6829019999999
 20
167.20577
 30
0.0
  0
VERTEX
  5
158D
  8
0
  6
CONTINUOUS
 62
     7
 10
476.21355
 20
167.435734
 30
0.0
  0
VERTEX
  5
158E
  8
0
  6
CONTINUOUS
 62
     7
 10
475.73282399999999
 20
167.640862
 30
0.0
  0
VERTEX
  5
158F
  8
0
  6
CONTINUOUS
 62
     7
 10
475.53764200000001
 20
167.71583100000001
 30
0.0
  0
VERTEX
  5
1590
  8
0
  6
CONTINUOUS
 62
     7
 10
475.24203699999998
 20
167.820592
 30
0.0
  0
VERTEX
  5
1591
  8
0
  6
CONTINUOUS
 62
     7
 10
474.84306299999992
 20
167.94575800000001
 30
0.0
  0
VERTEX
  5
1592
  8
0
  6
CONTINUOUS
 62
     7
 10
474.74252899999988
 20
167.974435
 30
0.0
  0
VERTEX
  5
1593
  8
0
  6
CONTINUOUS
 62
     7
 10
474.23566599999998
 20
168.101968
 30
0.0
  0
VERTEX
  5
1594
  8
0
  6
CONTINUOUS
 62
     7
 10
474.133532
 20
168.12428600000001
 30
0.0
  0
VERTEX
  5
1595
  8
0
  6
CONTINUOUS
 62
     7
 10
473.72283199999998
 20
168.202845
 30
0.0
  0
VERTEX
  5
1596
  8
0
  6
CONTINUOUS
 62
     7
 10
473.41284699999989
 20
168.25045800000001
 30
0.0
  0
VERTEX
  5
1597
  8
0
  6
CONTINUOUS
 62
     7
 10
473.20542699999987
 20
168.27678900000001
 30
0.0
  0
VERTEX
  5
1598
  8
0
  6
CONTINUOUS
 62
     7
 10
472.68486599999989
 20
168.323598
 30
0.0
  0
VERTEX
  5
1599
  8
0
  6
CONTINUOUS
 62
     7
 10
469.55777699999982
 20
168.526928
 30
0.0
  0
VERTEX
  5
159A
  8
0
  6
CONTINUOUS
 62
     7
 10
466.430655
 20
168.73917499999999
 30
0.0
  0
VERTEX
  5
159B
  8
0
  6
CONTINUOUS
 62
     7
 10
463.30362300000002
 20
168.96064100000001
 30
0.0
  0
VERTEX
  5
159C
  8
0
  6
CONTINUOUS
 62
     7
 10
460.1768019999999
 20
169.19162900000001
 30
0.0
  0
VERTEX
  5
159D
  8
0
  6
CONTINUOUS
 62
     7
 10
457.05031500000001
 20
169.43244100000001
 30
0.0
  0
VERTEX
  5
159E
  8
0
  6
CONTINUOUS
 62
     7
 10
453.924284
 20
169.683379
 30
0.0
  0
VERTEX
  5
159F
  8
0
  6
CONTINUOUS
 62
     7
 10
450.79883299999989
 20
169.94474700000001
 30
0.0
  0
VERTEX
  5
15A0
  8
0
  6
CONTINUOUS
 62
     7
 10
447.67408299999988
 20
170.216847
 30
0.0
  0
VERTEX
  5
15A1
  8
0
  6
CONTINUOUS
 62
     7
 10
444.5501559999999
 20
170.49998099999999
 30
0.0
  0
VERTEX
  5
15A2
  8
0
  6
CONTINUOUS
 62
     7
 10
441.42717499999998
 20
170.79445100000001
 30
0.0
  0
VERTEX
  5
15A3
  8
0
  6
CONTINUOUS
 62
     7
 10
438.30526199999991
 20
171.10056
 30
0.0
  0
VERTEX
  5
15A4
  8
0
  6
CONTINUOUS
 62
     7
 10
435.18454000000003
 20
171.418612
 30
0.0
  0
VERTEX
  5
15A5
  8
0
  6
CONTINUOUS
 62
     7
 10
432.06513099999989
 20
171.748907
 30
0.0
  0
VERTEX
  5
15A6
  8
0
  6
CONTINUOUS
 62
     7
 10
428.94715699999989
 20
172.091748
 30
0.0
  0
VERTEX
  5
15A7
  8
0
  6
CONTINUOUS
 62
     7
 10
425.83074099999988
 20
172.447439
 30
0.0
  0
VERTEX
  5
15A8
  8
0
  6
CONTINUOUS
 62
     7
 10
422.716005
 20
172.816282
 30
0.0
  0
VERTEX
  5
15A9
  8
0
  6
CONTINUOUS
 62
     7
 10
419.603071
 20
173.198578
 30
0.0
  0
VERTEX
  5
15AA
  8
0
  6
CONTINUOUS
 62
     7
 10
416.49206199999998
 20
173.59463099999999
 30
0.0
  0
VERTEX
  5
15AB
  8
0
  6
CONTINUOUS
 62
     7
 10
413.3830999999999
 20
174.00474199999999
 30
0.0
  0
VERTEX
  5
15AC
  8
0
  6
CONTINUOUS
 62
     7
 10
410.27630799999997
 20
174.429215
 30
0.0
  0
VERTEX
  5
15AD
  8
0
  6
CONTINUOUS
 62
     7
 10
407.171807
 20
174.86835199999999
 30
0.0
  0
VERTEX
  5
15AE
  8
0
  6
CONTINUOUS
 62
     7
 10
404.06972100000002
 20
175.32245599999999
 30
0.0
  0
VERTEX
  5
15AF
  8
0
  6
CONTINUOUS
 62
     7
 10
400.97017099999988
 20
175.79182800000001
 30
0.0
  0
VERTEX
  5
15B0
  8
0
  6
CONTINUOUS
 62
     7
 10
397.87328100000002
 20
176.27677199999999
 30
0.0
  0
VERTEX
  5
15B1
  8
0
  6
CONTINUOUS
 62
     7
 10
394.77917100000002
 20
176.77758900000001
 30
0.0
  0
VERTEX
  5
15B2
  8
0
  6
CONTINUOUS
 62
     7
 10
391.68796500000002
 20
177.29458299999999
 30
0.0
  0
VERTEX
  5
15B3
  8
0
  6
CONTINUOUS
 62
     7
 10
388.59978599999999
 20
177.82805500000001
 30
0.0
  0
VERTEX
  5
15B4
  8
0
  6
CONTINUOUS
 62
     7
 10
385.51475399999998
 20
178.378309
 30
0.0
  0
VERTEX
  5
15B5
  8
0
  6
CONTINUOUS
 62
     7
 10
382.49195300000002
 20
178.93479199999999
 30
0.0
  0
VERTEX
  5
15B6
  8
0
  6
CONTINUOUS
 62
     7
 10
382.30180000000001
 20
178.97056599999999
 30
0.0
  0
VERTEX
  5
15B7
  8
0
  6
CONTINUOUS
 62
     7
 10
379.43980299999998
 20
179.51419100000001
 30
0.0
  0
VERTEX
  5
15B8
  8
0
  6
CONTINUOUS
 62
     7
 10
379.19370199999997
 20
179.561724
 30
0.0
  0
VERTEX
  5
15B9
  8
0
  6
CONTINUOUS
 62
     7
 10
377.279517
 20
179.934676
 30
0.0
  0
VERTEX
  5
15BA
  8
0
  6
CONTINUOUS
 62
     7
 10
376.38221199999998
 20
180.11158399999999
 30
0.0
  0
VERTEX
  5
15BB
  8
0
  6
CONTINUOUS
 62
     7
 10
375.24639500000001
 20
180.33779699999999
 30
0.0
  0
VERTEX
  5
15BC
  8
0
  6
CONTINUOUS
 62
     7
 10
374.11123300000003
 20
180.566159
 30
0.0
  0
VERTEX
  5
15BD
  8
0
  6
CONTINUOUS
 62
     7
 10
372.97677099999999
 20
180.796661
 30
0.0
  0
VERTEX
  5
15BE
  8
0
  6
CONTINUOUS
 62
     7
 10
371.84305699999999
 20
181.029292
 30
0.0
  0
VERTEX
  5
15BF
  8
0
  6
CONTINUOUS
 62
     7
 10
370.71007300000002
 20
181.26405399999999
 30
0.0
  0
VERTEX
  5
15C0
  8
0
  6
CONTINUOUS
 62
     7
 10
369.57776899999999
 20
181.50095200000001
 30
0.0
  0
VERTEX
  5
15C1
  8
0
  6
CONTINUOUS
 62
     7
 10
368.446145
 20
181.73998399999999
 30
0.0
  0
VERTEX
  5
15C2
  8
0
  6
CONTINUOUS
 62
     7
 10
367.3152
 20
181.98114699999999
 30
0.0
  0
VERTEX
  5
15C3
  8
0
  6
CONTINUOUS
 62
     7
 10
366.184932
 20
182.224436
 30
0.0
  0
VERTEX
  5
15C4
  8
0
  6
CONTINUOUS
 62
     7
 10
365.05534
 20
182.46985000000001
 30
0.0
  0
VERTEX
  5
15C5
  8
0
  6
CONTINUOUS
 62
     7
 10
363.926424
 20
182.717386
 30
0.0
  0
VERTEX
  5
15C6
  8
0
  6
CONTINUOUS
 62
     7
 10
362.798182
 20
182.967039
 30
0.0
  0
VERTEX
  5
15C7
  8
0
  6
CONTINUOUS
 62
     7
 10
358.29195299999998
 20
183.986808
 30
0.0
  0
VERTEX
  5
15C8
  8
0
  6
CONTINUOUS
 62
     7
 10
353.796425
 20
185.040178
 30
0.0
  0
VERTEX
  5
15C9
  8
0
  6
CONTINUOUS
 62
     7
 10
349.31147700000002
 20
186.1267729999999
 30
0.0
  0
VERTEX
  5
15CA
  8
0
  6
CONTINUOUS
 62
     7
 10
344.83699200000001
 20
187.24621999999999
 30
0.0
  0
VERTEX
  5
15CB
  8
0
  6
CONTINUOUS
 62
     7
 10
340.37284899999997
 20
188.398143
 30
0.0
  0
VERTEX
  5
15CC
  8
0
  6
CONTINUOUS
 62
     7
 10
335.91892899999999
 20
189.58216899999999
 30
0.0
  0
VERTEX
  5
15CD
  8
0
  6
CONTINUOUS
 62
     7
 10
331.47511300000002
 20
190.797922
 30
0.0
  0
VERTEX
  5
15CE
  8
0
  6
CONTINUOUS
 62
     7
 10
327.04128200000002
 20
192.045028
 30
0.0
  0
VERTEX
  5
15CF
  8
0
  6
CONTINUOUS
 62
     7
 10
325.934369
 20
192.36165500000001
 30
0.0
  0
VERTEX
  5
15D0
  8
0
  6
CONTINUOUS
 62
     7
 10
324.82806800000009
 20
192.680204
 30
0.0
  0
VERTEX
  5
15D1
  8
0
  6
CONTINUOUS
 62
     7
 10
323.72237699999999
 20
193.00066799999999
 30
0.0
  0
VERTEX
  5
15D2
  8
0
  6
CONTINUOUS
 62
     7
 10
322.61729300000002
 20
193.323038
 30
0.0
  0
VERTEX
  5
15D3
  8
0
  6
CONTINUOUS
 62
     7
 10
321.51281399999999
 20
193.64730800000001
 30
0.0
  0
VERTEX
  5
15D4
  8
0
  6
CONTINUOUS
 62
     7
 10
320.40893799999998
 20
193.97347099999999
 30
0.0
  0
VERTEX
  5
15D5
  8
0
  6
CONTINUOUS
 62
     7
 10
319.30566199999998
 20
194.30151900000001
 30
0.0
  0
VERTEX
  5
15D6
  8
0
  6
CONTINUOUS
 62
     7
 10
318.20298400000001
 20
194.63144399999999
 30
0.0
  0
VERTEX
  5
15D7
  8
0
  6
CONTINUOUS
 62
     7
 10
317.100886
 20
194.96319099999999
 30
0.0
  0
VERTEX
  5
15D8
  8
0
  6
CONTINUOUS
 62
     7
 10
315.99937299999999
 20
195.296775
 30
0.0
  0
VERTEX
  5
15D9
  8
0
  6
CONTINUOUS
 62
     7
 10
314.89847700000001
 20
195.63229699999999
 30
0.0
  0
VERTEX
  5
15DA
  8
0
  6
CONTINUOUS
 62
     7
 10
313.79822999999999
 20
195.96985599999999
 30
0.0
  0
VERTEX
  5
15DB
  8
0
  6
CONTINUOUS
 62
     7
 10
312.69866400000001
 20
196.30955499999999
 30
0.0
  0
VERTEX
  5
15DC
  8
0
  6
CONTINUOUS
 62
     7
 10
311.59981199999999
 20
196.65149299999999
 30
0.0
  0
VERTEX
  5
15DD
  8
0
  6
CONTINUOUS
 62
     7
 10
310.50170500000002
 20
196.99577099999999
 30
0.0
  0
VERTEX
  5
15DE
  8
0
  6
CONTINUOUS
 62
     7
 10
309.40437500000002
 20
197.34249
 30
0.0
  0
VERTEX
  5
15DF
  8
0
  6
CONTINUOUS
 62
     7
 10
307.21221400000002
 20
198.04377700000001
 30
0.0
  0
VERTEX
  5
15E0
  8
0
  6
CONTINUOUS
 62
     7
 10
305.02362099999999
 20
198.75626500000001
 30
0.0
  0
VERTEX
  5
15E1
  8
0
  6
CONTINUOUS
 62
     7
 10
302.83884399999999
 20
199.48073600000001
 30
0.0
  0
VERTEX
  5
15E2
  8
0
  6
CONTINUOUS
 62
     7
 10
300.65813200000002
 20
200.21797100000001
 30
0.0
  0
VERTEX
  5
15E3
  8
0
  6
CONTINUOUS
 62
     7
 10
298.48173300000002
 20
200.968749
 30
0.0
  0
VERTEX
  5
15E4
  8
0
  6
CONTINUOUS
 62
     7
 10
296.30989599999998
 20
201.73385200000001
 30
0.0
  0
VERTEX
  5
15E5
  8
0
  6
CONTINUOUS
 62
     7
 10
294.14286900000002
 20
202.51406
 30
0.0
  0
VERTEX
  5
15E6
  8
0
  6
CONTINUOUS
 62
     7
 10
291.98090100000002
 20
203.31015500000001
 30
0.0
  0
VERTEX
  5
15E7
  8
0
  6
CONTINUOUS
 62
     7
 10
289.82423799999998
 20
204.122907
 30
0.0
  0
VERTEX
  5
15E8
  8
0
  6
CONTINUOUS
 62
     7
 10
287.673092
 20
204.95298099999999
 30
0.0
  0
VERTEX
  5
15E9
  8
0
  6
CONTINUOUS
 62
     7
 10
285.52765799999997
 20
205.80099300000001
 30
0.0
  0
VERTEX
  5
15EA
  8
0
  6
CONTINUOUS
 62
     7
 10
283.38813299999998
 20
206.66756000000001
 30
0.0
  0
VERTEX
  5
15EB
  8
0
  6
CONTINUOUS
 62
     7
 10
281.25471399999998
 20
207.55330000000001
 30
0.0
  0
VERTEX
  5
15EC
  8
0
  6
CONTINUOUS
 62
     7
 10
279.12759699999998
 20
208.45882900000001
 30
0.0
  0
VERTEX
  5
15ED
  8
0
  6
CONTINUOUS
 62
     7
 10
277.006978
 20
209.38476499999999
 30
0.0
  0
VERTEX
  5
15EE
  8
0
  6
CONTINUOUS
 62
     7
 10
274.893055
 20
210.33172400000001
 30
0.0
  0
VERTEX
  5
15EF
  8
0
  6
CONTINUOUS
 62
     7
 10
273.83864699999998
 20
210.813221
 30
0.0
  0
VERTEX
  5
15F0
  8
0
  6
CONTINUOUS
 62
     7
 10
272.78594299999997
 20
211.30006900000001
 30
0.0
  0
VERTEX
  5
15F1
  8
0
  6
CONTINUOUS
 62
     7
 10
271.734961
 20
211.79232500000001
 30
0.0
  0
VERTEX
  5
15F2
  8
0
  6
CONTINUOUS
 62
     7
 10
270.68571800000001
 20
212.290043
 30
0.0
  0
VERTEX
  5
15F3
  8
0
  6
CONTINUOUS
 62
     7
 10
269.63823200000002
 20
212.79327799999999
 30
0.0
  0
VERTEX
  5
15F4
  8
0
  6
CONTINUOUS
 62
     7
 10
268.59252099999998
 20
213.30208400000001
 30
0.0
  0
VERTEX
  5
15F5
  8
0
  6
CONTINUOUS
 62
     7
 10
267.54860100000002
 20
213.816517
 30
0.0
  0
VERTEX
  5
15F6
  8
0
  6
CONTINUOUS
 62
     7
 10
266.50649099999998
 20
214.33663100000001
 30
0.0
  0
VERTEX
  5
15F7
  8
0
  6
CONTINUOUS
 62
     7
 10
265.98612100000003
 20
214.598838
 30
0.0
  0
VERTEX
  5
15F8
  8
0
  6
CONTINUOUS
 62
     7
 10
265.46621099999999
 20
214.862492
 30
0.0
  0
VERTEX
  5
15F9
  8
0
  6
CONTINUOUS
 62
     7
 10
264.94676500000003
 20
215.12760299999999
 30
0.0
  0
VERTEX
  5
15FA
  8
0
  6
CONTINUOUS
 62
     7
 10
264.42778700000002
 20
215.39418000000001
 30
0.0
  0
VERTEX
  5
15FB
  8
0
  6
CONTINUOUS
 62
     7
 10
264.11776600000002
 20
215.554451
 30
0.0
  0
VERTEX
  5
15FC
  8
0
  6
CONTINUOUS
 62
     7
 10
260.909651
 20
217.247612
 30
0.0
  0
VERTEX
  5
15FD
  8
0
  6
CONTINUOUS
 62
     7
 10
260.87146799999999
 20
217.268134
 30
0.0
  0
VERTEX
  5
15FE
  8
0
  6
CONTINUOUS
 62
     7
 10
259.662734
 20
217.92444900000001
 30
0.0
  0
VERTEX
  5
15FF
  8
0
  6
CONTINUOUS
 62
     7
 10
259.381643
 20
218.07851199999999
 30
0.0
  0
VERTEX
  5
1600
  8
0
  6
CONTINUOUS
 62
     7
 10
258.58601299999998
 20
218.517662
 30
0.0
  0
VERTEX
  5
1601
  8
0
  6
CONTINUOUS
 62
     7
 10
258.243697
 20
218.70776799999999
 30
0.0
  0
VERTEX
  5
1602
  8
0
  6
CONTINUOUS
 62
     7
 10
256.2093799999999
 20
219.85623899999999
 30
0.0
  0
VERTEX
  5
1603
  8
0
  6
CONTINUOUS
 62
     7
 10
254.19084799999999
 20
221.02648300000001
 30
0.0
  0
VERTEX
  5
1604
  8
0
  6
CONTINUOUS
 62
     7
 10
252.188581
 20
222.21916300000001
 30
0.0
  0
VERTEX
  5
1605
  8
0
  6
CONTINUOUS
 62
     7
 10
250.203059
 20
223.43494000000001
 30
0.0
  0
VERTEX
  5
1606
  8
0
  6
CONTINUOUS
 62
     7
 10
248.23476199999999
 20
224.674476
 30
0.0
  0
VERTEX
  5
1607
  8
0
  6
CONTINUOUS
 62
     7
 10
246.28417099999999
 20
225.938435
 30
0.0
  0
VERTEX
  5
1608
  8
0
  6
CONTINUOUS
 62
     7
 10
244.351765
 20
227.22747899999999
 30
0.0
  0
VERTEX
  5
1609
  8
0
  6
CONTINUOUS
 62
     7
 10
242.43802400000001
 20
228.542269
 30
0.0
  0
VERTEX
  5
160A
  8
0
  6
CONTINUOUS
 62
     7
 10
241.48832899999999
 20
229.20956100000001
 30
0.0
  0
VERTEX
  5
160B
  8
0
  6
CONTINUOUS
 62
     7
 10
240.54355699999999
 20
229.88364300000001
 30
0.0
  0
VERTEX
  5
160C
  8
0
  6
CONTINUOUS
 62
     7
 10
239.60380599999999
 20
230.56465299999999
 30
0.0
  0
VERTEX
  5
160D
  8
0
  6
CONTINUOUS
 62
     7
 10
238.66917599999999
 20
231.25272599999991
 30
0.0
  0
VERTEX
  5
160E
  8
0
  6
CONTINUOUS
 62
     7
 10
237.739767
 20
231.94799900000001
 30
0.0
  0
VERTEX
  5
160F
  8
0
  6
CONTINUOUS
 62
     7
 10
236.815676
 20
232.650609
 30
0.0
  0
VERTEX
  5
1610
  8
0
  6
CONTINUOUS
 62
     7
 10
235.89700400000001
 20
233.360693
 30
0.0
  0
VERTEX
  5
1611
  8
0
  6
CONTINUOUS
 62
     7
 10
234.98384799999999
 20
234.07838699999999
 30
0.0
  0
VERTEX
  5
1612
  8
0
  6
CONTINUOUS
 62
     7
 10
234.076312
 20
234.803832
 30
0.0
  0
VERTEX
  5
1613
  8
0
  6
CONTINUOUS
 62
     7
 10
233.17452299999999
 20
235.537204
 30
0.0
  0
VERTEX
  5
1614
  8
0
  6
CONTINUOUS
 62
     7
 10
232.27862300000001
 20
236.27869899999999
 30
0.0
  0
VERTEX
  5
1615
  8
0
  6
CONTINUOUS
 62
     7
 10
231.38875200000001
 20
237.02851000000001
 30
0.0
  0
VERTEX
  5
1616
  8
0
  6
CONTINUOUS
 62
     7
 10
230.50505000000001
 20
237.78683100000001
 30
0.0
  0
VERTEX
  5
1617
  8
0
  6
CONTINUOUS
 62
     7
 10
229.627658
 20
238.553856
 30
0.0
  0
VERTEX
  5
1618
  8
0
  6
CONTINUOUS
 62
     7
 10
228.75671600000001
 20
239.329778
 30
0.0
  0
VERTEX
  5
1619
  8
0
  6
CONTINUOUS
 62
     7
 10
227.89236600000001
 20
240.11479199999999
 30
0.0
  0
VERTEX
  5
161A
  8
0
  6
CONTINUOUS
 62
     7
 10
227.46270999999999
 20
240.510774
 30
0.0
  0
VERTEX
  5
161B
  8
0
  6
CONTINUOUS
 62
     7
 10
227.03476599999999
 20
240.90911800000001
 30
0.0
  0
VERTEX
  5
161C
  8
0
  6
CONTINUOUS
 62
     7
 10
226.60855799999999
 20
241.309855
 30
0.0
  0
VERTEX
  5
161D
  8
0
  6
CONTINUOUS
 62
     7
 10
226.19307699999999
 20
241.704498
 30
0.0
  0
VERTEX
  5
161E
  8
0
  6
CONTINUOUS
 62
     7
 10
226.169895
 20
241.72665699999999
 30
0.0
  0
VERTEX
  5
161F
  8
0
  6
CONTINUOUS
 62
     7
 10
225.761439
 20
242.118638
 30
0.0
  0
VERTEX
  5
1620
  8
0
  6
CONTINUOUS
 62
     7
 10
225.45021600000001
 20
242.42043000000001
 30
0.0
  0
VERTEX
  5
1621
  8
0
  6
CONTINUOUS
 62
     7
 10
224.689784
 20
243.16691399999999
 30
0.0
  0
VERTEX
  5
1622
  8
0
  6
CONTINUOUS
 62
     7
 10
224.52437
 20
243.33074199999999
 30
0.0
  0
VERTEX
  5
1623
  8
0
  6
CONTINUOUS
 62
     7
 10
223.49943099999999
 20
244.364563
 30
0.0
  0
VERTEX
  5
1624
  8
0
  6
CONTINUOUS
 62
     7
 10
223.48839699999999
 20
244.375823
 30
0.0
  0
VERTEX
  5
1625
  8
0
  6
CONTINUOUS
 62
     7
 10
222.77394000000001
 20
245.11388700000001
 30
0.0
  0
VERTEX
  5
1626
  8
0
  6
CONTINUOUS
 62
     7
 10
222.06053399999999
 20
245.866107
 30
0.0
  0
VERTEX
  5
1627
  8
0
  6
CONTINUOUS
 62
     7
 10
221.35387900000001
 20
246.626878
 30
0.0
  0
VERTEX
  5
1628
  8
0
  6
CONTINUOUS
 62
     7
 10
220.654335
 20
247.39611300000001
 30
0.0
  0
VERTEX
  5
1629
  8
0
  6
CONTINUOUS
 62
     7
 10
219.96225999999999
 20
248.173723
 30
0.0
  0
VERTEX
  5
162A
  8
0
  6
CONTINUOUS
 62
     7
 10
219.27801500000001
 20
248.959621
 30
0.0
  0
VERTEX
  5
162B
  8
0
  6
CONTINUOUS
 62
     7
 10
218.60195899999999
 20
249.75371899999999
 30
0.0
  0
VERTEX
  5
162C
  8
0
  6
CONTINUOUS
 62
     7
 10
217.93445
 20
250.55592799999991
 30
0.0
  0
VERTEX
  5
162D
  8
0
  6
CONTINUOUS
 62
     7
 10
217.27584999999999
 20
251.366162
 30
0.0
  0
VERTEX
  5
162E
  8
0
  6
CONTINUOUS
 62
     7
 10
216.62651600000001
 20
252.18433200000001
 30
0.0
  0
VERTEX
  5
162F
  8
0
  6
CONTINUOUS
 62
     7
 10
215.986808
 20
253.01034999999999
 30
0.0
  0
VERTEX
  5
1630
  8
0
  6
CONTINUOUS
 62
     7
 10
215.35708700000001
 20
253.84412800000001
 30
0.0
  0
VERTEX
  5
1631
  8
0
  6
CONTINUOUS
 62
     7
 10
214.73770999999999
 20
254.68557899999999
 30
0.0
  0
VERTEX
  5
1632
  8
0
  6
CONTINUOUS
 62
     7
 10
214.12903900000001
 20
255.534614
 30
0.0
  0
VERTEX
  5
1633
  8
0
  6
CONTINUOUS
 62
     7
 10
213.531431
 20
256.39114699999999
 30
0.0
  0
VERTEX
  5
1634
  8
0
  6
CONTINUOUS
 62
     7
 10
212.945246
 20
257.255088
 30
0.0
  0
VERTEX
  5
1635
  8
0
  6
CONTINUOUS
 62
     7
 10
212.370845
 20
258.12635
 30
0.0
  0
SEQEND
  5
1636
  8
0
  6
CONTINUOUS
 62
     7
  0
DIMENSION
  5
76C
  8
LAYER01
 62
     7
  2
*D10
 10
214.33184600000001
 20
365.58288099999999
 30
0.0
 11
375.168498
 21
395.58288099999999
 31
0.0
 13
534.20050000000003
 23
288.402038
 33
0.0
 14
214.33184600000001
 24
288.402038
 34
0.0
  0
DIMENSION
  5
76D
  8
LAYER01
 62
     7
  2
*D11
 10
494.93564500000002
 20
45.131679999999989
 30
0.0
 11
458.45797599999992
 21
75.131680000000003
 31
0.0
  1
%%C<>
 13
540.93564500000002
 23
118.274006
 33
0.0
 14
494.93564500000002
 24
118.274006
 34
0.0
  0
DIMENSION
  5
76E
  8
LAYER01
 62
     7
  2
*D12
 10
559.20050000000003
 20
-25.431832
 30
0.0
 11
638.089698
 21
4.568168
 31
0.0
 13
517.93564500000002
 23
118.274006
 33
0.0
 14
559.20050000000003
 24
118.274006
 34
0.0
  0
DIMENSION
  5
76F
  8
LAYER01
 62
     7
  2
*D13
 10
559.20050000000003
 20
2.6974390000000001
 30
0.0
 11
638.089698
 21
32.697439000000003
 31
0.0
 13
517.93564500000002
 23
118.274006
 33
0.0
 14
559.20050000000003
 24
118.274006
 34
0.0
  0
LINE
  5
770
  8
0
  6
CONTINUOUS
 62
     7
 10
469.55777699999982
 20
168.526928
 30
0.0
 11
472.68486599999989
 21
168.323598
 31
0.0
  0
LINE
  5
771
  8
0
  6
CONTINUOUS
 62
     7
 10
189.20050000000001
 20
276.402038
 30
0.0
 11
196.83993100000001
 21
276.402038
 31
0.0
  0
LINE
  5
772
  8
0
  6
CONTINUOUS
 62
     7
 10
189.20050000000001
 20
288.402038
 30
0.0
 11
214.20050000000001
 21
288.402038
 31
0.0
  0
ARC
  5
773
  8
0
  6
CONTINUOUS
 62
     7
 10
62.922640000000001
 20
207.56210799999999
 30
0.0
 40
10.0
 50
270.0
 51
0.0
  0
POLYLINE
  5
774
  8
0
  6
CONTINUOUS
 62
     7
 66
     1
 10
0.0
 20
0.0
 30
0.0
 70
     4
  0
VERTEX
  5
775
  8
FORMAT
 62
     7
 10
47.922564999999999
 20
232.55130700000001
 30
0.0
 70
    16
  0
VERTEX
  5
776
  8
FORMAT
 62
     7
 10
47.922564999999999
 20
232.55130700000001
 30
0.0
 70
     8
  0
VERTEX
  5
777
  8
FORMAT
 62
     7
 10
47.922249999999998
 20
232.517202
 30
0.0
 70
     8
  0
VERTEX
  5
778
  8
FORMAT
 62
     7
 10
47.921889999999998
 20
232.481064
 30
0.0
 70
     8
  0
VERTEX
  5
779
  8
FORMAT
 62
     7
 10
47.921458000000001
 20
232.44304099999999
 30
0.0
 70
     8
  0
VERTEX
  5
77A
  8
FORMAT
 62
     7
 10
47.920931000000003
 20
232.40328099999999
 30
0.0
 70
     8
  0
VERTEX
  5
77B
  8
FORMAT
 62
     7
 10
47.920283000000012
 20
232.361929
 30
0.0
 70
     8
  0
VERTEX
  5
77C
  8
FORMAT
 62
     7
 10
47.91948699999999
 20
232.319132
 30
0.0
 70
     8
  0
VERTEX
  5
77D
  8
FORMAT
 62
     7
 10
47.918519000000003
 20
232.275038
 30
0.0
 70
     8
  0
VERTEX
  5
77E
  8
FORMAT
 62
     7
 10
47.917352999999999
 20
232.229794
 30
0.0
 70
     8
  0
VERTEX
  5
77F
  8
FORMAT
 62
     7
 10
47.915964000000002
 20
232.18354600000001
 30
0.0
 70
     8
  0
VERTEX
  5
780
  8
FORMAT
 62
     7
 10
47.914327
 20
232.13644099999999
 30
0.0
 70
     8
  0
VERTEX
  5
781
  8
FORMAT
 62
     7
 10
47.914327
 20
232.13644099999999
 30
0.0
 70
     8
  0
VERTEX
  5
782
  8
FORMAT
 62
     7
 10
47.913406000000002
 20
232.11259999999999
 30
0.0
 70
     8
  0
VERTEX
  5
783
  8
FORMAT
 62
     7
 10
47.912409999999987
 20
232.08851899999999
 30
0.0
 70
     8
  0
VERTEX
  5
784
  8
FORMAT
 62
     7
 10
47.91133099999999
 20
232.06413599999999
 30
0.0
 70
     8
  0
VERTEX
  5
785
  8
FORMAT
 62
     7
 10
47.91016299999999
 20
232.039389
 30
0.0
 70
     8
  0
VERTEX
  5
786
  8
FORMAT
 62
     7
 10
47.908898000000001
 20
232.014216
 30
0.0
 70
     8
  0
VERTEX
  5
787
  8
FORMAT
 62
     7
 10
47.907528999999997
 20
231.98855399999999
 30
0.0
 70
     8
  0
VERTEX
  5
788
  8
FORMAT
 62
     7
 10
47.906048999999989
 20
231.96234100000001
 30
0.0
 70
     8
  0
VERTEX
  5
789
  8
FORMAT
 62
     7
 10
47.904451999999992
 20
231.93551500000001
 30
0.0
 70
     8
  0
VERTEX
  5
78A
  8
FORMAT
 62
     7
 10
47.902729999999998
 20
231.90801400000001
 30
0.0
 70
     8
  0
VERTEX
  5
78B
  8
FORMAT
 62
     7
 10
47.900874999999999
 20
231.87977599999999
 30
0.0
 70
     8
  0
VERTEX
  5
78C
  8
FORMAT
 62
     7
 10
47.900874999999999
 20
231.87977599999999
 30
0.0
 70
     8
  0
VERTEX
  5
78D
  8
FORMAT
 62
     7
 10
47.898884000000002
 20
231.85076100000001
 30
0.0
 70
     8
  0
VERTEX
  5
78E
  8
FORMAT
 62
     7
 10
47.896755999999989
 20
231.82103000000001
 30
0.0
 70
     8
  0
VERTEX
  5
78F
  8
FORMAT
 62
     7
 10
47.894495999999997
 20
231.790662
 30
0.0
 70
     8
  0
VERTEX
  5
790
  8
FORMAT
 62
     7
 10
47.892107000000003
 20
231.75974199999999
 30
0.0
 70
     8
  0
VERTEX
  5
791
  8
FORMAT
 62
     7
 10
47.889590999999989
 20
231.72835000000001
 30
0.0
 70
     8
  0
VERTEX
  5
792
  8
FORMAT
 62
     7
 10
47.886951000000003
 20
231.69656800000001
 30
0.0
 70
     8
  0
VERTEX
  5
793
  8
FORMAT
 62
     7
 10
47.884191999999992
 20
231.66448
 30
0.0
 70
     8
  0
VERTEX
  5
794
  8
FORMAT
 62
     7
 10
47.881315999999991
 20
231.63216700000001
 30
0.0
 70
     8
  0
VERTEX
  5
795
  8
FORMAT
 62
     7
 10
47.878326000000001
 20
231.59971100000001
 30
0.0
 70
     8
  0
VERTEX
  5
796
  8
FORMAT
 62
     7
 10
47.875225
 20
231.567194
 30
0.0
 70
     8
  0
VERTEX
  5
797
  8
FORMAT
 62
     7
 10
47.875225
 20
231.567194
 30
0.0
 70
     8
  0
VERTEX
  5
798
  8
FORMAT
 62
     7
 10
47.872015999999988
 20
231.534684
 30
0.0
 70
     8
  0
VERTEX
  5
799
  8
FORMAT
 62
     7
 10
47.86869999999999
 20
231.502196
 30
0.0
 70
     8
  0
VERTEX
  5
79A
  8
FORMAT
 62
     7
 10
47.865276999999992
 20
231.469729
 30
0.0
 70
     8
  0
VERTEX
  5
79B
  8
FORMAT
 62
     7
 10
47.861746999999987
 20
231.43728400000001
 30
0.0
 70
     8
  0
VERTEX
  5
79C
  8
FORMAT
 62
     7
 10
47.858111000000001
 20
231.40486000000001
 30
0.0
 70
     8
  0
VERTEX
  5
79D
  8
FORMAT
 62
     7
 10
47.854368000000001
 20
231.372457
 30
0.0
 70
     8
  0
VERTEX
  5
79E
  8
FORMAT
 62
     7
 10
47.850518999999998
 20
231.34007500000001
 30
0.0
 70
     8
  0
VERTEX
  5
79F
  8
FORMAT
 62
     7
 10
47.846564999999998
 20
231.307715
 30
0.0
 70
     8
  0
VERTEX
  5
7A0
  8
FORMAT
 62
     7
 10
47.842504999999989
 20
231.27537599999999
 30
0.0
 70
     8
  0
VERTEX
  5
7A1
  8
FORMAT
 62
     7
 10
47.838340000000002
 20
231.24305799999999
 30
0.0
 70
     8
  0
VERTEX
  5
7A2
  8
FORMAT
 62
     7
 10
47.838340000000002
 20
231.24305799999999
 30
0.0
 70
     8
  0
VERTEX
  5
7A3
  8
FORMAT
 62
     7
 10
47.834069999999997
 20
231.21076199999999
 30
0.0
 70
     8
  0
VERTEX
  5
7A4
  8
FORMAT
 62
     7
 10
47.829695000000001
 20
231.17848699999999
 30
0.0
 70
     8
  0
VERTEX
  5
7A5
  8
FORMAT
 62
     7
 10
47.825214000000003
 20
231.146233
 30
0.0
 70
     8
  0
VERTEX
  5
7A6
  8
FORMAT
 62
     7
 10
47.82062899999999
 20
231.114
 30
0.0
 70
     8
  0
VERTEX
  5
7A7
  8
FORMAT
 62
     7
 10
47.815938000000003
 20
231.08178899999999
 30
0.0
 70
     8
  0
VERTEX
  5
7A8
  8
FORMAT
 62
     7
 10
47.811141999999997
 20
231.049599
 30
0.0
 70
     8
  0
VERTEX
  5
7A9
  8
FORMAT
 62
     7
 10
47.806240000000003
 20
231.01743099999999
 30
0.0
 70
     8
  0
VERTEX
  5
7AA
  8
FORMAT
 62
     7
 10
47.801233000000003
 20
230.98528300000001
 30
0.0
 70
     8
  0
VERTEX
  5
7AB
  8
FORMAT
 62
     7
 10
47.796120000000002
 20
230.953158
 30
0.0
 70
     8
  0
VERTEX
  5
7AC
  8
FORMAT
 62
     7
 10
47.790902000000003
 20
230.921053
 30
0.0
 70
     8
  0
VERTEX
  5
7AD
  8
FORMAT
 62
     7
 10
47.790902000000003
 20
230.921053
 30
0.0
 70
     8
  0
VERTEX
  5
7AE
  8
FORMAT
 62
     7
 10
47.785578000000001
 20
230.88897
 30
0.0
 70
     8
  0
VERTEX
  5
7AF
  8
FORMAT
 62
     7
 10
47.780149000000002
 20
230.856908
 30
0.0
 70
     8
  0
VERTEX
  5
7B0
  8
FORMAT
 62
     7
 10
47.774613999999993
 20
230.82486700000001
 30
0.0
 70
     8
  0
VERTEX
  5
7B1
  8
FORMAT
 62
     7
 10
47.768972999999988
 20
230.79284799999999
 30
0.0
 70
     8
  0
VERTEX
  5
7B2
  8
FORMAT
 62
     7
 10
47.763227000000001
 20
230.76085
 30
0.0
 70
     8
  0
VERTEX
  5
7B3
  8
FORMAT
 62
     7
 10
47.757375000000003
 20
230.72887299999999
 30
0.0
 70
     8
  0
VERTEX
  5
7B4
  8
FORMAT
 62
     7
 10
47.751416999999989
 20
230.69691800000001
 30
0.0
 70
     8
  0
VERTEX
  5
7B5
  8
FORMAT
 62
     7
 10
47.745353999999999
 20
230.664984
 30
0.0
 70
     8
  0
VERTEX
  5
7B6
  8
FORMAT
 62
     7
 10
47.739185999999997
 20
230.633071
 30
0.0
 70
     8
  0
VERTEX
  5
7B7
  8
FORMAT
 62
     7
 10
47.732911999999999
 20
230.601179
 30
0.0
 70
     8
  0
VERTEX
  5
7B8
  8
FORMAT
 62
     7
 10
47.732911999999999
 20
230.601179
 30
0.0
 70
     8
  0
VERTEX
  5
7B9
  8
FORMAT
 62
     7
 10
47.726531999999992
 20
230.569309
 30
0.0
 70
     8
  0
VERTEX
  5
7BA
  8
FORMAT
 62
     7
 10
47.720046999999987
 20
230.53746100000001
 30
0.0
 70
     8
  0
VERTEX
  5
7BB
  8
FORMAT
 62
     7
 10
47.713456000000001
 20
230.50563299999999
 30
0.0
 70
     8
  0
VERTEX
  5
7BC
  8
FORMAT
 62
     7
 10
47.706759999999989
 20
230.473827
 30
0.0
 70
     8
  0
VERTEX
  5
7BD
  8
FORMAT
 62
     7
 10
47.699959
 20
230.44204199999999
 30
0.0
 70
     8
  0
VERTEX
  5
7BE
  8
FORMAT
 62
     7
 10
47.693052000000002
 20
230.410279
 30
0.0
 70
     8
  0
VERTEX
  5
7BF
  8
FORMAT
 62
     7
 10
47.686039000000001
 20
230.37853699999999
 30
0.0
 70
     8
  0
VERTEX
  5
7C0
  8
FORMAT
 62
     7
 10
47.678921000000003
 20
230.34681599999999
 30
0.0
 70
     8
  0
VERTEX
  5
7C1
  8
FORMAT
 62
     7
 10
47.671696999999988
 20
230.31511699999999
 30
0.0
 70
     8
  0
VERTEX
  5
7C2
  8
FORMAT
 62
     7
 10
47.664368000000003
 20
230.28343899999999
 30
0.0
 70
     8
  0
VERTEX
  5
7C3
  8
FORMAT
 62
     7
 10
47.664368000000003
 20
230.28343899999999
 30
0.0
 70
     8
  0
VERTEX
  5
7C4
  8
FORMAT
 62
     7
 10
47.656933000000002
 20
230.25178199999999
 30
0.0
 70
     8
  0
VERTEX
  5
7C5
  8
FORMAT
 62
     7
 10
47.649392999999989
 20
230.220147
 30
0.0
 70
     8
  0
VERTEX
  5
7C6
  8
FORMAT
 62
     7
 10
47.641746999999988
 20
230.18853300000001
 30
0.0
 70
     8
  0
VERTEX
  5
7C7
  8
FORMAT
 62
     7
 10
47.633996000000003
 20
230.15693999999999
 30
0.0
 70
     8
  0
VERTEX
  5
7C8
  8
FORMAT
 62
     7
 10
47.626139000000002
 20
230.12536900000001
 30
0.0
 70
     8
  0
VERTEX
  5
7C9
  8
FORMAT
 62
     7
 10
47.618177000000003
 20
230.093819
 30
0.0
 70
     8
  0
VERTEX
  5
7CA
  8
FORMAT
 62
     7
 10
47.610109000000001
 20
230.06228999999999
 30
0.0
 70
     8
  0
VERTEX
  5
7CB
  8
FORMAT
 62
     7
 10
47.601936000000002
 20
230.03078300000001
 30
0.0
 70
     8
  0
VERTEX
  5
7CC
  8
FORMAT
 62
     7
 10
47.593657
 20
229.99929700000001
 30
0.0
 70
     8
  0
VERTEX
  5
7CD
  8
FORMAT
 62
     7
 10
47.585271999999989
 20
229.96783199999999
 30
0.0
 70
     8
  0
VERTEX
  5
7CE
  8
FORMAT
 62
     7
 10
47.585271999999989
 20
229.96783199999999
 30
0.0
 70
     8
  0
VERTEX
  5
7CF
  8
FORMAT
 62
     7
 10
47.576781999999987
 20
229.93638899999999
 30
0.0
 70
     8
  0
VERTEX
  5
7D0
  8
FORMAT
 62
     7
 10
47.568187000000002
 20
229.904967
 30
0.0
 70
     8
  0
VERTEX
  5
7D1
  8
FORMAT
 62
     7
 10
47.559485999999993
 20
229.87356600000001
 30
0.0
 70
     8
  0
VERTEX
  5
7D2
  8
FORMAT
 62
     7
 10
47.550678999999988
 20
229.842187
 30
0.0
 70
     8
  0
VERTEX
  5
7D3
  8
FORMAT
 62
     7
 10
47.541767
 20
229.81082900000001
 30
0.0
 70
     8
  0
VERTEX
  5
7D4
  8
FORMAT
 62
     7
 10
47.532749000000003
 20
229.779492
 30
0.0
 70
     8
  0
VERTEX
  5
7D5
  8
FORMAT
 62
     7
 10
47.523626
 20
229.748177
 30
0.0
 70
     8
  0
VERTEX
  5
7D6
  8
FORMAT
 62
     7
 10
47.514397999999993
 20
229.71688399999999
 30
0.0
 70
     8
  0
VERTEX
  5
7D7
  8
FORMAT
 62
     7
 10
47.505063999999997
 20
229.68561099999999
 30
0.0
 70
     8
  0
VERTEX
  5
7D8
  8
FORMAT
 62
     7
 10
47.495623999999999
 20
229.65436
 30
0.0
 70
     8
  0
VERTEX
  5
7D9
  8
FORMAT
 62
     7
 10
47.495623999999999
 20
229.65436
 30
0.0
 70
     8
  0
VERTEX
  5
7DA
  8
FORMAT
 62
     7
 10
47.486078999999989
 20
229.623131
 30
0.0
 70
     8
  0
VERTEX
  5
7DB
  8
FORMAT
 62
     7
 10
47.476428999999989
 20
229.59192200000001
 30
0.0
 70
     8
  0
VERTEX
  5
7DC
  8
FORMAT
 62
     7
 10
47.466673
 20
229.56073599999999
 30
0.0
 70
     8
  0
VERTEX
  5
7DD
  8
FORMAT
 62
     7
 10
47.456811000000002
 20
229.52957000000001
 30
0.0
 70
     8
  0
VERTEX
  5
7DE
  8
FORMAT
 62
     7
 10
47.446843999999992
 20
229.49842599999999
 30
0.0
 70
     8
  0
VERTEX
  5
7DF
  8
FORMAT
 62
     7
 10
47.436771999999991
 20
229.46730299999999
 30
0.0
 70
     8
  0
VERTEX
  5
7E0
  8
FORMAT
 62
     7
 10
47.42659299999999
 20
229.43620200000001
 30
0.0
 70
     8
  0
VERTEX
  5
7E1
  8
FORMAT
 62
     7
 10
47.416308999999998
 20
229.40512100000001
 30
0.0
 70
     8
  0
VERTEX
  5
7E2
  8
FORMAT
 62
     7
 10
47.405920000000002
 20
229.37406200000001
 30
0.0
 70
     8
  0
VERTEX
  5
7E3
  8
FORMAT
 62
     7
 10
47.395425000000003
 20
229.34302400000001
 30
0.0
 70
     8
  0
VERTEX
  5
7E4
  8
FORMAT
 62
     7
 10
47.395425000000003
 20
229.34302400000001
 30
0.0
 70
     8
  0
VERTEX
  5
7E5
  8
FORMAT
 62
     7
 10
47.384791
 20
229.311924
 30
0.0
 70
     8
  0
VERTEX
  5
7E6
  8
FORMAT
 62
     7
 10
47.373851999999999
 20
229.28034099999999
 30
0.0
 70
     8
  0
VERTEX
  5
7E7
  8
FORMAT
 62
     7
 10
47.36240999999999
 20
229.247771
 30
0.0
 70
     8
  0
VERTEX
  5
7E8
  8
FORMAT
 62
     7
 10
47.350265999999998
 20
229.21371199999999
 30
0.0
 70
     8
  0
VERTEX
  5
7E9
  8
FORMAT
 62
     7
 10
47.337220000000002
 20
229.17765900000001
 30
0.0
 70
     8
  0
VERTEX
  5
7EA
  8
FORMAT
 62
     7
 10
47.323075000000003
 20
229.13910799999999
 30
0.0
 70
     8
  0
VERTEX
  5
7EB
  8
FORMAT
 62
     7
 10
47.307629999999989
 20
229.097556
 30
0.0
 70
     8
  0
VERTEX
  5
7EC
  8
FORMAT
 62
     7
 10
47.290686999999998
 20
229.05249900000001
 30
0.0
 70
     8
  0
VERTEX
  5
7ED
  8
FORMAT
 62
     7
 10
47.272047999999991
 20
229.003434
 30
0.0
 70
     8
  0
VERTEX
  5
7EE
  8
FORMAT
 62
     7
 10
47.251511999999991
 20
228.94985600000001
 30
0.0
 70
     8
  0
VERTEX
  5
7EF
  8
FORMAT
 62
     7
 10
47.251511999999991
 20
228.94985600000001
 30
0.0
 70
     8
  0
VERTEX
  5
7F0
  8
FORMAT
 62
     7
 10
47.228892999999999
 20
228.89135400000001
 30
0.0
 70
     8
  0
VERTEX
  5
7F1
  8
FORMAT
 62
     7
 10
47.204040999999989
 20
228.827889
 30
0.0
 70
     8
  0
VERTEX
  5
7F2
  8
FORMAT
 62
     7
 10
47.176819999999992
 20
228.759514
 30
0.0
 70
     8
  0
VERTEX
  5
7F3
  8
FORMAT
 62
     7
 10
47.147089999999999
 20
228.68628200000001
 30
0.0
 70
     8
  0
VERTEX
  5
7F4
  8
FORMAT
 62
     7
 10
47.114715999999987
 20
228.60824600000001
 30
0.0
 70
     8
  0
VERTEX
  5
7F5
  8
FORMAT
 62
     7
 10
47.079557999999992
 20
228.52545900000001
 30
0.0
 70
     8
  0
VERTEX
  5
7F6
  8
FORMAT
 62
     7
 10
47.041479999999993
 20
228.437974
 30
0.0
 70
     8
  0
VERTEX
  5
7F7
  8
FORMAT
 62
     7
 10
47.000343999999991
 20
228.345844
 30
0.0
 70
     8
  0
VERTEX
  5
7F8
  8
FORMAT
 62
     7
 10
46.956012000000001
 20
228.249122
 30
0.0
 70
     8
  0
VERTEX
  5
7F9
  8
FORMAT
 62
     7
 10
46.908346000000002
 20
228.14786100000001
 30
0.0
 70
     8
  0
VERTEX
  5
7FA
  8
FORMAT
 62
     7
 10
46.908346000000002
 20
228.14786100000001
 30
0.0
 70
     8
  0
VERTEX
  5
7FB
  8
FORMAT
 62
     7
 10
46.857191999999998
 20
228.042137
 30
0.0
 70
     8
  0
VERTEX
  5
7FC
  8
FORMAT
 62
     7
 10
46.802328000000003
 20
227.93211700000001
 30
0.0
 70
     8
  0
VERTEX
  5
7FD
  8
FORMAT
 62
     7
 10
46.74351699999999
 20
227.81798900000001
 30
0.0
 70
     8
  0
VERTEX
  5
7FE
  8
FORMAT
 62
     7
 10
46.680518999999997
 20
227.69994299999999
 30
0.0
 70
     8
  0
VERTEX
  5
7FF
  8
FORMAT
 62
     7
 10
46.613098000000001
 20
227.57816800000001
 30
0.0
 70
     8
  0
VERTEX
  5
800
  8
FORMAT
 62
     7
 10
46.541013999999997
 20
227.452853
 30
0.0
 70
     8
  0
VERTEX
  5
801
  8
FORMAT
 62
     7
 10
46.464030000000001
 20
227.32418799999999
 30
0.0
 70
     8
  0
VERTEX
  5
802
  8
FORMAT
 62
     7
 10
46.381906000000001
 20
227.192362
 30
0.0
 70
     8
  0
VERTEX
  5
803
  8
FORMAT
 62
     7
 10
46.294406000000002
 20
227.05756299999999
 30
0.0
 70
     8
  0
VERTEX
  5
804
  8
FORMAT
 62
     7
 10
46.20129
 20
226.919982
 30
0.0
 70
     8
  0
VERTEX
  5
805
  8
FORMAT
 62
     7
 10
46.20129
 20
226.919982
 30
0.0
 70
     8
  0
VERTEX
  5
806
  8
FORMAT
 62
     7
 10
46.102414000000003
 20
226.77986300000001
 30
0.0
 70
     8
  0
VERTEX
  5
807
  8
FORMAT
 62
     7
 10
45.998004999999992
 20
226.637674
 30
0.0
 70
     8
  0
VERTEX
  5
808
  8
FORMAT
 62
     7
 10
45.888382999999997
 20
226.49394100000001
 30
0.0
 70
     8
  0
VERTEX
  5
809
  8
FORMAT
 62
     7
 10
45.773868999999991
 20
226.349187
 30
0.0
 70
     8
  0
VERTEX
  5
80A
  8
FORMAT
 62
     7
 10
45.654783000000002
 20
226.203937
 30
0.0
 70
     8
  0
VERTEX
  5
80B
  8
FORMAT
 62
     7
 10
45.531446000000003
 20
226.05871500000001
 30
0.0
 70
     8
  0
VERTEX
  5
80C
  8
FORMAT
 62
     7
 10
45.404178000000002
 20
225.91404499999999
 30
0.0
 70
     8
  0
VERTEX
  5
80D
  8
FORMAT
 62
     7
 10
45.273299000000002
 20
225.77045200000001
 30
0.0
 70
     8
  0
VERTEX
  5
80E
  8
FORMAT
 62
     7
 10
45.139130000000002
 20
225.62845999999999
 30
0.0
 70
     8
  0
VERTEX
  5
80F
  8
FORMAT
 62
     7
 10
45.00199099999999
 20
225.48859400000001
 30
0.0
 70
     8
  0
VERTEX
  5
810
  8
FORMAT
 62
     7
 10
45.00199099999999
 20
225.48859400000001
 30
0.0
 70
     8
  0
VERTEX
  5
811
  8
FORMAT
 62
     7
 10
44.862226
 20
225.351337
 30
0.0
 70
     8
  0
VERTEX
  5
812
  8
FORMAT
 62
     7
 10
44.720265999999988
 20
225.21701300000001
 30
0.0
 70
     8
  0
VERTEX
  5
813
  8
FORMAT
 62
     7
 10
44.576565000000002
 20
225.08590599999999
 30
0.0
 70
     8
  0
VERTEX
  5
814
  8
FORMAT
 62
     7
 10
44.431578000000002
 20
224.95830000000001
 30
0.0
 70
     8
  0
VERTEX
  5
815
  8
FORMAT
 62
     7
 10
44.285759999999989
 20
224.83447799999999
 30
0.0
 70
     8
  0
VERTEX
  5
816
  8
FORMAT
 62
     7
 10
44.139564999999997
 20
224.71472299999999
 30
0.0
 70
     8
  0
VERTEX
  5
817
  8
FORMAT
 62
     7
 10
43.993446999999989
 20
224.59932000000001
 30
0.0
 70
     8
  0
VERTEX
  5
818
  8
FORMAT
 62
     7
 10
43.847861000000002
 20
224.488552
 30
0.0
 70
     8
  0
VERTEX
  5
819
  8
FORMAT
 62
     7
 10
43.703260999999991
 20
224.38270299999999
 30
0.0
 70
     8
  0
VERTEX
  5
81A
  8
FORMAT
 62
     7
 10
43.560101000000003
 20
224.28205600000001
 30
0.0
 70
     8
  0
VERTEX
  5
81B
  8
FORMAT
 62
     7
 10
43.560101000000003
 20
224.28205600000001
 30
0.0
 70
     8
  0
VERTEX
  5
81C
  8
FORMAT
 62
     7
 10
43.418790999999992
 20
224.186812
 30
0.0
 70
     8
  0
VERTEX
  5
81D
  8
FORMAT
 62
     7
 10
43.279555000000002
 20
224.096844
 30
0.0
 70
     8
  0
VERTEX
  5
81E
  8
FORMAT
 62
     7
 10
43.142569999999999
 20
224.01193900000001
 30
0.0
 70
     8
  0
VERTEX
  5
81F
  8
FORMAT
 62
     7
 10
43.008015999999991
 20
223.93188699999999
 30
0.0
 70
     8
  0
VERTEX
  5
820
  8
FORMAT
 62
     7
 10
42.876069999999999
 20
223.85647700000001
 30
0.0
 70
     8
  0
VERTEX
  5
821
  8
FORMAT
 62
     7
 10
42.746910999999997
 20
223.78549799999999
 30
0.0
 70
     8
  0
VERTEX
  5
822
  8
FORMAT
 62
     7
 10
42.620719000000001
 20
223.71874
 30
0.0
 70
     8
  0
VERTEX
  5
823
  8
FORMAT
 62
     7
 10
42.497669999999999
 20
223.65599
 30
0.0
 70
     8
  0
VERTEX
  5
824
  8
FORMAT
 62
     7
 10
42.377943000000002
 20
223.597039
 30
0.0
 70
     8
  0
VERTEX
  5
825
  8
FORMAT
 62
     7
 10
42.261716999999997
 20
223.541674
 30
0.0
 70
     8
  0
VERTEX
  5
826
  8
FORMAT
 62
     7
 10
42.261716999999997
 20
223.541674
 30
0.0
 70
     8
  0
VERTEX
  5
827
  8
FORMAT
 62
     7
 10
42.149149999999999
 20
223.489698
 30
0.0
 70
     8
  0
VERTEX
  5
828
  8
FORMAT
 62
     7
 10
42.040318999999997
 20
223.440956
 30
0.0
 70
     8
  0
VERTEX
  5
829
  8
FORMAT
 62
     7
 10
41.935279999999992
 20
223.395307
 30
0.0
 70
     8
  0
VERTEX
  5
82A
  8
FORMAT
 62
     7
 10
41.834091000000001
 20
223.35261
 30
0.0
 70
     8
  0
VERTEX
  5
82B
  8
FORMAT
 62
     7
 10
41.736805999999987
 20
223.31272200000001
 30
0.0
 70
     8
  0
VERTEX
  5
82C
  8
FORMAT
 62
     7
 10
41.643484000000001
 20
223.27550299999999
 30
0.0
 70
     8
  0
VERTEX
  5
82D
  8
FORMAT
 62
     7
 10
41.554181
 20
223.24081100000001
 30
0.0
 70
     8
  0
VERTEX
  5
82E
  8
FORMAT
 62
     7
 10
41.468952999999999
 20
223.20850300000001
 30
0.0
 70
     8
  0
VERTEX
  5
82F
  8
FORMAT
 62
     7
 10
41.387857999999987
 20
223.17843999999999
 30
0.0
 70
     8
  0
VERTEX
  5
830
  8
FORMAT
 62
     7
 10
41.310951000000003
 20
223.15047799999999
 30
0.0
 70
     8
  0
VERTEX
  5
831
  8
FORMAT
 62
     7
 10
41.310951000000003
 20
223.15047799999999
 30
0.0
 70
     8
  0
VERTEX
  5
832
  8
FORMAT
 62
     7
 10
41.238207000000003
 20
223.12447299999999
 30
0.0
 70
     8
  0
VERTEX
  5
833
  8
FORMAT
 62
     7
 10
41.169278999999989
 20
223.10026300000001
 30
0.0
 70
     8
  0
VERTEX
  5
834
  8
FORMAT
 62
     7
 10
41.103732999999998
 20
223.077685
 30
0.0
 70
     8
  0
VERTEX
  5
835
  8
FORMAT
 62
     7
 10
41.041140999999989
 20
223.05657199999999
 30
0.0
 70
     8
  0
VERTEX
  5
836
  8
FORMAT
 62
     7
 10
40.981070000000003
 20
223.03676100000001
 30
0.0
 70
     8
  0
VERTEX
  5
837
  8
FORMAT
 62
     7
 10
40.923090999999999
 20
223.01808700000001
 30
0.0
 70
     8
  0
VERTEX
  5
838
  8
FORMAT
 62
     7
 10
40.86677199999999
 20
223.00038499999999
 30
0.0
 70
     8
  0
VERTEX
  5
839
  8
FORMAT
 62
     7
 10
40.81168199999999
 20
222.98348999999999
 30
0.0
 70
     8
  0
VERTEX
  5
83A
  8
FORMAT
 62
     7
 10
40.757392000000003
 20
222.96723800000001
 30
0.0
 70
     8
  0
VERTEX
  5
83B
  8
FORMAT
 62
     7
 10
40.703468999999991
 20
222.95146299999999
 30
0.0
 70
     8
  0
VERTEX
  5
83C
  8
FORMAT
 62
     7
 10
40.703468999999991
 20
222.95146299999999
 30
0.0
 70
     8
  0
VERTEX
  5
83D
  8
FORMAT
 62
     7
 10
40.649554999999992
 20
222.93602899999999
 30
0.0
 70
     8
  0
VERTEX
  5
83E
  8
FORMAT
 62
     7
 10
40.595578000000003
 20
222.920908
 30
0.0
 70
     8
  0
VERTEX
  5
83F
  8
FORMAT
 62
     7
 10
40.541538000000003
 20
222.90610000000001
 30
0.0
 70
     8
  0
VERTEX
  5
840
  8
FORMAT
 62
     7
 10
40.487434999999991
 20
222.891603
 30
0.0
 70
     8
  0
VERTEX
  5
841
  8
FORMAT
 62
     7
 10
40.433269000000003
 20
222.877419
 30
0.0
 70
     8
  0
VERTEX
  5
842
  8
FORMAT
 62
     7
 10
40.379040000000003
 20
222.86354700000001
 30
0.0
 70
     8
  0
VERTEX
  5
843
  8
FORMAT
 62
     7
 10
40.324746999999988
 20
222.849986
 30
0.0
 70
     8
  0
VERTEX
  5
844
  8
FORMAT
 62
     7
 10
40.270391999999987
 20
222.836737
 30
0.0
 70
     8
  0
VERTEX
  5
845
  8
FORMAT
 62
     7
 10
40.215972999999991
 20
222.82379800000001
 30
0.0
 70
     8
  0
VERTEX
  5
846
  8
FORMAT
 62
     7
 10
40.161490999999991
 20
222.811171
 30
0.0
 70
     8
  0
VERTEX
  5
847
  8
FORMAT
 62
     7
 10
40.161490999999991
 20
222.811171
 30
0.0
 70
     8
  0
VERTEX
  5
848
  8
FORMAT
 62
     7
 10
40.106945999999994
 20
222.79885400000001
 30
0.0
 70
     8
  0
VERTEX
  5
849
  8
FORMAT
 62
     7
 10
40.052337999999999
 20
222.78684899999999
 30
0.0
 70
     8
  0
VERTEX
  5
84A
  8
FORMAT
 62
     7
 10
39.997666000000002
 20
222.77515600000001
 30
0.0
 70
     8
  0
VERTEX
  5
84B
  8
FORMAT
 62
     7
 10
39.942931000000002
 20
222.76377600000001
 30
0.0
 70
     8
  0
VERTEX
  5
84C
  8
FORMAT
 62
     7
 10
39.888133000000003
 20
222.75270900000001
 30
0.0
 70
     8
  0
VERTEX
  5
84D
  8
FORMAT
 62
     7
 10
39.833272000000001
 20
222.74195700000001
 30
0.0
 70
     8
  0
VERTEX
  5
84E
  8
FORMAT
 62
     7
 10
39.778348000000001
 20
222.73151999999999
 30
0.0
 70
     8
  0
VERTEX
  5
84F
  8
FORMAT
 62
     7
 10
39.723360999999997
 20
222.72139799999999
 30
0.0
 70
     8
  0
VERTEX
  5
850
  8
FORMAT
 62
     7
 10
39.668311000000003
 20
222.71159399999999
 30
0.0
 70
     8
  0
VERTEX
  5
851
  8
FORMAT
 62
     7
 10
39.613197999999997
 20
222.70210700000001
 30
0.0
 70
     8
  0
VERTEX
  5
852
  8
FORMAT
 62
     7
 10
39.613197999999997
 20
222.70210700000001
 30
0.0
 70
     8
  0
VERTEX
  5
853
  8
FORMAT
 62
     7
 10
39.558045
 20
222.692939
 30
0.0
 70
     8
  0
VERTEX
  5
854
  8
FORMAT
 62
     7
 10
39.502969
 20
222.684099
 30
0.0
 70
     8
  0
VERTEX
  5
855
  8
FORMAT
 62
     7
 10
39.448110999999997
 20
222.67559600000001
 30
0.0
 70
     8
  0
VERTEX
  5
856
  8
FORMAT
 62
     7
 10
39.393611
 20
222.667438
 30
0.0
 70
     8
  0
VERTEX
  5
857
  8
FORMAT
 62
     7
 10
39.33960900000001
 20
222.659637
 30
0.0
 70
     8
  0
VERTEX
  5
858
  8
FORMAT
 62
     7
 10
39.286245000000001
 20
222.652199
 30
0.0
 70
     8
  0
VERTEX
  5
859
  8
FORMAT
 62
     7
 10
39.233659000000003
 20
222.64513600000001
 30
0.0
 70
     8
  0
VERTEX
  5
85A
  8
FORMAT
 62
     7
 10
39.181992000000001
 20
222.63845699999999
 30
0.0
 70
     8
  0
VERTEX
  5
85B
  8
FORMAT
 62
     7
 10
39.131384000000011
 20
222.63217
 30
0.0
 70
     8
  0
VERTEX
  5
85C
  8
FORMAT
 62
     7
 10
39.081975
 20
222.626284
 30
0.0
 70
     8
  0
VERTEX
  5
85D
  8
FORMAT
 62
     7
 10
39.081975
 20
222.626284
 30
0.0
 70
     8
  0
VERTEX
  5
85E
  8
FORMAT
 62
     7
 10
39.033864000000001
 20
222.62080499999999
 30
0.0
 70
     8
  0
VERTEX
  5
85F
  8
FORMAT
 62
     7
 10
38.986989000000001
 20
222.61571699999999
 30
0.0
 70
     8
  0
VERTEX
  5
860
  8
FORMAT
 62
     7
 10
38.941243999999998
 20
222.610998
 30
0.0
 70
     8
  0
VERTEX
  5
861
  8
FORMAT
 62
     7
 10
38.896526000000001
 20
222.606627
 30
0.0
 70
     8
  0
VERTEX
  5
862
  8
FORMAT
 62
     7
 10
38.852730000000001
 20
222.602585
 30
0.0
 70
     8
  0
VERTEX
  5
863
  8
FORMAT
 62
     7
 10
38.809752000000003
 20
222.598849
 30
0.0
 70
     8
  0
VERTEX
  5
864
  8
FORMAT
 62
     7
 10
38.767488
 20
222.59539899999999
 30
0.0
 70
     8
  0
VERTEX
  5
865
  8
FORMAT
 62
     7
 10
38.725833000000002
 20
222.59221500000001
 30
0.0
 70
     8
  0
VERTEX
  5
866
  8
FORMAT
 62
     7
 10
38.684683
 20
222.58927399999999
 30
0.0
 70
     8
  0
VERTEX
  5
867
  8
FORMAT
 62
     7
 10
38.643934000000002
 20
222.586558
 30
0.0
 70
     8
  0
VERTEX
  5
868
  8
FORMAT
 62
     7
 10
38.643934000000002
 20
222.586558
 30
0.0
 70
     8
  0
VERTEX
  5
869
  8
FORMAT
 62
     7
 10
38.563402000000004
 20
222.581726
 30
0.0
 70
     8
  0
VERTEX
  5
86A
  8
FORMAT
 62
     7
 10
38.484309000000003
 20
222.577629
 30
0.0
 70
     8
  0
VERTEX
  5
86B
  8
FORMAT
 62
     7
 10
38.406908000000001
 20
222.57419200000001
 30
0.0
 70
     8
  0
VERTEX
  5
86C
  8
FORMAT
 62
     7
 10
38.331451999999999
 20
222.57133899999999
 30
0.0
 70
     8
  0
VERTEX
  5
86D
  8
FORMAT
 62
     7
 10
38.258194000000003
 20
222.568996
 30
0.0
 70
     8
  0
VERTEX
  5
86E
  8
FORMAT
 62
     7
 10
38.187387000000001
 20
222.56708599999999
 30
0.0
 70
     8
  0
VERTEX
  5
86F
  8
FORMAT
 62
     7
 10
38.119284
 20
222.56553600000001
 30
0.0
 70
     8
  0
VERTEX
  5
870
  8
FORMAT
 62
     7
 10
38.054138999999999
 20
222.564269
 30
0.0
 70
     8
  0
VERTEX
  5
871
  8
FORMAT
 62
     7
 10
37.992203000000003
 20
222.563211
 30
0.0
 70
     8
  0
VERTEX
  5
872
  8
FORMAT
 62
     7
 10
37.933731000000002
 20
222.562285
 30
0.0
 70
     8
  0
VERTEX
  5
873
  8
FORMAT
 62
     7
 10
47.921561999999987
 20
232.441171
 30
0.0
 70
    16
  0
VERTEX
  5
874
  8
FORMAT
 62
     7
 10
47.919561000000002
 20
232.221497
 30
0.0
 70
    16
  0
VERTEX
  5
875
  8
FORMAT
 62
     7
 10
47.90319199999999
 20
231.89310399999999
 30
0.0
 70
    16
  0
VERTEX
  5
876
  8
FORMAT
 62
     7
 10
47.877016999999988
 20
231.56683899999999
 30
0.0
 70
    16
  0
VERTEX
  5
877
  8
FORMAT
 62
     7
 10
47.840089999999996
 20
231.24270300000001
 30
0.0
 70
    16
  0
VERTEX
  5
878
  8
FORMAT
 62
     7
 10
47.79266299999999
 20
230.92069799999999
 30
0.0
 70
    16
  0
VERTEX
  5
879
  8
FORMAT
 62
     7
 10
47.734670000000001
 20
230.60082399999999
 30
0.0
 70
    16
  0
VERTEX
  5
87A
  8
FORMAT
 62
     7
 10
47.666127000000003
 20
230.283083
 30
0.0
 70
    16
  0
VERTEX
  5
87B
  8
FORMAT
 62
     7
 10
47.587031000000003
 20
229.967476
 30
0.0
 70
    16
  0
VERTEX
  5
87C
  8
FORMAT
 62
     7
 10
47.497382000000002
 20
229.65400399999999
 30
0.0
 70
    16
  0
VERTEX
  5
87D
  8
FORMAT
 62
     7
 10
47.397185999999991
 20
229.342671
 30
0.0
 70
    16
  0
VERTEX
  5
87E
  8
FORMAT
 62
     7
 10
47.286421999999988
 20
229.03345899999999
 30
0.0
 70
    16
  0
VERTEX
  5
87F
  8
FORMAT
 62
     7
 10
46.966200999999991
 20
228.22262499999999
 30
0.0
 70
    16
  0
VERTEX
  5
880
  8
FORMAT
 62
     7
 10
46.29884899999999
 20
226.96320800000001
 30
0.0
 70
    16
  0
VERTEX
  5
881
  8
FORMAT
 62
     7
 10
45.046146
 20
225.44443200000001
 30
0.0
 70
    16
  0
VERTEX
  5
882
  8
FORMAT
 62
     7
 10
43.528516000000003
 20
224.19062500000001
 30
0.0
 70
    16
  0
VERTEX
  5
883
  8
FORMAT
 62
     7
 10
42.200397000000002
 20
223.48540399999999
 30
0.0
 70
    16
  0
VERTEX
  5
884
  8
FORMAT
 62
     7
 10
41.240196999999988
 20
223.117805
 30
0.0
 70
    16
  0
VERTEX
  5
885
  8
FORMAT
 62
     7
 10
40.704516999999989
 20
222.946245
 30
0.0
 70
    16
  0
VERTEX
  5
886
  8
FORMAT
 62
     7
 10
40.162545999999992
 20
222.805994
 30
0.0
 70
    16
  0
VERTEX
  5
887
  8
FORMAT
 62
     7
 10
39.614246999999999
 20
222.69680399999999
 30
0.0
 70
    16
  0
VERTEX
  5
888
  8
FORMAT
 62
     7
 10
39.059652
 20
222.61942999999999
 30
0.0
 70
    16
  0
VERTEX
  5
889
  8
FORMAT
 62
     7
 10
38.498773
 20
222.571099
 30
0.0
 70
    16
  0
VERTEX
  5
88A
  8
FORMAT
 62
     7
 10
38.122585000000001
 20
222.56523100000001
 30
0.0
 70
    16
  0
VERTEX
  5
88B
  8
FORMAT
 62
     7
 10
37.933731000000002
 20
222.562285
 30
0.0
 70
    16
  0
SEQEND
  5
88C
  8
FORMAT
 62
     7
  0
LINE
  5
88D
  8
0
  6
CONTINUOUS
 62
     7
 10
189.20050000000001
 20
276.402038
 30
0.0
 11
189.20050000000001
 21
288.402038
 31
0.0
  0
LINE
  5
88E
  8
0
  6
CONTINUOUS
 62
     7
 10
189.20050000000001
 20
288.402038
 30
0.0
 11
189.20050000000001
 21
285.43153699999999
 31
0.0
  0
LINE
  5
88F
  8
0
  6
CONTINUOUS
 62
     7
 10
189.20050000000001
 20
285.43153699999999
 30
0.0
 11
189.20050000000001
 21
282.50095599999997
 31
0.0
  0
LINE
  5
890
  8
0
  6
CONTINUOUS
 62
     7
 10
189.20050000000001
 20
282.50095599999997
 30
0.0
 11
189.20050000000001
 21
279.61108400000001
 31
0.0
  0
LINE
  5
891
  8
0
  6
CONTINUOUS
 62
     7
 10
189.20050000000001
 20
279.61108400000001
 30
0.0
 11
189.20050000000001
 21
277.63218599999999
 31
0.0
  0
LINE
  5
892
  8
0
  6
CONTINUOUS
 62
     7
 10
189.20050000000001
 20
277.63218599999999
 30
0.0
 11
189.20050000000001
 21
277.47086899999999
 31
0.0
  0
LINE
  5
893
  8
0
  6
CONTINUOUS
 62
     7
 10
189.20050000000001
 20
277.47086899999999
 30
0.0
 11
189.20050000000001
 21
277.34381100000002
 31
0.0
  0
LINE
  5
894
  8
0
  6
CONTINUOUS
 62
     7
 10
189.20050000000001
 20
277.34381100000002
 30
0.0
 11
189.20050000000001
 21
276.76270899999997
 31
0.0
  0
LINE
  5
895
  8
0
  6
CONTINUOUS
 62
     7
 10
189.20050000000001
 20
276.76270899999997
 30
0.0
 11
189.20050000000001
 21
276.402038
 31
0.0
  0
LINE
  5
896
  8
0
  6
CONTINUOUS
 62
     7
 10
460.1768019999999
 20
169.19162900000001
 30
0.0
 11
463.30362300000002
 21
168.96064100000001
 31
0.0
  0
LINE
  5
897
  8
0
  6
CONTINUOUS
 62
     7
 10
463.30362300000002
 20
168.96064100000001
 30
0.0
 11
466.430655
 21
168.73917499999999
 31
0.0
  0
LINE
  5
898
  8
0
  6
CONTINUOUS
 62
     7
 10
466.430655
 20
168.73917499999999
 30
0.0
 11
469.55777699999982
 21
168.526928
 31
0.0
  0
LINE
  5
899
  8
0
  6
CONTINUOUS
 62
     7
 10
214.20050000000001
 20
288.402038
 30
0.0
 11
214.46319199999999
 21
285.43153699999999
 31
0.0
  0
LINE
  5
89A
  8
0
  6
CONTINUOUS
 62
     7
 10
214.46319199999999
 20
285.43153699999999
 30
0.0
 11
214.933055
 21
282.50095599999997
 31
0.0
  0
LINE
  5
89B
  8
0
  6
CONTINUOUS
 62
     7
 10
214.933055
 20
282.50095599999997
 30
0.0
 11
215.602901
 21
279.61108400000001
 31
0.0
  0
DIMENSION
  5
89C
  8
LAYER01
 62
     7
  2
*D14
 10
765.93429400000002
 20
118.274006
 30
0.0
 11
735.93429400000002
 21
204.24034700000001
 31
0.0
 53
90.0
 13
559.20050000000003
 23
288.402038
 33
0.0
 14
559.20050000000003
 24
118.274006
 34
0.0
 50
90.0
  0
POLYLINE
  5
89D
  8
0
  6
CONTINUOUS
 62
     7
 66
     1
 10
0.0
 20
0.0
 30
0.0
 70
     1
  0
VERTEX
  5
1637
  8
0
  6
CONTINUOUS
 62
     7
 10
527.7406299999999
 20
165.14035799999999
 30
0.0
  0
VERTEX
  5
1638
  8
0
  6
CONTINUOUS
 62
     7
 10
534.20050000000003
 20
288.402038
 30
0.0
  0
VERTEX
  5
1639
  8
0
  6
CONTINUOUS
 62
     7
 10
559.20050000000003
 20
288.402038
 30
0.0
  0
VERTEX
  5
163A
  8
0
  6
CONTINUOUS
 62
     7
 10
559.20050000000003
 20
276.402038
 30
0.0
  0
VERTEX
  5
163B
  8
0
  6
CONTINUOUS
 62
     7
 10
559.14700400000004
 20
276.192071
 30
0.0
  0
VERTEX
  5
163C
  8
0
  6
CONTINUOUS
 62
     7
 10
559.09806900000001
 20
275.98099400000001
 30
0.0
  0
VERTEX
  5
163D
  8
0
  6
CONTINUOUS
 62
     7
 10
559.053718
 20
275.76890600000002
 30
0.0
  0
VERTEX
  5
163E
  8
0
  6
CONTINUOUS
 62
     7
 10
559.01397299999996
 20
275.55590699999999
 30
0.0
  0
VERTEX
  5
163F
  8
0
  6
CONTINUOUS
 62
     7
 10
558.97885299999996
 20
275.34209700000002
 30
0.0
  0
VERTEX
  5
1640
  8
0
  6
CONTINUOUS
 62
     7
 10
558.94837299999995
 20
275.12757699999997
 30
0.0
  0
VERTEX
  5
1641
  8
0
  6
CONTINUOUS
 62
     7
 10
558.92254800000001
 20
274.91244599999999
 30
0.0
  0
VERTEX
  5
1642
  8
0
  6
CONTINUOUS
 62
     7
 10
558.90138999999999
 20
274.69680599999998
 30
0.0
  0
VERTEX
  5
1643
  8
0
  6
CONTINUOUS
 62
     7
 10
558.88490999999999
 20
274.48075899999998
 30
0.0
  0
VERTEX
  5
1644
  8
0
  6
CONTINUOUS
 62
     7
 10
558.87311399999999
 20
274.26440500000001
 30
0.0
  0
VERTEX
  5
1645
  8
0
  6
CONTINUOUS
 62
     7
 10
552.145939
 20
120.186768
 30
0.0
  0
VERTEX
  5
1646
  8
0
  6
CONTINUOUS
 62
     7
 10
552.138912
 20
120.085211
 30
0.0
  0
VERTEX
  5
1647
  8
0
  6
CONTINUOUS
 62
     7
 10
552.12672599999996
 20
119.984143
 30
0.0
  0
VERTEX
  5
1648
  8
0
  6
CONTINUOUS
 62
     7
 10
552.10941300000002
 20
119.883826
 30
0.0
  0
VERTEX
  5
1649
  8
0
  6
CONTINUOUS
 62
     7
 10
552.08701799999994
 20
119.78452
 30
0.0
  0
VERTEX
  5
164A
  8
0
  6
CONTINUOUS
 62
     7
 10
552.05959900000005
 20
119.686482
 30
0.0
  0
VERTEX
  5
164B
  8
0
  6
CONTINUOUS
 62
     7
 10
552.02722800000004
 20
119.589966
 30
0.0
  0
VERTEX
  5
164C
  8
0
  6
CONTINUOUS
 62
     7
 10
551.98998700000004
 20
119.495223
 30
0.0
  0
VERTEX
  5
164D
  8
0
  6
CONTINUOUS
 62
     7
 10
551.94797300000005
 20
119.402497
 30
0.0
  0
VERTEX
  5
164E
  8
0
  6
CONTINUOUS
 62
     7
 10
551.901296
 20
119.312029
 30
0.0
  0
VERTEX
  5
164F
  8
0
  6
CONTINUOUS
 62
     7
 10
551.85007599999994
 20
119.224053
 30
0.0
  0
VERTEX
  5
1650
  8
0
  6
CONTINUOUS
 62
     7
 10
551.79444499999988
 20
119.13879799999999
 30
0.0
  0
VERTEX
  5
1651
  8
0
  6
CONTINUOUS
 62
     7
 10
551.73454900000002
 20
119.056484
 30
0.0
  0
VERTEX
  5
1652
  8
0
  6
CONTINUOUS
 62
     7
 10
551.67054199999995
 20
118.977324
 30
0.0
  0
VERTEX
  5
1653
  8
0
  6
CONTINUOUS
 62
     7
 10
551.60258999999996
 20
118.901523
 30
0.0
  0
VERTEX
  5
1654
  8
0
  6
CONTINUOUS
 62
     7
 10
551.53086900000005
 20
118.829278
 30
0.0
  0
VERTEX
  5
1655
  8
0
  6
CONTINUOUS
 62
     7
 10
551.45556399999998
 20
118.760777
 30
0.0
  0
VERTEX
  5
1656
  8
0
  6
CONTINUOUS
 62
     7
 10
551.37687199999993
 20
118.696196
 30
0.0
  0
VERTEX
  5
1657
  8
0
  6
CONTINUOUS
 62
     7
 10
551.29499499999986
 20
118.63570199999999
 30
0.0
  0
VERTEX
  5
1658
  8
0
  6
CONTINUOUS
 62
     7
 10
551.21014700000001
 20
118.579453
 30
0.0
  0
VERTEX
  5
1659
  8
0
  6
CONTINUOUS
 62
     7
 10
551.12254599999994
 20
118.52759500000001
 30
0.0
  0
VERTEX
  5
165A
  8
0
  6
CONTINUOUS
 62
     7
 10
551.03242
 20
118.480261
 30
0.0
  0
VERTEX
  5
165B
  8
0
  6
CONTINUOUS
 62
     7
 10
550.94000199999994
 20
118.437574
 30
0.0
  0
VERTEX
  5
165C
  8
0
  6
CONTINUOUS
 62
     7
 10
550.84553200000005
 20
118.39964500000001
 30
0.0
  0
VERTEX
  5
165D
  8
0
  6
CONTINUOUS
 62
     7
 10
550.74925399999995
 20
118.366573
 30
0.0
  0
VERTEX
  5
165E
  8
0
  6
CONTINUOUS
 62
     7
 10
550.65141799999992
 20
118.338442
 30
0.0
  0
VERTEX
  5
165F
  8
0
  6
CONTINUOUS
 62
     7
 10
550.55227799999989
 20
118.315325
 30
0.0
  0
VERTEX
  5
1660
  8
0
  6
CONTINUOUS
 62
     7
 10
550.452089
 20
118.29728299999999
 30
0.0
  0
VERTEX
  5
1661
  8
0
  6
CONTINUOUS
 62
     7
 10
550.35111299999994
 20
118.284363
 30
0.0
  0
VERTEX
  5
1662
  8
0
  6
CONTINUOUS
 62
     7
 10
550.24960899999996
 20
118.276597
 30
0.0
  0
VERTEX
  5
1663
  8
0
  6
CONTINUOUS
 62
     7
 10
550.14784199999986
 20
118.274006
 30
0.0
  0
VERTEX
  5
1664
  8
0
  6
CONTINUOUS
 62
     7
 10
540.93564500000002
 20
118.274006
 30
0.0
  0
VERTEX
  5
1665
  8
0
  6
CONTINUOUS
 62
     7
 10
540.93564500000002
 20
138.27400600000001
 30
0.0
  0
VERTEX
  5
1666
  8
0
  6
CONTINUOUS
 62
     7
 10
522.56879000000004
 20
138.27400600000001
 30
0.0
  0
VERTEX
  5
1667
  8
0
  6
CONTINUOUS
 62
     7
 10
522.56879000000004
 20
151.402038
 30
0.0
  0
VERTEX
  5
1668
  8
0
  6
CONTINUOUS
 62
     7
 10
522.93564500000002
 20
158.402038
 30
0.0
  0
VERTEX
  5
1669
  8
0
  6
CONTINUOUS
 62
     7
 10
525.43564500000002
 20
158.402038
 30
0.0
  0
VERTEX
  5
166A
  8
0
  6
CONTINUOUS
 62
     7
 10
525.43564500000002
 20
161.18614199999999
 30
0.0
  0
VERTEX
  5
166B
  8
0
  6
CONTINUOUS
 62
     7
 10
525.64316599999995
 20
161.325886
 30
0.0
  0
VERTEX
  5
166C
  8
0
  6
CONTINUOUS
 62
     7
 10
525.8237509999999
 20
161.46039200000001
 30
0.0
  0
VERTEX
  5
166D
  8
0
  6
CONTINUOUS
 62
     7
 10
525.84343699999988
 20
161.47583599999999
 30
0.0
  0
VERTEX
  5
166E
  8
0
  6
CONTINUOUS
 62
     7
 10
526.03595700000005
 20
161.635616
 30
0.0
  0
VERTEX
  5
166F
  8
0
  6
CONTINUOUS
 62
     7
 10
526.18406700000003
 20
161.77025
 30
0.0
  0
VERTEX
  5
1670
  8
0
  6
CONTINUOUS
 62
     7
 10
526.22024299999998
 20
161.80482599999999
 30
0.0
  0
VERTEX
  5
1671
  8
0
  6
CONTINUOUS
 62
     7
 10
526.39583400000004
 20
161.98304300000001
 30
0.0
  0
VERTEX
  5
1672
  8
0
  6
CONTINUOUS
 62
     7
 10
526.51333799999986
 20
162.11291600000001
 30
0.0
  0
VERTEX
  5
1673
  8
0
  6
CONTINUOUS
 62
     7
 10
526.56229099999985
 20
162.16981999999999
 30
0.0
  0
VERTEX
  5
1674
  8
0
  6
CONTINUOUS
 62
     7
 10
526.7191959999999
 20
162.36469
 30
0.0
  0
VERTEX
  5
1675
  8
0
  6
CONTINUOUS
 62
     7
 10
526.80859099999986
 20
162.48529400000001
 30
0.0
  0
VERTEX
  5
1676
  8
0
  6
CONTINUOUS
 62
     7
 10
526.86615800000004
 20
162.56716399999999
 30
0.0
  0
VERTEX
  5
1677
  8
0
  6
CONTINUOUS
 62
     7
 10
527.00280700000008
 20
162.776736
 30
0.0
  0
VERTEX
  5
1678
  8
0
  6
CONTINUOUS
 62
     7
 10
527.06715700000007
 20
162.88402099999999
 30
0.0
  0
VERTEX
  5
1679
  8
0
  6
CONTINUOUS
 62
     7
 10
527.12880199999995
 20
162.99288200000001
 30
0.0
  0
VERTEX
  5
167A
  8
0
  6
CONTINUOUS
 62
     7
 10
527.24382700000001
 20
163.215059
 30
0.0
  0
VERTEX
  5
167B
  8
0
  6
CONTINUOUS
 62
     7
 10
527.28669999999988
 20
163.30549400000001
 30
0.0
  0
VERTEX
  5
167C
  8
0
  6
CONTINUOUS
 62
     7
 10
527.34759499999996
 20
163.442711
 30
0.0
  0
VERTEX
  5
167D
  8
0
  6
CONTINUOUS
 62
     7
 10
527.43984499999988
 20
163.67527000000001
 30
0.0
  0
VERTEX
  5
167E
  8
0
  6
CONTINUOUS
 62
     7
 10
527.46523899999988
 20
163.74590699999999
 30
0.0
  0
VERTEX
  5
167F
  8
0
  6
CONTINUOUS
 62
     7
 10
527.52034700000002
 20
163.91215199999999
 30
0.0
  0
VERTEX
  5
1680
  8
0
  6
CONTINUOUS
 62
     7
 10
527.58889800000009
 20
164.15276399999999
 30
0.0
  0
VERTEX
  5
1681
  8
0
  6
CONTINUOUS
 62
     7
 10
527.60115899999994
 20
164.20128099999999
 30
0.0
  0
VERTEX
  5
1682
  8
0
  6
CONTINUOUS
 62
     7
 10
527.64532800000006
 20
164.39650399999999
 30
0.0
  0
VERTEX
  5
1683
  8
0
  6
CONTINUOUS
 62
     7
 10
527.68949599999985
 20
164.64276100000001
 30
0.0
  0
VERTEX
  5
1684
  8
0
  6
CONTINUOUS
 62
     7
 10
527.69323299999996
 20
164.66750200000001
 30
0.0
  0
VERTEX
  5
1685
  8
0
  6
CONTINUOUS
 62
     7
 10
527.72128899999996
 20
164.89091999999999
 30
0.0
  0
SEQEND
  5
1686
  8
0
  6
CONTINUOUS
 62
     7
  0
LINE
  5
8EE
  8
0
  6
CONTINUOUS
 62
     7
 10
527.7406299999999
 20
165.14035799999999
 30
0.0
 11
534.20050000000003
 21
288.402038
 31
0.0
  0
DIMENSION
  5
8EF
  8
LAYER01
 62
     7
  2
*D15
 10
634.46052599999985
 20
178.01448600000001
 30
0.0
 11
604.46052599999985
 21
234.11058700000001
 31
0.0
 53
90.0
 13
559.20050000000003
 23
288.402038
 33
0.0
 14
559.20050000000003
 24
178.01448600000001
 34
0.0
 50
90.0
  0
DIMENSION
  5
8F0
  8
LAYER01
 62
     7
  2
*D16
 10
696.22262199999989
 20
138.27400600000001
 30
0.0
 11
666.22262199999989
 21
214.24034700000001
 31
0.0
 53
90.0
 13
559.20050000000003
 23
288.402038
 33
0.0
 14
559.20050000000003
 24
138.27400600000001
 34
0.0
 50
90.0
  0
LINE
  5
8F1
  8
0
  6
CONTINUOUS
 62
     7
 10
558.87311399999999
 20
274.26440500000001
 30
0.0
 11
552.145939
 21
120.186768
 31
0.0
  0
ARC
  5
8F2
  8
0
  6
CONTINUOUS
 62
     7
 10
550.14784199999986
 20
120.274006
 30
0.0
 40
2.0
 50
270.0
 51
357.5
  0
LINE
  5
8F3
  8
0
  6
CONTINUOUS
 62
     7
 10
540.93564500000002
 20
118.274006
 30
0.0
 11
550.14784199999986
 21
118.274006
 31
0.0
  0
LINE
  5
8F4
  8
0
  6
CONTINUOUS
 62
     7
 10
540.93564500000002
 20
138.27400600000001
 30
0.0
 11
540.93564500000002
 21
118.274006
 31
0.0
  0
LINE
  5
8F5
  8
0
  6
CONTINUOUS
 62
     7
 10
540.93564500000002
 20
138.27400600000001
 30
0.0
 11
522.56879000000004
 21
138.27400600000001
 31
0.0
  0
LINE
  5
8F6
  8
0
  6
CONTINUOUS
 62
     7
 10
522.56879000000004
 20
138.27400600000001
 30
0.0
 11
522.56879000000004
 21
151.402038
 31
0.0
  0
LINE
  5
8F7
  8
0
  6
CONTINUOUS
 62
     7
 10
522.93564500000002
 20
158.402038
 30
0.0
 11
522.56879000000004
 21
151.402038
 31
0.0
  0
LINE
  5
8F8
  8
0
  6
CONTINUOUS
 62
     7
 10
522.93564500000002
 20
158.402038
 30
0.0
 11
525.43564500000002
 21
158.402038
 31
0.0
  0
LINE
  5
8F9
  8
0
  6
CONTINUOUS
 62
     7
 10
525.43564500000002
 20
161.18614199999999
 30
0.0
 11
525.43564500000002
 21
158.402038
 31
0.0
  0
LINE
  5
8FA
  8
0
  6
CONTINUOUS
 62
     7
 10
510.43564500000002
 20
158.402038
 30
0.0
 11
510.43564500000002
 21
161.18614199999999
 31
0.0
  0
LINE
  5
8FB
  8
0
  6
CONTINUOUS
 62
     7
 10
510.43564500000002
 20
158.402038
 30
0.0
 11
512.93564500000002
 21
158.402038
 31
0.0
  0
LINE
  5
8FC
  8
0
  6
CONTINUOUS
 62
     7
 10
513.30249900000001
 20
151.402038
 30
0.0
 11
512.93564500000002
 21
158.402038
 31
0.0
  0
LINE
  5
8FD
  8
0
  6
CONTINUOUS
 62
     7
 10
513.30249900000001
 20
151.402038
 30
0.0
 11
513.30249900000001
 21
138.27400600000001
 31
0.0
  0
LINE
  5
8FE
  8
0
  6
CONTINUOUS
 62
     7
 10
513.30249900000001
 20
138.27400600000001
 30
0.0
 11
494.93564500000002
 21
138.27400600000001
 31
0.0
  0
LINE
  5
8FF
  8
0
  6
CONTINUOUS
 62
     7
 10
494.93564500000002
 20
118.274006
 30
0.0
 11
494.93564500000002
 21
138.27400600000001
 31
0.0
  0
LINE
  5
900
  8
0
  6
CONTINUOUS
 62
     7
 10
494.93564500000002
 20
118.274006
 30
0.0
 11
540.93564500000002
 21
118.274006
 31
0.0
  0
LINE
  5
901
  8
0
  6
CONTINUOUS
 62
     7
 10
522.56879000000004
 20
151.402038
 30
0.0
 11
513.30249900000001
 21
151.402038
 31
0.0
  0
LINE
  5
902
  8
0
  6
CONTINUOUS
 62
     7
 10
517.93564500000002
 20
138.27400600000001
 30
0.0
 11
522.56879000000004
 21
138.27400600000001
 31
0.0
  0
LINE
  5
903
  8
0
  6
CONTINUOUS
 62
     7
 10
513.30249900000001
 20
138.27400600000001
 30
0.0
 11
517.93564500000002
 21
138.27400600000001
 31
0.0
  0
LINE
  5
904
  8
0
  6
CONTINUOUS
 62
     7
 10
522.93564500000002
 20
158.402038
 30
0.0
 11
512.93564500000002
 21
158.402038
 31
0.0
  0
LINE
  5
905
  8
0
  6
CONTINUOUS
 62
     7
 10
522.74748199999999
 20
160.40203799999989
 30
0.0
 11
513.12380800000005
 21
160.40203799999989
 31
0.0
  0
ARC
  5
906
  8
0
  6
CONTINUOUS
 62
     7
 10
513.12380800000005
 20
165.40203799999989
 30
0.0
 40
5.0
 50
237.47737699999999
 51
270.0
  0
ARC
  5
907
  8
0
  6
CONTINUOUS
 62
     7
 10
522.74748199999999
 20
165.40203799999989
 30
0.0
 40
5.0
 50
270.0
 51
302.52262300000001
  0
LINE
  5
908
  8
0
  6
CONTINUOUS
 62
     7
 10
504.65378199999998
 20
178.23736600000001
 30
0.0
 11
504.8833679999999
 21
178.13165900000001
 31
0.0
  0
LINE
  5
909
  8
0
  6
CONTINUOUS
 62
     7
 10
504.8833679999999
 20
178.13165900000001
 30
0.0
 11
505.10731799999991
 21
178.01448600000001
 31
0.0
  0
LINE
  5
90A
  8
0
  6
CONTINUOUS
 62
     7
 10
505.10731799999991
 20
178.01448600000001
 30
0.0
 11
505.325062
 21
177.886145
 31
0.0
  0
LINE
  5
90B
  8
0
  6
CONTINUOUS
 62
     7
 10
505.325062
 20
177.886145
 30
0.0
 11
505.41311799999988
 21
177.82805500000001
 31
0.0
  0
LINE
  5
90C
  8
0
  6
CONTINUOUS
 62
     7
 10
505.41311799999988
 20
177.82805500000001
 30
0.0
 11
505.53604100000001
 21
177.74696499999999
 31
0.0
  0
LINE
  5
90D
  8
0
  6
CONTINUOUS
 62
     7
 10
505.53604100000001
 20
177.74696499999999
 30
0.0
 11
505.73971699999993
 21
177.59729999999999
 31
0.0
  0
LINE
  5
90E
  8
0
  6
CONTINUOUS
 62
     7
 10
505.73971699999993
 20
177.59729999999999
 30
0.0
 11
505.93556999999998
 21
177.437535
 31
0.0
  0
LINE
  5
90F
  8
0
  6
CONTINUOUS
 62
     7
 10
505.93556999999998
 20
177.437535
 30
0.0
 11
506.09376600000002
 21
177.29458299999999
 31
0.0
  0
LINE
  5
910
  8
0
  6
CONTINUOUS
 62
     7
 10
506.09376600000002
 20
177.29458299999999
 30
0.0
 11
506.12309900000002
 21
177.26807600000001
 31
0.0
  0
LINE
  5
911
  8
0
  6
CONTINUOUS
 62
     7
 10
506.12309900000002
 20
177.26807600000001
 30
0.0
 11
506.30182499999989
 21
177.08935700000001
 31
0.0
  0
LINE
  5
912
  8
0
  6
CONTINUOUS
 62
     7
 10
506.30182499999989
 20
177.08935700000001
 30
0.0
 11
506.47129199999989
 21
176.90183500000001
 31
0.0
  0
LINE
  5
913
  8
0
  6
CONTINUOUS
 62
     7
 10
506.47129199999989
 20
176.90183500000001
 30
0.0
 11
506.57265199999989
 21
176.77758900000001
 31
0.0
  0
LINE
  5
914
  8
0
  6
CONTINUOUS
 62
     7
 10
506.57265199999989
 20
176.77758900000001
 30
0.0
 11
506.63106499999998
 21
176.70598799999999
 31
0.0
  0
LINE
  5
915
  8
0
  6
CONTINUOUS
 62
     7
 10
506.63106499999998
 20
176.70598799999999
 30
0.0
 11
506.78073799999987
 21
176.502318
 31
0.0
  0
LINE
  5
916
  8
0
  6
CONTINUOUS
 62
     7
 10
506.78073799999987
 20
176.502318
 30
0.0
 11
506.91992599999992
 21
176.29134400000001
 31
0.0
  0
LINE
  5
917
  8
0
  6
CONTINUOUS
 62
     7
 10
506.91992599999992
 20
176.29134400000001
 30
0.0
 11
506.92851599999989
 21
176.27677199999999
 31
0.0
  0
LINE
  5
918
  8
0
  6
CONTINUOUS
 62
     7
 10
506.92851599999989
 20
176.27677199999999
 30
0.0
 11
507.04827599999987
 21
176.07360600000001
 31
0.0
  0
LINE
  5
919
  8
0
  6
CONTINUOUS
 62
     7
 10
507.04827599999987
 20
176.07360600000001
 30
0.0
 11
507.16545799999989
 21
175.84966
 31
0.0
  0
LINE
  5
91A
  8
0
  6
CONTINUOUS
 62
     7
 10
507.16545799999989
 20
175.84966
 30
0.0
 11
507.19208800000001
 21
175.79182800000001
 31
0.0
  0
LINE
  5
91B
  8
0
  6
CONTINUOUS
 62
     7
 10
507.19208800000001
 20
175.79182800000001
 30
0.0
 11
507.27117399999997
 21
175.62007800000001
 31
0.0
  0
LINE
  5
91C
  8
0
  6
CONTINUOUS
 62
     7
 10
507.27117399999997
 20
175.62007800000001
 30
0.0
 11
507.36515300000002
 21
175.385448
 31
0.0
  0
LINE
  5
91D
  8
0
  6
CONTINUOUS
 62
     7
 10
510.43564500000002
 20
160.945267
 30
0.0
 11
510.43564500000002
 21
160.84418199999999
 31
0.0
  0
LINE
  5
91E
  8
0
  6
CONTINUOUS
 62
     7
 10
510.43564500000002
 20
160.84418199999999
 30
0.0
 11
510.43564500000002
 21
160.33488
 31
0.0
  0
LINE
  5
91F
  8
0
  6
CONTINUOUS
 62
     7
 10
510.43564500000002
 20
160.33488
 30
0.0
 11
510.43564500000002
 21
160.23232200000001
 31
0.0
  0
LINE
  5
920
  8
0
  6
CONTINUOUS
 62
     7
 10
510.43564500000002
 20
160.23232200000001
 30
0.0
 11
510.43564500000002
 21
159.82013900000001
 31
0.0
  0
LINE
  5
921
  8
0
  6
CONTINUOUS
 62
     7
 10
510.43564500000002
 20
159.82013900000001
 30
0.0
 11
510.43564500000002
 21
159.50926799999999
 31
0.0
  0
LINE
  5
922
  8
0
  6
CONTINUOUS
 62
     7
 10
510.43564500000002
 20
159.50926799999999
 30
0.0
 11
510.43564500000002
 21
159.301365
 31
0.0
  0
LINE
  5
923
  8
0
  6
CONTINUOUS
 62
     7
 10
510.43564500000002
 20
159.301365
 30
0.0
 11
510.43564500000002
 21
158.77997500000001
 31
0.0
  0
LINE
  5
924
  8
0
  6
CONTINUOUS
 62
     7
 10
510.43564500000002
 20
158.77997500000001
 30
0.0
 11
510.43564500000002
 21
158.402038
 31
0.0
  0
LINE
  5
925
  8
0
  6
CONTINUOUS
 62
     7
 10
512.93564500000002
 20
158.402038
 30
0.0
 11
513.30249900000001
 21
151.402038
 31
0.0
  0
LINE
  5
926
  8
0
  6
CONTINUOUS
 62
     7
 10
513.30249900000001
 20
151.402038
 30
0.0
 11
513.30249900000001
 21
138.27400600000001
 31
0.0
  0
LINE
  5
927
  8
0
  6
CONTINUOUS
 62
     7
 10
494.93564500000002
 20
138.27400600000001
 30
0.0
 11
494.93564500000002
 21
120.186768
 31
0.0
  0
LINE
  5
928
  8
0
  6
CONTINUOUS
 62
     7
 10
483.72535099999999
 20
120.186768
 30
0.0
 11
483.73237799999998
 21
120.085211
 31
0.0
  0
LINE
  5
929
  8
0
  6
CONTINUOUS
 62
     7
 10
483.73237799999998
 20
120.085211
 30
0.0
 11
483.74456399999991
 21
119.984143
 31
0.0
  0
LINE
  5
92A
  8
0
  6
CONTINUOUS
 62
     7
 10
483.74456399999991
 20
119.984143
 30
0.0
 11
483.76187699999991
 21
119.883826
 31
0.0
  0
LINE
  5
92B
  8
0
  6
CONTINUOUS
 62
     7
 10
483.76187699999991
 20
119.883826
 30
0.0
 11
483.78427099999999
 21
119.78452
 31
0.0
  0
LINE
  5
92C
  8
0
  6
CONTINUOUS
 62
     7
 10
483.78427099999999
 20
119.78452
 30
0.0
 11
483.81169000000011
 21
119.686482
 31
0.0
  0
LINE
  5
92D
  8
0
  6
CONTINUOUS
 62
     7
 10
483.81169000000011
 20
119.686482
 30
0.0
 11
483.84406200000001
 21
119.589966
 31
0.0
  0
LINE
  5
92E
  8
0
  6
CONTINUOUS
 62
     7
 10
483.84406200000001
 20
119.589966
 30
0.0
 11
483.88130299999989
 21
119.495223
 31
0.0
  0
LINE
  5
92F
  8
0
  6
CONTINUOUS
 62
     7
 10
483.88130299999989
 20
119.495223
 30
0.0
 11
483.923316
 21
119.402497
 31
0.0
  0
LINE
  5
930
  8
0
  6
CONTINUOUS
 62
     7
 10
483.923316
 20
119.402497
 30
0.0
 11
483.96999399999999
 21
119.312029
 31
0.0
  0
LINE
  5
931
  8
0
  6
CONTINUOUS
 62
     7
 10
483.96999399999999
 20
119.312029
 30
0.0
 11
484.02121399999999
 21
119.224053
 31
0.0
  0
LINE
  5
932
  8
0
  6
CONTINUOUS
 62
     7
 10
484.02121399999999
 20
119.224053
 30
0.0
 11
484.07684399999999
 21
119.13879799999999
 31
0.0
  0
LINE
  5
933
  8
0
  6
CONTINUOUS
 62
     7
 10
484.07684399999999
 20
119.13879799999999
 30
0.0
 11
484.13673999999997
 21
119.056484
 31
0.0
  0
LINE
  5
934
  8
0
  6
CONTINUOUS
 62
     7
 10
484.13673999999997
 20
119.056484
 30
0.0
 11
484.20074799999998
 21
118.977324
 31
0.0
  0
LINE
  5
935
  8
0
  6
CONTINUOUS
 62
     7
 10
484.20074799999998
 20
118.977324
 30
0.0
 11
484.26870000000002
 21
118.901523
 31
0.0
  0
LINE
  5
936
  8
0
  6
CONTINUOUS
 62
     7
 10
484.26870000000002
 20
118.901523
 30
0.0
 11
484.34042099999999
 21
118.829278
 31
0.0
  0
LINE
  5
937
  8
0
  6
CONTINUOUS
 62
     7
 10
484.34042099999999
 20
118.829278
 30
0.0
 11
484.41572500000001
 21
118.760777
 31
0.0
  0
LINE
  5
938
  8
0
  6
CONTINUOUS
 62
     7
 10
484.41572500000001
 20
118.760777
 30
0.0
 11
484.49441799999988
 21
118.696196
 31
0.0
  0
LINE
  5
939
  8
0
  6
CONTINUOUS
 62
     7
 10
484.49441799999988
 20
118.696196
 30
0.0
 11
484.57629400000002
 21
118.63570199999999
 31
0.0
  0
LINE
  5
93A
  8
0
  6
CONTINUOUS
 62
     7
 10
484.57629400000002
 20
118.63570199999999
 30
0.0
 11
484.66114299999998
 21
118.579453
 31
0.0
  0
LINE
  5
93B
  8
0
  6
CONTINUOUS
 62
     7
 10
484.66114299999998
 20
118.579453
 30
0.0
 11
484.74874399999999
 21
118.52759500000001
 31
0.0
  0
LINE
  5
93C
  8
0
  6
CONTINUOUS
 62
     7
 10
484.74874399999999
 20
118.52759500000001
 30
0.0
 11
484.83886999999999
 21
118.480261
 31
0.0
  0
LINE
  5
93D
  8
0
  6
CONTINUOUS
 62
     7
 10
484.83886999999999
 20
118.480261
 30
0.0
 11
484.931288
 21
118.437574
 31
0.0
  0
LINE
  5
93E
  8
0
  6
CONTINUOUS
 62
     7
 10
484.931288
 20
118.437574
 30
0.0
 11
485.025758
 21
118.39964500000001
 31
0.0
  0
LINE
  5
93F
  8
0
  6
CONTINUOUS
 62
     7
 10
485.025758
 20
118.39964500000001
 30
0.0
 11
485.12203499999998
 21
118.366573
 31
0.0
  0
LINE
  5
940
  8
0
  6
CONTINUOUS
 62
     7
 10
485.12203499999998
 20
118.366573
 30
0.0
 11
485.21987100000001
 21
118.338442
 31
0.0
  0
LINE
  5
941
  8
0
  6
CONTINUOUS
 62
     7
 10
472.68486599999989
 20
168.323598
 30
0.0
 11
473.20542699999987
 21
168.27678900000001
 31
0.0
  0
LINE
  5
942
  8
0
  6
CONTINUOUS
 62
     7
 10
473.20542699999987
 20
168.27678900000001
 30
0.0
 11
473.41284699999989
 21
168.25045800000001
 31
0.0
  0
LINE
  5
943
  8
0
  6
CONTINUOUS
 62
     7
 10
473.41284699999989
 20
168.25045800000001
 30
0.0
 11
473.72283199999998
 21
168.202845
 31
0.0
  0
LINE
  5
944
  8
0
  6
CONTINUOUS
 62
     7
 10
473.72283199999998
 20
168.202845
 30
0.0
 11
474.133532
 21
168.12428600000001
 31
0.0
  0
LINE
  5
945
  8
0
  6
CONTINUOUS
 62
     7
 10
474.133532
 20
168.12428600000001
 30
0.0
 11
474.23566599999998
 21
168.101968
 31
0.0
  0
LINE
  5
946
  8
0
  6
CONTINUOUS
 62
     7
 10
474.23566599999998
 20
168.101968
 30
0.0
 11
474.74252899999988
 21
167.974435
 31
0.0
  0
LINE
  5
947
  8
0
  6
CONTINUOUS
 62
     7
 10
474.74252899999988
 20
167.974435
 30
0.0
 11
474.84306299999992
 21
167.94575800000001
 31
0.0
  0
LINE
  5
948
  8
0
  6
CONTINUOUS
 62
     7
 10
474.84306299999992
 20
167.94575800000001
 30
0.0
 11
475.24203699999998
 21
167.820592
 31
0.0
  0
LINE
  5
949
  8
0
  6
CONTINUOUS
 62
     7
 10
475.24203699999998
 20
167.820592
 30
0.0
 11
475.53764200000001
 21
167.71583100000001
 31
0.0
  0
LINE
  5
94A
  8
0
  6
CONTINUOUS
 62
     7
 10
475.53764200000001
 20
167.71583100000001
 30
0.0
 11
475.73282399999999
 21
167.640862
 31
0.0
  0
LINE
  5
94B
  8
0
  6
CONTINUOUS
 62
     7
 10
475.73282399999999
 20
167.640862
 30
0.0
 11
476.21355
 21
167.435734
 31
0.0
  0
LINE
  5
94C
  8
0
  6
CONTINUOUS
 62
     7
 10
476.21355
 20
167.435734
 30
0.0
 11
476.6829019999999
 21
167.20577
 31
0.0
  0
LINE
  5
94D
  8
0
  6
CONTINUOUS
 62
     7
 10
476.6829019999999
 20
167.20577
 30
0.0
 11
476.86716999999999
 21
167.10696799999999
 31
0.0
  0
LINE
  5
94E
  8
0
  6
CONTINUOUS
 62
     7
 10
476.86716999999999
 20
167.10696799999999
 30
0.0
 11
477.13959799999998
 21
166.951596
 31
0.0
  0
LINE
  5
94F
  8
0
  6
CONTINUOUS
 62
     7
 10
477.13959799999998
 20
166.951596
 30
0.0
 11
477.495003
 21
166.731292
 31
0.0
  0
LINE
  5
950
  8
0
  6
CONTINUOUS
 62
     7
 10
477.495003
 20
166.731292
 30
0.0
 11
477.58238999999998
 21
166.67390900000001
 31
0.0
  0
LINE
  5
951
  8
0
  6
CONTINUOUS
 62
     7
 10
477.58238999999998
 20
166.67390900000001
 30
0.0
 11
478.01006799999999
 21
166.37346500000001
 31
0.0
  0
LINE
  5
952
  8
0
  6
CONTINUOUS
 62
     7
 10
478.01006799999999
 20
166.37346500000001
 30
0.0
 11
478.09368699999987
 21
166.31071700000001
 31
0.0
  0
LINE
  5
953
  8
0
  6
CONTINUOUS
 62
     7
 10
478.09368699999987
 20
166.31071700000001
 30
0.0
 11
478.42146500000001
 21
166.051086
 31
0.0
  0
LINE
  5
954
  8
0
  6
CONTINUOUS
 62
     7
 10
478.42146500000001
 20
166.051086
 30
0.0
 11
478.66001799999992
 21
165.84749400000001
 31
0.0
  0
LINE
  5
955
  8
0
  6
CONTINUOUS
 62
     7
 10
559.20050000000003
 20
288.402038
 30
0.0
 11
559.20050000000003
 21
276.402038
 31
0.0
  0
ARC
  5
956
  8
0
  6
CONTINUOUS
 62
     7
 10
568.86359600000003
 20
273.82821100000001
 30
0.0
 40
10.0
 50
165.085183
 51
177.5
  0
LINE
  5
957
  8
0
  6
CONTINUOUS
 62
     7
 10
534.20050000000003
 20
288.402038
 30
0.0
 11
559.20050000000003
 21
288.402038
 31
0.0
  0
POLYLINE
  5
958
  8
0
  6
CONTINUOUS
 62
     7
 66
     1
 10
0.0
 20
0.0
 30
0.0
 70
     4
  0
VERTEX
  5
959
  8
FORMAT
 62
     7
 10
37.936340000000001
 20
542.56210399999998
 30
0.0
 70
    16
  0
VERTEX
  5
95A
  8
FORMAT
 62
     7
 10
37.936340000000001
 20
542.56210399999998
 30
0.0
 70
     8
  0
VERTEX
  5
95B
  8
FORMAT
 62
     7
 10
38.284283000000002
 20
542.52748499999996
 30
0.0
 70
     8
  0
VERTEX
  5
95C
  8
FORMAT
 62
     7
 10
38.652448999999997
 20
542.48802499999999
 30
0.0
 70
     8
  0
VERTEX
  5
95D
  8
FORMAT
 62
     7
 10
39.038584999999998
 20
542.44108800000004
 30
0.0
 70
     8
  0
VERTEX
  5
95E
  8
FORMAT
 62
     7
 10
39.440438
 20
542.38403800000003
 30
0.0
 70
     8
  0
VERTEX
  5
95F
  8
FORMAT
 62
     7
 10
39.855758000000002
 20
542.31424100000004
 30
0.0
 70
     8
  0
VERTEX
  5
960
  8
FORMAT
 62
     7
 10
40.282290999999987
 20
542.229061
 30
0.0
 70
     8
  0
VERTEX
  5
961
  8
FORMAT
 62
     7
 10
40.717784999999992
 20
542.12586099999987
 30
0.0
 70
     8
  0
VERTEX
  5
962
  8
FORMAT
 62
     7
 10
41.159987999999991
 20
542.00200700000005
 30
0.0
 70
     8
  0
VERTEX
  5
963
  8
FORMAT
 62
     7
 10
41.606646999999988
 20
541.85486300000002
 30
0.0
 70
     8
  0
VERTEX
  5
964
  8
FORMAT
 62
     7
 10
42.055511000000003
 20
541.68179299999986
 30
0.0
 70
     8
  0
VERTEX
  5
965
  8
FORMAT
 62
     7
 10
42.055511000000003
 20
541.68179299999986
 30
0.0
 70
     8
  0
VERTEX
  5
966
  8
FORMAT
 62
     7
 10
42.280115000000002
 20
541.58467900000005
 30
0.0
 70
     8
  0
VERTEX
  5
967
  8
FORMAT
 62
     7
 10
42.504718999999987
 20
541.47989599999994
 30
0.0
 70
     8
  0
VERTEX
  5
968
  8
FORMAT
 62
     7
 10
42.729335999999989
 20
541.36691499999995
 30
0.0
 70
     8
  0
VERTEX
  5
969
  8
FORMAT
 62
     7
 10
42.953977999999992
 20
541.24520800000005
 30
0.0
 70
     8
  0
VERTEX
  5
96A
  8
FORMAT
 62
     7
 10
43.178657000000001
 20
541.11424699999986
 30
0.0
 70
     8
  0
VERTEX
  5
96B
  8
FORMAT
 62
     7
 10
43.403385
 20
540.97350199999994
 30
0.0
 70
     8
  0
VERTEX
  5
96C
  8
FORMAT
 62
     7
 10
43.628176000000003
 20
540.82244500000002
 30
0.0
 70
     8
  0
VERTEX
  5
96D
  8
FORMAT
 62
     7
 10
43.85304
 20
540.66054699999995
 30
0.0
 70
     8
  0
VERTEX
  5
96E
  8
FORMAT
 62
     7
 10
44.077992000000002
 20
540.48727999999994
 30
0.0
 70
     8
  0
VERTEX
  5
96F
  8
FORMAT
 62
     7
 10
44.303041999999998
 20
540.30211599999996
 30
0.0
 70
     8
  0
VERTEX
  5
970
  8
FORMAT
 62
     7
 10
44.303041999999998
 20
540.30211599999996
 30
0.0
 70
     8
  0
VERTEX
  5
971
  8
FORMAT
 62
     7
 10
44.527972999999989
 20
540.10489199999995
 30
0.0
 70
     8
  0
VERTEX
  5
972
  8
FORMAT
 62
     7
 10
44.751643000000001
 20
539.89691200000004
 30
0.0
 70
     8
  0
VERTEX
  5
973
  8
FORMAT
 62
     7
 10
44.972679999999997
 20
539.67984999999999
 30
0.0
 70
     8
  0
VERTEX
  5
974
  8
FORMAT
 62
     7
 10
45.189714000000002
 20
539.455375
 30
0.0
 70
     8
  0
VERTEX
  5
975
  8
FORMAT
 62
     7
 10
45.401371999999988
 20
539.22515999999985
 30
0.0
 70
     8
  0
VERTEX
  5
976
  8
FORMAT
 62
     7
 10
45.606282
 20
538.99087599999984
 30
0.0
 70
     8
  0
VERTEX
  5
977
  8
FORMAT
 62
     7
 10
45.803072999999998
 20
538.75419499999998
 30
0.0
 70
     8
  0
VERTEX
  5
978
  8
FORMAT
 62
     7
 10
45.990372999999991
 20
538.51678700000002
 30
0.0
 70
     8
  0
VERTEX
  5
979
  8
FORMAT
 62
     7
 10
46.166809999999991
 20
538.28032599999995
 30
0.0
 70
     8
  0
VERTEX
  5
97A
  8
FORMAT
 62
     7
 10
46.331012000000001
 20
538.04648099999986
 30
0.0
 70
     8
  0
VERTEX
  5
97B
  8
FORMAT
 62
     7
 10
46.331012000000001
 20
538.04648099999986
 30
0.0
 70
     8
  0
VERTEX
  5
97C
  8
FORMAT
 62
     7
 10
46.481976999999993
 20
537.81660199999999
 30
0.0
 70
     8
  0
VERTEX
  5
97D
  8
FORMAT
 62
     7
 10
46.620179999999991
 20
537.59074999999984
 30
0.0
 70
     8
  0
VERTEX
  5
97E
  8
FORMAT
 62
     7
 10
46.746465999999991
 20
537.36866199999986
 30
0.0
 70
     8
  0
VERTEX
  5
97F
  8
FORMAT
 62
     7
 10
46.861679000000002
 20
537.15007799999989
 30
0.0
 70
     8
  0
VERTEX
  5
980
  8
FORMAT
 62
     7
 10
46.966664000000002
 20
536.93473499999993
 30
0.0
 70
     8
  0
VERTEX
  5
981
  8
FORMAT
 62
     7
 10
47.062264999999996
 20
536.72237099999995
 30
0.0
 70
     8
  0
VERTEX
  5
982
  8
FORMAT
 62
     7
 10
47.149327999999997
 20
536.51272400000005
 30
0.0
 70
     8
  0
VERTEX
  5
983
  8
FORMAT
 62
     7
 10
47.228695999999999
 20
536.30553199999997
 30
0.0
 70
     8
  0
VERTEX
  5
984
  8
FORMAT
 62
     7
 10
47.301214000000002
 20
536.10053499999992
 30
0.0
 70
     8
  0
VERTEX
  5
985
  8
FORMAT
 62
     7
 10
47.367725999999998
 20
535.897469
 30
0.0
 70
     8
  0
VERTEX
  5
986
  8
FORMAT
 62
     7
 10
47.367725999999998
 20
535.897469
 30
0.0
 70
     8
  0
VERTEX
  5
987
  8
FORMAT
 62
     7
 10
47.485298999999998
 20
535.49682199999995
 30
0.0
 70
     8
  0
VERTEX
  5
988
  8
FORMAT
 62
     7
 10
47.584097
 20
535.10518400000001
 30
0.0
 70
     8
  0
VERTEX
  5
989
  8
FORMAT
 62
     7
 10
47.665985999999997
 20
534.72488199999987
 30
0.0
 70
     8
  0
VERTEX
  5
98A
  8
FORMAT
 62
     7
 10
47.732833999999997
 20
534.35824700000001
 30
0.0
 70
     8
  0
VERTEX
  5
98B
  8
FORMAT
 62
     7
 10
47.786509999999993
 20
534.00760500000001
 30
0.0
 70
     8
  0
VERTEX
  5
98C
  8
FORMAT
 62
     7
 10
47.828879000000001
 20
533.67528600000003
 30
0.0
 70
     8
  0
VERTEX
  5
98D
  8
FORMAT
 62
     7
 10
47.861810999999989
 20
533.36361799999997
 30
0.0
 70
     8
  0
VERTEX
  5
98E
  8
FORMAT
 62
     7
 10
47.887171999999993
 20
533.07492999999988
 30
0.0
 70
     8
  0
VERTEX
  5
98F
  8
FORMAT
 62
     7
 10
47.906828999999988
 20
532.81155000000001
 30
0.0
 70
     8
  0
VERTEX
  5
990
  8
FORMAT
 62
     7
 10
47.922651000000002
 20
532.57580800000005
 30
0.0
 70
     8
  0
VERTEX
  5
991
  8
FORMAT
 62
     7
 10
39.059944000000002
 20
542.45184600000005
 30
0.0
 70
    16
  0
VERTEX
  5
992
  8
FORMAT
 62
     7
 10
41.307217999999992
 20
542.23132399999997
 30
0.0
 70
    16
  0
VERTEX
  5
993
  8
FORMAT
 62
     7
 10
44.301189000000001
 20
540.50922200000002
 30
0.0
 70
    16
  0
VERTEX
  5
994
  8
FORMAT
 62
     7
 10
46.557786
 20
537.97500600000001
 30
0.0
 70
    16
  0
VERTEX
  5
995
  8
FORMAT
 62
     7
 10
47.752389999999998
 20
535.16784699999994
 30
0.0
 70
    16
  0
VERTEX
  5
996
  8
FORMAT
 62
     7
 10
47.87422999999999
 20
533.31296699999984
 30
0.0
 70
    16
  0
VERTEX
  5
997
  8
FORMAT
 62
     7
 10
47.922651000000002
 20
532.57580800000005
 30
0.0
 70
    16
  0
SEQEND
  5
998
  8
FORMAT
 62
     7
  0
ARC
  5
999
  8
0
  6
CONTINUOUS
 62
     7
 10
62.922640000000001
 20
557.56210799999985
 30
0.0
 40
10.0
 50
0.0
 51
90.0
  0
INSERT
  5
9B0
  8
LAYER01
  2
HORIZON-G11
 10
-2486.8181297611632
 20
596.63940364484165
 30
0.0
 41
0.6119999999999948
 42
0.6120000000000232
 43
0.6120000000000001
  0
TEXT
  5
9B1
  8
LAYER01
  6
STRICHPUNKTIERT
 62
     7
 10
743.27477197483699
 20
-377.05974145515819
 30
0.0
 40
27.539999999999999
  1
http://www.mineralwerkstoff.de
  7
SIMPLEX
1001
ACADANNOTATIVE
1000
AnnotativeData
1002
{
1070
     1
1070
     0
1002
}
  0
ENDSEC
  0
EOF
