  0
SECTION
  2
HEADER
  9
$ACADVER
  1
AC1009
  9
$INSBASE
 10
0.0
 20
0.0
 30
0.0
  9
$EXTMIN
 10
-1954.5295703932411
 20
-590.48655895458785
 30
-0.0000000000000665
  9
$EXTMAX
 10
1521.0768723069791
 20
1576.6230654454109
 30
0.0000000000003113
  9
$LIMMIN
 10
-2044.4906920600861
 20
-427.7373457862555
  9
$LIMMAX
 10
925.5289944392016
 20
1672.2765739610079
  9
$ORTHOMODE
 70
     0
  9
$REGENMODE
 70
     1
  9
$FILLMODE
 70
     1
  9
$QTEXTMODE
 70
     0
  9
$MIRRTEXT
 70
     1
  9
$DRAGMODE
 70
     2
  9
$LTSCALE
 40
1.0
  9
$OSMODE
 70
    37
  9
$ATTMODE
 70
     1
  9
$TEXTSIZE
 40
24.615385055541989
  9
$TRACEWID
 40
1.0
  9
$TEXTSTYLE
  7
STANDARD
  9
$CLAYER
  8
0
  9
$CELTYPE
  6
CONTINUOUS
  9
$CECOLOR
 62
     7
  9
$DIMSCALE
 40
1.0
  9
$DIMASZ
 40
20.0
  9
$DIMEXO
 40
1.0
  9
$DIMDLI
 40
7.5
  9
$DIMRND
 40
0.01
  9
$DIMDLE
 40
0.0
  9
$DIMEXE
 40
2.0
  9
$DIMTP
 40
0.0
  9
$DIMTM
 40
0.0
  9
$DIMTXT
 40
24.61538461538462
  9
$DIMCEN
 40
0.09
  9
$DIMTSZ
 40
0.0
  9
$DIMTOL
 70
     0
  9
$DIMLIM
 70
     0
  9
$DIMTIH
 70
     1
  9
$DIMTOH
 70
     1
  9
$DIMSE1
 70
     0
  9
$DIMSE2
 70
     0
  9
$DIMTAD
 70
     1
  9
$DIMZIN
 70
     3
  9
$DIMBLK
  1
TC_DIMARROW_FILLED30
  9
$DIMASO
 70
     0
  9
$DIMSHO
 70
     1
  9
$DIMPOST
  1

  9
$DIMAPOST
  1

  9
$DIMALT
 70
     0
  9
$DIMALTD
 70
     2
  9
$DIMALTF
 40
1.0
  9
$DIMLFAC
 40
1.0
  9
$DIMTOFL
 70
     1
  9
$DIMTVP
 40
0.0
  9
$DIMTIX
 70
     0
  9
$DIMSOXD
 70
     0
  9
$DIMSAH
 70
     0
  9
$DIMBLK1
  1

  9
$DIMBLK2
  1

  9
$DIMSTYLE
  2
STANDARD
  9
$DIMCLRD
 70
     7
  9
$DIMCLRE
 70
     7
  9
$DIMCLRT
 70
     7
  9
$DIMTFAC
 40
1.0
  9
$DIMGAP
 40
2.0
  9
$LUNITS
 70
     2
  9
$LUPREC
 70
     2
  9
$SKETCHINC
 40
1.0
  9
$FILLETRAD
 40
5.0
  9
$AUNITS
 70
     0
  9
$AUPREC
 70
     2
  9
$MENU
  1
acad
  9
$ELEVATION
 40
0.0
  9
$PELEVATION
 40
0.0
  9
$THICKNESS
 40
0.0
  9
$LIMCHECK
 70
     0
  9
$BLIPMODE
 70
     0
  9
$CHAMFERA
 40
0.0
  9
$CHAMFERB
 40
0.0
  9
$SKPOLY
 70
     0
  9
$TDCREATE
 40
2444972.041666667
  9
$TDUPDATE
 40
2456615.6820604401
  9
$TDINDWG
 40
0.0060511227
  9
$TDUSRTIMER
 40
0.0060511227
  9
$USRTIMER
 70
     1
  9
$ANGBASE
 50
0.0
  9
$ANGDIR
 70
     0
  9
$PDMODE
 70
     0
  9
$PDSIZE
 40
0.0
  9
$PLINEWID
 40
0.0
  9
$COORDS
 70
     1
  9
$SPLFRAME
 70
     0
  9
$SPLINETYPE
 70
     5
  9
$SPLINESEGS
 70
    20
  9
$ATTDIA
 70
     0
  9
$ATTREQ
 70
     1
  9
$HANDLING
 70
     1
  9
$HANDSEED
  5
8AD
  9
$SURFTAB1
 70
     6
  9
$SURFTAB2
 70
     6
  9
$SURFTYPE
 70
     6
  9
$SURFU
 70
     6
  9
$SURFV
 70
     6
  9
$UCSNAME
  2

  9
$UCSORG
 10
0.0
 20
0.0
 30
0.0
  9
$UCSXDIR
 10
1.0
 20
0.0
 30
0.0
  9
$UCSYDIR
 10
0.0
 20
1.0
 30
0.0
  9
$PUCSNAME
  2

  9
$PUCSORG
 10
0.0
 20
0.0
 30
0.0
  9
$PUCSXDIR
 10
1.0
 20
0.0
 30
0.0
  9
$PUCSYDIR
 10
0.0
 20
1.0
 30
0.0
  9
$USERI1
 70
     0
  9
$USERI2
 70
     0
  9
$USERI3
 70
     0
  9
$USERI4
 70
     0
  9
$USERI5
 70
     0
  9
$USERR1
 40
0.0
  9
$USERR2
 40
0.0
  9
$USERR3
 40
0.0
  9
$USERR4
 40
0.0
  9
$USERR5
 40
0.0
  9
$WORLDVIEW
 70
     1
  9
$SHADEDGE
 70
     3
  9
$SHADEDIF
 70
    70
  9
$TILEMODE
 70
     1
  9
$MAXACTVP
 70
    16
  9
$PLIMCHECK
 70
     0
  9
$PEXTMIN
 10
0.0
 20
0.0
 30
0.0
  9
$PEXTMAX
 10
297.0
 20
210.0
 30
0.0
  9
$PLIMMIN
 10
0.0
 20
0.0
  9
$PLIMMAX
 10
297.0
 20
210.0
  9
$UNITMODE
 70
     0
  9
$VISRETAIN
 70
     0
  9
$PLINEGEN
 70
     1
  9
$PSLTSCALE
 70
     1
  0
ENDSEC
  0
SECTION
  2
TABLES
  0
TABLE
  2
VPORT
 70
     1
  0
VPORT
  2
*ACTIVE
 70
     0
 10
0.0
 20
0.0
 11
1.0
 21
1.0
 12
357.58581152523539
 22
163.59084261117729
 13
0.0
 23
0.0
 14
5.0
 24
5.0
 15
5.0
 25
5.0
 16
0.0
 26
0.0
 36
1.0
 17
-491.20853013364081
 27
409.89134975341449
 37
0.0
 40
3753.0461252623782
 41
1.2977022977022969
 42
50.0
 43
0.0
 44
0.0
 50
0.0
 51
0.0
 71
     0
 72
   100
 73
     1
 74
     1
 75
     0
 76
     1
 77
     0
 78
     0
  0
ENDTAB
  0
TABLE
  2
LTYPE
 70
    12
  0
LTYPE
  2
CONTINUOUS
 70
     0
  3
Solid line
 72
    65
 73
     0
 40
0.0
  0
LTYPE
  2
DURCHGEHEND
 70
     0
  3
Durchgehend
 72
    65
 73
     0
 40
0.0
  0
LTYPE
  2
RAND
 70
     0
  3
Rand
 72
    65
 73
     6
 40
1.75
 49
0.5
 49
-0.25
 49
0.5
 49
-0.25
 49
0.0
 49
-0.25
  0
LTYPE
  2
MITTE
 70
     0
  3
Mitte
 72
    65
 73
     4
 40
2.0
 49
1.25
 49
-0.25
 49
0.25
 49
-0.25
  0
LTYPE
  2
STRICHPUNKT
 70
     0
  3
Strichpunkt
 72
    65
 73
     4
 40
1.0
 49
0.5
 49
-0.25
 49
0.0
 49
-0.25
  0
LTYPE
  2
GESTRICHELT
 70
     0
  3
Gestrichelt
 72
    65
 73
     2
 40
0.75
 49
0.5
 49
-0.25
  0
LTYPE
  2
GETEILT
 70
     0
  3
Geteilt
 72
    65
 73
     6
 40
1.25
 49
0.5
 49
-0.25
 49
0.0
 49
-0.25
 49
0.0
 49
-0.25
  0
LTYPE
  2
PUNKT
 70
     0
  3
Punkt
 72
    65
 73
     2
 40
0.25
 49
0.0
 49
-0.25
  0
LTYPE
  2
VERDECKT
 70
     0
  3
Verdeckt
 72
    65
 73
     2
 40
0.375
 49
0.25
 49
-0.125
  0
LTYPE
  2
$INVISIBLE
 70
     0
  3
$INVISIBLE
 72
    65
 73
     2
 40
200.0
 49
-100.0
 49
-100.0
  0
LTYPE
  2
$SNAPEXT
 70
     0
  3
$SNAPEXT
 72
    65
 73
     2
 40
0.04
 49
0.02
 49
-0.02
  0
LTYPE
  2
$AUXILIARY
 70
     0
  3
$AUXILIARY
 72
    65
 73
     2
 40
0.1
 49
0.05
 49
-0.05
  0
ENDTAB
  0
TABLE
  2
LAYER
 70
     2
  0
LAYER
  2
0
 70
     0
 62
     7
  6
DURCHGEHEND
  0
LAYER
  2
LAYER01
 70
     0
 62
     7
  6
CONTINUOUS
  0
ENDTAB
  0
TABLE
  2
STYLE
 70
     2
  0
STYLE
  2
STANDARD
 70
     0
 40
0.0
 41
1.0
 50
0.0
 71
     0
 42
24.615385055541989
  3
txt
  4

  0
STYLE
  2
SIMPLEX
 70
     0
 40
0.0
 41
1.0
 50
0.0
 71
     0
 42
0.0
  3
simplex
  4

  0
ENDTAB
  0
TABLE
  2
VIEW
 70
     1
  0
VIEW
  2
ANSICHT_0
 70
     0
 40
210.0
 10
148.5
 20
105.0
 41
297.0
 11
0.0
 21
0.0
 31
1.0
 12
0.0
 22
0.0
 32
0.0
 42
92.090489446728768
 43
0.0
 44
0.0
 50
0.0
 71
     0
  0
ENDTAB
  0
TABLE
  2
UCS
 70
     0
  0
ENDTAB
  0
TABLE
  2
APPID
 70
     5
  0
APPID
  2
ACAD
 70
     0
  0
APPID
  2
TCAD
 70
     0
  0
APPID
  2
ACAD_MLEADERVER
 70
     0
  0
APPID
  2
ACAD_PSEXT
 70
     0
  0
APPID
  2
DCO15
 70
     0
  0
ENDTAB
  0
TABLE
  2
DIMSTYLE
 70
     1
  0
DIMSTYLE
  2
STANDARD
 70
     0
  3

  4

  5
TC_DIMARROW_FILLED30
  6

  7

 40
1.0
 41
20.0
 42
1.0
 43
7.5
 44
2.0
 45
0.01
 46
0.0
 47
0.0
 48
0.0
140
24.61538461538462
141
0.09
142
0.0
143
1.0
144
1.0
145
0.0
146
1.0
147
2.0
 71
     0
 72
     0
 73
     1
 74
     1
 75
     0
 76
     0
 77
     1
 78
     3
170
     0
171
     2
172
     1
173
     0
174
     0
175
     0
176
     7
177
     7
178
     7
  0
ENDTAB
  0
ENDSEC
  0
SECTION
  2
BLOCKS
  0
BLOCK
  8
0
  2
$MODEL_SPACE
 70
     0
 10
0.0
 20
0.0
 30
0.0
  3
$MODEL_SPACE
  1

  0
ENDBLK
  5
E
  8
0
  0
BLOCK
 67
     1
  8
0
  2
$PAPER_SPACE
 70
     0
 10
0.0
 20
0.0
 30
0.0
  3
$PAPER_SPACE
  1

  0
ENDBLK
  5
10
 67
     1
  8
0
  0
BLOCK
  8
0
  2
TC_DIMARROW_FILLED30
 70
     0
 10
0.0
 20
0.0
 30
0.0
  3
TC_DIMARROW_FILLED30
  1

  0
SOLID
  5
2C
  8
0
  6
BYBLOCK
 62
     0
 10
0.0
 20
0.0
 30
0.0
 11
-1.0
 21
0.267949
 31
0.0
 12
-1.0
 22
-0.267949
 32
0.0
 13
-1.0
 23
-0.267949
 33
0.0
  0
ENDBLK
  5
2D
  8
0
  0
BLOCK
  8
0
  2
*D1
 70
     1
 10
0.0
 20
0.0
 30
0.0
  3
*D1
  1

  0
LINE
  5
37
  8
0
  6
DURCHGEHEND
 62
     7
 10
-374.0369872237149
 20
321.90102571783541
 30
0.0
 11
-374.0369872237149
 21
336.5793945560178
 31
0.0
1001
TCAD
1000
TCW_ATTRIBUTE
1002
{
1000
720
1002
}
  0
LINE
  5
38
  8
0
  6
DURCHGEHEND
 62
     7
 10
346.18632954882281
 20
321.90102571783541
 30
0.0
 11
346.18632954882281
 21
336.57939455601769
 31
0.0
1001
TCAD
1000
TCW_ATTRIBUTE
1002
{
1000
720
1002
}
  0
POLYLINE
  5
39
  8
0
  6
DURCHGEHEND
 62
     7
 66
     1
 10
0.0
 20
0.0
 30
0.0
 70
   128
1001
TCAD
1000
TCW_ATTRIBUTE
1002
{
1000
720
1002
}
  0
VERTEX
  5
429
  8
0
  6
DURCHGEHEND
 62
     7
 10
-354.03698722371479
 20
334.5793945560178
 30
0.0
  0
VERTEX
  5
42A
  8
0
  6
DURCHGEHEND
 62
     7
 10
-354.03698722371479
 20
334.5793945560178
 30
0.0
  0
VERTEX
  5
42B
  8
0
  6
DURCHGEHEND
 62
     7
 10
-354.03698722371479
 20
334.5793945560178
 30
0.0
  0
VERTEX
  5
42C
  8
0
  6
DURCHGEHEND
 62
     7
 10
-13.92532883744604
 20
334.5793945560178
 30
0.0
  0
SEQEND
  5
42D
  8
0
  6
DURCHGEHEND
 62
     7
  0
POLYLINE
  5
3A
  8
0
  6
DURCHGEHEND
 62
     7
 66
     1
 10
0.0
 20
0.0
 30
0.0
 70
   128
1001
TCAD
1000
TCW_ATTRIBUTE
1002
{
1000
720
1002
}
  0
VERTEX
  5
42E
  8
0
  6
DURCHGEHEND
 62
     7
 10
326.18632954882281
 20
334.57939455601769
 30
0.0
  0
VERTEX
  5
42F
  8
0
  6
DURCHGEHEND
 62
     7
 10
326.18632954882281
 20
334.57939455601769
 30
0.0
  0
VERTEX
  5
430
  8
0
  6
DURCHGEHEND
 62
     7
 10
326.18632954882281
 20
334.57939455601769
 30
0.0
  0
VERTEX
  5
431
  8
0
  6
DURCHGEHEND
 62
     7
 10
-13.92532883744604
 20
334.5793945560178
 30
0.0
  0
SEQEND
  5
432
  8
0
  6
DURCHGEHEND
 62
     7
  0
POLYLINE
  5
3C
  8
0
  6
DURCHGEHEND
 62
     7
 66
     1
 10
0.0
 20
0.0
 30
0.0
 70
   129
1001
TCAD
1000
TCW_ATTRIBUTE
1002
{
1000
720
1002
}
  0
VERTEX
  5
43C
  8
0
  6
DURCHGEHEND
 62
     7
 10
-374.0369872237149
 20
334.5793945560178
 30
0.0
  0
VERTEX
  5
43D
  8
0
  6
DURCHGEHEND
 62
     7
 10
-354.03698722371479
 20
331.24606122268449
 30
0.0
  0
VERTEX
  5
43E
  8
0
  6
DURCHGEHEND
 62
     7
 10
-354.03698722371479
 20
337.91272788935112
 30
0.0
  0
SEQEND
  5
43F
  8
0
  6
DURCHGEHEND
 62
     7
  0
INSERT
  5
3B
  8
0
  6
CONTINUOUS
 62
     7
  2
*U20
 10
0.0
 20
0.0
 30
0.0
1001
TCAD
1000
TCW_ATTRIBUTE
1002
{
1000
720
1002
}
1001
ACAD
1002
{
1000
R14_HATCH_DATA
1000
3B
1011
1.0
1021
0.0
1031
0.0
1021
0.0
1031
0.0
1011
0.0
1021
0.0
1031
0.0
1021
1.0
1031
0.0
1011
0.0
1021
0.0
1031
0.0
1021
0.0
1031
1.0
1040
0.0
1010
0.0
1020
0.0
1030
1.0
1000
SOLID
1070
     1
1070
     1
1071
        1
1071
        3
1070
     0
1070
     1
1071
        3
1040
-374.0369872237149
1040
334.5793945560178
1040
-354.03698722371479
1040
331.24606122268449
1040
-354.03698722371479
1040
337.91272788935112
1071
        1
1005
3C
1070
     0
1070
     0
1071
        0
1002
}
  0
POLYLINE
  5
3E
  8
0
  6
DURCHGEHEND
 62
     7
 66
     1
 10
0.0
 20
0.0
 30
0.0
 70
   129
1001
TCAD
1000
TCW_ATTRIBUTE
1002
{
1000
720
1002
}
  0
VERTEX
  5
449
  8
0
  6
DURCHGEHEND
 62
     7
 10
346.18632954882281
 20
334.57939455601769
 30
0.0
  0
VERTEX
  5
44A
  8
0
  6
DURCHGEHEND
 62
     7
 10
326.18632954882281
 20
337.912727889351
 30
0.0
  0
VERTEX
  5
44B
  8
0
  6
DURCHGEHEND
 62
     7
 10
326.18632954882281
 20
331.24606122268438
 30
0.0
  0
SEQEND
  5
44C
  8
0
  6
DURCHGEHEND
 62
     7
  0
INSERT
  5
3D
  8
0
  6
CONTINUOUS
 62
     7
  2
*U21
 10
0.0
 20
0.0
 30
0.0
1001
TCAD
1000
TCW_ATTRIBUTE
1002
{
1000
720
1002
}
1001
ACAD
1002
{
1000
R14_HATCH_DATA
1000
3D
1011
1.0
1021
0.0
1031
0.0
1021
0.0
1031
0.0
1011
0.0
1021
0.0
1031
0.0
1021
1.0
1031
0.0
1011
0.0
1021
0.0
1031
0.0
1021
0.0
1031
1.0
1040
0.0
1010
0.0
1020
0.0
1030
1.0
1000
SOLID
1070
     1
1070
     1
1071
        1
1071
        3
1070
     0
1070
     1
1071
        3
1040
346.18632954882281
1040
334.57939455601769
1040
326.18632954882281
1040
337.912727889351
1040
326.18632954882281
1040
331.24606122268438
1071
        1
1005
3E
1070
     0
1070
     0
1071
        0
1002
}
  0
INSERT
  5
3F
  8
0
  6
CONTINUOUS
 62
     7
  2
*U22
 10
0.0
 20
0.0
 30
0.0
  0
ENDBLK
  5
40
  8
0
  0
BLOCK
  8
0
  2
*D2
 70
     1
 10
0.0
 20
0.0
 30
0.0
  3
*D2
  1

  0
LINE
  5
45
  8
0
  6
DURCHGEHEND
 62
     7
 10
-399.48587895662689
 20
299.51195816949439
 30
0.0
 11
-399.48587895662689
 21
395.88955182484688
 31
0.0
1001
TCAD
1000
TCW_ATTRIBUTE
1002
{
1000
770
1002
}
  0
LINE
  5
46
  8
0
  6
DURCHGEHEND
 62
     7
 10
370.72768523791802
 20
299.51195816949428
 30
0.0
 11
370.72768523791802
 21
395.88955182484682
 31
0.0
1001
TCAD
1000
TCW_ATTRIBUTE
1002
{
1000
770
1002
}
  0
POLYLINE
  5
47
  8
0
  6
DURCHGEHEND
 62
     7
 66
     1
 10
0.0
 20
0.0
 30
0.0
 70
   128
1001
TCAD
1000
TCW_ATTRIBUTE
1002
{
1000
770
1002
}
  0
VERTEX
  5
451
  8
0
  6
DURCHGEHEND
 62
     7
 10
-379.48587895662689
 20
393.88955182484699
 30
0.0
  0
VERTEX
  5
452
  8
0
  6
DURCHGEHEND
 62
     7
 10
-379.48587895662689
 20
393.88955182484699
 30
0.0
  0
VERTEX
  5
453
  8
0
  6
DURCHGEHEND
 62
     7
 10
-379.48587895662689
 20
393.88955182484699
 30
0.0
  0
VERTEX
  5
454
  8
0
  6
DURCHGEHEND
 62
     7
 10
-14.37909685935443
 20
393.88955182484688
 30
0.0
  0
SEQEND
  5
455
  8
0
  6
DURCHGEHEND
 62
     7
  0
POLYLINE
  5
48
  8
0
  6
DURCHGEHEND
 62
     7
 66
     1
 10
0.0
 20
0.0
 30
0.0
 70
   128
1001
TCAD
1000
TCW_ATTRIBUTE
1002
{
1000
770
1002
}
  0
VERTEX
  5
456
  8
0
  6
DURCHGEHEND
 62
     7
 10
350.72768523791802
 20
393.88955182484682
 30
0.0
  0
VERTEX
  5
457
  8
0
  6
DURCHGEHEND
 62
     7
 10
350.72768523791802
 20
393.88955182484682
 30
0.0
  0
VERTEX
  5
458
  8
0
  6
DURCHGEHEND
 62
     7
 10
350.72768523791802
 20
393.88955182484682
 30
0.0
  0
VERTEX
  5
459
  8
0
  6
DURCHGEHEND
 62
     7
 10
-14.37909685935443
 20
393.88955182484688
 30
0.0
  0
SEQEND
  5
45A
  8
0
  6
DURCHGEHEND
 62
     7
  0
POLYLINE
  5
4A
  8
0
  6
DURCHGEHEND
 62
     7
 66
     1
 10
0.0
 20
0.0
 30
0.0
 70
   129
1001
TCAD
1000
TCW_ATTRIBUTE
1002
{
1000
770
1002
}
  0
VERTEX
  5
464
  8
0
  6
DURCHGEHEND
 62
     7
 10
-399.48587895662689
 20
393.88955182484699
 30
0.0
  0
VERTEX
  5
465
  8
0
  6
DURCHGEHEND
 62
     7
 10
-379.48587895662689
 20
390.55621849151362
 30
0.0
  0
VERTEX
  5
466
  8
0
  6
DURCHGEHEND
 62
     7
 10
-379.48587895662689
 20
397.2228851581803
 30
0.0
  0
SEQEND
  5
467
  8
0
  6
DURCHGEHEND
 62
     7
  0
INSERT
  5
49
  8
0
  6
CONTINUOUS
 62
     7
  2
*U23
 10
0.0
 20
0.0
 30
0.0
1001
TCAD
1000
TCW_ATTRIBUTE
1002
{
1000
770
1002
}
1001
ACAD
1002
{
1000
R14_HATCH_DATA
1000
49
1011
1.0
1021
0.0
1031
0.0
1021
0.0
1031
0.0
1011
0.0
1021
0.0
1031
0.0
1021
1.0
1031
0.0
1011
0.0
1021
0.0
1031
0.0
1021
0.0
1031
1.0
1040
0.0
1010
0.0
1020
0.0
1030
1.0
1000
SOLID
1070
     1
1070
     1
1071
        1
1071
        3
1070
     0
1070
     1
1071
        3
1040
-399.48587895662689
1040
393.88955182484699
1040
-379.48587895662689
1040
390.55621849151362
1040
-379.48587895662689
1040
397.2228851581803
1071
        1
1005
4A
1070
     0
1070
     0
1071
        0
1002
}
  0
POLYLINE
  5
4C
  8
0
  6
DURCHGEHEND
 62
     7
 66
     1
 10
0.0
 20
0.0
 30
0.0
 70
   129
1001
TCAD
1000
TCW_ATTRIBUTE
1002
{
1000
770
1002
}
  0
VERTEX
  5
471
  8
0
  6
DURCHGEHEND
 62
     7
 10
370.72768523791802
 20
393.88955182484682
 30
0.0
  0
VERTEX
  5
472
  8
0
  6
DURCHGEHEND
 62
     7
 10
350.72768523791802
 20
397.22288515818008
 30
0.0
  0
VERTEX
  5
473
  8
0
  6
DURCHGEHEND
 62
     7
 10
350.72768523791802
 20
390.5562184915135
 30
0.0
  0
SEQEND
  5
474
  8
0
  6
DURCHGEHEND
 62
     7
  0
INSERT
  5
4B
  8
0
  6
CONTINUOUS
 62
     7
  2
*U24
 10
0.0
 20
0.0
 30
0.0
1001
TCAD
1000
TCW_ATTRIBUTE
1002
{
1000
770
1002
}
1001
ACAD
1002
{
1000
R14_HATCH_DATA
1000
4B
1011
1.0
1021
0.0
1031
0.0
1021
0.0
1031
0.0
1011
0.0
1021
0.0
1031
0.0
1021
1.0
1031
0.0
1011
0.0
1021
0.0
1031
0.0
1021
0.0
1031
1.0
1040
0.0
1010
0.0
1020
0.0
1030
1.0
1000
SOLID
1070
     1
1070
     1
1071
        1
1071
        3
1070
     0
1070
     1
1071
        3
1040
370.72768523791802
1040
393.88955182484682
1040
350.72768523791802
1040
397.22288515818008
1040
350.72768523791802
1040
390.5562184915135
1071
        1
1005
4C
1070
     0
1070
     0
1071
        0
1002
}
  0
INSERT
  5
4D
  8
0
  6
CONTINUOUS
 62
     7
  2
*U25
 10
0.0
 20
0.0
 30
0.0
  0
ENDBLK
  5
4E
  8
0
  0
BLOCK
  8
0
  2
*D3
 70
     1
 10
0.0
 20
0.0
 30
0.0
  3
*D3
  1

  0
LINE
  5
52
  8
0
  6
DURCHGEHEND
 62
     7
 10
387.19467883985271
 20
96.043245008277893
 30
0.0
 11
453.31843068550597
 21
96.038231559951441
 31
0.0
1001
TCAD
1000
TCW_ATTRIBUTE
1002
{
1000
202
1002
}
  0
LINE
  5
53
  8
0
  6
DURCHGEHEND
 62
     7
 10
387.21002463529032
 20
298.44317083085548
 30
0.0
 11
453.33377648094353
 21
298.43815738252908
 31
0.0
1001
TCAD
1000
TCW_ATTRIBUTE
1002
{
1000
202
1002
}
  0
POLYLINE
  5
54
  8
0
  6
DURCHGEHEND
 62
     7
 66
     1
 10
0.0
 20
0.0
 30
0.0
 70
   128
1001
TCAD
1000
TCW_ATTRIBUTE
1002
{
1000
202
1002
}
  0
VERTEX
  5
479
  8
0
  6
DURCHGEHEND
 62
     7
 10
451.3199470747544
 20
116.0383831408159
 30
0.0
  0
VERTEX
  5
47A
  8
0
  6
DURCHGEHEND
 62
     7
 10
451.3199470747544
 20
116.0383831408159
 30
0.0
  0
VERTEX
  5
47B
  8
0
  6
DURCHGEHEND
 62
     7
 10
451.3199470747544
 20
116.0383831408159
 30
0.0
  0
VERTEX
  5
47C
  8
0
  6
DURCHGEHEND
 62
     7
 10
451.32502637346101
 20
183.0306538018979
 30
0.0
  0
SEQEND
  5
47D
  8
0
  6
DURCHGEHEND
 62
     7
  0
POLYLINE
  5
55
  8
0
  6
DURCHGEHEND
 62
     7
 66
     1
 10
0.0
 20
0.0
 30
0.0
 70
   128
1001
TCAD
1000
TCW_ATTRIBUTE
1002
{
1000
202
1002
}
  0
VERTEX
  5
47E
  8
0
  6
DURCHGEHEND
 62
     7
 10
451.33226010319231
 20
278.43830907836451
 30
0.0
  0
VERTEX
  5
47F
  8
0
  6
DURCHGEHEND
 62
     7
 10
451.33226010319231
 20
278.43830907836451
 30
0.0
  0
VERTEX
  5
480
  8
0
  6
DURCHGEHEND
 62
     7
 10
451.33226010319231
 20
278.43830907836451
 30
0.0
  0
VERTEX
  5
481
  8
0
  6
DURCHGEHEND
 62
     7
 10
451.32718080448569
 20
211.44603841728261
 30
0.0
  0
SEQEND
  5
482
  8
0
  6
DURCHGEHEND
 62
     7
  0
POLYLINE
  5
57
  8
0
  6
DURCHGEHEND
 62
     7
 66
     1
 10
0.0
 20
0.0
 30
0.0
 70
   129
1001
TCAD
1000
TCW_ATTRIBUTE
1002
{
1000
202
1002
}
  0
VERTEX
  5
48C
  8
0
  6
DURCHGEHEND
 62
     7
 10
451.31843069125449
 20
96.038383198301403
 30
0.0
  0
VERTEX
  5
48D
  8
0
  6
DURCHGEHEND
 62
     7
 10
454.65328039850669
 20
116.0381304102326
 30
0.0
  0
VERTEX
  5
48E
  8
0
  6
DURCHGEHEND
 62
     7
 10
447.98661375100193
 20
116.03863587139919
 30
0.0
  0
SEQEND
  5
48F
  8
0
  6
DURCHGEHEND
 62
     7
  0
INSERT
  5
56
  8
0
  6
CONTINUOUS
 62
     7
  2
*U26
 10
0.0
 20
0.0
 30
0.0
1001
TCAD
1000
TCW_ATTRIBUTE
1002
{
1000
202
1002
}
1001
ACAD
1002
{
1000
R14_HATCH_DATA
1000
56
1011
1.0
1021
0.0
1031
0.0
1021
0.0
1031
0.0
1011
0.0
1021
0.0
1031
0.0
1021
1.0
1031
0.0
1011
0.0
1021
0.0
1031
0.0
1021
0.0
1031
1.0
1040
0.0
1010
0.0
1020
0.0
1030
1.0
1000
SOLID
1070
     1
1070
     1
1071
        1
1071
        3
1070
     0
1070
     1
1071
        3
1040
451.31843069125449
1040
96.038383198301403
1040
454.65328039850669
1040
116.0381304102326
1040
447.98661375100193
1040
116.03863587139919
1071
        1
1005
57
1070
     0
1070
     0
1071
        0
1002
}
  0
POLYLINE
  5
59
  8
0
  6
DURCHGEHEND
 62
     7
 66
     1
 10
0.0
 20
0.0
 30
0.0
 70
   129
1001
TCAD
1000
TCW_ATTRIBUTE
1002
{
1000
202
1002
}
  0
VERTEX
  5
499
  8
0
  6
DURCHGEHEND
 62
     7
 10
451.3337764866921
 20
298.43830902087899
 30
0.0
  0
VERTEX
  5
49A
  8
0
  6
DURCHGEHEND
 62
     7
 10
447.9989267794399
 20
278.43856180894778
 30
0.0
  0
VERTEX
  5
49B
  8
0
  6
DURCHGEHEND
 62
     7
 10
454.66559342694478
 20
278.43805634778118
 30
0.0
  0
SEQEND
  5
49C
  8
0
  6
DURCHGEHEND
 62
     7
  0
INSERT
  5
58
  8
0
  6
CONTINUOUS
 62
     7
  2
*U27
 10
0.0
 20
0.0
 30
0.0
1001
TCAD
1000
TCW_ATTRIBUTE
1002
{
1000
202
1002
}
1001
ACAD
1002
{
1000
R14_HATCH_DATA
1000
58
1011
1.0
1021
0.0
1031
0.0
1021
0.0
1031
0.0
1011
0.0
1021
0.0
1031
0.0
1021
1.0
1031
0.0
1011
0.0
1021
0.0
1031
0.0
1021
0.0
1031
1.0
1040
0.0
1010
0.0
1020
0.0
1030
1.0
1000
SOLID
1070
     1
1070
     1
1071
        1
1071
        3
1070
     0
1070
     1
1071
        3
1040
451.3337764866921
1040
298.43830902087899
1040
447.9989267794399
1040
278.43856180894778
1040
454.66559342694478
1040
278.43805634778118
1071
        1
1005
59
1070
     0
1070
     0
1071
        0
1002
}
  0
INSERT
  5
5A
  8
0
  6
CONTINUOUS
 62
     7
  2
*U28
 10
0.0
 20
0.0
 30
0.0
  0
ENDBLK
  5
5B
  8
0
  0
BLOCK
  8
0
  2
*D4
 70
     1
 10
0.0
 20
0.0
 30
0.0
  3
*D4
  1

  0
LINE
  5
5F
  8
0
  6
DURCHGEHEND
 62
     7
 10
493.18353820591341
 20
73.801138341185649
 30
0.0
 11
574.27335192753435
 21
73.817845031621573
 31
0.0
1001
TCAD
1000
TCW_ATTRIBUTE
1002
{
1000
224
1002
}
  0
LINE
  5
60
  8
0
  6
DURCHGEHEND
 62
     7
 10
493.13735839116771
 20
297.94562643117109
 30
0.0
 11
574.22717211278848
 21
297.96233312160689
 31
0.0
1001
TCAD
1000
TCW_ATTRIBUTE
1002
{
1000
224
1002
}
  0
POLYLINE
  5
61
  8
0
  6
DURCHGEHEND
 62
     7
 66
     1
 10
0.0
 20
0.0
 30
0.0
 70
   128
1001
TCAD
1000
TCW_ATTRIBUTE
1002
{
1000
224
1002
}
  0
VERTEX
  5
4A1
  8
0
  6
DURCHGEHEND
 62
     7
 10
572.26923143022077
 20
93.817432553174314
 30
0.0
  0
VERTEX
  5
4A2
  8
0
  6
DURCHGEHEND
 62
     7
 10
572.26923143022077
 20
93.817432553174314
 30
0.0
  0
VERTEX
  5
4A3
  8
0
  6
DURCHGEHEND
 62
     7
 10
572.26923143022077
 20
93.817432553174314
 30
0.0
  0
VERTEX
  5
4A4
  8
0
  6
DURCHGEHEND
 62
     7
 10
572.25318923072371
 20
171.68198471494591
 30
0.0
  0
SEQEND
  5
4A5
  8
0
  6
DURCHGEHEND
 62
     7
  0
POLYLINE
  5
62
  8
0
  6
DURCHGEHEND
 62
     7
 66
     1
 10
0.0
 20
0.0
 30
0.0
 70
   128
1001
TCAD
1000
TCW_ATTRIBUTE
1002
{
1000
224
1002
}
  0
VERTEX
  5
4A6
  8
0
  6
DURCHGEHEND
 62
     7
 10
572.23129269499645
 20
277.96192149210208
 30
0.0
  0
VERTEX
  5
4A7
  8
0
  6
DURCHGEHEND
 62
     7
 10
572.23129269499645
 20
277.96192149210208
 30
0.0
  0
VERTEX
  5
4A8
  8
0
  6
DURCHGEHEND
 62
     7
 10
572.23129269499645
 20
277.96192149210208
 30
0.0
  0
VERTEX
  5
4A9
  8
0
  6
DURCHGEHEND
 62
     7
 10
572.24733489449341
 20
200.09736933033051
 30
0.0
  0
SEQEND
  5
4AA
  8
0
  6
DURCHGEHEND
 62
     7
  0
POLYLINE
  5
64
  8
0
  6
DURCHGEHEND
 62
     7
 66
     1
 10
0.0
 20
0.0
 30
0.0
 70
   129
1001
TCAD
1000
TCW_ATTRIBUTE
1002
{
1000
224
1002
}
  0
VERTEX
  5
4B4
  8
0
  6
DURCHGEHEND
 62
     7
 10
572.2733519699816
 20
73.817432977645524
 30
0.0
  0
VERTEX
  5
4B5
  8
0
  6
DURCHGEHEND
 62
     7
 10
575.60256469280887
 20
93.818119309801091
 30
0.0
  0
VERTEX
  5
4B6
  8
0
  6
DURCHGEHEND
 62
     7
 10
568.93589816763279
 20
93.816745796547536
 30
0.0
  0
SEQEND
  5
4B7
  8
0
  6
DURCHGEHEND
 62
     7
  0
INSERT
  5
63
  8
0
  6
CONTINUOUS
 62
     7
  2
*U29
 10
0.0
 20
0.0
 30
0.0
1001
TCAD
1000
TCW_ATTRIBUTE
1002
{
1000
224
1002
}
1001
ACAD
1002
{
1000
R14_HATCH_DATA
1000
63
1011
1.0
1021
0.0
1031
0.0
1021
0.0
1031
0.0
1011
0.0
1021
0.0
1031
0.0
1021
1.0
1031
0.0
1011
0.0
1021
0.0
1031
0.0
1021
0.0
1031
1.0
1040
0.0
1010
0.0
1020
0.0
1030
1.0
1000
SOLID
1070
     1
1070
     1
1071
        1
1071
        3
1070
     0
1070
     1
1071
        3
1040
572.2733519699816
1040
73.817432977645524
1040
575.60256469280887
1040
93.818119309801091
1040
568.93589816763279
1040
93.816745796547536
1071
        1
1005
64
1070
     0
1070
     0
1071
        0
1002
}
  0
POLYLINE
  5
66
  8
0
  6
DURCHGEHEND
 62
     7
 66
     1
 10
0.0
 20
0.0
 30
0.0
 70
   129
1001
TCAD
1000
TCW_ATTRIBUTE
1002
{
1000
224
1002
}
  0
VERTEX
  5
4C1
  8
0
  6
DURCHGEHEND
 62
     7
 10
572.22717215523573
 20
297.9619210676309
 30
0.0
  0
VERTEX
  5
4C2
  8
0
  6
DURCHGEHEND
 62
     7
 10
568.89795943240824
 20
277.96123473547527
 30
0.0
  0
VERTEX
  5
4C3
  8
0
  6
DURCHGEHEND
 62
     7
 10
575.56462595758455
 20
277.96260824872888
 30
0.0
  0
SEQEND
  5
4C4
  8
0
  6
DURCHGEHEND
 62
     7
  0
INSERT
  5
65
  8
0
  6
CONTINUOUS
 62
     7
  2
*U30
 10
0.0
 20
0.0
 30
0.0
1001
TCAD
1000
TCW_ATTRIBUTE
1002
{
1000
224
1002
}
1001
ACAD
1002
{
1000
R14_HATCH_DATA
1000
65
1011
1.0
1021
0.0
1031
0.0
1021
0.0
1031
0.0
1011
0.0
1021
0.0
1031
0.0
1021
1.0
1031
0.0
1011
0.0
1021
0.0
1031
0.0
1021
0.0
1031
1.0
1040
0.0
1010
0.0
1020
0.0
1030
1.0
1000
SOLID
1070
     1
1070
     1
1071
        1
1071
        3
1070
     0
1070
     1
1071
        3
1040
572.22717215523573
1040
297.9619210676309
1040
568.89795943240824
1040
277.96123473547527
1040
575.56462595758455
1040
277.96260824872888
1071
        1
1005
66
1070
     0
1070
     0
1071
        0
1002
}
  0
INSERT
  5
67
  8
0
  6
CONTINUOUS
 62
     7
  2
*U31
 10
0.0
 20
0.0
 30
0.0
  0
ENDBLK
  5
68
  8
0
  0
BLOCK
  8
0
  2
*D5
 70
     1
 10
0.0
 20
0.0
 30
0.0
  3
*D5
  1

  0
LINE
  5
6D
  8
0
  6
DURCHGEHEND
 62
     7
 10
172.96863565470071
 20
39.02319483774879
 30
-0.000000000000004
 11
172.96863565470071
 21
0.3534637631718667
 31
-0.0000000000000001
1001
TCAD
1000
TCW_ATTRIBUTE
1002
{
1000
175
1002
}
  0
LINE
  5
6E
  8
0
  6
DURCHGEHEND
 62
     7
 10
344.6813428598432
 20
39.02319483774879
 30
-0.000000000000004
 11
344.6813428598432
 21
0.3534637631718667
 31
-0.0000000000000001
1001
TCAD
1000
TCW_ATTRIBUTE
1002
{
1000
175
1002
}
  0
POLYLINE
  5
6F
  8
0
  6
DURCHGEHEND
 62
     7
 66
     1
 10
0.0
 20
0.0
 30
0.0
 70
   128
1001
TCAD
1000
TCW_ATTRIBUTE
1002
{
1000
175
1002
}
  0
VERTEX
  5
524
  8
0
  6
DURCHGEHEND
 62
     7
 10
192.96863565470071
 20
2.3534637631718658
 30
0.0
  0
VERTEX
  5
525
  8
0
  6
DURCHGEHEND
 62
     7
 10
192.96863565470071
 20
2.3534637631718658
 30
0.0
  0
VERTEX
  5
526
  8
0
  6
DURCHGEHEND
 62
     7
 10
192.96863565470071
 20
2.3534637631718658
 30
0.0
  0
VERTEX
  5
527
  8
0
  6
DURCHGEHEND
 62
     7
 10
258.82498925727191
 20
2.3534637631718658
 30
0.0
  0
SEQEND
  5
528
  8
0
  6
DURCHGEHEND
 62
     7
  0
POLYLINE
  5
70
  8
0
  6
DURCHGEHEND
 62
     7
 66
     1
 10
0.0
 20
0.0
 30
0.0
 70
   128
1001
TCAD
1000
TCW_ATTRIBUTE
1002
{
1000
175
1002
}
  0
VERTEX
  5
529
  8
0
  6
DURCHGEHEND
 62
     7
 10
324.6813428598432
 20
2.3534637631718658
 30
0.0
  0
VERTEX
  5
52A
  8
0
  6
DURCHGEHEND
 62
     7
 10
324.6813428598432
 20
2.3534637631718658
 30
0.0
  0
VERTEX
  5
52B
  8
0
  6
DURCHGEHEND
 62
     7
 10
324.6813428598432
 20
2.3534637631718658
 30
0.0
  0
VERTEX
  5
52C
  8
0
  6
DURCHGEHEND
 62
     7
 10
258.82498925727191
 20
2.3534637631718658
 30
0.0
  0
SEQEND
  5
52D
  8
0
  6
DURCHGEHEND
 62
     7
  0
POLYLINE
  5
72
  8
0
  6
DURCHGEHEND
 62
     7
 66
     1
 10
0.0
 20
0.0
 30
0.0
 70
   129
1001
TCAD
1000
TCW_ATTRIBUTE
1002
{
1000
175
1002
}
  0
VERTEX
  5
537
  8
0
  6
DURCHGEHEND
 62
     7
 10
172.96863565470071
 20
2.3534637631718658
 30
0.0
  0
VERTEX
  5
538
  8
0
  6
DURCHGEHEND
 62
     7
 10
192.96863565470071
 20
-0.9798695701614665
 30
0.0
  0
VERTEX
  5
539
  8
0
  6
DURCHGEHEND
 62
     7
 10
192.96863565470071
 20
5.6867970965051988
 30
0.0
  0
SEQEND
  5
53A
  8
0
  6
DURCHGEHEND
 62
     7
  0
INSERT
  5
71
  8
0
  6
CONTINUOUS
 62
     7
  2
*U33
 10
0.0
 20
0.0
 30
0.0
1001
TCAD
1000
TCW_ATTRIBUTE
1002
{
1000
175
1002
}
1001
ACAD
1002
{
1000
R14_HATCH_DATA
1000
71
1011
1.0
1021
0.0
1031
0.0
1021
0.0
1031
0.0
1011
0.0
1021
0.0
1031
0.0
1021
1.0
1031
0.0
1011
0.0
1021
0.0
1031
0.0
1021
0.0
1031
1.0
1040
0.0
1010
0.0
1020
0.0
1030
1.0
1000
SOLID
1070
     1
1070
     1
1071
        1
1071
        3
1070
     0
1070
     1
1071
        3
1040
172.96863565470071
1040
2.3534637631718658
1040
192.96863565470071
1040
-0.9798695701614665
1040
192.96863565470071
1040
5.6867970965051988
1071
        1
1005
72
1070
     0
1070
     0
1071
        0
1002
}
  0
POLYLINE
  5
74
  8
0
  6
DURCHGEHEND
 62
     7
 66
     1
 10
0.0
 20
0.0
 30
0.0
 70
   129
1001
TCAD
1000
TCW_ATTRIBUTE
1002
{
1000
175
1002
}
  0
VERTEX
  5
544
  8
0
  6
DURCHGEHEND
 62
     7
 10
344.6813428598432
 20
2.3534637631718658
 30
0.0
  0
VERTEX
  5
545
  8
0
  6
DURCHGEHEND
 62
     7
 10
324.6813428598432
 20
5.6867970965051988
 30
0.0
  0
VERTEX
  5
546
  8
0
  6
DURCHGEHEND
 62
     7
 10
324.6813428598432
 20
-0.9798695701614665
 30
0.0
  0
SEQEND
  5
547
  8
0
  6
DURCHGEHEND
 62
     7
  0
INSERT
  5
73
  8
0
  6
CONTINUOUS
 62
     7
  2
*U34
 10
0.0
 20
0.0
 30
0.0
1001
TCAD
1000
TCW_ATTRIBUTE
1002
{
1000
175
1002
}
1001
ACAD
1002
{
1000
R14_HATCH_DATA
1000
73
1011
1.0
1021
0.0
1031
0.0
1021
0.0
1031
0.0
1011
0.0
1021
0.0
1031
0.0
1021
1.0
1031
0.0
1011
0.0
1021
0.0
1031
0.0
1021
0.0
1031
1.0
1040
0.0
1010
0.0
1020
0.0
1030
1.0
1000
SOLID
1070
     1
1070
     1
1071
        1
1071
        3
1070
     0
1070
     1
1071
        3
1040
344.6813428598432
1040
2.3534637631718658
1040
324.6813428598432
1040
5.6867970965051988
1040
324.6813428598432
1040
-0.9798695701614665
1071
        1
1005
74
1070
     0
1070
     0
1071
        0
1002
}
  0
INSERT
  5
75
  8
0
  6
CONTINUOUS
 62
     7
  2
*U35
 10
0.0
 20
0.0
 30
0.0
  0
ENDBLK
  5
76
  8
0
  0
BLOCK
  8
0
  2
*D6
 70
     1
 10
0.0
 20
0.0
 30
0.0
  3
*D6
  1

  0
LINE
  5
8C
  8
0
  6
DURCHGEHEND
 62
     7
 10
401.88533239433019
 20
1013.184036574746
 30
0.0
 11
486.52190480357552
 21
1013.184036574746
 31
0.0
1001
TCAD
1000
TCW_ATTRIBUTE
1002
{
1000
426
1002
}
  0
LINE
  5
8D
  8
0
  6
DURCHGEHEND
 62
     7
 10
401.88533239433019
 20
596.66469951632121
 30
0.0
 11
486.52190480357558
 21
596.66469951632121
 31
0.0
1001
TCAD
1000
TCW_ATTRIBUTE
1002
{
1000
426
1002
}
  0
POLYLINE
  5
8E
  8
0
  6
DURCHGEHEND
 62
     7
 66
     1
 10
0.0
 20
0.0
 30
0.0
 70
   128
1001
TCAD
1000
TCW_ATTRIBUTE
1002
{
1000
426
1002
}
  0
VERTEX
  5
54C
  8
0
  6
DURCHGEHEND
 62
     7
 10
484.52190480357552
 20
993.18403657474653
 30
0.0
  0
VERTEX
  5
54D
  8
0
  6
DURCHGEHEND
 62
     7
 10
484.52190480357552
 20
993.18403657474653
 30
0.0
  0
VERTEX
  5
54E
  8
0
  6
DURCHGEHEND
 62
     7
 10
484.52190480357552
 20
993.18403657474653
 30
0.0
  0
VERTEX
  5
54F
  8
0
  6
DURCHGEHEND
 62
     7
 10
484.52190480357552
 20
819.13206035322594
 30
0.0
  0
SEQEND
  5
550
  8
0
  6
DURCHGEHEND
 62
     7
  0
POLYLINE
  5
8F
  8
0
  6
DURCHGEHEND
 62
     7
 66
     1
 10
0.0
 20
0.0
 30
0.0
 70
   128
1001
TCAD
1000
TCW_ATTRIBUTE
1002
{
1000
426
1002
}
  0
VERTEX
  5
551
  8
0
  6
DURCHGEHEND
 62
     7
 10
484.52190480357558
 20
616.66469951632121
 30
0.0
  0
VERTEX
  5
552
  8
0
  6
DURCHGEHEND
 62
     7
 10
484.52190480357558
 20
616.66469951632121
 30
0.0
  0
VERTEX
  5
553
  8
0
  6
DURCHGEHEND
 62
     7
 10
484.52190480357558
 20
616.66469951632121
 30
0.0
  0
VERTEX
  5
554
  8
0
  6
DURCHGEHEND
 62
     7
 10
484.52190480357552
 20
790.71667573784157
 30
0.0
  0
SEQEND
  5
555
  8
0
  6
DURCHGEHEND
 62
     7
  0
POLYLINE
  5
91
  8
0
  6
DURCHGEHEND
 62
     7
 66
     1
 10
0.0
 20
0.0
 30
0.0
 70
   129
1001
TCAD
1000
TCW_ATTRIBUTE
1002
{
1000
426
1002
}
  0
VERTEX
  5
55C
  8
0
  6
DURCHGEHEND
 62
     7
 10
484.52190480357552
 20
1013.184036574746
 30
0.0
  0
VERTEX
  5
55D
  8
0
  6
DURCHGEHEND
 62
     7
 10
481.1885714702421
 20
993.18403657474653
 30
0.0
  0
VERTEX
  5
55E
  8
0
  6
DURCHGEHEND
 62
     7
 10
487.85523813690889
 20
993.18403657474653
 30
0.0
  0
SEQEND
  5
55F
  8
0
  6
DURCHGEHEND
 62
     7
  0
INSERT
  5
90
  8
0
  6
CONTINUOUS
 62
     7
  2
*U36
 10
0.0
 20
0.0
 30
0.0
1001
TCAD
1000
TCW_ATTRIBUTE
1002
{
1000
426
1002
}
1001
ACAD
1002
{
1000
R14_HATCH_DATA
1000
90
1011
1.0
1021
0.0
1031
0.0
1021
0.0
1031
0.0
1011
0.0
1021
0.0
1031
0.0
1021
1.0
1031
0.0
1011
0.0
1021
0.0
1031
0.0
1021
0.0
1031
1.0
1040
0.0
1010
0.0
1020
0.0
1030
1.0
1000
SOLID
1070
     1
1070
     1
1071
        1
1071
        3
1070
     0
1070
     1
1071
        3
1040
484.52190480357552
1040
1013.184036574746
1040
481.1885714702421
1040
993.18403657474653
1040
487.85523813690889
1040
993.18403657474653
1071
        1
1005
91
1070
     0
1070
     0
1071
        0
1002
}
  0
POLYLINE
  5
93
  8
0
  6
DURCHGEHEND
 62
     7
 66
     1
 10
0.0
 20
0.0
 30
0.0
 70
   129
1001
TCAD
1000
TCW_ATTRIBUTE
1002
{
1000
426
1002
}
  0
VERTEX
  5
566
  8
0
  6
DURCHGEHEND
 62
     7
 10
484.52190480357558
 20
596.66469951632121
 30
0.0
  0
VERTEX
  5
567
  8
0
  6
DURCHGEHEND
 62
     7
 10
487.85523813690889
 20
616.66469951632121
 30
0.0
  0
VERTEX
  5
568
  8
0
  6
DURCHGEHEND
 62
     7
 10
481.18857147024232
 20
616.66469951632121
 30
0.0
  0
SEQEND
  5
569
  8
0
  6
DURCHGEHEND
 62
     7
  0
INSERT
  5
92
  8
0
  6
CONTINUOUS
 62
     7
  2
*U37
 10
0.0
 20
0.0
 30
0.0
1001
TCAD
1000
TCW_ATTRIBUTE
1002
{
1000
426
1002
}
1001
ACAD
1002
{
1000
R14_HATCH_DATA
1000
92
1011
1.0
1021
0.0
1031
0.0
1021
0.0
1031
0.0
1011
0.0
1021
0.0
1031
0.0
1021
1.0
1031
0.0
1011
0.0
1021
0.0
1031
0.0
1021
0.0
1031
1.0
1040
0.0
1010
0.0
1020
0.0
1030
1.0
1000
SOLID
1070
     1
1070
     1
1071
        1
1071
        3
1070
     0
1070
     1
1071
        3
1040
484.52190480357558
1040
596.66469951632121
1040
487.85523813690889
1040
616.66469951632121
1040
481.18857147024232
1040
616.66469951632121
1071
        1
1005
93
1070
     0
1070
     0
1071
        0
1002
}
  0
INSERT
  5
94
  8
0
  6
CONTINUOUS
 62
     7
  2
*U38
 10
0.0
 20
0.0
 30
0.0
  0
ENDBLK
  5
95
  8
0
  0
BLOCK
  8
0
  2
*D7
 70
     1
 10
0.0
 20
0.0
 30
0.0
  3
*D7
  1

  0
LINE
  5
99
  8
0
  6
DURCHGEHEND
 62
     7
 10
401.22238094165829
 20
569.25461113091353
 30
0.0
 11
578.08337784043374
 21
569.27807544226835
 31
0.0
1001
TCAD
1000
TCW_ATTRIBUTE
1002
{
1000
476
1002
}
  0
LINE
  5
9A
  8
0
  6
DURCHGEHEND
 62
     7
 10
401.16019429333602
 20
1037.9831601906769
 30
0.0
 11
578.02119119211147
 21
1038.0066245020321
 31
0.0
1001
TCAD
1000
TCW_ATTRIBUTE
1002
{
1000
476
1002
}
  0
POLYLINE
  5
9B
  8
0
  6
DURCHGEHEND
 62
     7
 66
     1
 10
0.0
 20
0.0
 30
0.0
 70
   128
1001
TCAD
1000
TCW_ATTRIBUTE
1002
{
1000
476
1002
}
  0
VERTEX
  5
56E
  8
0
  6
DURCHGEHEND
 62
     7
 10
576.08072443963783
 20
589.27780992441296
 30
0.0
  0
VERTEX
  5
56F
  8
0
  6
DURCHGEHEND
 62
     7
 10
576.08072443963783
 20
589.27780992441296
 30
0.0
  0
VERTEX
  5
570
  8
0
  6
DURCHGEHEND
 62
     7
 10
576.08072443963783
 20
589.27780992441296
 30
0.0
  0
VERTEX
  5
571
  8
0
  6
DURCHGEHEND
 62
     7
 10
576.05416948149855
 20
789.43439232261835
 30
0.0
  0
SEQEND
  5
572
  8
0
  6
DURCHGEHEND
 62
     7
  0
POLYLINE
  5
9C
  8
0
  6
DURCHGEHEND
 62
     7
 66
     1
 10
0.0
 20
0.0
 30
0.0
 70
   128
1001
TCAD
1000
TCW_ATTRIBUTE
1002
{
1000
476
1002
}
  0
VERTEX
  5
573
  8
0
  6
DURCHGEHEND
 62
     7
 10
576.02384462811051
 20
1018.006359336208
 30
0.0
  0
VERTEX
  5
574
  8
0
  6
DURCHGEHEND
 62
     7
 10
576.02384462811051
 20
1018.006359336208
 30
0.0
  0
VERTEX
  5
575
  8
0
  6
DURCHGEHEND
 62
     7
 10
576.02384462811051
 20
1018.006359336208
 30
0.0
  0
VERTEX
  5
576
  8
0
  6
DURCHGEHEND
 62
     7
 10
576.05039958624991
 20
817.84977693800295
 30
0.0
  0
SEQEND
  5
577
  8
0
  6
DURCHGEHEND
 62
     7
  0
POLYLINE
  5
9E
  8
0
  6
DURCHGEHEND
 62
     7
 66
     1
 10
0.0
 20
0.0
 30
0.0
 70
   129
1001
TCAD
1000
TCW_ATTRIBUTE
1002
{
1000
476
1002
}
  0
VERTEX
  5
581
  8
0
  6
DURCHGEHEND
 62
     7
 10
576.08337785803542
 20
569.27781010042872
 30
0.0
  0
VERTEX
  5
582
  8
0
  6
DURCHGEHEND
 62
     7
 10
579.41405774363534
 20
589.27825216081249
 30
0.0
  0
VERTEX
  5
583
  8
0
  6
DURCHGEHEND
 62
     7
 10
572.74739113564056
 20
589.27736768801333
 30
0.0
  0
SEQEND
  5
584
  8
0
  6
DURCHGEHEND
 62
     7
  0
INSERT
  5
9D
  8
0
  6
CONTINUOUS
 62
     7
  2
*U39
 10
0.0
 20
0.0
 30
0.0
1001
TCAD
1000
TCW_ATTRIBUTE
1002
{
1000
476
1002
}
1001
ACAD
1002
{
1000
R14_HATCH_DATA
1000
9D
1011
1.0
1021
0.0
1031
0.0
1021
0.0
1031
0.0
1011
0.0
1021
0.0
1031
0.0
1021
1.0
1031
0.0
1011
0.0
1021
0.0
1031
0.0
1021
0.0
1031
1.0
1040
0.0
1010
0.0
1020
0.0
1030
1.0
1000
SOLID
1070
     1
1070
     1
1071
        1
1071
        3
1070
     0
1070
     1
1071
        3
1040
576.08337785803542
1040
569.27781010042872
1040
579.41405774363534
1040
589.27825216081249
1040
572.74739113564056
1040
589.27736768801333
1071
        1
1005
9E
1070
     0
1070
     0
1071
        0
1002
}
  0
POLYLINE
  5
A0
  8
0
  6
DURCHGEHEND
 62
     7
 66
     1
 10
0.0
 20
0.0
 30
0.0
 70
   129
1001
TCAD
1000
TCW_ATTRIBUTE
1002
{
1000
476
1002
}
  0
VERTEX
  5
58E
  8
0
  6
DURCHGEHEND
 62
     7
 10
576.02119120971315
 20
1038.006359160192
 30
0.0
  0
VERTEX
  5
58F
  8
0
  6
DURCHGEHEND
 62
     7
 10
572.69051132411323
 20
1018.005917099809
 30
0.0
  0
VERTEX
  5
590
  8
0
  6
DURCHGEHEND
 62
     7
 10
579.35717793210802
 20
1018.006801572608
 30
0.0
  0
SEQEND
  5
591
  8
0
  6
DURCHGEHEND
 62
     7
  0
INSERT
  5
9F
  8
0
  6
CONTINUOUS
 62
     7
  2
*U40
 10
0.0
 20
0.0
 30
0.0
1001
TCAD
1000
TCW_ATTRIBUTE
1002
{
1000
476
1002
}
1001
ACAD
1002
{
1000
R14_HATCH_DATA
1000
9F
1011
1.0
1021
0.0
1031
0.0
1021
0.0
1031
0.0
1011
0.0
1021
0.0
1031
0.0
1021
1.0
1031
0.0
1011
0.0
1021
0.0
1031
0.0
1021
0.0
1031
1.0
1040
0.0
1010
0.0
1020
0.0
1030
1.0
1000
SOLID
1070
     1
1070
     1
1071
        1
1071
        3
1070
     0
1070
     1
1071
        3
1040
576.02119120971315
1040
1038.006359160192
1040
572.69051132411323
1040
1018.005917099809
1040
579.35717793210802
1040
1018.006801572608
1071
        1
1005
A0
1070
     0
1070
     0
1071
        0
1002
}
  0
INSERT
  5
A1
  8
0
  6
CONTINUOUS
 62
     7
  2
*U41
 10
0.0
 20
0.0
 30
0.0
  0
ENDBLK
  5
A2
  8
0
  0
BLOCK
  8
0
  2
*D8
 70
     1
 10
0.0
 20
0.0
 30
0.0
  3
*D8
  1

  0
LINE
  5
A6
  8
0
  6
DURCHGEHEND
 62
     7
 10
-370.0814459919111
 20
1019.021956019168
 30
0.0
 11
-370.07320371543551
 21
1132.668612913609
 31
0.0
1001
TCAD
1000
TCW_ATTRIBUTE
1002
{
1000
720
1002
}
  0
LINE
  5
A7
  8
0
  6
DURCHGEHEND
 62
     7
 10
347.0167991554938
 20
1018.969948136506
 30
0.0
 11
347.0250414319695
 21
1132.6166050309471
 31
0.0
1001
TCAD
1000
TCW_ATTRIBUTE
1002
{
1000
720
1002
}
  0
POLYLINE
  5
A8
  8
0
  6
DURCHGEHEND
 62
     7
 66
     1
 10
0.0
 20
0.0
 30
0.0
 70
   128
1001
TCAD
1000
TCW_ATTRIBUTE
1002
{
1000
720
1002
}
  0
VERTEX
  5
596
  8
0
  6
DURCHGEHEND
 62
     7
 10
-350.07334881896168
 20
1130.6671624096009
 30
0.0
  0
VERTEX
  5
597
  8
0
  6
DURCHGEHEND
 62
     7
 10
-350.07334881896168
 20
1130.6671624096009
 30
0.0
  0
VERTEX
  5
598
  8
0
  6
DURCHGEHEND
 62
     7
 10
-350.07334881896168
 20
1130.6671624096009
 30
0.0
  0
VERTEX
  5
599
  8
0
  6
DURCHGEHEND
 62
     7
 10
-42.97593971906452
 20
1130.6448900276421
 30
0.0
  0
SEQEND
  5
59A
  8
0
  6
DURCHGEHEND
 62
     7
  0
POLYLINE
  5
A9
  8
0
  6
DURCHGEHEND
 62
     7
 66
     1
 10
0.0
 20
0.0
 30
0.0
 70
   128
1001
TCAD
1000
TCW_ATTRIBUTE
1002
{
1000
720
1002
}
  0
VERTEX
  5
59B
  8
0
  6
DURCHGEHEND
 62
     7
 10
327.02489643364208
 20
1130.618055545475
 30
0.0
  0
VERTEX
  5
59C
  8
0
  6
DURCHGEHEND
 62
     7
 10
327.02489643364208
 20
1130.618055545475
 30
0.0
  0
VERTEX
  5
59D
  8
0
  6
DURCHGEHEND
 62
     7
 10
327.02489643364208
 20
1130.618055545475
 30
0.0
  0
VERTEX
  5
59E
  8
0
  6
DURCHGEHEND
 62
     7
 10
19.927487333744871
 20
1130.6403279274341
 30
0.0
  0
SEQEND
  5
59F
  8
0
  6
DURCHGEHEND
 62
     7
  0
POLYLINE
  5
AB
  8
0
  6
DURCHGEHEND
 62
     7
 66
     1
 10
0.0
 20
0.0
 30
0.0
 70
   129
1001
TCAD
1000
TCW_ATTRIBUTE
1002
{
1000
720
1002
}
  0
VERTEX
  5
5A9
  8
0
  6
DURCHGEHEND
 62
     7
 10
-370.07334876636219
 20
1130.668612918869
 30
0.0
  0
VERTEX
  5
5AA
  8
0
  6
DURCHGEHEND
 62
     7
 10
-350.07359057050633
 20
1127.333829085034
 30
0.0
  0
VERTEX
  5
5AB
  8
0
  6
DURCHGEHEND
 62
     7
 10
-350.07310706741703
 20
1134.000495734168
 30
0.0
  0
SEQEND
  5
5AC
  8
0
  6
DURCHGEHEND
 62
     7
  0
INSERT
  5
AA
  8
0
  6
CONTINUOUS
 62
     7
  2
*U42
 10
0.0
 20
0.0
 30
0.0
1001
TCAD
1000
TCW_ATTRIBUTE
1002
{
1000
720
1002
}
1001
ACAD
1002
{
1000
R14_HATCH_DATA
1000
AA
1011
1.0
1021
0.0
1031
0.0
1021
0.0
1031
0.0
1011
0.0
1021
0.0
1031
0.0
1021
1.0
1031
0.0
1011
0.0
1021
0.0
1031
0.0
1021
0.0
1031
1.0
1040
0.0
1010
0.0
1020
0.0
1030
1.0
1000
SOLID
1070
     1
1070
     1
1071
        1
1071
        3
1070
     0
1070
     1
1071
        3
1040
-370.07334876636219
1040
1130.668612918869
1040
-350.07359057050633
1040
1127.333829085034
1040
-350.07310706741703
1040
1134.000495734168
1071
        1
1005
AB
1070
     0
1070
     0
1071
        0
1002
}
  0
POLYLINE
  5
AD
  8
0
  6
DURCHGEHEND
 62
     7
 66
     1
 10
0.0
 20
0.0
 30
0.0
 70
   129
1001
TCAD
1000
TCW_ATTRIBUTE
1002
{
1000
720
1002
}
  0
VERTEX
  5
5B6
  8
0
  6
DURCHGEHEND
 62
     7
 10
347.02489638104271
 20
1130.6166050362069
 30
0.0
  0
VERTEX
  5
5B7
  8
0
  6
DURCHGEHEND
 62
     7
 10
327.02513818518668
 20
1133.951388870041
 30
0.0
  0
VERTEX
  5
5B8
  8
0
  6
DURCHGEHEND
 62
     7
 10
327.02465468209738
 20
1127.284722220908
 30
0.0
  0
SEQEND
  5
5B9
  8
0
  6
DURCHGEHEND
 62
     7
  0
INSERT
  5
AC
  8
0
  6
CONTINUOUS
 62
     7
  2
*U43
 10
0.0
 20
0.0
 30
0.0
1001
TCAD
1000
TCW_ATTRIBUTE
1002
{
1000
720
1002
}
1001
ACAD
1002
{
1000
R14_HATCH_DATA
1000
AC
1011
1.0
1021
0.0
1031
0.0
1021
0.0
1031
0.0
1011
0.0
1021
0.0
1031
0.0
1021
1.0
1031
0.0
1011
0.0
1021
0.0
1031
0.0
1021
0.0
1031
1.0
1040
0.0
1010
0.0
1020
0.0
1030
1.0
1000
SOLID
1070
     1
1070
     1
1071
        1
1071
        3
1070
     0
1070
     1
1071
        3
1040
347.02489638104271
1040
1130.6166050362069
1040
327.02513818518668
1040
1133.951388870041
1040
327.02465468209738
1040
1127.284722220908
1071
        1
1005
AD
1070
     0
1070
     0
1071
        0
1002
}
  0
INSERT
  5
AE
  8
0
  6
CONTINUOUS
 62
     7
  2
*U44
 10
0.0
 20
0.0
 30
0.0
  0
ENDBLK
  5
AF
  8
0
  0
BLOCK
  8
0
  2
*D9
 70
     1
 10
0.0
 20
0.0
 30
0.0
  3
*D9
  1

  0
LINE
  5
B3
  8
0
  6
DURCHGEHEND
 62
     7
 10
-393.43057920316971
 20
1017.236991865949
 30
0.0
 11
-393.3482734133832
 21
1230.012867478672
 31
0.0
1001
TCAD
1000
TCW_ATTRIBUTE
1002
{
1000
770
1002
}
  0
LINE
  5
B4
  8
0
  6
DURCHGEHEND
 62
     7
 10
375.48305931549078
 20
1016.939561322597
 30
0.0
 11
375.56536510527718
 21
1229.7154369353191
 31
0.0
1001
TCAD
1000
TCW_ATTRIBUTE
1002
{
1000
770
1002
}
  0
POLYLINE
  5
B5
  8
0
  6
DURCHGEHEND
 62
     7
 66
     1
 10
0.0
 20
0.0
 30
0.0
 70
   128
1001
TCAD
1000
TCW_ATTRIBUTE
1002
{
1000
770
1002
}
  0
VERTEX
  5
5BE
  8
0
  6
DURCHGEHEND
 62
     7
 10
-373.34904854797662
 20
1228.005131245274
 30
0.0
  0
VERTEX
  5
5BF
  8
0
  6
DURCHGEHEND
 62
     7
 10
-373.34904854797662
 20
1228.005131245274
 30
0.0
  0
VERTEX
  5
5C0
  8
0
  6
DURCHGEHEND
 62
     7
 10
-373.34904854797662
 20
1228.005131245274
 30
0.0
  0
VERTEX
  5
5C1
  8
0
  6
DURCHGEHEND
 62
     7
 10
-40.473678951850601
 20
1227.8763686676739
 30
0.0
  0
SEQEND
  5
5C2
  8
0
  6
DURCHGEHEND
 62
     7
  0
POLYLINE
  5
B6
  8
0
  6
DURCHGEHEND
 62
     7
 66
     1
 10
0.0
 20
0.0
 30
0.0
 70
   128
1001
TCAD
1000
TCW_ATTRIBUTE
1002
{
1000
770
1002
}
  0
VERTEX
  5
5C3
  8
0
  6
DURCHGEHEND
 62
     7
 10
355.56459296326523
 20
1227.7231734679749
 30
0.0
  0
VERTEX
  5
5C4
  8
0
  6
DURCHGEHEND
 62
     7
 10
355.56459296326523
 20
1227.7231734679749
 30
0.0
  0
VERTEX
  5
5C5
  8
0
  6
DURCHGEHEND
 62
     7
 10
355.56459296326523
 20
1227.7231734679749
 30
0.0
  0
VERTEX
  5
5C6
  8
0
  6
DURCHGEHEND
 62
     7
 10
22.689223367139139
 20
1227.851936045575
 30
0.0
  0
SEQEND
  5
5C7
  8
0
  6
DURCHGEHEND
 62
     7
  0
POLYLINE
  5
B8
  8
0
  6
DURCHGEHEND
 62
     7
 66
     1
 10
0.0
 20
0.0
 30
0.0
 70
   129
1001
TCAD
1000
TCW_ATTRIBUTE
1002
{
1000
770
1002
}
  0
VERTEX
  5
5D1
  8
0
  6
DURCHGEHEND
 62
     7
 10
-393.349047051686
 20
1228.0128676283009
 30
0.0
  0
VERTEX
  5
5D2
  8
0
  6
DURCHGEHEND
 62
     7
 10
-373.35033794514771
 20
1224.6717981613231
 30
0.0
  0
VERTEX
  5
5D3
  8
0
  6
DURCHGEHEND
 62
     7
 10
-373.34775915080547
 20
1231.3384643292261
 30
0.0
  0
SEQEND
  5
5D4
  8
0
  6
DURCHGEHEND
 62
     7
  0
INSERT
  5
B7
  8
0
  6
CONTINUOUS
 62
     7
  2
*U45
 10
0.0
 20
0.0
 30
0.0
1001
TCAD
1000
TCW_ATTRIBUTE
1002
{
1000
770
1002
}
1001
ACAD
1002
{
1000
R14_HATCH_DATA
1000
B7
1011
1.0
1021
0.0
1031
0.0
1021
0.0
1031
0.0
1011
0.0
1021
0.0
1031
0.0
1021
1.0
1031
0.0
1011
0.0
1021
0.0
1031
0.0
1021
0.0
1031
1.0
1040
0.0
1010
0.0
1020
0.0
1030
1.0
1000
SOLID
1070
     1
1070
     1
1071
        1
1071
        3
1070
     0
1070
     1
1071
        3
1040
-393.349047051686
1040
1228.0128676283009
1040
-373.35033794514771
1040
1224.6717981613231
1040
-373.34775915080547
1040
1231.3384643292261
1071
        1
1005
B8
1070
     0
1070
     0
1071
        0
1002
}
  0
POLYLINE
  5
BA
  8
0
  6
DURCHGEHEND
 62
     7
 66
     1
 10
0.0
 20
0.0
 30
0.0
 70
   129
1001
TCAD
1000
TCW_ATTRIBUTE
1002
{
1000
770
1002
}
  0
VERTEX
  5
5DF
  8
0
  6
DURCHGEHEND
 62
     7
 10
375.5645914669746
 20
1227.715437084948
 30
0.0
  0
VERTEX
  5
5E0
  8
0
  6
DURCHGEHEND
 62
     7
 10
355.56588236043632
 20
1231.056506551927
 30
0.0
  0
VERTEX
  5
5E1
  8
0
  6
DURCHGEHEND
 62
     7
 10
355.56330356609408
 20
1224.389840384023
 30
0.0
  0
SEQEND
  5
5E2
  8
0
  6
DURCHGEHEND
 62
     7
  0
INSERT
  5
B9
  8
0
  6
CONTINUOUS
 62
     7
  2
*U46
 10
0.0
 20
0.0
 30
0.0
1001
TCAD
1000
TCW_ATTRIBUTE
1002
{
1000
770
1002
}
1001
ACAD
1002
{
1000
R14_HATCH_DATA
1000
B9
1011
1.0
1021
0.0
1031
0.0
1021
0.0
1031
0.0
1011
0.0
1021
0.0
1031
0.0
1021
1.0
1031
0.0
1011
0.0
1021
0.0
1031
0.0
1021
0.0
1031
1.0
1040
0.0
1010
0.0
1020
0.0
1030
1.0
1000
SOLID
1070
     1
1070
     1
1071
        1
1071
        3
1070
     0
1070
     1
1071
        3
1040
375.5645914669746
1040
1227.715437084948
1040
355.56588236043632
1040
1231.056506551927
1040
355.56330356609408
1040
1224.389840384023
1071
        1
1005
BA
1070
     0
1070
     0
1071
        0
1002
}
  0
INSERT
  5
BB
  8
0
  6
CONTINUOUS
 62
     7
  2
*U47
 10
0.0
 20
0.0
 30
0.0
  0
ENDBLK
  5
BC
  8
0
  0
BLOCK
  8
0
  2
*D10
 70
     1
 10
0.0
 20
0.0
 30
0.0
  3
*D10
  1

  0
INSERT
  5
C0
  8
0
  6
CONTINUOUS
 62
     7
  2
*U48
 10
0.0
 20
0.0
 30
0.0
  0
POLYLINE
  5
C1
  8
0
  6
DURCHGEHEND
 62
     7
 66
     1
 10
0.0
 20
0.0
 30
0.0
 70
   128
1001
TCAD
1000
TCW_ATTRIBUTE
1002
{
1000
R190
1002
}
  0
VERTEX
  5
5EB
  8
0
  6
DURCHGEHEND
 62
     7
 10
-332.92900605499727
 20
712.64359577983043
 30
0.0
  0
VERTEX
  5
5EC
  8
0
  6
DURCHGEHEND
 62
     7
 10
-314.87122554814761
 20
721.3960521032102
 30
0.0
  0
VERTEX
  5
5ED
  8
0
  6
DURCHGEHEND
 62
     7
 10
-227.22669429814761
 20
721.3960521032102
 30
0.0
  0
SEQEND
  5
5EE
  8
0
  6
DURCHGEHEND
 62
     7
  0
LINE
  5
C2
  8
0
  6
DURCHGEHEND
 62
     7
 10
-179.9511935182642
 20
786.79067172673581
 30
0.0
 11
-179.9511935182642
 21
786.79067172673581
 31
0.0
1001
TCAD
1000
TCW_ATTRIBUTE
1002
{
1000
R190
1002
}
  0
POLYLINE
  5
C4
  8
0
  6
DURCHGEHEND
 62
     7
 66
     1
 10
0.0
 20
0.0
 30
0.0
 70
   129
1001
TCAD
1000
TCW_ATTRIBUTE
1002
{
1000
R190
1002
}
  0
VERTEX
  5
5F8
  8
0
  6
DURCHGEHEND
 62
     7
 10
-350.92639576520122
 20
703.92041037431215
 30
0.0
  0
VERTEX
  5
5F9
  8
0
  6
DURCHGEHEND
 62
     7
 10
-331.47514182074428
 20
709.64403082812964
 30
0.0
  0
VERTEX
  5
5FA
  8
0
  6
DURCHGEHEND
 62
     7
 10
-334.38287028925038
 20
715.64316073153111
 30
0.0
  0
SEQEND
  5
5FB
  8
0
  6
DURCHGEHEND
 62
     7
  0
INSERT
  5
C3
  8
0
  6
CONTINUOUS
 62
     7
  2
*U49
 10
0.0
 20
0.0
 30
0.0
1001
TCAD
1000
TCW_ATTRIBUTE
1002
{
1000
R190
1002
}
1001
ACAD
1002
{
1000
R14_HATCH_DATA
1000
C3
1011
1.0
1021
0.0
1031
0.0
1021
0.0
1031
0.0
1011
0.0
1021
0.0
1031
0.0
1021
1.0
1031
0.0
1011
0.0
1021
0.0
1031
0.0
1021
0.0
1031
1.0
1040
0.0
1010
0.0
1020
0.0
1030
1.0
1000
SOLID
1070
     1
1070
     1
1071
        1
1071
        3
1070
     0
1070
     1
1071
        3
1040
-350.92639576520122
1040
703.92041037431215
1040
-331.47514182074428
1040
709.64403082812964
1040
-334.38287028925038
1040
715.64316073153111
1071
        1
1005
C4
1070
     0
1070
     0
1071
        0
1002
}
  0
ENDBLK
  5
C5
  8
0
  0
BLOCK
  8
0
  2
*D11
 70
     1
 10
0.0
 20
0.0
 30
0.0
  3
*D11
  1

  0
LINE
  5
D8
  8
0
  6
DURCHGEHEND
 62
     7
 10
-1695.27133784743
 20
691.29167796647096
 30
0.0
 11
-1695.22865932946
 21
772.49368562937309
 31
0.0
1001
TCAD
1000
TCW_ATTRIBUTE
1002
{
1000
426
1002
}
  0
LINE
  5
D9
  8
0
  6
DURCHGEHEND
 62
     7
 10
-1270.4904403446781
 20
691.06841970366293
 30
0.0
 11
-1270.4477618267081
 21
772.27042736656495
 31
0.0
1001
TCAD
1000
TCW_ATTRIBUTE
1002
{
1000
426
1002
}
  0
POLYLINE
  5
DA
  8
0
  6
DURCHGEHEND
 62
     7
 66
     1
 10
0.0
 20
0.0
 30
0.0
 70
   128
1001
TCAD
1000
TCW_ATTRIBUTE
1002
{
1000
426
1002
}
  0
VERTEX
  5
7D1
  8
0
  6
DURCHGEHEND
 62
     7
 10
-1675.2297132607389
 20
770.48317421672573
 30
0.0
  0
VERTEX
  5
7D2
  8
0
  6
DURCHGEHEND
 62
     7
 10
-1675.2297132607389
 20
770.48317421672573
 30
0.0
  0
VERTEX
  5
7D3
  8
0
  6
DURCHGEHEND
 62
     7
 10
-1675.2297132607389
 20
770.48317421672573
 30
0.0
  0
VERTEX
  5
7D4
  8
0
  6
DURCHGEHEND
 62
     7
 10
-1514.2162148719731
 20
770.39854801495835
 30
0.0
  0
SEQEND
  5
7D5
  8
0
  6
DURCHGEHEND
 62
     7
  0
POLYLINE
  5
DB
  8
0
  6
DURCHGEHEND
 62
     7
 66
     1
 10
0.0
 20
0.0
 30
0.0
 70
   128
1001
TCAD
1000
TCW_ATTRIBUTE
1002
{
1000
426
1002
}
  0
VERTEX
  5
7D6
  8
0
  6
DURCHGEHEND
 62
     7
 10
-1290.448810233207
 20
770.28093933169032
 30
0.0
  0
VERTEX
  5
7D7
  8
0
  6
DURCHGEHEND
 62
     7
 10
-1290.448810233207
 20
770.28093933169032
 30
0.0
  0
VERTEX
  5
7D8
  8
0
  6
DURCHGEHEND
 62
     7
 10
-1290.448810233207
 20
770.28093933169032
 30
0.0
  0
VERTEX
  5
7D9
  8
0
  6
DURCHGEHEND
 62
     7
 10
-1451.4623086219719
 20
770.36556553345758
 30
0.0
  0
SEQEND
  5
7DA
  8
0
  6
DURCHGEHEND
 62
     7
  0
POLYLINE
  5
DD
  8
0
  6
DURCHGEHEND
 62
     7
 66
     1
 10
0.0
 20
0.0
 30
0.0
 70
   129
1001
TCAD
1000
TCW_ATTRIBUTE
1002
{
1000
426
1002
}
  0
VERTEX
  5
7E5
  8
0
  6
DURCHGEHEND
 62
     7
 10
-1695.2297104983479
 20
770.4936859056121
 30
0.0
  0
VERTEX
  5
7E6
  8
0
  6
DURCHGEHEND
 62
     7
 10
-1675.231465208886
 20
767.14984134379074
 30
0.0
  0
VERTEX
  5
7E7
  8
0
  6
DURCHGEHEND
 62
     7
 10
-1675.2279613125911
 20
773.81650708966072
 30
0.0
  0
SEQEND
  5
7E8
  8
0
  6
DURCHGEHEND
 62
     7
  0
INSERT
  5
DC
  8
0
  6
CONTINUOUS
 62
     7
  2
*U53
 10
0.0
 20
0.0
 30
0.0
1001
TCAD
1000
TCW_ATTRIBUTE
1002
{
1000
426
1002
}
1001
ACAD
1002
{
1000
R14_HATCH_DATA
1000
DC
1011
1.0
1021
0.0
1031
0.0
1021
0.0
1031
0.0
1011
0.0
1021
0.0
1031
0.0
1021
1.0
1031
0.0
1011
0.0
1021
0.0
1031
0.0
1021
0.0
1031
1.0
1040
0.0
1010
0.0
1020
0.0
1030
1.0
1000
SOLID
1070
     1
1070
     1
1071
        1
1071
        3
1070
     0
1070
     1
1071
        3
1040
-1695.2297104983479
1040
770.4936859056121
1040
-1675.231465208886
1040
767.14984134379074
1040
-1675.2279613125911
1040
773.81650708966072
1071
        1
1005
DD
1070
     0
1070
     0
1071
        0
1002
}
  0
POLYLINE
  5
DF
  8
0
  6
DURCHGEHEND
 62
     7
 66
     1
 10
0.0
 20
0.0
 30
0.0
 70
   129
1001
TCAD
1000
TCW_ATTRIBUTE
1002
{
1000
426
1002
}
  0
VERTEX
  5
7F2
  8
0
  6
DURCHGEHEND
 62
     7
 10
-1270.4488129955971
 20
770.27042764280395
 30
0.0
  0
VERTEX
  5
7F3
  8
0
  6
DURCHGEHEND
 62
     7
 10
-1290.447058285059
 20
773.61427220462531
 30
0.0
  0
VERTEX
  5
7F4
  8
0
  6
DURCHGEHEND
 62
     7
 10
-1290.4505621813539
 20
766.94760645875533
 30
0.0
  0
SEQEND
  5
7F5
  8
0
  6
DURCHGEHEND
 62
     7
  0
INSERT
  5
DE
  8
0
  6
CONTINUOUS
 62
     7
  2
*U54
 10
0.0
 20
0.0
 30
0.0
1001
TCAD
1000
TCW_ATTRIBUTE
1002
{
1000
426
1002
}
1001
ACAD
1002
{
1000
R14_HATCH_DATA
1000
DE
1011
1.0
1021
0.0
1031
0.0
1021
0.0
1031
0.0
1011
0.0
1021
0.0
1031
0.0
1021
1.0
1031
0.0
1011
0.0
1021
0.0
1031
0.0
1021
0.0
1031
1.0
1040
0.0
1010
0.0
1020
0.0
1030
1.0
1000
SOLID
1070
     1
1070
     1
1071
        1
1071
        3
1070
     0
1070
     1
1071
        3
1040
-1270.4488129955971
1040
770.27042764280395
1040
-1290.447058285059
1040
773.61427220462531
1040
-1290.4505621813539
1040
766.94760645875533
1071
        1
1005
DF
1070
     0
1070
     0
1071
        0
1002
}
  0
INSERT
  5
E0
  8
0
  6
CONTINUOUS
 62
     7
  2
*U55
 10
0.0
 20
0.0
 30
0.0
  0
ENDBLK
  5
E1
  8
0
  0
BLOCK
  8
0
  2
*D12
 70
     1
 10
0.0
 20
0.0
 30
0.0
  3
*D12
  1

  0
LINE
  5
E5
  8
0
  6
DURCHGEHEND
 62
     7
 10
-1720.2713931976259
 20
691.29167799403035
 30
0.0
 11
-1720.2075328051189
 21
827.09715317821281
 31
0.0
1001
TCAD
1000
TCW_ATTRIBUTE
1002
{
1000
476
1002
}
  0
LINE
  5
E6
  8
0
  6
DURCHGEHEND
 62
     7
 10
-1245.4904956948751
 20
691.06841973122232
 30
0.0
 11
-1245.426635302367
 21
826.87389491540455
 31
0.0
1001
TCAD
1000
TCW_ATTRIBUTE
1002
{
1000
476
1002
}
  0
POLYLINE
  5
E7
  8
0
  6
DURCHGEHEND
 62
     7
 66
     1
 10
0.0
 20
0.0
 30
0.0
 70
   128
1001
TCAD
1000
TCW_ATTRIBUTE
1002
{
1000
476
1002
}
  0
VERTEX
  5
7FA
  8
0
  6
DURCHGEHEND
 62
     7
 10
-1700.208475484817
 20
825.0877487143805
 30
0.0
  0
VERTEX
  5
7FB
  8
0
  6
DURCHGEHEND
 62
     7
 10
-1700.208475484817
 20
825.0877487143805
 30
0.0
  0
VERTEX
  5
7FC
  8
0
  6
DURCHGEHEND
 62
     7
 10
-1700.208475484817
 20
825.0877487143805
 30
0.0
  0
VERTEX
  5
7FD
  8
0
  6
DURCHGEHEND
 62
     7
 10
-1514.1949776472379
 20
825.00027878750575
 30
0.0
  0
SEQEND
  5
7FE
  8
0
  6
DURCHGEHEND
 62
     7
  0
POLYLINE
  5
E8
  8
0
  6
DURCHGEHEND
 62
     7
 66
     1
 10
0.0
 20
0.0
 30
0.0
 70
   128
1001
TCAD
1000
TCW_ATTRIBUTE
1002
{
1000
476
1002
}
  0
VERTEX
  5
7FF
  8
0
  6
DURCHGEHEND
 62
     7
 10
-1265.42757355966
 20
824.88329982147752
 30
0.0
  0
VERTEX
  5
800
  8
0
  6
DURCHGEHEND
 62
     7
 10
-1265.42757355966
 20
824.88329982147752
 30
0.0
  0
VERTEX
  5
801
  8
0
  6
DURCHGEHEND
 62
     7
 10
-1265.42757355966
 20
824.88329982147752
 30
0.0
  0
VERTEX
  5
802
  8
0
  6
DURCHGEHEND
 62
     7
 10
-1451.4410713972391
 20
824.97076974835215
 30
0.0
  0
SEQEND
  5
803
  8
0
  6
DURCHGEHEND
 62
     7
  0
POLYLINE
  5
EA
  8
0
  6
DURCHGEHEND
 62
     7
 66
     1
 10
0.0
 20
0.0
 30
0.0
 70
   129
1001
TCAD
1000
TCW_ATTRIBUTE
1002
{
1000
476
1002
}
  0
VERTEX
  5
80E
  8
0
  6
DURCHGEHEND
 62
     7
 10
-1720.2084732736139
 20
825.09715339933314
 30
0.0
  0
VERTEX
  5
80F
  8
0
  6
DURCHGEHEND
 62
     7
 10
-1700.2100429323091
 20
821.75441574958097
 30
0.0
  0
VERTEX
  5
810
  8
0
  6
DURCHGEHEND
 62
     7
 10
-1700.2069080373251
 20
828.42108167918002
 30
0.0
  0
SEQEND
  5
811
  8
0
  6
DURCHGEHEND
 62
     7
  0
INSERT
  5
E9
  8
0
  6
CONTINUOUS
 62
     7
  2
*U56
 10
0.0
 20
0.0
 30
0.0
1001
TCAD
1000
TCW_ATTRIBUTE
1002
{
1000
476
1002
}
1001
ACAD
1002
{
1000
R14_HATCH_DATA
1000
E9
1011
1.0
1021
0.0
1031
0.0
1021
0.0
1031
0.0
1011
0.0
1021
0.0
1031
0.0
1021
1.0
1031
0.0
1011
0.0
1021
0.0
1031
0.0
1021
0.0
1031
1.0
1040
0.0
1010
0.0
1020
0.0
1030
1.0
1000
SOLID
1070
     1
1070
     1
1071
        1
1071
        3
1070
     0
1070
     1
1071
        3
1040
-1720.2084732736139
1040
825.09715339933314
1040
-1700.2100429323091
1040
821.75441574958097
1040
-1700.2069080373251
1040
828.42108167918002
1071
        1
1005
EA
1070
     0
1070
     0
1071
        0
1002
}
  0
POLYLINE
  5
EC
  8
0
  6
DURCHGEHEND
 62
     7
 66
     1
 10
0.0
 20
0.0
 30
0.0
 70
   129
1001
TCAD
1000
TCW_ATTRIBUTE
1002
{
1000
476
1002
}
  0
VERTEX
  5
81B
  8
0
  6
DURCHGEHEND
 62
     7
 10
-1245.4275757708631
 20
824.87389513652488
 30
0.0
  0
VERTEX
  5
81C
  8
0
  6
DURCHGEHEND
 62
     7
 10
-1265.4260061121679
 20
828.21663278627693
 30
0.0
  0
VERTEX
  5
81D
  8
0
  6
DURCHGEHEND
 62
     7
 10
-1265.4291410071521
 20
821.54996685667777
 30
0.0
  0
SEQEND
  5
81E
  8
0
  6
DURCHGEHEND
 62
     7
  0
INSERT
  5
EB
  8
0
  6
CONTINUOUS
 62
     7
  2
*U57
 10
0.0
 20
0.0
 30
0.0
1001
TCAD
1000
TCW_ATTRIBUTE
1002
{
1000
476
1002
}
1001
ACAD
1002
{
1000
R14_HATCH_DATA
1000
EB
1011
1.0
1021
0.0
1031
0.0
1021
0.0
1031
0.0
1011
0.0
1021
0.0
1031
0.0
1021
1.0
1031
0.0
1011
0.0
1021
0.0
1031
0.0
1021
0.0
1031
1.0
1040
0.0
1010
0.0
1020
0.0
1030
1.0
1000
SOLID
1070
     1
1070
     1
1071
        1
1071
        3
1070
     0
1070
     1
1071
        3
1040
-1245.4275757708631
1040
824.87389513652488
1040
-1265.4260061121679
1040
828.21663278627693
1040
-1265.4291410071521
1040
821.54996685667777
1071
        1
1005
EC
1070
     0
1070
     0
1071
        0
1002
}
  0
INSERT
  5
ED
  8
0
  6
CONTINUOUS
 62
     7
  2
*U58
 10
0.0
 20
0.0
 30
0.0
  0
ENDBLK
  5
EE
  8
0
  0
BLOCK
  8
0
  2
*D13
 70
     1
 10
0.0
 20
0.0
 30
0.0
  3
*D13
  1

  0
LINE
  5
F2
  8
0
  6
DURCHGEHEND
 62
     7
 10
-1238.8275470797939
 20
480.19363793446541
 30
-0.0000000000000002
 11
-1121.216600015468
 21
480.08613430394468
 31
-0.0000000000000002
1001
TCAD
1000
TCW_ATTRIBUTE
1002
{
1000
202
1002
}
  0
LINE
  5
F3
  8
0
  6
DURCHGEHEND
 62
     7
 10
-1238.635132563498
 20
690.69865419193889
 30
-0.0000000000000003
 11
-1121.0241854991721
 21
690.5911505614182
 31
-0.0000000000000002
1001
TCAD
1000
TCW_ATTRIBUTE
1002
{
1000
202
1002
}
  0
POLYLINE
  5
F4
  8
0
  6
DURCHGEHEND
 62
     7
 66
     1
 10
0.0
 20
0.0
 30
0.0
 70
   128
1001
TCAD
1000
TCW_ATTRIBUTE
1002
{
1000
202
1002
}
  0
VERTEX
  5
823
  8
0
  6
DURCHGEHEND
 62
     7
 10
-1123.198317958987
 20
500.08795407096432
 30
0.0
  0
VERTEX
  5
824
  8
0
  6
DURCHGEHEND
 62
     7
 10
-1123.198317958987
 20
500.08795407096432
 30
0.0
  0
VERTEX
  5
825
  8
0
  6
DURCHGEHEND
 62
     7
 10
-1123.198317958987
 20
500.08795407096432
 30
0.0
  0
VERTEX
  5
826
  8
0
  6
DURCHGEHEND
 62
     7
 10
-1123.1333786253681
 20
571.13277824708655
 30
0.0
  0
SEQEND
  5
827
  8
0
  6
DURCHGEHEND
 62
     7
  0
POLYLINE
  5
F5
  8
0
  6
DURCHGEHEND
 62
     7
 66
     1
 10
0.0
 20
0.0
 30
0.0
 70
   128
1001
TCAD
1000
TCW_ATTRIBUTE
1002
{
1000
202
1002
}
  0
VERTEX
  5
828
  8
0
  6
DURCHGEHEND
 62
     7
 10
-1123.042465884638
 20
670.59298703859315
 30
0.0
  0
VERTEX
  5
829
  8
0
  6
DURCHGEHEND
 62
     7
 10
-1123.042465884638
 20
670.59298703859315
 30
0.0
  0
VERTEX
  5
82A
  8
0
  6
DURCHGEHEND
 62
     7
 10
-1123.042465884638
 20
670.59298703859315
 30
0.0
  0
VERTEX
  5
82B
  8
0
  6
DURCHGEHEND
 62
     7
 10
-1123.1074052182571
 20
599.54816286247103
 30
0.0
  0
SEQEND
  5
82C
  8
0
  6
DURCHGEHEND
 62
     7
  0
POLYLINE
  5
F7
  8
0
  6
DURCHGEHEND
 62
     7
 66
     1
 10
0.0
 20
0.0
 30
0.0
 70
   129
1001
TCAD
1000
TCW_ATTRIBUTE
1002
{
1000
202
1002
}
  0
VERTEX
  5
836
  8
0
  6
DURCHGEHEND
 62
     7
 10
-1123.21659917996
 20
480.08796242604211
 30
0.0
  0
VERTEX
  5
837
  8
0
  6
DURCHGEHEND
 62
     7
 10
-1119.8649860181661
 20
500.08490720080209
 30
0.0
  0
VERTEX
  5
838
  8
0
  6
DURCHGEHEND
 62
     7
 10
-1126.531649899807
 20
500.09100094112659
 30
0.0
  0
SEQEND
  5
839
  8
0
  6
DURCHGEHEND
 62
     7
  0
INSERT
  5
F6
  8
0
  6
CONTINUOUS
 62
     7
  2
*U59
 10
0.0
 20
0.0
 30
0.0
1001
TCAD
1000
TCW_ATTRIBUTE
1002
{
1000
202
1002
}
1001
ACAD
1002
{
1000
R14_HATCH_DATA
1000
F6
1011
1.0
1021
0.0
1031
0.0
1021
0.0
1031
0.0
1011
0.0
1021
0.0
1031
0.0
1021
1.0
1031
0.0
1011
0.0
1021
0.0
1031
0.0
1021
0.0
1031
1.0
1040
0.0
1010
0.0
1020
0.0
1030
1.0
1000
SOLID
1070
     1
1070
     1
1071
        1
1071
        3
1070
     0
1070
     1
1071
        3
1040
-1123.21659917996
1040
480.08796242604211
1040
-1119.8649860181661
1040
500.08490720080209
1040
-1126.531649899807
1040
500.09100094112659
1071
        1
1005
F7
1070
     0
1070
     0
1071
        0
1002
}
  0
POLYLINE
  5
F9
  8
0
  6
DURCHGEHEND
 62
     7
 66
     1
 10
0.0
 20
0.0
 30
0.0
 70
   129
1001
TCAD
1000
TCW_ATTRIBUTE
1002
{
1000
202
1002
}
  0
VERTEX
  5
843
  8
0
  6
DURCHGEHEND
 62
     7
 10
-1123.0241846636641
 20
690.59297868351553
 30
0.0
  0
VERTEX
  5
844
  8
0
  6
DURCHGEHEND
 62
     7
 10
-1126.375797825458
 20
670.59603390875554
 30
0.0
  0
VERTEX
  5
845
  8
0
  6
DURCHGEHEND
 62
     7
 10
-1119.709133943818
 20
670.58994016843099
 30
0.0
  0
SEQEND
  5
846
  8
0
  6
DURCHGEHEND
 62
     7
  0
INSERT
  5
F8
  8
0
  6
CONTINUOUS
 62
     7
  2
*U60
 10
0.0
 20
0.0
 30
0.0
1001
TCAD
1000
TCW_ATTRIBUTE
1002
{
1000
202
1002
}
1001
ACAD
1002
{
1000
R14_HATCH_DATA
1000
F8
1011
1.0
1021
0.0
1031
0.0
1021
0.0
1031
0.0
1011
0.0
1021
0.0
1031
0.0
1021
1.0
1031
0.0
1011
0.0
1021
0.0
1031
0.0
1021
0.0
1031
1.0
1040
0.0
1010
0.0
1020
0.0
1030
1.0
1000
SOLID
1070
     1
1070
     1
1071
        1
1071
        3
1070
     0
1070
     1
1071
        3
1040
-1123.0241846636641
1040
690.59297868351553
1040
-1126.375797825458
1040
670.59603390875554
1040
-1119.709133943818
1040
670.58994016843099
1071
        1
1005
F9
1070
     0
1070
     0
1071
        0
1002
}
  0
INSERT
  5
FA
  8
0
  6
CONTINUOUS
 62
     7
  2
*U61
 10
0.0
 20
0.0
 30
0.0
  0
ENDBLK
  5
FB
  8
0
  0
BLOCK
  8
0
  2
*D14
 70
     1
 10
0.0
 20
0.0
 30
0.0
  3
*D14
  1

  0
LINE
  5
FF
  8
0
  6
DURCHGEHEND
 62
     7
 10
-1121.7177400456551
 20
457.75174752214559
 30
0.0000000000000001
 11
-987.65235422747276
 21
457.72447109363293
 31
0.0
1001
TCAD
1000
TCW_ATTRIBUTE
1002
{
1000
224
1002
}
  0
LINE
  5
100
  8
0
  6
DURCHGEHEND
 62
     7
 10
-1121.670566718818
 20
689.61165761439509
 30
0.0000000000000001
 11
-987.60518090063681
 21
689.58438118588231
 31
0.0000000000000001
1001
TCAD
1000
TCW_ATTRIBUTE
1002
{
1000
224
1002
}
  0
POLYLINE
  5
101
  8
0
  6
DURCHGEHEND
 62
     7
 66
     1
 10
0.0
 20
0.0
 30
0.0
 70
   128
1001
TCAD
1000
TCW_ATTRIBUTE
1002
{
1000
224
1002
}
  0
VERTEX
  5
84B
  8
0
  6
DURCHGEHEND
 62
     7
 10
-989.64828506297363
 20
477.7248775919993
 30
0.0
  0
VERTEX
  5
84C
  8
0
  6
DURCHGEHEND
 62
     7
 10
-989.64828506297363
 20
477.7248775919993
 30
0.0
  0
VERTEX
  5
84D
  8
0
  6
DURCHGEHEND
 62
     7
 10
-989.64828506297363
 20
477.7248775919993
 30
0.0
  0
VERTEX
  5
84E
  8
0
  6
DURCHGEHEND
 62
     7
 10
-989.63165816517153
 20
559.44714074437582
 30
0.0
  0
SEQEND
  5
84F
  8
0
  6
DURCHGEHEND
 62
     7
  0
POLYLINE
  5
102
  8
0
  6
DURCHGEHEND
 62
     7
 66
     1
 10
0.0
 20
0.0
 30
0.0
 70
   128
1001
TCAD
1000
TCW_ATTRIBUTE
1002
{
1000
224
1002
}
  0
VERTEX
  5
850
  8
0
  6
DURCHGEHEND
 62
     7
 10
-989.60924998234691
 20
669.58478851213692
 30
0.0
  0
VERTEX
  5
851
  8
0
  6
DURCHGEHEND
 62
     7
 10
-989.60924998234691
 20
669.58478851213692
 30
0.0
  0
VERTEX
  5
852
  8
0
  6
DURCHGEHEND
 62
     7
 10
-989.60924998234691
 20
669.58478851213692
 30
0.0
  0
VERTEX
  5
853
  8
0
  6
DURCHGEHEND
 62
     7
 10
-989.62587688014867
 20
587.86252535976018
 30
0.0
  0
SEQEND
  5
854
  8
0
  6
DURCHGEHEND
 62
     7
  0
POLYLINE
  5
104
  8
0
  6
DURCHGEHEND
 62
     7
 66
     1
 10
0.0
 20
0.0
 30
0.0
 70
   129
1001
TCAD
1000
TCW_ATTRIBUTE
1002
{
1000
224
1002
}
  0
VERTEX
  5
85E
  8
0
  6
DURCHGEHEND
 62
     7
 10
-989.65235418607824
 20
457.72487800594331
 30
0.0
  0
VERTEX
  5
85F
  8
0
  6
DURCHGEHEND
 62
     7
 10
-986.31495179863089
 20
477.72419940481518
 30
0.0
  0
VERTEX
  5
860
  8
0
  6
DURCHGEHEND
 62
     7
 10
-992.98161832731626
 20
477.72555577918342
 30
0.0
  0
SEQEND
  5
861
  8
0
  6
DURCHGEHEND
 62
     7
  0
INSERT
  5
103
  8
0
  6
CONTINUOUS
 62
     7
  2
*U62
 10
0.0
 20
0.0
 30
0.0
1001
TCAD
1000
TCW_ATTRIBUTE
1002
{
1000
224
1002
}
1001
ACAD
1002
{
1000
R14_HATCH_DATA
1000
103
1011
1.0
1021
0.0
1031
0.0
1021
0.0
1031
0.0
1011
0.0
1021
0.0
1031
0.0
1021
1.0
1031
0.0
1011
0.0
1021
0.0
1031
0.0
1021
0.0
1031
1.0
1040
0.0
1010
0.0
1020
0.0
1030
1.0
1000
SOLID
1070
     1
1070
     1
1071
        1
1071
        3
1070
     0
1070
     1
1071
        3
1040
-989.65235418607824
1040
457.72487800594331
1040
-986.31495179863089
1040
477.72419940481518
1040
-992.98161832731626
1040
477.72555577918342
1071
        1
1005
104
1070
     0
1070
     0
1071
        0
1002
}
  0
POLYLINE
  5
106
  8
0
  6
DURCHGEHEND
 62
     7
 66
     1
 10
0.0
 20
0.0
 30
0.0
 70
   129
1001
TCAD
1000
TCW_ATTRIBUTE
1002
{
1000
224
1002
}
  0
VERTEX
  5
86B
  8
0
  6
DURCHGEHEND
 62
     7
 10
-989.6051808592423
 20
689.5847880981928
 30
0.0
  0
VERTEX
  5
86C
  8
0
  6
DURCHGEHEND
 62
     7
 10
-992.94258324668954
 20
669.58546669932105
 30
0.0
  0
VERTEX
  5
86D
  8
0
  6
DURCHGEHEND
 62
     7
 10
-986.27591671800417
 20
669.58411032495269
 30
0.0
  0
SEQEND
  5
86E
  8
0
  6
DURCHGEHEND
 62
     7
  0
INSERT
  5
105
  8
0
  6
CONTINUOUS
 62
     7
  2
*U63
 10
0.0
 20
0.0
 30
0.0
1001
TCAD
1000
TCW_ATTRIBUTE
1002
{
1000
224
1002
}
1001
ACAD
1002
{
1000
R14_HATCH_DATA
1000
105
1011
1.0
1021
0.0
1031
0.0
1021
0.0
1031
0.0
1011
0.0
1021
0.0
1031
0.0
1021
1.0
1031
0.0
1011
0.0
1021
0.0
1031
0.0
1021
0.0
1031
1.0
1040
0.0
1010
0.0
1020
0.0
1030
1.0
1000
SOLID
1070
     1
1070
     1
1071
        1
1071
        3
1070
     0
1070
     1
1071
        3
1040
-989.6051808592423
1040
689.5847880981928
1040
-992.94258324668954
1040
669.58546669932105
1040
-986.27591671800417
1040
669.58411032495269
1071
        1
1005
106
1070
     0
1070
     0
1071
        0
1002
}
  0
INSERT
  5
107
  8
0
  6
CONTINUOUS
 62
     7
  2
*U64
 10
0.0
 20
0.0
 30
0.0
  0
ENDBLK
  5
108
  8
0
  0
BLOCK
  8
0
  2
*D15
 70
     1
 10
0.0
 20
0.0
 30
0.0
  3
*D15
  1

  0
LINE
  5
10C
  8
0
  6
DURCHGEHEND
 62
     7
 10
-1505.967863365318
 20
457.13663134353862
 30
0.0
 11
-1505.9926627260591
 21
412.19287457054929
 31
0.0
1001
TCAD
1000
TCW_ATTRIBUTE
1002
{
1000
46
1002
}
  0
LINE
  5
10D
  8
0
  6
DURCHGEHEND
 62
     7
 10
-1460.4513720118309
 20
457.11151595555617
 30
0.0
 11
-1460.476171372572
 21
412.1677591825669
 31
0.0
1001
TCAD
1000
TCW_ATTRIBUTE
1002
{
1000
46
1002
}
  0
POLYLINE
  5
10E
  8
0
  6
DURCHGEHEND
 62
     7
 66
     1
 10
0.0
 20
0.0
 30
0.0
 70
   128
1001
TCAD
1000
TCW_ATTRIBUTE
1002
{
1000
46
1002
}
  0
VERTEX
  5
873
  8
0
  6
DURCHGEHEND
 62
     7
 10
-1545.99155306375
 20
414.21494572494038
 30
0.0
  0
VERTEX
  5
874
  8
0
  6
DURCHGEHEND
 62
     7
 10
-1525.9915561084331
 20
414.2039099955104
 30
0.0
  0
SEQEND
  5
875
  8
0
  6
DURCHGEHEND
 62
     7
  0
POLYLINE
  5
10F
  8
0
  6
DURCHGEHEND
 62
     7
 66
     1
 10
0.0
 20
0.0
 30
0.0
1001
TCAD
1000
TCW_ATTRIBUTE
1002
{
1000
46
1002
}
  0
VERTEX
  5
876
  8
0
  6
DURCHGEHEND
 62
     7
 10
-1505.991559153116
 20
414.19287426608088
 30
0.0
  0
VERTEX
  5
877
  8
0
  6
DURCHGEHEND
 62
     7
 10
-1460.4750677996281
 20
414.16775887809848
 30
0.0
  0
SEQEND
  5
878
  8
0
  6
DURCHGEHEND
 62
     7
  0
POLYLINE
  5
110
  8
0
  6
DURCHGEHEND
 62
     7
 66
     1
 10
0.0
 20
0.0
 30
0.0
 70
   128
1001
TCAD
1000
TCW_ATTRIBUTE
1002
{
1000
46
1002
}
  0
VERTEX
  5
879
  8
0
  6
DURCHGEHEND
 62
     7
 10
-1345.408368165314
 20
414.14203713950411
 30
0.0
  0
VERTEX
  5
87A
  8
0
  6
DURCHGEHEND
 62
     7
 10
-1413.859690280698
 20
414.14203713950411
 30
0.0
  0
VERTEX
  5
87B
  8
0
  6
DURCHGEHEND
 62
     7
 10
-1440.4750708443121
 20
414.15672314866902
 30
0.0
  0
SEQEND
  5
87C
  8
0
  6
DURCHGEHEND
 62
     7
  0
POLYLINE
  5
112
  8
0
  6
DURCHGEHEND
 62
     7
 66
     1
 10
0.0
 20
0.0
 30
0.0
 70
   129
1001
TCAD
1000
TCW_ATTRIBUTE
1002
{
1000
46
1002
}
  0
VERTEX
  5
886
  8
0
  6
DURCHGEHEND
 62
     7
 10
-1460.4750677996281
 20
414.16775887809848
 30
0.0
  0
VERTEX
  5
887
  8
0
  6
DURCHGEHEND
 62
     7
 10
-1440.4769101325501
 20
410.82339032278293
 30
0.0
  0
VERTEX
  5
888
  8
0
  6
DURCHGEHEND
 62
     7
 10
-1440.4732315560741
 20
417.4900559745551
 30
0.0
  0
SEQEND
  5
889
  8
0
  6
DURCHGEHEND
 62
     7
  0
INSERT
  5
111
  8
0
  6
CONTINUOUS
 62
     7
  2
*U65
 10
0.0
 20
0.0
 30
0.0
1001
TCAD
1000
TCW_ATTRIBUTE
1002
{
1000
46
1002
}
1001
ACAD
1002
{
1000
R14_HATCH_DATA
1000
111
1011
1.0
1021
0.0
1031
0.0
1021
0.0
1031
0.0
1011
0.0
1021
0.0
1031
0.0
1021
1.0
1031
0.0
1011
0.0
1021
0.0
1031
0.0
1021
0.0
1031
1.0
1040
0.0
1010
0.0
1020
0.0
1030
1.0
1000
SOLID
1070
     1
1070
     1
1071
        1
1071
        3
1070
     0
1070
     1
1071
        3
1040
-1460.4750677996281
1040
414.16775887809848
1040
-1440.4769101325501
1040
410.82339032278293
1040
-1440.4732315560741
1040
417.4900559745551
1071
        1
1005
112
1070
     0
1070
     0
1071
        0
1002
}
  0
POLYLINE
  5
114
  8
0
  6
DURCHGEHEND
 62
     7
 66
     1
 10
0.0
 20
0.0
 30
0.0
 70
   129
1001
TCAD
1000
TCW_ATTRIBUTE
1002
{
1000
46
1002
}
  0
VERTEX
  5
893
  8
0
  6
DURCHGEHEND
 62
     7
 10
-1505.991559153116
 20
414.19287426608088
 30
0.0
  0
VERTEX
  5
894
  8
0
  6
DURCHGEHEND
 62
     7
 10
-1525.9897168201951
 20
417.53724282139649
 30
0.0
  0
VERTEX
  5
895
  8
0
  6
DURCHGEHEND
 62
     7
 10
-1525.9933953966711
 20
410.87057716962431
 30
0.0
  0
SEQEND
  5
896
  8
0
  6
DURCHGEHEND
 62
     7
  0
INSERT
  5
113
  8
0
  6
CONTINUOUS
 62
     7
  2
*U66
 10
0.0
 20
0.0
 30
0.0
1001
TCAD
1000
TCW_ATTRIBUTE
1002
{
1000
46
1002
}
1001
ACAD
1002
{
1000
R14_HATCH_DATA
1000
113
1011
1.0
1021
0.0
1031
0.0
1021
0.0
1031
0.0
1011
0.0
1021
0.0
1031
0.0
1021
1.0
1031
0.0
1011
0.0
1021
0.0
1031
0.0
1021
0.0
1031
1.0
1040
0.0
1010
0.0
1020
0.0
1030
1.0
1000
SOLID
1070
     1
1070
     1
1071
        1
1071
        3
1070
     0
1070
     1
1071
        3
1040
-1505.991559153116
1040
414.19287426608088
1040
-1525.9897168201951
1040
417.53724282139649
1040
-1525.9933953966711
1040
410.87057716962431
1071
        1
1005
114
1070
     0
1070
     0
1071
        0
1002
}
  0
INSERT
  5
115
  8
0
  6
CONTINUOUS
 62
     7
  2
*U67
 10
0.0
 20
0.0
 30
0.0
  0
ENDBLK
  5
116
  8
0
  0
BLOCK
  8
0
  2
DEFAULT2-G7
 70
     0
 10
0.0
 20
0.0
 30
0.0
  3
DEFAULT2-G7
  1

  0
TEXT
  5
182
  8
LAYER01
  6
VERDECKT
 62
     1
 10
3286.9151940000002
 20
511.13932199999999
 30
0.0
 40
14.0
  1
A. Sprenger GmbH
  7
SIMPLEX
  0
TEXT
  5
183
  8
LAYER01
  6
VERDECKT
 62
     1
 10
3286.9151940000002
 20
487.13932199999988
 30
0.0
 40
14.0
  1
Berner Str. 10
  7
SIMPLEX
  0
TEXT
  5
184
  8
LAYER01
  6
VERDECKT
 62
     1
 10
3286.9151940000002
 20
463.13932199999988
 30
0.0
 40
14.0
  1
60437 Frankfurt
  7
SIMPLEX
  0
TEXT
  5
185
  8
LAYER01
  6
VERDECKT
 62
     1
 10
3286.9151940000002
 20
439.13932199999999
 30
0.0
 40
14.0
  1
Tel.: 069 - 507 27 41
  7
SIMPLEX
  0
TEXT
  5
186
  8
LAYER01
  6
VERDECKT
 62
     1
 10
3286.9151940000002
 20
415.13932199999999
 30
0.0
 40
14.0
  1
Fax: 069 - 507 72 91
  7
SIMPLEX
  0
TEXT
  5
187
  8
LAYER01
  6
VERDECKT
 62
     1
 10
3286.9151940000002
 20
391.13932199999999
 30
0.0
 40
14.0
  1
info@varicor.org
  7
SIMPLEX
  0
ENDBLK
  5
188
  8
0
  0
BLOCK
  8
0
  2
DEFAULT2-G6
 70
     0
 10
0.0
 20
0.0
 30
0.0
  3
DEFAULT2-G6
  1

  0
TEXT
  5
18B
  8
LAYER01
  6
CONTINUOUS
 62
     1
 10
4758.0610299999989
 20
182.02706000000001
 30
0.0
 40
14.0
  1
Blatt
  7
SIMPLEX
  0
LINE
  5
18C
  8
LAYER01
  6
CONTINUOUS
 62
     1
 10
3267.0610300000012
 20
280.02706000000001
 30
0.0
 11
4107.0610299999989
 21
280.02706000000001
 31
0.0
  0
LINE
  5
18D
  8
LAYER01
  6
CONTINUOUS
 62
     1
 10
3267.0610300000012
 20
245.02706000000001
 30
0.0
 11
4107.0610299999989
 21
245.02706000000001
 31
0.0
  0
LINE
  5
18E
  8
LAYER01
  6
CONTINUOUS
 62
     1
 10
3267.0610300000012
 20
210.02706000000001
 30
0.0
 11
4849.0610299999998
 21
210.02706000000001
 31
0.0
  0
LINE
  5
18F
  8
LAYER01
  6
CONTINUOUS
 62
     1
 10
3267.0610300000012
 20
105.02706000000001
 30
0.0
 11
4849.0610299999998
 21
105.02706000000001
 31
0.0
  0
LINE
  5
190
  8
LAYER01
  6
CONTINUOUS
 62
     1
 10
3267.0610300000012
 20
385.02706000000001
 30
0.0
 11
4849.0610299999998
 21
385.02706000000001
 31
0.0
  0
POLYLINE
  5
191
  8
LAYER01
  6
CONTINUOUS
 62
     1
 66
     1
 10
0.0
 20
0.0
 30
0.0
 70
     1
  0
VERTEX
  5
8A3
  8
LAYER01
  6
CONTINUOUS
 62
     1
 10
3267.0610300000012
 20
63.027059999999999
 30
0.0
  0
VERTEX
  5
8A4
  8
LAYER01
  6
CONTINUOUS
 62
     1
 10
3267.0610300000012
 20
532.02705999999989
 30
0.0
  0
VERTEX
  5
8A5
  8
LAYER01
  6
CONTINUOUS
 62
     1
 10
4849.0610299999998
 20
532.02705999999989
 30
0.0
  0
VERTEX
  5
8A6
  8
LAYER01
  6
CONTINUOUS
 62
     1
 10
4849.0610299999998
 20
63.027059999999999
 30
0.0
  0
SEQEND
  5
8A7
  8
LAYER01
  6
CONTINUOUS
 62
     1
  0
LINE
  5
192
  8
LAYER01
  6
CONTINUOUS
 62
     1
 10
3267.0610300000012
 20
350.02706000000001
 30
0.0
 11
4107.0610299999989
 21
350.02706000000001
 31
0.0
  0
LINE
  5
193
  8
LAYER01
  6
CONTINUOUS
 62
     1
 10
3267.0610300000012
 20
315.02706000000001
 30
0.0
 11
4107.0610299999989
 21
315.02706000000001
 31
0.0
  0
LINE
  5
194
  8
LAYER01
  6
CONTINUOUS
 62
     1
 10
3722.0610299999998
 20
532.02705999999989
 30
0.0
 11
3722.0610299999998
 21
63.027059999999999
 31
0.0
  0
INSERT
  5
195
  8
LAYER01
  2
DEFAULT2-G7
 10
0.0
 20
0.0
 30
0.0
  0
LINE
  5
196
  8
LAYER01
  6
CONTINUOUS
 62
     1
 10
3267.0610300000012
 20
140.02706000000001
 30
0.0
 11
3722.0610299999998
 21
140.02706000000001
 31
0.0
  0
LINE
  5
197
  8
LAYER01
  6
CONTINUOUS
 62
     1
 10
3267.0610300000012
 20
175.02706000000001
 30
0.0
 11
3722.0610299999998
 21
175.02706000000001
 31
0.0
  0
LINE
  5
198
  8
LAYER01
  6
CONTINUOUS
 62
     1
 10
3330.0610299999998
 20
385.02706000000001
 30
0.0
 11
3330.0610299999998
 21
63.027059999999999
 31
0.0
  0
TEXT
  5
199
  8
LAYER01
  6
CONTINUOUS
 62
     1
 10
3278.8200019999999
 20
77.027059999999992
 30
0.0
 40
13.300000000000001
  1
Zust
  7
SIMPLEX
  0
LINE
  5
19A
  8
LAYER01
  6
CONTINUOUS
 62
     1
 10
3550.959492
 20
63.027059999999999
 30
0.0
 11
3550.959492
 21
385.02706000000001
 31
0.0
  0
LINE
  5
19B
  8
LAYER01
  6
CONTINUOUS
 62
     1
 10
3659.0610299999998
 20
385.02706000000001
 30
0.0
 11
3659.0610299999998
 21
63.027059999999999
 31
0.0
  0
TEXT
  5
19C
  8
LAYER01
  6
CONTINUOUS
 62
     1
 10
3391.8409890000012
 20
77.027059999999992
 30
0.0
 40
13.300000000000001
  1
Änderung
  7
SIMPLEX
  0
TEXT
  5
19D
  8
LAYER01
  6
CONTINUOUS
 62
     1
 10
3570.6568330000009
 20
77.027059999999992
 30
0.0
 40
13.300000000000001
  1
Datum
  7
SIMPLEX
  0
TEXT
  5
19E
  8
LAYER01
  6
CONTINUOUS
 62
     1
 10
3664.3304950000002
 20
77.027059999999992
 30
0.0
 40
13.300000000000001
  1
Name
  7
SIMPLEX
  0
LINE
  5
19F
  8
LAYER01
  6
CONTINUOUS
 62
     1
 10
4849.0610299999998
 20
476.02705999999989
 30
0.0
 11
4107.0610299999989
 21
476.02705999999989
 31
0.0
  0
LINE
  5
1A0
  8
LAYER01
  6
CONTINUOUS
 62
     1
 10
3813.0610299999998
 20
245.02706000000001
 30
0.0
 11
3813.0610299999998
 21
385.02706000000001
 31
0.0
  0
TEXT
  5
1A1
  8
LAYER01
  6
CONTINUOUS
 62
     1
 10
3736.0610299999998
 20
322.02706000000001
 30
0.0
 40
14.0
  1
Bearb.
  7
SIMPLEX
  0
TEXT
  5
1A2
  8
LAYER01
  6
CONTINUOUS
 62
     1
 10
3736.0610299999998
 20
252.02706000000001
 30
0.0
 40
14.0
  1
Norm
  7
SIMPLEX
  0
TEXT
  5
1A3
  8
LAYER01
  6
CONTINUOUS
 62
     1
 10
3736.0610299999998
 20
287.02706000000001
 30
0.0
 40
14.0
  1
Gepr.
  7
SIMPLEX
  0
TEXT
  5
1A4
  8
LAYER01
  6
CONTINUOUS
 62
     1
 10
3848.0610299999998
 20
357.02706000000001
 30
0.0
 40
14.0
  1
Datum
  7
SIMPLEX
  0
TEXT
  5
1A5
  8
LAYER01
  6
CONTINUOUS
 62
     1
 10
3988.0610299999998
 20
357.02706000000001
 30
0.0
 40
14.0
  1
Name
  7
SIMPLEX
  0
TEXT
  5
1A6
  8
LAYER01
  6
CONTINUOUS
 62
     1
 10
4814.0610299999998
 20
112.02706000000001
 30
0.0
 40
14.0
  1
Bl.
  7
SIMPLEX
  0
LINE
  5
1A7
  8
LAYER01
  6
CONTINUOUS
 62
     1
 10
4107.0610299999989
 20
63.027059999999999
 30
0.0
 11
4107.0610299999989
 21
532.02705999999989
 31
0.0
  0
LINE
  5
1A8
  8
LAYER01
  6
CONTINUOUS
 62
     1
 10
3946.0610299999998
 20
210.02706000000001
 30
0.0
 11
3946.0610299999998
 21
532.02705999999989
 31
0.0
  0
LINE
  5
1A9
  8
LAYER01
  6
CONTINUOUS
 62
     1
 10
4548.0610299999998
 20
532.02705999999989
 30
0.0
 11
4548.0610299999998
 21
476.02705999999989
 31
0.0
  0
TEXT
  5
1AA
  8
LAYER01
  6
CONTINUOUS
 62
     1
 10
4122.3126299999994
 20
496.28505699999999
 30
0.0
 40
14.0
  1
Maßstab
  7
SIMPLEX
  0
LINE
  5
1AB
  8
LAYER01
  6
CONTINUOUS
 62
     1
 10
4744.0610299999998
 20
210.02706000000001
 30
0.0
 11
4744.0610299999998
 21
105.02706000000001
 31
0.0
  0
LINE
  5
1AC
  8
LAYER01
  6
CONTINUOUS
 62
     1
 10
4744.0610299999998
 20
140.02706000000001
 30
0.0
 11
4849.0610299999998
 21
140.02706000000001
 31
0.0
  0
ENDBLK
  5
1AD
  8
0
  0
BLOCK
  8
0
 62
     7
  2
WMF0
 70
     0
 10
0.0
 20
0.0
 30
0.0
  3
WMF0
  1

  0
POLYLINE
  5
1B0
  8
LAYER01
 62
     7
 66
     1
 10
0.0
 20
0.0
 30
0.0
 70
     1
  0
VERTEX
  5
1B1
  8
LAYER01
 62
     7
 10
2458.2645046842372
 20
7351.0038575557664
 30
0.0
  0
VERTEX
  5
1B2
  8
LAYER01
 62
     7
 10
2628.7570429123371
 20
7351.0038575557664
 30
0.0
  0
VERTEX
  5
1B3
  8
LAYER01
 62
     7
 10
2842.8639513848352
 20
6863.3158993684092
 30
0.0
  0
VERTEX
  5
1B4
  8
LAYER01
 62
     7
 10
3056.9708598573329
 20
7351.0038575557664
 30
0.0
  0
VERTEX
  5
1B5
  8
LAYER01
 62
     7
 10
3235.3932835844148
 20
7351.0038575557664
 30
0.0
  0
VERTEX
  5
1B6
  8
LAYER01
 62
     7
 10
2842.8639513848352
 20
6478.7164526678107
 30
0.0
  0
VERTEX
  5
1B7
  8
LAYER01
 62
     7
 10
2458.2645046842372
 20
7351.0038575557664
 30
0.0
  0
VERTEX
  5
1B8
  8
LAYER01
 62
     7
 10
2458.2645046842372
 20
7351.0038575557664
 30
0.0
  0
SEQEND
  5
1B9
  8
LAYER01
 62
     7
  0
POLYLINE
  5
1BA
  8
LAYER01
 62
     7
 66
     1
 10
0.0
 20
0.0
 30
0.0
 70
     1
  0
VERTEX
  5
1BB
  8
LAYER01
 62
     7
 10
3041.1110888593698
 20
6756.2624451321599
 30
0.0
  0
VERTEX
  5
1BC
  8
LAYER01
 62
     7
 10
3100.5852301017312
 20
6895.0354413643354
 30
0.0
  0
VERTEX
  5
1BD
  8
LAYER01
 62
     7
 10
3358.3065088186272
 20
6895.0354413643354
 30
0.0
  0
VERTEX
  5
1BE
  8
LAYER01
 62
     7
 10
3227.4633980854328
 20
7180.5113193276648
 30
0.0
  0
VERTEX
  5
1BF
  8
LAYER01
 62
     7
 10
3302.7973103257568
 20
7362.8986858042381
 30
0.0
  0
VERTEX
  5
1C0
  8
LAYER01
 62
     7
 10
3655.67721503043
 20
6617.4894488999853
 30
0.0
  0
VERTEX
  5
1C1
  8
LAYER01
 62
     7
 10
3655.67721503043
 20
7351.0038575557664
 30
0.0
  0
VERTEX
  5
1C2
  8
LAYER01
 62
     7
 10
4127.5054022198219
 20
7351.0038575557664
 30
0.0
  0
VERTEX
  5
1C3
  8
LAYER01
 62
     7
 10
4127.5054022198219
 20
7351.0038575557664
 30
0.0
  0
VERTEX
  5
1C4
  8
LAYER01
 62
     7
 10
4171.1197724642197
 20
7343.0739720567844
 30
0.0
  0
VERTEX
  5
1C5
  8
LAYER01
 62
     7
 10
4210.7691999591279
 20
7327.2142010588213
 30
0.0
  0
VERTEX
  5
1C6
  8
LAYER01
 62
     7
 10
4246.4536847045438
 20
7299.4596018123866
 30
0.0
  0
VERTEX
  5
1C7
  8
LAYER01
 62
     7
 10
4278.1732267004691
 20
7271.705002565951
 30
0.0
  0
VERTEX
  5
1C8
  8
LAYER01
 62
     7
 10
4305.9278259469047
 20
7236.0205178205342
 30
0.0
  0
VERTEX
  5
1C9
  8
LAYER01
 62
     7
 10
4325.7525396943593
 20
7196.3710903256278
 30
0.0
  0
VERTEX
  5
1CA
  8
LAYER01
 62
     7
 10
4341.6123106923224
 20
7148.7917773317413
 30
0.0
  0
VERTEX
  5
1CB
  8
LAYER01
 62
     7
 10
4345.577253441812
 20
7105.1774070873416
 30
0.0
  0
VERTEX
  5
1CC
  8
LAYER01
 62
     7
 10
4345.577253441812
 20
7105.1774070873416
 30
0.0
  0
VERTEX
  5
1CD
  8
LAYER01
 62
     7
 10
4345.577253441812
 20
7057.5980940934542
 30
0.0
  0
VERTEX
  5
1CE
  8
LAYER01
 62
     7
 10
4337.6473679428309
 20
7017.948666598546
 30
0.0
  0
VERTEX
  5
1CF
  8
LAYER01
 62
     7
 10
4321.7875969448678
 20
6978.2992391036396
 30
0.0
  0
VERTEX
  5
1D0
  8
LAYER01
 62
     7
 10
4301.9628831974142
 20
6942.6147543582238
 30
0.0
  0
VERTEX
  5
1D1
  8
LAYER01
 62
     7
 10
4274.2082839509794
 20
6910.8952123622976
 30
0.0
  0
VERTEX
  5
1D2
  8
LAYER01
 62
     7
 10
4242.4887419550541
 20
6883.1406131158628
 30
0.0
  0
VERTEX
  5
1D3
  8
LAYER01
 62
     7
 10
4206.8042572096374
 20
6863.3158993684092
 30
0.0
  0
VERTEX
  5
1D4
  8
LAYER01
 62
     7
 10
4163.1898869652387
 20
6847.4561283704461
 30
0.0
  0
VERTEX
  5
1D5
  8
LAYER01
 62
     7
 10
4416.9462229326446
 20
6510.4359946637369
 30
0.0
  0
VERTEX
  5
1D6
  8
LAYER01
 62
     7
 10
4416.9462229326446
 20
7351.0038575557664
 30
0.0
  0
VERTEX
  5
1D7
  8
LAYER01
 62
     7
 10
4583.4738184112539
 20
7351.0038575557664
 30
0.0
  0
VERTEX
  5
1D8
  8
LAYER01
 62
     7
 10
4583.4738184112539
 20
6502.506109164754
 30
0.0
  0
VERTEX
  5
1D9
  8
LAYER01
 62
     7
 10
4226.628970957091
 20
6502.506109164754
 30
0.0
  0
VERTEX
  5
1DA
  8
LAYER01
 62
     7
 10
3881.6789517513998
 20
6942.6147543582238
 30
0.0
  0
VERTEX
  5
1DB
  8
LAYER01
 62
     7
 10
4056.1364327289898
 20
6942.6147543582238
 30
0.0
  0
VERTEX
  5
1DC
  8
LAYER01
 62
     7
 10
4056.1364327289898
 20
6942.6147543582238
 30
0.0
  0
VERTEX
  5
1DD
  8
LAYER01
 62
     7
 10
4079.926089225934
 20
6946.5796971077143
 30
0.0
  0
VERTEX
  5
1DE
  8
LAYER01
 62
     7
 10
4103.7157457228786
 20
6954.5095826066963
 30
0.0
  0
VERTEX
  5
1DF
  8
LAYER01
 62
     7
 10
4123.5404594703332
 20
6966.404410855168
 30
0.0
  0
VERTEX
  5
1E0
  8
LAYER01
 62
     7
 10
4143.3651732177859
 20
6982.264181853131
 30
0.0
  0
VERTEX
  5
1E1
  8
LAYER01
 62
     7
 10
4155.2600014662594
 20
7002.0888956005829
 30
0.0
  0
VERTEX
  5
1E2
  8
LAYER01
 62
     7
 10
4167.1548297147301
 20
7025.878552097528
 30
0.0
  0
VERTEX
  5
1E3
  8
LAYER01
 62
     7
 10
4175.0847152137121
 20
7049.6682085944722
 30
0.0
  0
VERTEX
  5
1E4
  8
LAYER01
 62
     7
 10
4175.0847152137121
 20
7077.4228078409069
 30
0.0
  0
VERTEX
  5
1E5
  8
LAYER01
 62
     7
 10
4175.0847152137121
 20
7077.4228078409069
 30
0.0
  0
VERTEX
  5
1E6
  8
LAYER01
 62
     7
 10
4175.0847152137121
 20
7101.212464337852
 30
0.0
  0
VERTEX
  5
1E7
  8
LAYER01
 62
     7
 10
4167.1548297147301
 20
7125.0021208347962
 30
0.0
  0
VERTEX
  5
1E8
  8
LAYER01
 62
     7
 10
4159.224944215749
 20
7148.7917773317413
 30
0.0
  0
VERTEX
  5
1E9
  8
LAYER01
 62
     7
 10
4143.3651732177859
 20
7168.6164910791931
 30
0.0
  0
VERTEX
  5
1EA
  8
LAYER01
 62
     7
 10
4127.5054022198219
 20
7184.4762620771562
 30
0.0
  0
VERTEX
  5
1EB
  8
LAYER01
 62
     7
 10
4103.7157457228786
 20
7196.3710903256278
 30
0.0
  0
VERTEX
  5
1EC
  8
LAYER01
 62
     7
 10
4079.926089225934
 20
7204.3009758246098
 30
0.0
  0
VERTEX
  5
1ED
  8
LAYER01
 62
     7
 10
4056.1364327289898
 20
7208.2659185741013
 30
0.0
  0
VERTEX
  5
1EE
  8
LAYER01
 62
     7
 10
3834.099638757511
 20
7208.2659185741013
 30
0.0
  0
VERTEX
  5
1EF
  8
LAYER01
 62
     7
 10
3834.099638757511
 20
6502.506109164754
 30
0.0
  0
VERTEX
  5
1F0
  8
LAYER01
 62
     7
 10
3548.6237607941812
 20
6502.506109164754
 30
0.0
  0
VERTEX
  5
1F1
  8
LAYER01
 62
     7
 10
3429.6754783094589
 20
6756.2624451321599
 30
0.0
  0
VERTEX
  5
1F2
  8
LAYER01
 62
     7
 10
3041.1110888593698
 20
6756.2624451321599
 30
0.0
  0
VERTEX
  5
1F3
  8
LAYER01
 62
     7
 10
3041.1110888593698
 20
6756.2624451321599
 30
0.0
  0
SEQEND
  5
1F4
  8
LAYER01
 62
     7
  0
POLYLINE
  5
1F5
  8
LAYER01
 62
     7
 66
     1
 10
0.0
 20
0.0
 30
0.0
 70
     1
  0
VERTEX
  5
1F6
  8
LAYER01
 62
     7
 10
5352.6727118124509
 20
7295.4946590628961
 30
0.0
  0
VERTEX
  5
1F7
  8
LAYER01
 62
     7
 10
5245.6192575762007
 20
7160.6866055802111
 30
0.0
  0
VERTEX
  5
1F8
  8
LAYER01
 62
     7
 10
5245.6192575762007
 20
7160.6866055802111
 30
0.0
  0
VERTEX
  5
1F9
  8
LAYER01
 62
     7
 10
5209.9347728307857
 20
7184.4762620771562
 30
0.0
  0
VERTEX
  5
1FA
  8
LAYER01
 62
     7
 10
5174.250288085369
 20
7204.3009758246098
 30
0.0
  0
VERTEX
  5
1FB
  8
LAYER01
 62
     7
 10
5134.6008605904626
 20
7216.1958040730824
 30
0.0
  0
VERTEX
  5
1FC
  8
LAYER01
 62
     7
 10
5090.9864903460648
 20
7216.1958040730824
 30
0.0
  0
VERTEX
  5
1FD
  8
LAYER01
 62
     7
 10
5090.9864903460648
 20
7216.1958040730824
 30
0.0
  0
VERTEX
  5
1FE
  8
LAYER01
 62
     7
 10
5063.2318910996291
 20
7216.1958040730824
 30
0.0
  0
VERTEX
  5
1FF
  8
LAYER01
 62
     7
 10
5035.4772918531944
 20
7212.2308613235909
 30
0.0
  0
VERTEX
  5
200
  8
LAYER01
 62
     7
 10
5007.7226926067588
 20
7204.3009758246098
 30
0.0
  0
VERTEX
  5
201
  8
LAYER01
 62
     7
 10
4979.9680933603249
 20
7192.4061475761382
 30
0.0
  0
VERTEX
  5
202
  8
LAYER01
 62
     7
 10
4956.1784368633807
 20
7180.5113193276648
 30
0.0
  0
VERTEX
  5
203
  8
LAYER01
 62
     7
 10
4936.3537231159271
 20
7164.6515483297017
 30
0.0
  0
VERTEX
  5
204
  8
LAYER01
 62
     7
 10
4912.5640666189829
 20
7148.7917773317413
 30
0.0
  0
VERTEX
  5
205
  8
LAYER01
 62
     7
 10
4896.7042956210198
 20
7128.9670635842867
 30
0.0
  0
VERTEX
  5
206
  8
LAYER01
 62
     7
 10
4876.8795818735662
 20
7105.1774070873416
 30
0.0
  0
VERTEX
  5
207
  8
LAYER01
 62
     7
 10
4864.9847536250936
 20
7081.3877505903993
 30
0.0
  0
VERTEX
  5
208
  8
LAYER01
 62
     7
 10
4849.1249826271314
 20
7057.5980940934542
 30
0.0
  0
VERTEX
  5
209
  8
LAYER01
 62
     7
 10
4837.2301543786589
 20
7033.8084375965091
 30
0.0
  0
VERTEX
  5
20A
  8
LAYER01
 62
     7
 10
4829.3002688796769
 20
7006.0538383500743
 30
0.0
  0
VERTEX
  5
20B
  8
LAYER01
 62
     7
 10
4825.3353261301872
 20
6978.2992391036396
 30
0.0
  0
VERTEX
  5
20C
  8
LAYER01
 62
     7
 10
4821.3703833806958
 20
6950.5446398572049
 30
0.0
  0
VERTEX
  5
20D
  8
LAYER01
 62
     7
 10
4817.4054406312061
 20
6918.8250978612787
 30
0.0
  0
VERTEX
  5
20E
  8
LAYER01
 62
     7
 10
4817.4054406312061
 20
6918.8250978612787
 30
0.0
  0
VERTEX
  5
20F
  8
LAYER01
 62
     7
 10
4821.3703833806958
 20
6891.0704986148439
 30
0.0
  0
VERTEX
  5
210
  8
LAYER01
 62
     7
 10
4825.3353261301872
 20
6863.3158993684092
 30
0.0
  0
VERTEX
  5
211
  8
LAYER01
 62
     7
 10
4829.3002688796769
 20
6835.5613001219754
 30
0.0
  0
VERTEX
  5
212
  8
LAYER01
 62
     7
 10
4841.1950971281503
 20
6811.7716436250303
 30
0.0
  0
VERTEX
  5
213
  8
LAYER01
 62
     7
 10
4849.1249826271314
 20
6787.9819871280861
 30
0.0
  0
VERTEX
  5
214
  8
LAYER01
 62
     7
 10
4864.9847536250936
 20
6764.1923306311428
 30
0.0
  0
VERTEX
  5
215
  8
LAYER01
 62
     7
 10
4880.8445246230567
 20
6740.4026741341977
 30
0.0
  0
VERTEX
  5
216
  8
LAYER01
 62
     7
 10
4896.7042956210198
 20
6720.5779603867441
 30
0.0
  0
VERTEX
  5
217
  8
LAYER01
 62
     7
 10
4916.5290093684744
 20
6700.7532466392904
 30
0.0
  0
VERTEX
  5
218
  8
LAYER01
 62
     7
 10
4936.3537231159271
 20
6684.8934756413273
 30
0.0
  0
VERTEX
  5
219
  8
LAYER01
 62
     7
 10
4960.1433796128722
 20
6672.9986473928557
 30
0.0
  0
VERTEX
  5
21A
  8
LAYER01
 62
     7
 10
4983.9330361098146
 20
6661.103819144384
 30
0.0
  0
VERTEX
  5
21B
  8
LAYER01
 62
     7
 10
5011.6876353562502
 20
6649.2089908959106
 30
0.0
  0
VERTEX
  5
21C
  8
LAYER01
 62
     7
 10
5035.4772918531944
 20
6641.2791053969304
 30
0.0
  0
VERTEX
  5
21D
  8
LAYER01
 62
     7
 10
5063.2318910996291
 20
6637.3141626474389
 30
0.0
  0
VERTEX
  5
21E
  8
LAYER01
 62
     7
 10
5094.9514330955553
 20
6637.3141626474389
 30
0.0
  0
VERTEX
  5
21F
  8
LAYER01
 62
     7
 10
5094.9514330955553
 20
6637.3141626474389
 30
0.0
  0
VERTEX
  5
220
  8
LAYER01
 62
     7
 10
5138.5658033399532
 20
6641.2791053969304
 30
0.0
  0
VERTEX
  5
221
  8
LAYER01
 62
     7
 10
5174.250288085369
 20
6649.2089908959106
 30
0.0
  0
VERTEX
  5
222
  8
LAYER01
 62
     7
 10
5209.9347728307857
 20
6669.0337046433651
 30
0.0
  0
VERTEX
  5
223
  8
LAYER01
 62
     7
 10
5245.6192575762007
 20
6692.8233611403102
 30
0.0
  0
VERTEX
  5
224
  8
LAYER01
 62
     7
 10
5348.7077690629603
 20
6554.0503649081338
 30
0.0
  0
VERTEX
  5
225
  8
LAYER01
 62
     7
 10
5348.7077690629603
 20
6554.0503649081338
 30
0.0
  0
VERTEX
  5
226
  8
LAYER01
 62
     7
 10
5289.2336278206003
 20
6518.365880162718
 30
0.0
  0
VERTEX
  5
227
  8
LAYER01
 62
     7
 10
5257.5140858246741
 20
6506.4710519142463
 30
0.0
  0
VERTEX
  5
228
  8
LAYER01
 62
     7
 10
5229.7594865782394
 20
6494.5762236657738
 30
0.0
  0
VERTEX
  5
229
  8
LAYER01
 62
     7
 10
5198.0399445823132
 20
6486.6463381667918
 30
0.0
  0
VERTEX
  5
22A
  8
LAYER01
 62
     7
 10
5166.3204025863879
 20
6482.6813954173012
 30
0.0
  0
VERTEX
  5
22B
  8
LAYER01
 62
     7
 10
5094.9514330955553
 20
6478.7164526678107
 30
0.0
  0
VERTEX
  5
22C
  8
LAYER01
 62
     7
 10
5094.9514330955553
 20
6478.7164526678107
 30
0.0
  0
VERTEX
  5
22D
  8
LAYER01
 62
     7
 10
5047.372120101667
 20
6482.6813954173012
 30
0.0
  0
VERTEX
  5
22E
  8
LAYER01
 62
     7
 10
5003.7577498572691
 20
6490.6112809162832
 30
0.0
  0
VERTEX
  5
22F
  8
LAYER01
 62
     7
 10
4960.1433796128722
 20
6498.5411664152653
 30
0.0
  0
VERTEX
  5
230
  8
LAYER01
 62
     7
 10
4920.493952117964
 20
6514.4009374132283
 30
0.0
  0
VERTEX
  5
231
  8
LAYER01
 62
     7
 10
4880.8445246230567
 20
6534.2256511606811
 30
0.0
  0
VERTEX
  5
232
  8
LAYER01
 62
     7
 10
4845.16003987764
 20
6554.0503649081338
 30
0.0
  0
VERTEX
  5
233
  8
LAYER01
 62
     7
 10
4809.4755551322241
 20
6581.8049641545704
 30
0.0
  0
VERTEX
  5
234
  8
LAYER01
 62
     7
 10
4777.7560131362989
 20
6609.5595634010042
 30
0.0
  0
VERTEX
  5
235
  8
LAYER01
 62
     7
 10
4746.0364711403727
 20
6641.2791053969304
 30
0.0
  0
VERTEX
  5
236
  8
LAYER01
 62
     7
 10
4722.2468146434294
 20
6676.9635901423471
 30
0.0
  0
VERTEX
  5
237
  8
LAYER01
 62
     7
 10
4698.4571581464843
 20
6712.648074887763
 30
0.0
  0
VERTEX
  5
238
  8
LAYER01
 62
     7
 10
4678.6324443990306
 20
6752.2975023826693
 30
0.0
  0
VERTEX
  5
239
  8
LAYER01
 62
     7
 10
4666.737616150559
 20
6791.9469298775757
 30
0.0
  0
VERTEX
  5
23A
  8
LAYER01
 62
     7
 10
4654.8427879020874
 20
6835.5613001219754
 30
0.0
  0
VERTEX
  5
23B
  8
LAYER01
 62
     7
 10
4646.9129024031054
 20
6879.1756703663723
 30
0.0
  0
VERTEX
  5
23C
  8
LAYER01
 62
     7
 10
4642.9479596536139
 20
6926.7549833602607
 30
0.0
  0
VERTEX
  5
23D
  8
LAYER01
 62
     7
 10
4642.9479596536139
 20
6926.7549833602607
 30
0.0
  0
VERTEX
  5
23E
  8
LAYER01
 62
     7
 10
4646.9129024031054
 20
6970.3693536046594
 30
0.0
  0
VERTEX
  5
23F
  8
LAYER01
 62
     7
 10
4654.8427879020874
 20
7017.948666598546
 30
0.0
  0
VERTEX
  5
240
  8
LAYER01
 62
     7
 10
4662.7726734010676
 20
7057.5980940934542
 30
0.0
  0
VERTEX
  5
241
  8
LAYER01
 62
     7
 10
4678.6324443990306
 20
7101.212464337852
 30
0.0
  0
VERTEX
  5
242
  8
LAYER01
 62
     7
 10
4698.4571581464843
 20
7140.8618918327593
 30
0.0
  0
VERTEX
  5
243
  8
LAYER01
 62
     7
 10
4718.2818718939379
 20
7176.5463765781742
 30
0.0
  0
VERTEX
  5
244
  8
LAYER01
 62
     7
 10
4746.0364711403727
 20
7212.2308613235909
 30
0.0
  0
VERTEX
  5
245
  8
LAYER01
 62
     7
 10
4773.7910703868083
 20
7243.950403319518
 30
0.0
  0
VERTEX
  5
246
  8
LAYER01
 62
     7
 10
4805.5106123827327
 20
7271.705002565951
 30
0.0
  0
VERTEX
  5
247
  8
LAYER01
 62
     7
 10
4841.1950971281503
 20
7299.4596018123866
 30
0.0
  0
VERTEX
  5
248
  8
LAYER01
 62
     7
 10
4876.8795818735662
 20
7319.2843155598412
 30
0.0
  0
VERTEX
  5
249
  8
LAYER01
 62
     7
 10
4916.5290093684744
 20
7339.1090293072939
 30
0.0
  0
VERTEX
  5
24A
  8
LAYER01
 62
     7
 10
4956.1784368633807
 20
7354.968800305257
 30
0.0
  0
VERTEX
  5
24B
  8
LAYER01
 62
     7
 10
4999.7928071077786
 20
7366.8636285537286
 30
0.0
  0
VERTEX
  5
24C
  8
LAYER01
 62
     7
 10
5047.372120101667
 20
7370.8285713032201
 30
0.0
  0
VERTEX
  5
24D
  8
LAYER01
 62
     7
 10
5090.9864903460648
 20
7374.7935140527097
 30
0.0
  0
VERTEX
  5
24E
  8
LAYER01
 62
     7
 10
5090.9864903460648
 20
7374.7935140527097
 30
0.0
  0
VERTEX
  5
24F
  8
LAYER01
 62
     7
 10
5162.3554598368983
 20
7370.8285713032201
 30
0.0
  0
VERTEX
  5
250
  8
LAYER01
 62
     7
 10
5198.0399445823132
 20
7366.8636285537286
 30
0.0
  0
VERTEX
  5
251
  8
LAYER01
 62
     7
 10
5229.7594865782394
 20
7358.9337430547466
 30
0.0
  0
VERTEX
  5
252
  8
LAYER01
 62
     7
 10
5257.5140858246741
 20
7347.038914806275
 30
0.0
  0
VERTEX
  5
253
  8
LAYER01
 62
     7
 10
5289.2336278206003
 20
7335.1440865578043
 30
0.0
  0
VERTEX
  5
254
  8
LAYER01
 62
     7
 10
5320.9531698165256
 20
7315.3193728103497
 30
0.0
  0
VERTEX
  5
255
  8
LAYER01
 62
     7
 10
5352.6727118124509
 20
7295.4946590628961
 30
0.0
  0
VERTEX
  5
256
  8
LAYER01
 62
     7
 10
5352.6727118124509
 20
7295.4946590628961
 30
0.0
  0
SEQEND
  5
257
  8
LAYER01
 62
     7
  0
POLYLINE
  5
258
  8
LAYER01
 62
     7
 66
     1
 10
0.0
 20
0.0
 30
0.0
 70
     1
  0
VERTEX
  5
259
  8
LAYER01
 62
     7
 10
5737.2721585130494
 20
7370.8285713032201
 30
0.0
  0
VERTEX
  5
25A
  8
LAYER01
 62
     7
 10
5737.2721585130494
 20
7370.8285713032201
 30
0.0
  0
VERTEX
  5
25B
  8
LAYER01
 62
     7
 10
5693.6577882686524
 20
7366.8636285537286
 30
0.0
  0
VERTEX
  5
25C
  8
LAYER01
 62
     7
 10
5646.0784752747632
 20
7362.8986858042381
 30
0.0
  0
VERTEX
  5
25D
  8
LAYER01
 62
     7
 10
5606.429047779855
 20
7351.0038575557664
 30
0.0
  0
VERTEX
  5
25E
  8
LAYER01
 62
     7
 10
5562.814677535458
 20
7335.1440865578043
 30
0.0
  0
VERTEX
  5
25F
  8
LAYER01
 62
     7
 10
5523.1652500405517
 20
7319.2843155598412
 30
0.0
  0
VERTEX
  5
260
  8
LAYER01
 62
     7
 10
5487.4807652951349
 20
7295.4946590628961
 30
0.0
  0
VERTEX
  5
261
  8
LAYER01
 62
     7
 10
5451.7962805497182
 20
7271.705002565951
 30
0.0
  0
VERTEX
  5
262
  8
LAYER01
 62
     7
 10
5420.0767385537929
 20
7239.9854605700266
 30
0.0
  0
VERTEX
  5
263
  8
LAYER01
 62
     7
 10
5392.3221393073582
 20
7208.2659185741013
 30
0.0
  0
VERTEX
  5
264
  8
LAYER01
 62
     7
 10
5364.5675400609243
 20
7176.5463765781742
 30
0.0
  0
VERTEX
  5
265
  8
LAYER01
 62
     7
 10
5340.7778835639801
 20
7140.8618918327593
 30
0.0
  0
VERTEX
  5
266
  8
LAYER01
 62
     7
 10
5320.9531698165256
 20
7101.212464337852
 30
0.0
  0
VERTEX
  5
267
  8
LAYER01
 62
     7
 10
5309.0583415680539
 20
7057.5980940934542
 30
0.0
  0
VERTEX
  5
268
  8
LAYER01
 62
     7
 10
5297.1635133195814
 20
7017.948666598546
 30
0.0
  0
VERTEX
  5
269
  8
LAYER01
 62
     7
 10
5289.2336278206003
 20
6970.3693536046594
 30
0.0
  0
VERTEX
  5
26A
  8
LAYER01
 62
     7
 10
5285.2686850711088
 20
6926.7549833602607
 30
0.0
  0
VERTEX
  5
26B
  8
LAYER01
 62
     7
 10
5285.2686850711088
 20
6926.7549833602607
 30
0.0
  0
VERTEX
  5
26C
  8
LAYER01
 62
     7
 10
5289.2336278206003
 20
6879.1756703663723
 30
0.0
  0
VERTEX
  5
26D
  8
LAYER01
 62
     7
 10
5293.1985705700909
 20
6835.5613001219754
 30
0.0
  0
VERTEX
  5
26E
  8
LAYER01
 62
     7
 10
5305.0933988185634
 20
6791.9469298775757
 30
0.0
  0
VERTEX
  5
26F
  8
LAYER01
 62
     7
 10
5320.9531698165256
 20
6752.2975023826693
 30
0.0
  0
VERTEX
  5
270
  8
LAYER01
 62
     7
 10
5336.8129408144878
 20
6712.648074887763
 30
0.0
  0
VERTEX
  5
271
  8
LAYER01
 62
     7
 10
5360.602597311432
 20
6676.9635901423471
 30
0.0
  0
VERTEX
  5
272
  8
LAYER01
 62
     7
 10
5384.3922538083762
 20
6641.2791053969304
 30
0.0
  0
VERTEX
  5
273
  8
LAYER01
 62
     7
 10
5412.1468530548118
 20
6609.5595634010042
 30
0.0
  0
VERTEX
  5
274
  8
LAYER01
 62
     7
 10
5443.8663950507362
 20
6577.8400214050789
 30
0.0
  0
VERTEX
  5
275
  8
LAYER01
 62
     7
 10
5479.5508797961529
 20
6554.0503649081338
 30
0.0
  0
VERTEX
  5
276
  8
LAYER01
 62
     7
 10
5515.2353645415697
 20
6530.2607084111914
 30
0.0
  0
VERTEX
  5
277
  8
LAYER01
 62
     7
 10
5554.8847920364769
 20
6510.4359946637369
 30
0.0
  0
VERTEX
  5
278
  8
LAYER01
 62
     7
 10
5594.5342195313842
 20
6494.5762236657738
 30
0.0
  0
VERTEX
  5
279
  8
LAYER01
 62
     7
 10
5638.1485897757821
 20
6486.6463381667918
 30
0.0
  0
VERTEX
  5
27A
  8
LAYER01
 62
     7
 10
5681.762960020179
 20
6478.7164526678107
 30
0.0
  0
VERTEX
  5
27B
  8
LAYER01
 62
     7
 10
5725.3773302645768
 20
6474.7515099183202
 30
0.0
  0
VERTEX
  5
27C
  8
LAYER01
 62
     7
 10
5725.3773302645768
 20
6474.7515099183202
 30
0.0
  0
VERTEX
  5
27D
  8
LAYER01
 62
     7
 10
5772.9566432584652
 20
6478.7164526678107
 30
0.0
  0
VERTEX
  5
27E
  8
LAYER01
 62
     7
 10
5816.571013502863
 20
6486.6463381667918
 30
0.0
  0
VERTEX
  5
27F
  8
LAYER01
 62
     7
 10
5860.1853837472609
 20
6498.5411664152653
 30
0.0
  0
VERTEX
  5
280
  8
LAYER01
 62
     7
 10
5899.8348112421681
 20
6514.4009374132283
 30
0.0
  0
VERTEX
  5
281
  8
LAYER01
 62
     7
 10
5939.4842387370763
 20
6534.2256511606811
 30
0.0
  0
VERTEX
  5
282
  8
LAYER01
 62
     7
 10
5975.1687234824913
 20
6558.0153076576253
 30
0.0
  0
VERTEX
  5
283
  8
LAYER01
 62
     7
 10
6010.853208227908
 20
6581.8049641545704
 30
0.0
  0
VERTEX
  5
284
  8
LAYER01
 62
     7
 10
6042.5727502238333
 20
6613.5245061504938
 30
0.0
  0
VERTEX
  5
285
  8
LAYER01
 62
     7
 10
6070.327349470268
 20
6645.2440481464209
 30
0.0
  0
VERTEX
  5
286
  8
LAYER01
 62
     7
 10
6094.1170059672131
 20
6680.9285328918368
 30
0.0
  0
VERTEX
  5
287
  8
LAYER01
 62
     7
 10
6113.9417197146659
 20
6716.6130176372544
 30
0.0
  0
VERTEX
  5
288
  8
LAYER01
 62
     7
 10
6133.7664334621204
 20
6756.2624451321599
 30
0.0
  0
VERTEX
  5
289
  8
LAYER01
 62
     7
 10
6149.6262044600826
 20
6799.8768153765577
 30
0.0
  0
VERTEX
  5
28A
  8
LAYER01
 62
     7
 10
6157.5560899590637
 20
6843.4911856209546
 30
0.0
  0
VERTEX
  5
28B
  8
LAYER01
 62
     7
 10
6161.5210327085542
 20
6887.1055558653534
 30
0.0
  0
VERTEX
  5
28C
  8
LAYER01
 62
     7
 10
6165.4859754580457
 20
6934.6848688592418
 30
0.0
  0
VERTEX
  5
28D
  8
LAYER01
 62
     7
 10
6165.4859754580457
 20
6934.6848688592418
 30
0.0
  0
VERTEX
  5
28E
  8
LAYER01
 62
     7
 10
6161.5210327085542
 20
6978.2992391036396
 30
0.0
  0
VERTEX
  5
28F
  8
LAYER01
 62
     7
 10
6153.5911472095731
 20
7021.9136093480374
 30
0.0
  0
VERTEX
  5
290
  8
LAYER01
 62
     7
 10
6141.6963189611024
 20
7061.5630368429447
 30
0.0
  0
VERTEX
  5
291
  8
LAYER01
 62
     7
 10
6129.8014907126289
 20
7101.212464337852
 30
0.0
  0
VERTEX
  5
292
  8
LAYER01
 62
     7
 10
6109.9767769651762
 20
7136.8969490832678
 30
0.0
  0
VERTEX
  5
293
  8
LAYER01
 62
     7
 10
6090.1520632177217
 20
7172.5814338286846
 30
0.0
  0
VERTEX
  5
294
  8
LAYER01
 62
     7
 10
6066.3624067207766
 20
7208.2659185741013
 30
0.0
  0
VERTEX
  5
295
  8
LAYER01
 62
     7
 10
6038.6078074743427
 20
7236.0205178205342
 30
0.0
  0
VERTEX
  5
296
  8
LAYER01
 62
     7
 10
6006.8882654784175
 20
7263.7751170669708
 30
0.0
  0
VERTEX
  5
297
  8
LAYER01
 62
     7
 10
5975.1687234824913
 20
7291.5297163134046
 30
0.0
  0
VERTEX
  5
298
  8
LAYER01
 62
     7
 10
5939.4842387370763
 20
7311.3544300608592
 30
0.0
  0
VERTEX
  5
299
  8
LAYER01
 62
     7
 10
5903.7997539916587
 20
7331.1791438083128
 30
0.0
  0
VERTEX
  5
29A
  8
LAYER01
 62
     7
 10
5864.1503264967514
 20
7347.038914806275
 30
0.0
  0
VERTEX
  5
29B
  8
LAYER01
 62
     7
 10
5824.5008990018441
 20
7358.9337430547466
 30
0.0
  0
VERTEX
  5
29C
  8
LAYER01
 62
     7
 10
5780.8865287574472
 20
7366.8636285537286
 30
0.0
  0
VERTEX
  5
29D
  8
LAYER01
 62
     7
 10
5737.2721585130494
 20
7370.8285713032201
 30
0.0
  0
VERTEX
  5
29E
  8
LAYER01
 62
     7
 10
5737.2721585130494
 20
7370.8285713032201
 30
0.0
  0
SEQEND
  5
29F
  8
LAYER01
 62
     7
  0
POLYLINE
  5
2A0
  8
LAYER01
 62
     7
 66
     1
 10
0.0
 20
0.0
 30
0.0
 70
     1
  0
VERTEX
  5
2A1
  8
LAYER01
 62
     7
 10
5725.3773302645768
 20
6637.3141626474389
 30
0.0
  0
VERTEX
  5
2A2
  8
LAYER01
 62
     7
 10
5725.3773302645768
 20
6637.3141626474389
 30
0.0
  0
VERTEX
  5
2A3
  8
LAYER01
 62
     7
 10
5697.6227310181421
 20
6641.2791053969304
 30
0.0
  0
VERTEX
  5
2A4
  8
LAYER01
 62
     7
 10
5669.8681317717073
 20
6645.2440481464209
 30
0.0
  0
VERTEX
  5
2A5
  8
LAYER01
 62
     7
 10
5642.1135325252717
 20
6649.2089908959106
 30
0.0
  0
VERTEX
  5
2A6
  8
LAYER01
 62
     7
 10
5614.3589332788379
 20
6661.103819144384
 30
0.0
  0
VERTEX
  5
2A7
  8
LAYER01
 62
     7
 10
5590.5692767818919
 20
6672.9986473928557
 30
0.0
  0
VERTEX
  5
2A8
  8
LAYER01
 62
     7
 10
5566.7796202849486
 20
6688.8584183908179
 30
0.0
  0
VERTEX
  5
2A9
  8
LAYER01
 62
     7
 10
5546.9549065374968
 20
6704.718189388781
 30
0.0
  0
VERTEX
  5
2AA
  8
LAYER01
 62
     7
 10
5527.1301927900431
 20
6724.5429031362346
 30
0.0
  0
VERTEX
  5
2AB
  8
LAYER01
 62
     7
 10
5507.3054790425886
 20
6744.3676168836892
 30
0.0
  0
VERTEX
  5
2AC
  8
LAYER01
 62
     7
 10
5491.4457080446264
 20
6764.1923306311428
 30
0.0
  0
VERTEX
  5
2AD
  8
LAYER01
 62
     7
 10
5479.5508797961529
 20
6787.9819871280861
 30
0.0
  0
VERTEX
  5
2AE
  8
LAYER01
 62
     7
 10
5467.6560515476813
 20
6815.7365863745208
 30
0.0
  0
VERTEX
  5
2AF
  8
LAYER01
 62
     7
 10
5455.7612232992096
 20
6839.5262428714641
 30
0.0
  0
VERTEX
  5
2B0
  8
LAYER01
 62
     7
 10
5451.7962805497182
 20
6867.2808421178988
 30
0.0
  0
VERTEX
  5
2B1
  8
LAYER01
 62
     7
 10
5443.8663950507362
 20
6895.0354413643354
 30
0.0
  0
VERTEX
  5
2B2
  8
LAYER01
 62
     7
 10
5443.8663950507362
 20
6926.7549833602607
 30
0.0
  0
VERTEX
  5
2B3
  8
LAYER01
 62
     7
 10
5443.8663950507362
 20
6926.7549833602607
 30
0.0
  0
VERTEX
  5
2B4
  8
LAYER01
 62
     7
 10
5447.8313378002267
 20
6954.5095826066963
 30
0.0
  0
VERTEX
  5
2B5
  8
LAYER01
 62
     7
 10
5451.7962805497182
 20
6982.264181853131
 30
0.0
  0
VERTEX
  5
2B6
  8
LAYER01
 62
     7
 10
5459.7261660486993
 20
7010.0187810995658
 30
0.0
  0
VERTEX
  5
2B7
  8
LAYER01
 62
     7
 10
5467.6560515476813
 20
7037.7733803459996
 30
0.0
  0
VERTEX
  5
2B8
  8
LAYER01
 62
     7
 10
5479.5508797961529
 20
7061.5630368429447
 30
0.0
  0
VERTEX
  5
2B9
  8
LAYER01
 62
     7
 10
5495.410650794116
 20
7085.3526933398889
 30
0.0
  0
VERTEX
  5
2BA
  8
LAYER01
 62
     7
 10
5511.27042179208
 20
7105.1774070873416
 30
0.0
  0
VERTEX
  5
2BB
  8
LAYER01
 62
     7
 10
5531.0951355395327
 20
7125.0021208347962
 30
0.0
  0
VERTEX
  5
2BC
  8
LAYER01
 62
     7
 10
5550.9198492869864
 20
7144.826834582248
 30
0.0
  0
VERTEX
  5
2BD
  8
LAYER01
 62
     7
 10
5570.74456303444
 20
7160.6866055802111
 30
0.0
  0
VERTEX
  5
2BE
  8
LAYER01
 62
     7
 10
5594.5342195313842
 20
7176.5463765781742
 30
0.0
  0
VERTEX
  5
2BF
  8
LAYER01
 62
     7
 10
5622.288818777819
 20
7188.4412048266468
 30
0.0
  0
VERTEX
  5
2C0
  8
LAYER01
 62
     7
 10
5646.0784752747632
 20
7196.3710903256278
 30
0.0
  0
VERTEX
  5
2C1
  8
LAYER01
 62
     7
 10
5673.8330745211979
 20
7204.3009758246098
 30
0.0
  0
VERTEX
  5
2C2
  8
LAYER01
 62
     7
 10
5701.5876737676326
 20
7208.2659185741013
 30
0.0
  0
VERTEX
  5
2C3
  8
LAYER01
 62
     7
 10
5733.3072157635588
 20
7208.2659185741013
 30
0.0
  0
VERTEX
  5
2C4
  8
LAYER01
 62
     7
 10
5733.3072157635588
 20
7208.2659185741013
 30
0.0
  0
VERTEX
  5
2C5
  8
LAYER01
 62
     7
 10
5761.0618150099936
 20
7204.3009758246098
 30
0.0
  0
VERTEX
  5
2C6
  8
LAYER01
 62
     7
 10
5788.8164142564283
 20
7200.3360330751193
 30
0.0
  0
VERTEX
  5
2C7
  8
LAYER01
 62
     7
 10
5812.6060707533716
 20
7192.4061475761382
 30
0.0
  0
VERTEX
  5
2C8
  8
LAYER01
 62
     7
 10
5840.3606699998072
 20
7184.4762620771562
 30
0.0
  0
VERTEX
  5
2C9
  8
LAYER01
 62
     7
 10
5860.1853837472609
 20
7172.5814338286846
 30
0.0
  0
VERTEX
  5
2CA
  8
LAYER01
 62
     7
 10
5883.975040244205
 20
7156.7216628307224
 30
0.0
  0
VERTEX
  5
2CB
  8
LAYER01
 62
     7
 10
5903.7997539916587
 20
7140.8618918327593
 30
0.0
  0
VERTEX
  5
2CC
  8
LAYER01
 62
     7
 10
5923.6244677391132
 20
7125.0021208347962
 30
0.0
  0
VERTEX
  5
2CD
  8
LAYER01
 62
     7
 10
5939.4842387370763
 20
7105.1774070873416
 30
0.0
  0
VERTEX
  5
2CE
  8
LAYER01
 62
     7
 10
5955.3440097350367
 20
7081.3877505903993
 30
0.0
  0
VERTEX
  5
2CF
  8
LAYER01
 62
     7
 10
5971.2037807329998
 20
7061.5630368429447
 30
0.0
  0
VERTEX
  5
2D0
  8
LAYER01
 62
     7
 10
5983.0986089814742
 20
7037.7733803459996
 30
0.0
  0
VERTEX
  5
2D1
  8
LAYER01
 62
     7
 10
5991.0284944804544
 20
7010.0187810995658
 30
0.0
  0
VERTEX
  5
2D2
  8
LAYER01
 62
     7
 10
5998.9583799794354
 20
6986.2291246026198
 30
0.0
  0
VERTEX
  5
2D3
  8
LAYER01
 62
     7
 10
6002.923322728926
 20
6958.4745253561859
 30
0.0
  0
VERTEX
  5
2D4
  8
LAYER01
 62
     7
 10
6002.923322728926
 20
6930.7199261097512
 30
0.0
  0
VERTEX
  5
2D5
  8
LAYER01
 62
     7
 10
6002.923322728926
 20
6930.7199261097512
 30
0.0
  0
VERTEX
  5
2D6
  8
LAYER01
 62
     7
 10
6002.923322728926
 20
6899.0003841138259
 30
0.0
  0
VERTEX
  5
2D7
  8
LAYER01
 62
     7
 10
5998.9583799794354
 20
6871.2457848673903
 30
0.0
  0
VERTEX
  5
2D8
  8
LAYER01
 62
     7
 10
5994.9934372299449
 20
6843.4911856209546
 30
0.0
  0
VERTEX
  5
2D9
  8
LAYER01
 62
     7
 10
5983.0986089814742
 20
6819.7015291240123
 30
0.0
  0
VERTEX
  5
2DA
  8
LAYER01
 62
     7
 10
5975.1687234824913
 20
6791.9469298775757
 30
0.0
  0
VERTEX
  5
2DB
  8
LAYER01
 62
     7
 10
5959.3089524845291
 20
6768.1572733806324
 30
0.0
  0
VERTEX
  5
2DC
  8
LAYER01
 62
     7
 10
5943.449181486566
 20
6744.3676168836892
 30
0.0
  0
VERTEX
  5
2DD
  8
LAYER01
 62
     7
 10
5923.6244677391132
 20
6724.5429031362346
 30
0.0
  0
VERTEX
  5
2DE
  8
LAYER01
 62
     7
 10
5903.7997539916587
 20
6704.718189388781
 30
0.0
  0
VERTEX
  5
2DF
  8
LAYER01
 62
     7
 10
5883.975040244205
 20
6688.8584183908179
 30
0.0
  0
VERTEX
  5
2E0
  8
LAYER01
 62
     7
 10
5860.1853837472609
 20
6672.9986473928557
 30
0.0
  0
VERTEX
  5
2E1
  8
LAYER01
 62
     7
 10
5836.3957272503167
 20
6661.103819144384
 30
0.0
  0
VERTEX
  5
2E2
  8
LAYER01
 62
     7
 10
5808.641128003881
 20
6653.173933645402
 30
0.0
  0
VERTEX
  5
2E3
  8
LAYER01
 62
     7
 10
5780.8865287574472
 20
6645.2440481464209
 30
0.0
  0
VERTEX
  5
2E4
  8
LAYER01
 62
     7
 10
5753.1319295110115
 20
6641.2791053969304
 30
0.0
  0
VERTEX
  5
2E5
  8
LAYER01
 62
     7
 10
5725.3773302645768
 20
6637.3141626474389
 30
0.0
  0
VERTEX
  5
2E6
  8
LAYER01
 62
     7
 10
5725.3773302645768
 20
6637.3141626474389
 30
0.0
  0
SEQEND
  5
2E7
  8
LAYER01
 62
     7
  0
POLYLINE
  5
2E8
  8
LAYER01
 62
     7
 66
     1
 10
0.0
 20
0.0
 30
0.0
 70
     1
  0
VERTEX
  5
2E9
  8
LAYER01
 62
     7
 10
6042.5727502238333
 20
7351.0038575557664
 30
0.0
  0
VERTEX
  5
2EA
  8
LAYER01
 62
     7
 10
6462.8566816698476
 20
7351.0038575557664
 30
0.0
  0
VERTEX
  5
2EB
  8
LAYER01
 62
     7
 10
6462.8566816698476
 20
7351.0038575557664
 30
0.0
  0
VERTEX
  5
2EC
  8
LAYER01
 62
     7
 10
6510.4359946637369
 20
7343.0739720567844
 30
0.0
  0
VERTEX
  5
2ED
  8
LAYER01
 62
     7
 10
6554.0503649081338
 20
7323.2492583093299
 30
0.0
  0
VERTEX
  5
2EE
  8
LAYER01
 62
     7
 10
6589.7348496535496
 20
7299.4596018123866
 30
0.0
  0
VERTEX
  5
2EF
  8
LAYER01
 62
     7
 10
6621.4543916494758
 20
7267.7400598164604
 30
0.0
  0
VERTEX
  5
2F0
  8
LAYER01
 62
     7
 10
6649.2089908959106
 20
7236.0205178205342
 30
0.0
  0
VERTEX
  5
2F1
  8
LAYER01
 62
     7
 10
6669.0337046433651
 20
7196.3710903256278
 30
0.0
  0
VERTEX
  5
2F2
  8
LAYER01
 62
     7
 10
6680.9285328918368
 20
7148.7917773317413
 30
0.0
  0
VERTEX
  5
2F3
  8
LAYER01
 62
     7
 10
6684.8934756413273
 20
7105.1774070873416
 30
0.0
  0
VERTEX
  5
2F4
  8
LAYER01
 62
     7
 10
6684.8934756413273
 20
7105.1774070873416
 30
0.0
  0
VERTEX
  5
2F5
  8
LAYER01
 62
     7
 10
6680.9285328918368
 20
7057.5980940934542
 30
0.0
  0
VERTEX
  5
2F6
  8
LAYER01
 62
     7
 10
6672.9986473928557
 20
7017.948666598546
 30
0.0
  0
VERTEX
  5
2F7
  8
LAYER01
 62
     7
 10
6657.1388763948926
 20
6978.2992391036396
 30
0.0
  0
VERTEX
  5
2F8
  8
LAYER01
 62
     7
 10
6637.3141626474389
 20
6942.6147543582238
 30
0.0
  0
VERTEX
  5
2F9
  8
LAYER01
 62
     7
 10
6609.5595634010042
 20
6910.8952123622976
 30
0.0
  0
VERTEX
  5
2FA
  8
LAYER01
 62
     7
 10
6581.8049641545704
 20
6887.1055558653534
 30
0.0
  0
VERTEX
  5
2FB
  8
LAYER01
 62
     7
 10
6542.1555366596622
 20
6863.3158993684092
 30
0.0
  0
VERTEX
  5
2FC
  8
LAYER01
 62
     7
 10
6502.506109164754
 20
6847.4561283704461
 30
0.0
  0
VERTEX
  5
2FD
  8
LAYER01
 62
     7
 10
6760.2273878816522
 20
6502.506109164754
 30
0.0
  0
VERTEX
  5
2FE
  8
LAYER01
 62
     7
 10
6561.9802504071158
 20
6502.506109164754
 30
0.0
  0
VERTEX
  5
2FF
  8
LAYER01
 62
     7
 10
6217.0302312014246
 20
6942.6147543582238
 30
0.0
  0
VERTEX
  5
300
  8
LAYER01
 62
     7
 10
6411.3124259264687
 20
6942.6147543582238
 30
0.0
  0
VERTEX
  5
301
  8
LAYER01
 62
     7
 10
6411.3124259264687
 20
6942.6147543582238
 30
0.0
  0
VERTEX
  5
302
  8
LAYER01
 62
     7
 10
6435.102082423412
 20
6950.5446398572049
 30
0.0
  0
VERTEX
  5
303
  8
LAYER01
 62
     7
 10
6454.9267961708656
 20
6958.4745253561859
 30
0.0
  0
VERTEX
  5
304
  8
LAYER01
 62
     7
 10
6470.7865671688287
 20
6974.334296354149
 30
0.0
  0
VERTEX
  5
305
  8
LAYER01
 62
     7
 10
6486.6463381667918
 20
6990.1940673521131
 30
0.0
  0
VERTEX
  5
306
  8
LAYER01
 62
     7
 10
6498.5411664152653
 20
7010.0187810995658
 30
0.0
  0
VERTEX
  5
307
  8
LAYER01
 62
     7
 10
6510.4359946637369
 20
7029.8434948470176
 30
0.0
  0
VERTEX
  5
308
  8
LAYER01
 62
     7
 10
6514.4009374132283
 20
7053.6331513439627
 30
0.0
  0
VERTEX
  5
309
  8
LAYER01
 62
     7
 10
6514.4009374132283
 20
7077.4228078409069
 30
0.0
  0
VERTEX
  5
30A
  8
LAYER01
 62
     7
 10
6514.4009374132283
 20
7077.4228078409069
 30
0.0
  0
VERTEX
  5
30B
  8
LAYER01
 62
     7
 10
6514.4009374132283
 20
7101.212464337852
 30
0.0
  0
VERTEX
  5
30C
  8
LAYER01
 62
     7
 10
6506.4710519142463
 20
7121.0371780853047
 30
0.0
  0
VERTEX
  5
30D
  8
LAYER01
 62
     7
 10
6498.5411664152653
 20
7140.8618918327593
 30
0.0
  0
VERTEX
  5
30E
  8
LAYER01
 62
     7
 10
6486.6463381667918
 20
7160.6866055802111
 30
0.0
  0
VERTEX
  5
30F
  8
LAYER01
 62
     7
 10
6470.7865671688287
 20
7176.5463765781742
 30
0.0
  0
VERTEX
  5
310
  8
LAYER01
 62
     7
 10
6454.9267961708656
 20
7188.4412048266468
 30
0.0
  0
VERTEX
  5
311
  8
LAYER01
 62
     7
 10
6431.1371396739214
 20
7200.3360330751193
 30
0.0
  0
VERTEX
  5
312
  8
LAYER01
 62
     7
 10
6411.3124259264687
 20
7208.2659185741013
 30
0.0
  0
VERTEX
  5
313
  8
LAYER01
 62
     7
 10
6185.3106892054993
 20
7208.2659185741013
 30
0.0
  0
VERTEX
  5
314
  8
LAYER01
 62
     7
 10
6042.5727502238333
 20
7351.0038575557664
 30
0.0
  0
VERTEX
  5
315
  8
LAYER01
 62
     7
 10
6042.5727502238333
 20
7351.0038575557664
 30
0.0
  0
SEQEND
  5
316
  8
LAYER01
 62
     7
  0
POLYLINE
  5
317
  8
LAYER01
 62
     7
 66
     1
 10
0.0
 20
0.0
 30
0.0
 70
     1
  0
VERTEX
  5
318
  8
LAYER01
 62
     7
 10
6867.2808421178988
 20
7140.8618918327593
 30
0.0
  0
VERTEX
  5
319
  8
LAYER01
 62
     7
 10
6867.2808421178988
 20
7140.8618918327593
 30
0.0
  0
VERTEX
  5
31A
  8
LAYER01
 62
     7
 10
6887.1055558653534
 20
7144.826834582248
 30
0.0
  0
VERTEX
  5
31B
  8
LAYER01
 62
     7
 10
6906.930269612807
 20
7148.7917773317413
 30
0.0
  0
VERTEX
  5
31C
  8
LAYER01
 62
     7
 10
6926.7549833602607
 20
7160.6866055802111
 30
0.0
  0
VERTEX
  5
31D
  8
LAYER01
 62
     7
 10
6942.6147543582238
 20
7172.5814338286846
 30
0.0
  0
VERTEX
  5
31E
  8
LAYER01
 62
     7
 10
6954.5095826066963
 20
7188.4412048266468
 30
0.0
  0
VERTEX
  5
31F
  8
LAYER01
 62
     7
 10
6962.4394681056774
 20
7204.3009758246098
 30
0.0
  0
VERTEX
  5
320
  8
LAYER01
 62
     7
 10
6970.3693536046594
 20
7224.1256895720644
 30
0.0
  0
VERTEX
  5
321
  8
LAYER01
 62
     7
 10
6970.3693536046594
 20
7247.9153460690077
 30
0.0
  0
VERTEX
  5
322
  8
LAYER01
 62
     7
 10
6970.3693536046594
 20
7247.9153460690077
 30
0.0
  0
VERTEX
  5
323
  8
LAYER01
 62
     7
 10
6970.3693536046594
 20
7267.7400598164604
 30
0.0
  0
VERTEX
  5
324
  8
LAYER01
 62
     7
 10
6962.4394681056774
 20
7287.5647735639141
 30
0.0
  0
VERTEX
  5
325
  8
LAYER01
 62
     7
 10
6954.5095826066963
 20
7303.4245445618772
 30
0.0
  0
VERTEX
  5
326
  8
LAYER01
 62
     7
 10
6942.6147543582238
 20
7319.2843155598412
 30
0.0
  0
VERTEX
  5
327
  8
LAYER01
 62
     7
 10
6926.7549833602607
 20
7331.1791438083128
 30
0.0
  0
VERTEX
  5
328
  8
LAYER01
 62
     7
 10
6906.930269612807
 20
7343.0739720567844
 30
0.0
  0
VERTEX
  5
329
  8
LAYER01
 62
     7
 10
6887.1055558653534
 20
7347.038914806275
 30
0.0
  0
VERTEX
  5
32A
  8
LAYER01
 62
     7
 10
6867.2808421178988
 20
7351.0038575557664
 30
0.0
  0
VERTEX
  5
32B
  8
LAYER01
 62
     7
 10
6867.2808421178988
 20
7351.0038575557664
 30
0.0
  0
VERTEX
  5
32C
  8
LAYER01
 62
     7
 10
6847.4561283704461
 20
7347.038914806275
 30
0.0
  0
VERTEX
  5
32D
  8
LAYER01
 62
     7
 10
6827.6314146229934
 20
7343.0739720567844
 30
0.0
  0
VERTEX
  5
32E
  8
LAYER01
 62
     7
 10
6807.8067008755397
 20
7331.1791438083128
 30
0.0
  0
VERTEX
  5
32F
  8
LAYER01
 62
     7
 10
6791.9469298775757
 20
7319.2843155598412
 30
0.0
  0
VERTEX
  5
330
  8
LAYER01
 62
     7
 10
6780.0521016291041
 20
7303.4245445618772
 30
0.0
  0
VERTEX
  5
331
  8
LAYER01
 62
     7
 10
6772.122216130123
 20
7287.5647735639141
 30
0.0
  0
VERTEX
  5
332
  8
LAYER01
 62
     7
 10
6764.1923306311428
 20
7267.7400598164604
 30
0.0
  0
VERTEX
  5
333
  8
LAYER01
 62
     7
 10
6764.1923306311428
 20
7247.9153460690077
 30
0.0
  0
VERTEX
  5
334
  8
LAYER01
 62
     7
 10
6764.1923306311428
 20
7247.9153460690077
 30
0.0
  0
VERTEX
  5
335
  8
LAYER01
 62
     7
 10
6764.1923306311428
 20
7224.1256895720644
 30
0.0
  0
VERTEX
  5
336
  8
LAYER01
 62
     7
 10
6772.122216130123
 20
7204.3009758246098
 30
0.0
  0
VERTEX
  5
337
  8
LAYER01
 62
     7
 10
6780.0521016291041
 20
7188.4412048266468
 30
0.0
  0
VERTEX
  5
338
  8
LAYER01
 62
     7
 10
6791.9469298775757
 20
7172.5814338286846
 30
0.0
  0
VERTEX
  5
339
  8
LAYER01
 62
     7
 10
6807.8067008755397
 20
7160.6866055802111
 30
0.0
  0
VERTEX
  5
33A
  8
LAYER01
 62
     7
 10
6827.6314146229934
 20
7148.7917773317413
 30
0.0
  0
VERTEX
  5
33B
  8
LAYER01
 62
     7
 10
6847.4561283704461
 20
7144.826834582248
 30
0.0
  0
VERTEX
  5
33C
  8
LAYER01
 62
     7
 10
6867.2808421178988
 20
7140.8618918327593
 30
0.0
  0
VERTEX
  5
33D
  8
LAYER01
 62
     7
 10
6867.2808421178988
 20
7140.8618918327593
 30
0.0
  0
SEQEND
  5
33E
  8
LAYER01
 62
     7
  0
POLYLINE
  5
33F
  8
LAYER01
 62
     7
 66
     1
 10
0.0
 20
0.0
 30
0.0
 70
     1
  0
VERTEX
  5
340
  8
LAYER01
 62
     7
 10
6867.2808421178988
 20
7335.1440865578043
 30
0.0
  0
VERTEX
  5
341
  8
LAYER01
 62
     7
 10
6867.2808421178988
 20
7335.1440865578043
 30
0.0
  0
VERTEX
  5
342
  8
LAYER01
 62
     7
 10
6883.1406131158628
 20
7331.1791438083128
 30
0.0
  0
VERTEX
  5
343
  8
LAYER01
 62
     7
 10
6899.0003841138259
 20
7327.2142010588213
 30
0.0
  0
VERTEX
  5
344
  8
LAYER01
 62
     7
 10
6914.8601551117881
 20
7319.2843155598412
 30
0.0
  0
VERTEX
  5
345
  8
LAYER01
 62
     7
 10
6926.7549833602607
 20
7307.3894873113677
 30
0.0
  0
VERTEX
  5
346
  8
LAYER01
 62
     7
 10
6938.6498116087323
 20
7295.4946590628961
 30
0.0
  0
VERTEX
  5
347
  8
LAYER01
 62
     7
 10
6946.5796971077143
 20
7279.634888064933
 30
0.0
  0
VERTEX
  5
348
  8
LAYER01
 62
     7
 10
6954.5095826066963
 20
7263.7751170669708
 30
0.0
  0
VERTEX
  5
349
  8
LAYER01
 62
     7
 10
6954.5095826066963
 20
7247.9153460690077
 30
0.0
  0
VERTEX
  5
34A
  8
LAYER01
 62
     7
 10
6954.5095826066963
 20
7247.9153460690077
 30
0.0
  0
VERTEX
  5
34B
  8
LAYER01
 62
     7
 10
6954.5095826066963
 20
7228.0906323215549
 30
0.0
  0
VERTEX
  5
34C
  8
LAYER01
 62
     7
 10
6946.5796971077143
 20
7212.2308613235909
 30
0.0
  0
VERTEX
  5
34D
  8
LAYER01
 62
     7
 10
6938.6498116087323
 20
7196.3710903256278
 30
0.0
  0
VERTEX
  5
34E
  8
LAYER01
 62
     7
 10
6926.7549833602607
 20
7184.4762620771562
 30
0.0
  0
VERTEX
  5
34F
  8
LAYER01
 62
     7
 10
6914.8601551117881
 20
7172.5814338286846
 30
0.0
  0
VERTEX
  5
350
  8
LAYER01
 62
     7
 10
6899.0003841138259
 20
7164.6515483297017
 30
0.0
  0
VERTEX
  5
351
  8
LAYER01
 62
     7
 10
6883.1406131158628
 20
7160.6866055802111
 30
0.0
  0
VERTEX
  5
352
  8
LAYER01
 62
     7
 10
6867.2808421178988
 20
7160.6866055802111
 30
0.0
  0
VERTEX
  5
353
  8
LAYER01
 62
     7
 10
6867.2808421178988
 20
7160.6866055802111
 30
0.0
  0
VERTEX
  5
354
  8
LAYER01
 62
     7
 10
6851.4210711199376
 20
7160.6866055802111
 30
0.0
  0
VERTEX
  5
355
  8
LAYER01
 62
     7
 10
6831.5963573724839
 20
7164.6515483297017
 30
0.0
  0
VERTEX
  5
356
  8
LAYER01
 62
     7
 10
6819.7015291240123
 20
7172.5814338286846
 30
0.0
  0
VERTEX
  5
357
  8
LAYER01
 62
     7
 10
6803.8417581260492
 20
7184.4762620771562
 30
0.0
  0
VERTEX
  5
358
  8
LAYER01
 62
     7
 10
6795.9118726270672
 20
7196.3710903256278
 30
0.0
  0
VERTEX
  5
359
  8
LAYER01
 62
     7
 10
6787.9819871280861
 20
7212.2308613235909
 30
0.0
  0
VERTEX
  5
35A
  8
LAYER01
 62
     7
 10
6780.0521016291041
 20
7228.0906323215549
 30
0.0
  0
VERTEX
  5
35B
  8
LAYER01
 62
     7
 10
6780.0521016291041
 20
7247.9153460690077
 30
0.0
  0
VERTEX
  5
35C
  8
LAYER01
 62
     7
 10
6780.0521016291041
 20
7247.9153460690077
 30
0.0
  0
VERTEX
  5
35D
  8
LAYER01
 62
     7
 10
6780.0521016291041
 20
7263.7751170669708
 30
0.0
  0
VERTEX
  5
35E
  8
LAYER01
 62
     7
 10
6787.9819871280861
 20
7279.634888064933
 30
0.0
  0
VERTEX
  5
35F
  8
LAYER01
 62
     7
 10
6795.9118726270672
 20
7295.4946590628961
 30
0.0
  0
VERTEX
  5
360
  8
LAYER01
 62
     7
 10
6803.8417581260492
 20
7307.3894873113677
 30
0.0
  0
VERTEX
  5
361
  8
LAYER01
 62
     7
 10
6819.7015291240123
 20
7319.2843155598412
 30
0.0
  0
VERTEX
  5
362
  8
LAYER01
 62
     7
 10
6831.5963573724839
 20
7327.2142010588213
 30
0.0
  0
VERTEX
  5
363
  8
LAYER01
 62
     7
 10
6851.4210711199376
 20
7331.1791438083128
 30
0.0
  0
VERTEX
  5
364
  8
LAYER01
 62
     7
 10
6867.2808421178988
 20
7335.1440865578043
 30
0.0
  0
VERTEX
  5
365
  8
LAYER01
 62
     7
 10
6867.2808421178988
 20
7335.1440865578043
 30
0.0
  0
SEQEND
  5
366
  8
LAYER01
 62
     7
  0
POLYLINE
  5
367
  8
LAYER01
 62
     7
 66
     1
 10
0.0
 20
0.0
 30
0.0
 70
     1
  0
VERTEX
  5
368
  8
LAYER01
 62
     7
 10
6883.1406131158628
 20
7239.9854605700266
 30
0.0
  0
VERTEX
  5
369
  8
LAYER01
 62
     7
 10
6883.1406131158628
 20
7239.9854605700266
 30
0.0
  0
VERTEX
  5
36A
  8
LAYER01
 62
     7
 10
6895.0354413643354
 20
7243.950403319518
 30
0.0
  0
VERTEX
  5
36B
  8
LAYER01
 62
     7
 10
6906.930269612807
 20
7247.9153460690077
 30
0.0
  0
VERTEX
  5
36C
  8
LAYER01
 62
     7
 10
6914.8601551117881
 20
7259.8101743174793
 30
0.0
  0
VERTEX
  5
36D
  8
LAYER01
 62
     7
 10
6914.8601551117881
 20
7271.705002565951
 30
0.0
  0
VERTEX
  5
36E
  8
LAYER01
 62
     7
 10
6914.8601551117881
 20
7271.705002565951
 30
0.0
  0
VERTEX
  5
36F
  8
LAYER01
 62
     7
 10
6914.8601551117881
 20
7287.5647735639141
 30
0.0
  0
VERTEX
  5
370
  8
LAYER01
 62
     7
 10
6902.9653268633156
 20
7299.4596018123866
 30
0.0
  0
VERTEX
  5
371
  8
LAYER01
 62
     7
 10
6891.0704986148439
 20
7303.4245445618772
 30
0.0
  0
VERTEX
  5
372
  8
LAYER01
 62
     7
 10
6875.2107276168808
 20
7303.4245445618772
 30
0.0
  0
VERTEX
  5
373
  8
LAYER01
 62
     7
 10
6827.6314146229934
 20
7303.4245445618772
 30
0.0
  0
VERTEX
  5
374
  8
LAYER01
 62
     7
 10
6827.6314146229934
 20
7188.4412048266468
 30
0.0
  0
VERTEX
  5
375
  8
LAYER01
 62
     7
 10
6843.4911856209546
 20
7188.4412048266468
 30
0.0
  0
VERTEX
  5
376
  8
LAYER01
 62
     7
 10
6843.4911856209546
 20
7239.9854605700266
 30
0.0
  0
VERTEX
  5
377
  8
LAYER01
 62
     7
 10
6867.2808421178988
 20
7239.9854605700266
 30
0.0
  0
VERTEX
  5
378
  8
LAYER01
 62
     7
 10
6895.0354413643354
 20
7188.4412048266468
 30
0.0
  0
VERTEX
  5
379
  8
LAYER01
 62
     7
 10
6914.8601551117881
 20
7188.4412048266468
 30
0.0
  0
VERTEX
  5
37A
  8
LAYER01
 62
     7
 10
6883.1406131158628
 20
7239.9854605700266
 30
0.0
  0
VERTEX
  5
37B
  8
LAYER01
 62
     7
 10
6883.1406131158628
 20
7239.9854605700266
 30
0.0
  0
SEQEND
  5
37C
  8
LAYER01
 62
     7
  0
POLYLINE
  5
37D
  8
LAYER01
 62
     7
 66
     1
 10
0.0
 20
0.0
 30
0.0
 70
     1
  0
VERTEX
  5
37E
  8
LAYER01
 62
     7
 10
6871.2457848673903
 20
7287.5647735639141
 30
0.0
  0
VERTEX
  5
37F
  8
LAYER01
 62
     7
 10
6871.2457848673903
 20
7287.5647735639141
 30
0.0
  0
VERTEX
  5
380
  8
LAYER01
 62
     7
 10
6891.0704986148439
 20
7283.5998308144244
 30
0.0
  0
VERTEX
  5
381
  8
LAYER01
 62
     7
 10
6899.0003841138259
 20
7279.634888064933
 30
0.0
  0
VERTEX
  5
382
  8
LAYER01
 62
     7
 10
6899.0003841138259
 20
7271.705002565951
 30
0.0
  0
VERTEX
  5
383
  8
LAYER01
 62
     7
 10
6899.0003841138259
 20
7271.705002565951
 30
0.0
  0
VERTEX
  5
384
  8
LAYER01
 62
     7
 10
6895.0354413643354
 20
7263.7751170669708
 30
0.0
  0
VERTEX
  5
385
  8
LAYER01
 62
     7
 10
6887.1055558653534
 20
7259.8101743174793
 30
0.0
  0
VERTEX
  5
386
  8
LAYER01
 62
     7
 10
6863.3158993684092
 20
7255.8452315679879
 30
0.0
  0
VERTEX
  5
387
  8
LAYER01
 62
     7
 10
6843.4911856209546
 20
7255.8452315679879
 30
0.0
  0
VERTEX
  5
388
  8
LAYER01
 62
     7
 10
6843.4911856209546
 20
7287.5647735639141
 30
0.0
  0
VERTEX
  5
389
  8
LAYER01
 62
     7
 10
6871.2457848673903
 20
7287.5647735639141
 30
0.0
  0
VERTEX
  5
38A
  8
LAYER01
 62
     7
 10
6871.2457848673903
 20
7287.5647735639141
 30
0.0
  0
SEQEND
  5
38B
  8
LAYER01
 62
     7
  0
ENDBLK
  5
38C
  8
0
 62
     7
  0
BLOCK
  8
0
 62
     7
  2
*U19
 70
     1
 10
0.0
 20
0.0
 30
0.0
  3
*U19
  1

  0
SOLID
  5
3D0
  8
0
  6
CONTINUOUS
 62
     7
 10
345.73743781591071
 20
298.51195816949428
 30
0.0
 11
345.73012375406392
 21
298.31456829429669
 31
0.0
 12
370.72768523791808
 22
298.31456829429669
 32
0.0
 13
370.72768523791808
 23
298.31456829429669
 33
0.0
210
0.0
220
0.0
230
1.0
  0
SOLID
  5
3D1
  8
0
  6
CONTINUOUS
 62
     7
 10
-345.73743781591071
 20
298.51195816949428
 30
0.0
 11
-370.72768523791808
 21
298.51195816949428
 31
0.0
 12
-370.72768523791808
 22
298.31456829429669
 32
0.0
 13
-370.72768523791808
 23
298.31456829429669
 33
0.0
210
0.0
220
0.0
230
-1.0
  0
SOLID
  5
3D2
  8
0
  6
CONTINUOUS
 62
     7
 10
345.73012375406392
 20
298.31456829429669
 30
0.0
 11
345.72768523791808
 21
298.11705801109559
 31
0.0
 12
370.72768523791808
 22
298.11705801109559
 32
0.0
 13
370.72768523791808
 23
298.11705801109559
 33
0.0
210
0.0
220
0.0
230
1.0
  0
SOLID
  5
3D3
  8
0
  6
CONTINUOUS
 62
     7
 10
-345.73012375406392
 20
298.31456829429669
 30
0.0
 11
-370.72768523791808
 21
298.31456829429669
 31
0.0
 12
-370.72768523791808
 22
298.11705801109559
 32
0.0
 13
-370.72768523791808
 23
298.11705801109559
 33
0.0
210
0.0
220
0.0
230
-1.0
  0
SOLID
  5
3D4
  8
0
  6
CONTINUOUS
 62
     7
 10
-362.76581548790222
 20
286.52958842900853
 30
0.0
 11
-370.72768523791808
 21
286.52958842900853
 31
0.0
 12
-370.72768523791808
 22
286.51195816949428
 32
0.0
 13
-370.72768523791808
 23
286.51195816949428
 33
0.0
210
0.0
220
0.0
230
-1.0
  0
SOLID
  5
3D5
  8
0
  6
CONTINUOUS
 62
     7
 10
345.72768523791808
 20
298.11705801109559
 30
0.0
 11
345.72768523791808
 21
286.52958842900853
 31
0.0
 12
370.72768523791808
 22
286.52958842900853
 32
0.0
 13
370.72768523791808
 23
286.52958842900853
 33
0.0
210
0.0
220
0.0
230
1.0
  0
SOLID
  5
3D6
  8
0
  6
CONTINUOUS
 62
     7
 10
-345.72768523791808
 20
298.11705801109559
 30
0.0
 11
-370.72768523791808
 21
298.11705801109559
 31
0.0
 12
-370.72768523791808
 22
286.52958842900853
 32
0.0
 13
-370.72768523791808
 23
286.52958842900853
 33
0.0
210
0.0
220
0.0
230
-1.0
  0
SOLID
  5
3D7
  8
0
  6
CONTINUOUS
 62
     7
 10
345.72768523791808
 20
286.52958842900853
 30
0.0
 11
345.72768523791808
 21
285.06525056720119
 31
0.0
 12
359.2193259040551
 22
285.06525056720119
 32
0.0
 13
359.2193259040551
 23
285.06525056720119
 33
0.0
  0
SOLID
  5
3D8
  8
0
  6
CONTINUOUS
 62
     7
 10
-345.72768523791808
 20
286.52958842900853
 30
0.0
 11
-362.76581548790222
 21
286.52958842900853
 31
0.0
 12
-359.2193259040551
 22
285.06525056720119
 32
0.0
 13
-359.2193259040551
 23
285.06525056720119
 33
0.0
210
0.0
220
0.0
230
-1.0
  0
SOLID
  5
3D9
  8
0
  6
CONTINUOUS
 62
     7
 10
345.72768523791808
 20
285.06525056720119
 30
0.0
 11
345.72768523791808
 21
281.51885706023018
 31
0.0
 12
357.75475537466008
 22
281.51885706023018
 32
0.0
 13
357.75475537466008
 23
281.51885706023018
 33
0.0
210
0.0
220
0.0
230
1.0
  0
SOLID
  5
3DA
  8
0
  6
CONTINUOUS
 62
     7
 10
-345.72768523791808
 20
285.06525056720119
 30
0.0
 11
-359.2193259040551
 21
285.06525056720119
 31
0.0
 12
-357.75475537466008
 22
281.51885706023018
 32
0.0
 13
-357.75475537466008
 23
281.51885706023018
 33
0.0
210
0.0
220
0.0
230
-1.0
  0
SOLID
  5
3DB
  8
0
  6
CONTINUOUS
 62
     7
 10
345.72768523791808
 20
281.51885706023018
 30
0.0
 11
345.72768523791808
 21
236.11705801109551
 31
0.0
 12
357.85231159823428
 22
236.11705801109551
 32
0.0
 13
357.85231159823428
 23
236.11705801109551
 33
0.0
210
0.0
220
0.0
230
1.0
  0
SOLID
  5
3DC
  8
0
  6
CONTINUOUS
 62
     7
 10
-345.72768523791808
 20
281.51885706023018
 30
0.0
 11
-357.75475537466008
 21
281.51885706023018
 31
0.0
 12
-357.85231159823428
 22
236.11705801109551
 32
0.0
 13
-357.85231159823428
 23
236.11705801109551
 33
0.0
210
0.0
220
0.0
230
-1.0
  0
SOLID
  5
3DD
  8
0
  6
CONTINUOUS
 62
     7
 10
345.72768523791808
 20
236.11705801109551
 30
0.0
 11
344.75524966526342
 21
229.97734144132269
 31
0.0
 12
357.86550419357002
 22
229.97734144132269
 32
0.0
 13
357.86550419357002
 23
229.97734144132269
 33
0.0
210
0.0
220
0.0
230
1.0
  0
SOLID
  5
3DE
  8
0
  6
CONTINUOUS
 62
     7
 10
-345.72768523791808
 20
236.11705801109551
 30
0.0
 11
-357.85231159823428
 21
236.11705801109551
 31
0.0
 12
-357.86550419357002
 22
229.97734144132269
 32
0.0
 13
-357.86550419357002
 23
229.97734144132269
 33
0.0
210
0.0
220
0.0
230
-1.0
  0
SOLID
  5
3DF
  8
0
  6
CONTINUOUS
 62
     7
 10
344.75524966526342
 20
229.97734144132269
 30
0.0
 11
338.87559751923959
 21
192.85467879860289
 31
0.0
 12
351.96727269833548
 22
192.85467879860289
 32
0.0
 13
351.96727269833548
 23
192.85467879860289
 33
0.0
210
0.0
220
0.0
230
1.0
  0
SOLID
  5
3E0
  8
0
  6
CONTINUOUS
 62
     7
 10
-344.75524966526342
 20
229.97734144132269
 30
0.0
 11
-357.86550419357002
 21
229.97734144132269
 31
0.0
 12
-351.96727269833548
 22
192.85467879860289
 32
0.0
 13
-351.96727269833548
 23
192.85467879860289
 33
0.0
210
0.0
220
0.0
230
-1.0
  0
SOLID
  5
3E1
  8
0
  6
CONTINUOUS
 62
     7
 10
338.87559751923959
 20
192.85467879860289
 30
0.0
 11
336.015730690027
 21
187.2418741152444
 31
0.0
 12
351.0754826433332
 22
187.2418741152444
 32
0.0
 13
351.0754826433332
 23
187.2418741152444
 33
0.0
210
0.0
220
0.0
230
1.0
  0
SOLID
  5
3E2
  8
0
  6
CONTINUOUS
 62
     7
 10
-338.87559751923959
 20
192.85467879860289
 30
0.0
 11
-351.96727269833548
 21
192.85467879860289
 31
0.0
 12
-351.0754826433332
 22
187.2418741152444
 32
0.0
 13
-351.0754826433332
 23
187.2418741152444
 33
0.0
210
0.0
220
0.0
230
-1.0
  0
SOLID
  5
3E3
  8
0
  6
CONTINUOUS
 62
     7
 10
336.015730690027
 20
187.2418741152444
 30
0.0
 11
318.99006445041073
 21
153.82712269014931
 31
0.0
 12
334.90073351225698
 22
153.82712269014931
 32
0.0
 13
334.90073351225698
 23
153.82712269014931
 33
0.0
210
0.0
220
0.0
230
1.0
  0
SOLID
  5
3E4
  8
0
  6
CONTINUOUS
 62
     7
 10
-336.015730690027
 20
187.2418741152444
 30
0.0
 11
-351.0754826433332
 21
187.2418741152444
 31
0.0
 12
-334.90073351225698
 22
153.82712269014931
 32
0.0
 13
-334.90073351225698
 23
153.82712269014931
 33
0.0
210
0.0
220
0.0
230
-1.0
  0
SOLID
  5
3E5
  8
0
  6
CONTINUOUS
 62
     7
 10
318.99006445041073
 20
153.82712269014931
 30
0.0
 11
313.4564447919355
 21
148.29350303167399
 31
0.0
 12
332.22212882584267
 22
148.29350303167399
 32
0.0
 13
332.22212882584267
 23
148.29350303167399
 33
0.0
210
0.0
220
0.0
230
1.0
  0
SOLID
  5
3E6
  8
0
  6
CONTINUOUS
 62
     7
 10
-318.99006445041073
 20
153.82712269014931
 30
0.0
 11
-334.90073351225698
 21
153.82712269014931
 31
0.0
 12
-332.22212882584267
 22
148.29350303167399
 32
0.0
 13
-332.22212882584267
 23
148.29350303167399
 33
0.0
210
0.0
220
0.0
230
-1.0
  0
SOLID
  5
3E7
  8
0
  6
CONTINUOUS
 62
     7
 10
313.4564447919355
 20
148.29350303167399
 30
0.0
 11
288.01762055886428
 21
122.8546787986029
 31
0.0
 12
308.80404419871633
 22
122.8546787986029
 32
0.0
 13
308.80404419871633
 23
122.8546787986029
 33
0.0
210
0.0
220
0.0
230
1.0
  0
SOLID
  5
3E8
  8
0
  6
CONTINUOUS
 62
     7
 10
-313.4564447919355
 20
148.29350303167399
 30
0.0
 11
-332.22212882584267
 21
148.29350303167399
 31
0.0
 12
-308.80404419871633
 22
122.8546787986029
 32
0.0
 13
-308.80404419871633
 23
122.8546787986029
 33
0.0
210
0.0
220
0.0
230
-1.0
  0
SOLID
  5
3E9
  8
0
  6
CONTINUOUS
 62
     7
 10
288.01762055886428
 20
122.8546787986029
 30
0.0
 11
275.46266294969899
 21
116.45760837940939
 31
0.0
 12
302.91512672871761
 22
116.45760837940939
 32
0.0
 13
302.91512672871761
 23
116.45760837940939
 33
0.0
210
0.0
220
0.0
230
1.0
  0
SOLID
  5
3EA
  8
0
  6
CONTINUOUS
 62
     7
 10
-288.01762055886428
 20
122.8546787986029
 30
0.0
 11
-308.80404419871633
 21
122.8546787986029
 31
0.0
 12
-302.91512672871761
 22
116.45760837940939
 32
0.0
 13
-302.91512672871761
 23
116.45760837940939
 33
0.0
210
0.0
220
0.0
230
-1.0
  0
SOLID
  5
3EB
  8
0
  6
CONTINUOUS
 62
     7
 10
275.46266294969899
 20
116.45760837940939
 30
0.0
 11
248.9900644504107
 21
102.969145729774
 31
0.0
 12
280.07702807678379
 22
102.969145729774
 32
0.0
 13
280.07702807678379
 23
102.969145729774
 33
0.0
210
0.0
220
0.0
230
1.0
  0
SOLID
  5
3EC
  8
0
  6
CONTINUOUS
 62
     7
 10
-275.46266294969899
 20
116.45760837940939
 30
0.0
 11
-302.91512672871761
 21
116.45760837940939
 31
0.0
 12
-280.07702807678379
 22
102.969145729774
 32
0.0
 13
-280.07702807678379
 23
102.969145729774
 33
0.0
210
0.0
220
0.0
230
-1.0
  0
SOLID
  5
3ED
  8
0
  6
CONTINUOUS
 62
     7
 10
248.9900644504107
 20
102.969145729774
 30
0.0
 11
205.72768523791811
 21
96.117058011095494
 31
0.0
 12
268.47536083302907
 22
96.117058011095494
 32
0.0
 13
268.47536083302907
 23
96.117058011095494
 33
0.0
210
0.0
220
0.0
230
1.0
  0
SOLID
  5
3EE
  8
0
  6
CONTINUOUS
 62
     7
 10
-248.9900644504107
 20
102.969145729774
 30
0.0
 11
-280.07702807678379
 21
102.969145729774
 31
0.0
 12
-268.47536083302907
 22
96.117058011095494
 32
0.0
 13
-268.47536083302907
 23
96.117058011095494
 33
0.0
210
0.0
220
0.0
230
-1.0
  0
SOLID
  5
3EF
  8
0
  6
CONTINUOUS
 62
     7
 10
205.72768523791811
 20
96.117058011095494
 30
0.0
 11
203.74371927654661
 21
94.452312904640394
 31
0.0
 12
265.65668431227868
 22
94.452312904640394
 32
0.0
 13
265.65668431227868
 23
94.452312904640394
 33
0.0
210
0.0
220
0.0
230
1.0
  0
SOLID
  5
3F0
  8
0
  6
CONTINUOUS
 62
     7
 10
-205.72768523791811
 20
96.117058011095494
 30
0.0
 11
-268.47536083302907
 21
96.117058011095494
 31
0.0
 12
-265.65668431227868
 22
94.452312904640394
 32
0.0
 13
-265.65668431227868
 23
94.452312904640394
 33
0.0
210
0.0
220
0.0
230
-1.0
  0
SOLID
  5
3F1
  8
0
  6
CONTINUOUS
 62
     7
 10
203.74371927654661
 20
94.452312904640394
 30
0.0
 11
196.09530388526341
 21
88.034530370724113
 31
0.0
 12
239.45872571390359
 22
88.034530370724113
 32
0.0
 13
239.45872571390359
 23
88.034530370724113
 33
0.0
210
0.0
220
0.0
230
1.0
  0
SOLID
  5
3F2
  8
0
  6
CONTINUOUS
 62
     7
 10
-203.74371927654661
 20
94.452312904640394
 30
0.0
 11
-265.65668431227868
 21
94.452312904640394
 31
0.0
 12
-239.45872571390359
 22
88.034530370724113
 32
0.0
 13
-239.45872571390359
 23
88.034530370724113
 33
0.0
210
0.0
220
0.0
230
-1.0
  0
SOLID
  5
3F3
  8
0
  6
CONTINUOUS
 62
     7
 10
196.09530388526341
 20
88.034530370724113
 30
0.0
 11
196.09530388526341
 21
84.156410805548546
 31
0.0
 12
223.62789703264261
 22
84.156410805548546
 32
0.0
 13
223.62789703264261
 23
84.156410805548546
 33
0.0
210
0.0
220
0.0
230
1.0
  0
SOLID
  5
3F4
  8
0
  6
CONTINUOUS
 62
     7
 10
-196.09530388526341
 20
88.034530370724113
 30
0.0
 11
-239.45872571390359
 21
88.034530370724113
 31
0.0
 12
-223.62789703264261
 22
84.156410805548546
 32
0.0
 13
-223.62789703264261
 23
84.156410805548546
 33
0.0
210
0.0
220
0.0
230
-1.0
  0
SOLID
  5
3F5
  8
0
  6
CONTINUOUS
 62
     7
 10
196.09530388526341
 20
84.156410805548546
 30
0.0
 11
196.09530388526341
 21
82.544532460516365
 31
0.0
 12
220.3982081153986
 22
82.544532460516365
 32
0.0
 13
220.3982081153986
 23
82.544532460516365
 33
0.0
210
0.0
220
0.0
230
1.0
  0
SOLID
  5
3F6
  8
0
  6
CONTINUOUS
 62
     7
 10
-196.09530388526341
 20
84.156410805548546
 30
0.0
 11
-223.62789703264261
 21
84.156410805548546
 31
0.0
 12
-220.3982081153986
 22
82.544532460516365
 32
0.0
 13
-220.3982081153986
 23
82.544532460516365
 33
0.0
210
0.0
220
0.0
230
-1.0
  0
SOLID
  5
3F7
  8
0
  6
CONTINUOUS
 62
     7
 10
196.09530388526341
 20
82.544532460516365
 30
0.0
 11
196.09530388526329
 21
79.178305660603996
 31
0.0
 12
219.09530388526329
 22
79.178305660603996
 32
0.0
 13
219.09530388526329
 23
79.178305660603996
 33
0.0
210
0.0
220
0.0
230
1.0
  0
SOLID
  5
3F8
  8
0
  6
CONTINUOUS
 62
     7
 10
-196.09530388526341
 20
82.544532460516365
 30
0.0
 11
-220.3982081153986
 21
82.544532460516365
 31
0.0
 12
-219.09530388526329
 22
79.178305660603996
 32
0.0
 13
-219.09530388526329
 23
79.178305660603996
 33
0.0
210
0.0
220
0.0
230
-1.0
  0
SOLID
  5
3F9
  8
0
  6
CONTINUOUS
 62
     7
 10
196.09530388526329
 20
79.178305660603996
 30
0.0
 11
196.09530388526329
 21
73.800932314197453
 31
0.0
 12
219.09530388526329
 22
73.800932314197453
 32
0.0
 13
219.09530388526329
 23
73.800932314197453
 33
0.0
210
0.0
220
0.0
230
1.0
  0
SOLID
  5
3FA
  8
0
  6
CONTINUOUS
 62
     7
 10
-196.09530388526329
 20
79.178305660603996
 30
0.0
 11
-219.09530388526329
 21
79.178305660603996
 31
0.0
 12
-219.09530388526329
 22
73.800932314197453
 32
0.0
 13
-219.09530388526329
 23
73.800932314197453
 33
0.0
210
0.0
220
0.0
230
-1.0
  0
LINE
  5
3FB
  8
0
  6
CONTINUOUS
 62
     7
 10
345.73743781591071
 20
298.51195816949428
 30
0.0
 11
345.73012375406392
 21
298.31456829429669
 31
0.0
  0
LINE
  5
3FC
  8
0
  6
CONTINUOUS
 62
     7
 10
370.72768523791808
 20
298.51195816949428
 30
0.0
 11
370.72768523791808
 21
298.31456829429669
 31
0.0
  0
LINE
  5
3FD
  8
0
  6
CONTINUOUS
 62
     7
 10
345.73012375406392
 20
298.31456829429669
 30
0.0
 11
345.72768523791808
 21
298.11705801109559
 31
0.0
  0
LINE
  5
3FE
  8
0
  6
CONTINUOUS
 62
     7
 10
370.72768523791808
 20
298.31456829429669
 30
0.0
 11
370.72768523791808
 21
298.11705801109559
 31
0.0
  0
LINE
  5
3FF
  8
0
  6
CONTINUOUS
 62
     7
 10
370.72768523791808
 20
286.52958842900853
 30
0.0
 11
370.72768523791808
 21
286.51195816949428
 31
0.0
  0
LINE
  5
400
  8
0
  6
CONTINUOUS
 62
     7
 10
370.72768523791808
 20
286.51195816949428
 30
0.0
 11
362.76581548790222
 21
286.52958842900853
 31
0.0
  0
LINE
  5
401
  8
0
  6
CONTINUOUS
 62
     7
 10
345.72768523791808
 20
298.11705801109559
 30
0.0
 11
345.72768523791808
 21
286.52958842900853
 31
0.0
  0
LINE
  5
402
  8
0
  6
CONTINUOUS
 62
     7
 10
370.72768523791808
 20
298.11705801109559
 30
0.0
 11
370.72768523791808
 21
286.52958842900853
 31
0.0
  0
LINE
  5
403
  8
0
  6
CONTINUOUS
 62
     7
 10
345.72768523791808
 20
286.52958842900853
 30
0.0
 11
345.72768523791808
 21
285.06525056720119
 31
0.0
  0
LINE
  5
404
  8
0
  6
CONTINUOUS
 62
     7
 10
362.76581548790222
 20
286.52958842900853
 30
0.0
 11
359.2193259040551
 21
285.06525056720119
 31
0.0
  0
LINE
  5
405
  8
0
  6
CONTINUOUS
 62
     7
 10
345.72768523791808
 20
285.06525056720119
 30
0.0
 11
345.72768523791808
 21
281.51885706023018
 31
0.0
  0
LINE
  5
406
  8
0
  6
CONTINUOUS
 62
     7
 10
359.2193259040551
 20
285.06525056720119
 30
0.0
 11
357.75475537466008
 21
281.51885706023018
 31
0.0
  0
LINE
  5
407
  8
0
  6
CONTINUOUS
 62
     7
 10
345.72768523791808
 20
281.51885706023018
 30
0.0
 11
345.72768523791808
 21
236.11705801109551
 31
0.0
  0
LINE
  5
408
  8
0
  6
CONTINUOUS
 62
     7
 10
357.75475537466008
 20
281.51885706023018
 30
0.0
 11
357.85231159823428
 21
236.11705801109551
 31
0.0
  0
LINE
  5
409
  8
0
  6
CONTINUOUS
 62
     7
 10
345.72768523791808
 20
236.11705801109551
 30
0.0
 11
344.75524966526342
 21
229.97734144132269
 31
0.0
  0
LINE
  5
40A
  8
0
  6
CONTINUOUS
 62
     7
 10
357.85231159823428
 20
236.11705801109551
 30
0.0
 11
357.86550419357002
 21
229.97734144132269
 31
0.0
  0
LINE
  5
40B
  8
0
  6
CONTINUOUS
 62
     7
 10
344.75524966526342
 20
229.97734144132269
 30
0.0
 11
338.87559751923959
 21
192.85467879860289
 31
0.0
  0
LINE
  5
40C
  8
0
  6
CONTINUOUS
 62
     7
 10
357.86550419357002
 20
229.97734144132269
 30
0.0
 11
351.96727269833548
 21
192.85467879860289
 31
0.0
  0
LINE
  5
40D
  8
0
  6
CONTINUOUS
 62
     7
 10
338.87559751923959
 20
192.85467879860289
 30
0.0
 11
336.015730690027
 21
187.2418741152444
 31
0.0
  0
LINE
  5
40E
  8
0
  6
CONTINUOUS
 62
     7
 10
351.96727269833548
 20
192.85467879860289
 30
0.0
 11
351.0754826433332
 21
187.2418741152444
 31
0.0
  0
LINE
  5
40F
  8
0
  6
CONTINUOUS
 62
     7
 10
336.015730690027
 20
187.2418741152444
 30
0.0
 11
318.99006445041073
 21
153.82712269014931
 31
0.0
  0
LINE
  5
410
  8
0
  6
CONTINUOUS
 62
     7
 10
351.0754826433332
 20
187.2418741152444
 30
0.0
 11
334.90073351225698
 21
153.82712269014931
 31
0.0
  0
LINE
  5
411
  8
0
  6
CONTINUOUS
 62
     7
 10
318.99006445041073
 20
153.82712269014931
 30
0.0
 11
313.4564447919355
 21
148.29350303167399
 31
0.0
  0
LINE
  5
412
  8
0
  6
CONTINUOUS
 62
     7
 10
334.90073351225698
 20
153.82712269014931
 30
0.0
 11
332.22212882584267
 21
148.29350303167399
 31
0.0
  0
LINE
  5
413
  8
0
  6
CONTINUOUS
 62
     7
 10
313.4564447919355
 20
148.29350303167399
 30
0.0
 11
288.01762055886428
 21
122.8546787986029
 31
0.0
  0
LINE
  5
414
  8
0
  6
CONTINUOUS
 62
     7
 10
332.22212882584267
 20
148.29350303167399
 30
0.0
 11
308.80404419871633
 21
122.8546787986029
 31
0.0
  0
LINE
  5
415
  8
0
  6
CONTINUOUS
 62
     7
 10
288.01762055886428
 20
122.8546787986029
 30
0.0
 11
275.46266294969899
 21
116.45760837940939
 31
0.0
  0
LINE
  5
416
  8
0
  6
CONTINUOUS
 62
     7
 10
308.80404419871633
 20
122.8546787986029
 30
0.0
 11
302.91512672871761
 21
116.45760837940939
 31
0.0
  0
LINE
  5
417
  8
0
  6
CONTINUOUS
 62
     7
 10
275.46266294969899
 20
116.45760837940939
 30
0.0
 11
248.9900644504107
 21
102.969145729774
 31
0.0
  0
LINE
  5
418
  8
0
  6
CONTINUOUS
 62
     7
 10
302.91512672871761
 20
116.45760837940939
 30
0.0
 11
280.07702807678379
 21
102.969145729774
 31
0.0
  0
LINE
  5
419
  8
0
  6
CONTINUOUS
 62
     7
 10
248.9900644504107
 20
102.969145729774
 30
0.0
 11
205.72768523791811
 21
96.117058011095494
 31
0.0
  0
LINE
  5
41A
  8
0
  6
CONTINUOUS
 62
     7
 10
280.07702807678379
 20
102.969145729774
 30
0.0
 11
268.47536083302907
 21
96.117058011095494
 31
0.0
  0
LINE
  5
41B
  8
0
  6
CONTINUOUS
 62
     7
 10
205.72768523791811
 20
96.117058011095494
 30
0.0
 11
203.74371927654661
 21
94.452312904640394
 31
0.0
  0
LINE
  5
41C
  8
0
  6
CONTINUOUS
 62
     7
 10
268.47536083302907
 20
96.117058011095494
 30
0.0
 11
265.65668431227868
 21
94.452312904640394
 31
0.0
  0
LINE
  5
41D
  8
0
  6
CONTINUOUS
 62
     7
 10
203.74371927654661
 20
94.452312904640394
 30
0.0
 11
196.09530388526341
 21
88.034530370724113
 31
0.0
  0
LINE
  5
41E
  8
0
  6
CONTINUOUS
 62
     7
 10
265.65668431227868
 20
94.452312904640394
 30
0.0
 11
239.45872571390359
 21
88.034530370724113
 31
0.0
  0
LINE
  5
41F
  8
0
  6
CONTINUOUS
 62
     7
 10
196.09530388526341
 20
88.034530370724113
 30
0.0
 11
196.09530388526341
 21
84.156410805548546
 31
0.0
  0
LINE
  5
420
  8
0
  6
CONTINUOUS
 62
     7
 10
239.45872571390359
 20
88.034530370724113
 30
0.0
 11
223.62789703264261
 21
84.156410805548546
 31
0.0
  0
LINE
  5
421
  8
0
  6
CONTINUOUS
 62
     7
 10
196.09530388526341
 20
84.156410805548546
 30
0.0
 11
196.09530388526341
 21
82.544532460516365
 31
0.0
  0
LINE
  5
422
  8
0
  6
CONTINUOUS
 62
     7
 10
223.62789703264261
 20
84.156410805548546
 30
0.0
 11
220.3982081153986
 21
82.544532460516365
 31
0.0
  0
LINE
  5
423
  8
0
  6
CONTINUOUS
 62
     7
 10
196.09530388526341
 20
82.544532460516365
 30
0.0
 11
196.09530388526329
 21
79.178305660603996
 31
0.0
  0
LINE
  5
424
  8
0
  6
CONTINUOUS
 62
     7
 10
220.3982081153986
 20
82.544532460516365
 30
0.0
 11
219.09530388526329
 21
79.178305660603996
 31
0.0
  0
LINE
  5
425
  8
0
  6
CONTINUOUS
 62
     7
 10
196.09530388526329
 20
79.178305660603996
 30
0.0
 11
196.09530388526329
 21
73.800932314197453
 31
0.0
  0
LINE
  5
426
  8
0
  6
CONTINUOUS
 62
     7
 10
219.09530388526329
 20
79.178305660603996
 30
0.0
 11
219.09530388526329
 21
73.800932314197453
 31
0.0
  0
ENDBLK
  5
428
  8
0
 62
     7
  0
BLOCK
  8
0
 62
     7
  2
*U20
 70
     1
 10
0.0
 20
0.0
 30
0.0
  3
*U20
  1

  0
SOLID
  5
434
  8
0
  6
CONTINUOUS
 62
     7
 10
-354.03698722371479
 20
337.91272788935112
 30
0.0
 11
-374.0369872237149
 21
334.5793945560178
 31
0.0
 12
-354.03698722371479
 22
334.5793945560178
 32
0.0
 13
-354.03698722371479
 23
334.5793945560178
 33
0.0
210
0.0
220
0.0
230
1.0
  0
SOLID
  5
435
  8
0
  6
CONTINUOUS
 62
     7
 10
374.0369872237149
 20
334.5793945560178
 30
0.0
 11
354.03698722371479
 21
334.5793945560178
 31
0.0
 12
354.03698722371479
 22
331.24606122268449
 32
0.0
 13
354.03698722371479
 23
331.24606122268449
 33
0.0
210
0.0
220
0.0
230
-1.0
  0
LINE
  5
436
  8
0
  6
CONTINUOUS
 62
     7
 10
-354.03698722371479
 20
337.91272788935112
 30
0.0
 11
-374.0369872237149
 21
334.5793945560178
 31
0.0
  0
LINE
  5
437
  8
0
  6
CONTINUOUS
 62
     7
 10
-354.03698722371479
 20
334.5793945560178
 30
0.0
 11
-354.03698722371479
 21
337.91272788935112
 31
0.0
  0
LINE
  5
438
  8
0
  6
CONTINUOUS
 62
     7
 10
-354.03698722371479
 20
334.5793945560178
 30
0.0
 11
-354.03698722371479
 21
331.24606122268449
 31
0.0
  0
LINE
  5
439
  8
0
  6
CONTINUOUS
 62
     7
 10
-354.03698722371479
 20
331.24606122268449
 30
0.0
 11
-374.0369872237149
 21
334.5793945560178
 31
0.0
  0
ENDBLK
  5
43B
  8
0
 62
     7
  0
BLOCK
  8
0
 62
     7
  2
*U21
 70
     1
 10
0.0
 20
0.0
 30
0.0
  3
*U21
  1

  0
SOLID
  5
441
  8
0
  6
CONTINUOUS
 62
     7
 10
326.18632954882281
 20
337.912727889351
 30
0.0
 11
326.18632954882281
 21
334.57939455601769
 31
0.0
 12
346.18632954882281
 22
334.57939455601769
 32
0.0
 13
346.18632954882281
 23
334.57939455601769
 33
0.0
210
0.0
220
0.0
230
1.0
  0
SOLID
  5
442
  8
0
  6
CONTINUOUS
 62
     7
 10
-326.18632954882281
 20
334.57939455601769
 30
0.0
 11
-346.18632954882281
 21
334.57939455601769
 31
0.0
 12
-326.18632954882281
 22
331.24606122268438
 32
0.0
 13
-326.18632954882281
 23
331.24606122268438
 33
0.0
210
0.0
220
0.0
230
-1.0
  0
LINE
  5
443
  8
0
  6
CONTINUOUS
 62
     7
 10
326.18632954882281
 20
337.912727889351
 30
0.0
 11
326.18632954882281
 21
334.57939455601769
 31
0.0
  0
LINE
  5
444
  8
0
  6
CONTINUOUS
 62
     7
 10
346.18632954882281
 20
334.57939455601769
 30
0.0
 11
326.18632954882281
 21
337.912727889351
 31
0.0
  0
LINE
  5
445
  8
0
  6
CONTINUOUS
 62
     7
 10
346.18632954882281
 20
334.57939455601769
 30
0.0
 11
326.18632954882281
 21
331.24606122268438
 31
0.0
  0
LINE
  5
446
  8
0
  6
CONTINUOUS
 62
     7
 10
326.18632954882281
 20
331.24606122268438
 30
0.0
 11
326.18632954882281
 21
334.57939455601769
 31
0.0
  0
ENDBLK
  5
448
  8
0
 62
     7
  0
BLOCK
  8
0
 62
     7
  2
*U22
 70
     1
 10
0.0
 20
0.0
 30
0.0
  3
*U22
  1

  0
TEXT
  5
44E
  8
0
  6
CONTINUOUS
 62
     7
 10
-46.368372697548338
 20
336.83563260943509
 30
0.0
 40
24.61538461538462
  1
720
  0
ENDBLK
  5
450
  8
0
 62
     7
  0
BLOCK
  8
0
 62
     7
  2
*U23
 70
     1
 10
0.0
 20
0.0
 30
0.0
  3
*U23
  1

  0
SOLID
  5
45C
  8
0
  6
CONTINUOUS
 62
     7
 10
-379.48587895662689
 20
397.2228851581803
 30
0.0
 11
-399.48587895662689
 21
393.88955182484699
 31
0.0
 12
-379.48587895662689
 22
393.88955182484699
 32
0.0
 13
-379.48587895662689
 23
393.88955182484699
 33
0.0
210
0.0
220
0.0
230
1.0
  0
SOLID
  5
45D
  8
0
  6
CONTINUOUS
 62
     7
 10
399.48587895662689
 20
393.88955182484699
 30
0.0
 11
379.48587895662689
 21
393.88955182484699
 31
0.0
 12
379.48587895662689
 22
390.55621849151362
 32
0.0
 13
379.48587895662689
 23
390.55621849151362
 33
0.0
210
0.0
220
0.0
230
-1.0
  0
LINE
  5
45E
  8
0
  6
CONTINUOUS
 62
     7
 10
-379.48587895662689
 20
397.2228851581803
 30
0.0
 11
-399.48587895662689
 21
393.88955182484699
 31
0.0
  0
LINE
  5
45F
  8
0
  6
CONTINUOUS
 62
     7
 10
-379.48587895662689
 20
393.88955182484699
 30
0.0
 11
-379.48587895662689
 21
397.2228851581803
 31
0.0
  0
LINE
  5
460
  8
0
  6
CONTINUOUS
 62
     7
 10
-379.48587895662689
 20
393.88955182484699
 30
0.0
 11
-379.48587895662689
 21
390.55621849151362
 31
0.0
  0
LINE
  5
461
  8
0
  6
CONTINUOUS
 62
     7
 10
-379.48587895662689
 20
390.55621849151362
 30
0.0
 11
-399.48587895662689
 21
393.88955182484699
 31
0.0
  0
ENDBLK
  5
463
  8
0
 62
     7
  0
BLOCK
  8
0
 62
     7
  2
*U24
 70
     1
 10
0.0
 20
0.0
 30
0.0
  3
*U24
  1

  0
SOLID
  5
469
  8
0
  6
CONTINUOUS
 62
     7
 10
350.72768523791802
 20
397.22288515818008
 30
0.0
 11
350.72768523791802
 21
393.88955182484682
 31
0.0
 12
370.72768523791802
 22
393.88955182484682
 32
0.0
 13
370.72768523791802
 23
393.88955182484682
 33
0.0
210
0.0
220
0.0
230
1.0
  0
SOLID
  5
46A
  8
0
  6
CONTINUOUS
 62
     7
 10
-350.72768523791802
 20
393.88955182484682
 30
0.0
 11
-370.72768523791802
 21
393.88955182484682
 31
0.0
 12
-350.72768523791802
 22
390.5562184915135
 32
0.0
 13
-350.72768523791802
 23
390.5562184915135
 33
0.0
210
0.0
220
0.0
230
-1.0
  0
LINE
  5
46B
  8
0
  6
CONTINUOUS
 62
     7
 10
350.72768523791802
 20
397.22288515818008
 30
0.0
 11
350.72768523791802
 21
393.88955182484682
 31
0.0
  0
LINE
  5
46C
  8
0
  6
CONTINUOUS
 62
     7
 10
370.72768523791802
 20
393.88955182484682
 30
0.0
 11
350.72768523791802
 21
397.22288515818008
 31
0.0
  0
LINE
  5
46D
  8
0
  6
CONTINUOUS
 62
     7
 10
370.72768523791802
 20
393.88955182484682
 30
0.0
 11
350.72768523791802
 21
390.5562184915135
 31
0.0
  0
LINE
  5
46E
  8
0
  6
CONTINUOUS
 62
     7
 10
350.72768523791802
 20
390.5562184915135
 30
0.0
 11
350.72768523791802
 21
393.88955182484682
 31
0.0
  0
ENDBLK
  5
470
  8
0
 62
     7
  0
BLOCK
  8
0
 62
     7
  2
*U25
 70
     1
 10
0.0
 20
0.0
 30
0.0
  3
*U25
  1

  0
TEXT
  5
476
  8
0
  6
CONTINUOUS
 62
     7
 10
-46.822140719456719
 20
396.14578987826422
 30
0.0
 40
24.61538461538462
  1
770
  0
ENDBLK
  5
478
  8
0
 62
     7
  0
BLOCK
  8
0
 62
     7
  2
*U26
 70
     1
 10
0.0
 20
0.0
 30
0.0
  3
*U26
  1

  0
SOLID
  5
484
  8
0
  6
CONTINUOUS
 62
     7
 10
447.98661375100193
 20
116.03863587139919
 30
0.0
 11
447.98669795514189
 21
116.0381304102326
 31
0.0
 12
454.65328039850669
 22
116.0381304102326
 32
0.0
 13
454.65328039850669
 23
116.0381304102326
 33
0.0
210
0.0
220
0.0
230
1.0
  0
SOLID
  5
485
  8
0
  6
CONTINUOUS
 62
     7
 10
-447.98669795514189
 20
116.0381304102326
 30
0.0
 11
-454.65328039850669
 21
116.0381304102326
 31
0.0
 12
-451.31843069125449
 22
96.038383198301403
 32
0.0
 13
-451.31843069125449
 23
96.038383198301403
 33
0.0
210
0.0
220
0.0
230
-1.0
  0
LINE
  5
486
  8
0
  6
CONTINUOUS
 62
     7
 10
447.98661375100193
 20
116.03863587139919
 30
0.0
 11
447.98669795514189
 21
116.0381304102326
 31
0.0
  0
LINE
  5
487
  8
0
  6
CONTINUOUS
 62
     7
 10
454.65328039850669
 20
116.0381304102326
 30
0.0
 11
447.98661375100193
 21
116.03863587139919
 31
0.0
  0
LINE
  5
488
  8
0
  6
CONTINUOUS
 62
     7
 10
454.65328039850669
 20
116.0381304102326
 30
0.0
 11
451.31843069125449
 21
96.038383198301403
 31
0.0
  0
LINE
  5
489
  8
0
  6
CONTINUOUS
 62
     7
 10
451.31843069125449
 20
96.038383198301403
 30
0.0
 11
447.98669795514189
 21
116.0381304102326
 31
0.0
  0
ENDBLK
  5
48B
  8
0
 62
     7
  0
BLOCK
  8
0
 62
     7
  2
*U27
 70
     1
 10
0.0
 20
0.0
 30
0.0
  3
*U27
  1

  0
SOLID
  5
491
  8
0
  6
CONTINUOUS
 62
     7
 10
451.3337764866921
 20
298.43830902087899
 30
0.0
 11
447.9989267794399
 21
278.43856180894778
 31
0.0
 12
454.6655092228047
 22
278.43856180894778
 32
0.0
 13
454.6655092228047
 23
278.43856180894778
 33
0.0
210
0.0
220
0.0
230
1.0
  0
SOLID
  5
492
  8
0
  6
CONTINUOUS
 62
     7
 10
-447.9989267794399
 20
278.43856180894778
 30
0.0
 11
-454.6655092228047
 21
278.43856180894778
 31
0.0
 12
-454.66559342694478
 22
278.43805634778118
 32
0.0
 13
-454.66559342694478
 23
278.43805634778118
 33
0.0
210
0.0
220
0.0
230
-1.0
  0
LINE
  5
493
  8
0
  6
CONTINUOUS
 62
     7
 10
451.3337764866921
 20
298.43830902087899
 30
0.0
 11
447.9989267794399
 21
278.43856180894778
 31
0.0
  0
LINE
  5
494
  8
0
  6
CONTINUOUS
 62
     7
 10
454.6655092228047
 20
278.43856180894778
 30
0.0
 11
451.3337764866921
 21
298.43830902087899
 31
0.0
  0
LINE
  5
495
  8
0
  6
CONTINUOUS
 62
     7
 10
454.6655092228047
 20
278.43856180894778
 30
0.0
 11
454.66559342694478
 21
278.43805634778118
 31
0.0
  0
LINE
  5
496
  8
0
  6
CONTINUOUS
 62
     7
 10
454.66559342694478
 20
278.43805634778118
 30
0.0
 11
447.9989267794399
 21
278.43856180894778
 31
0.0
  0
ENDBLK
  5
498
  8
0
 62
     7
  0
BLOCK
  8
0
 62
     7
  2
*U28
 70
     1
 10
0.0
 20
0.0
 30
0.0
  3
*U28
  1

  0
TEXT
  5
49E
  8
0
  6
CONTINUOUS
 62
     7
 10
418.80866803594353
 20
185.18689185531531
 30
0.0
 40
24.61538461538462
  1
202
  0
ENDBLK
  5
4A0
  8
0
 62
     7
  0
BLOCK
  8
0
 62
     7
  2
*U29
 70
     1
 10
0.0
 20
0.0
 30
0.0
  3
*U29
  1

  0
SOLID
  5
4AC
  8
0
  6
CONTINUOUS
 62
     7
 10
575.60256469280887
 20
93.818119309801091
 30
0.0
 11
568.93589816763279
 21
93.816745796547536
 31
0.0
 12
575.60233606476481
 22
93.816745796547536
 32
0.0
 13
575.60233606476481
 23
93.816745796547536
 33
0.0
210
0.0
220
0.0
230
1.0
  0
SOLID
  5
4AD
  8
0
  6
CONTINUOUS
 62
     7
 10
-568.93589816763279
 20
93.816745796547536
 30
0.0
 11
-575.60233606476481
 21
93.816745796547536
 31
0.0
 12
-572.2733519699816
 22
73.817432977645524
 32
0.0
 13
-572.2733519699816
 23
73.817432977645524
 33
0.0
210
0.0
220
0.0
230
-1.0
  0
LINE
  5
4AE
  8
0
  6
CONTINUOUS
 62
     7
 10
575.60256469280887
 20
93.818119309801091
 30
0.0
 11
568.93589816763279
 21
93.816745796547536
 31
0.0
  0
LINE
  5
4AF
  8
0
  6
CONTINUOUS
 62
     7
 10
575.60233606476481
 20
93.816745796547536
 30
0.0
 11
575.60256469280887
 21
93.818119309801091
 31
0.0
  0
LINE
  5
4B0
  8
0
  6
CONTINUOUS
 62
     7
 10
575.60233606476481
 20
93.816745796547536
 30
0.0
 11
572.2733519699816
 21
73.817432977645524
 31
0.0
  0
LINE
  5
4B1
  8
0
  6
CONTINUOUS
 62
     7
 10
572.2733519699816
 20
73.817432977645524
 30
0.0
 11
568.93589816763279
 21
93.816745796547536
 31
0.0
  0
ENDBLK
  5
4B3
  8
0
 62
     7
  0
BLOCK
  8
0
 62
     7
  2
*U30
 70
     1
 10
0.0
 20
0.0
 30
0.0
  3
*U30
  1

  0
SOLID
  5
4B9
  8
0
  6
CONTINUOUS
 62
     7
 10
572.22717215523573
 20
297.9619210676309
 30
0.0
 11
568.89818806045241
 21
277.96260824872888
 31
0.0
 12
575.56462595758455
 22
277.96260824872888
 32
0.0
 13
575.56462595758455
 23
277.96260824872888
 33
0.0
210
0.0
220
0.0
230
1.0
  0
SOLID
  5
4BA
  8
0
  6
CONTINUOUS
 62
     7
 10
-568.89818806045241
 20
277.96260824872888
 30
0.0
 11
-575.56462595758455
 21
277.96260824872888
 31
0.0
 12
-568.89795943240824
 22
277.96123473547527
 32
0.0
 13
-568.89795943240824
 23
277.96123473547527
 33
0.0
210
0.0
220
0.0
230
-1.0
  0
LINE
  5
4BB
  8
0
  6
CONTINUOUS
 62
     7
 10
572.22717215523573
 20
297.9619210676309
 30
0.0
 11
568.89818806045241
 21
277.96260824872888
 31
0.0
  0
LINE
  5
4BC
  8
0
  6
CONTINUOUS
 62
     7
 10
575.56462595758455
 20
277.96260824872888
 30
0.0
 11
572.22717215523573
 21
297.9619210676309
 31
0.0
  0
LINE
  5
4BD
  8
0
  6
CONTINUOUS
 62
     7
 10
575.56462595758455
 20
277.96260824872888
 30
0.0
 11
568.89795943240824
 21
277.96123473547527
 31
0.0
  0
LINE
  5
4BE
  8
0
  6
CONTINUOUS
 62
     7
 10
568.89795943240824
 20
277.96123473547527
 30
0.0
 11
568.89818806045241
 21
277.96260824872888
 31
0.0
  0
ENDBLK
  5
4C0
  8
0
 62
     7
  0
BLOCK
  8
0
 62
     7
  2
*U31
 70
     1
 10
0.0
 20
0.0
 30
0.0
  3
*U31
  1

  0
TEXT
  5
4C6
  8
0
  6
CONTINUOUS
 62
     7
 10
539.45179122518539
 20
173.58198471494589
 30
0.0
 40
24.61538461538462
  1
224
  0
ENDBLK
  5
4C8
  8
0
 62
     7
  0
BLOCK
  8
0
 62
     7
  2
*U32
 70
     1
 10
0.0
 20
0.0
 30
0.0
  3
*U32
  1

  0
SOLID
  5
4CA
  8
0
  6
CONTINUOUS
 62
     7
 10
-399.48587895662689
 20
298.51195816949439
 30
0.0
 11
-399.48587895662689
 21
297.31342044277449
 31
0.0
 12
-374.48495813876508
 22
297.31342044277449
 32
0.0
 13
-374.48495813876508
 23
297.31342044277449
 33
0.0
210
0.0
220
0.0
230
1.0
  0
SOLID
  5
4CB
  8
0
  6
CONTINUOUS
 62
     7
 10
399.48587895662689
 20
298.51195816949439
 30
0.0
 11
374.48587895662689
 21
298.51195816949439
 31
0.0
 12
374.48495813876508
 22
297.31342044277449
 32
0.0
 13
374.48495813876508
 23
297.31342044277449
 33
0.0
210
0.0
220
0.0
230
-1.0
  0
SOLID
  5
4CC
  8
0
  6
CONTINUOUS
 62
     7
 10
-399.48587895662689
 20
297.31342044277449
 30
0.0
 11
-399.48587895662689
 21
286.51195816949439
 31
0.0
 12
-373.05517904175542
 22
286.51195816949439
 32
0.0
 13
-373.05517904175542
 23
286.51195816949439
 33
0.0
  0
SOLID
  5
4CD
  8
0
  6
CONTINUOUS
 62
     7
 10
399.48587895662689
 20
297.31342044277449
 30
0.0
 11
374.48495813876508
 21
297.31342044277449
 31
0.0
 12
373.05517904175542
 22
286.51195816949439
 32
0.0
 13
373.05517904175542
 23
286.51195816949439
 33
0.0
210
0.0
220
0.0
230
-1.0
  0
SOLID
  5
4CE
  8
0
  6
CONTINUOUS
 62
     7
 10
-391.06765319389609
 20
286.51195816949439
 30
0.0
 11
-387.70962764277942
 21
285.21650461920268
 31
0.0
 12
-372.88370111029639
 22
285.21650461920268
 32
0.0
 13
-372.88370111029639
 23
285.21650461920268
 33
0.0
210
0.0
220
0.0
230
1.0
  0
SOLID
  5
4CF
  8
0
  6
CONTINUOUS
 62
     7
 10
391.06765319389609
 20
286.51195816949439
 30
0.0
 11
373.05517904175542
 21
286.51195816949439
 31
0.0
 12
372.88370111029639
 22
285.21650461920268
 32
0.0
 13
372.88370111029639
 23
285.21650461920268
 33
0.0
210
0.0
220
0.0
230
-1.0
  0
SOLID
  5
4D0
  8
0
  6
CONTINUOUS
 62
     7
 10
-387.70962764277942
 20
285.21650461920268
 30
0.0
 11
-386.0916685405283
 21
282.00142392871311
 31
0.0
 12
-372.45812399396169
 22
282.00142392871311
 32
0.0
 13
-372.45812399396169
 23
282.00142392871311
 33
0.0
  0
SOLID
  5
4D1
  8
0
  6
CONTINUOUS
 62
     7
 10
387.70962764277942
 20
285.21650461920268
 30
0.0
 11
372.88370111029639
 21
285.21650461920268
 31
0.0
 12
372.45812399396169
 22
282.00142392871311
 32
0.0
 13
372.45812399396169
 23
282.00142392871311
 33
0.0
210
0.0
220
0.0
230
-1.0
  0
SOLID
  5
4D2
  8
0
  6
CONTINUOUS
 62
     7
 10
-386.0916685405283
 20
282.00142392871311
 30
0.0
 11
-378.5451997713119
 21
248.1662859005913
 31
0.0
 12
-367.97939955155761
 22
248.1662859005913
 32
0.0
 13
-367.97939955155761
 23
248.1662859005913
 33
0.0
210
0.0
220
0.0
230
1.0
  0
SOLID
  5
4D3
  8
0
  6
CONTINUOUS
 62
     7
 10
386.0916685405283
 20
282.00142392871311
 30
0.0
 11
372.45812399396169
 21
282.00142392871311
 31
0.0
 12
367.97939955155761
 22
248.1662859005913
 32
0.0
 13
367.97939955155761
 23
248.1662859005913
 33
0.0
210
0.0
220
0.0
230
-1.0
  0
SOLID
  5
4D4
  8
0
  6
CONTINUOUS
 62
     7
 10
-378.5451997713119
 20
248.1662859005913
 30
0.0
 11
-375.1151030041305
 21
232.78719918909221
 31
0.0
 12
-361.5987887304592
 22
232.78719918909221
 32
0.0
 13
-361.5987887304592
 23
232.78719918909221
 33
0.0
210
0.0
220
0.0
230
1.0
  0
SOLID
  5
4D5
  8
0
  6
CONTINUOUS
 62
     7
 10
378.5451997713119
 20
248.1662859005913
 30
0.0
 11
367.97939955155761
 21
248.1662859005913
 31
0.0
 12
361.5987887304592
 22
232.78719918909221
 32
0.0
 13
361.5987887304592
 23
232.78719918909221
 33
0.0
210
0.0
220
0.0
230
-1.0
  0
SOLID
  5
4D6
  8
0
  6
CONTINUOUS
 62
     7
 10
-375.1151030041305
 20
232.78719918909221
 30
0.0
 11
-359.962776759154
 21
202.37512876961031
 31
0.0
 12
-348.98116134784863
 22
202.37512876961031
 32
0.0
 13
-348.98116134784863
 23
202.37512876961031
 33
0.0
  0
SOLID
  5
4D7
  8
0
  6
CONTINUOUS
 62
     7
 10
375.1151030041305
 20
232.78719918909221
 30
0.0
 11
361.5987887304592
 21
232.78719918909221
 31
0.0
 12
348.98116134784863
 22
202.37512876961031
 32
0.0
 13
348.98116134784863
 23
202.37512876961031
 33
0.0
210
0.0
220
0.0
230
-1.0
  0
SOLID
  5
4D8
  8
0
  6
CONTINUOUS
 62
     7
 10
-359.962776759154
 20
202.37512876961031
 30
0.0
 11
-352.62883441571972
 21
187.655252270456
 31
0.0
 12
-337.6757180782115
 22
187.655252270456
 32
0.0
 13
-337.6757180782115
 23
187.655252270456
 33
0.0
210
0.0
220
0.0
230
1.0
  0
SOLID
  5
4D9
  8
0
  6
CONTINUOUS
 62
     7
 10
359.962776759154
 20
202.37512876961031
 30
0.0
 11
348.98116134784863
 21
202.37512876961031
 31
0.0
 12
337.6757180782115
 22
187.655252270456
 32
0.0
 13
337.6757180782115
 23
187.655252270456
 33
0.0
210
0.0
220
0.0
230
-1.0
  0
SOLID
  5
4DA
  8
0
  6
CONTINUOUS
 62
     7
 10
-352.62883441571972
 20
187.655252270456
 30
0.0
 11
-331.69833616860001
 21
163.05750632142019
 31
0.0
 12
-318.78368312100611
 22
163.05750632142019
 32
0.0
 13
-318.78368312100611
 23
163.05750632142019
 33
0.0
210
0.0
220
0.0
230
1.0
  0
SOLID
  5
4DB
  8
0
  6
CONTINUOUS
 62
     7
 10
352.62883441571972
 20
187.655252270456
 30
0.0
 11
337.6757180782115
 21
187.655252270456
 31
0.0
 12
318.78368312100611
 22
163.05750632142019
 32
0.0
 13
318.78368312100611
 23
163.05750632142019
 33
0.0
210
0.0
220
0.0
230
-1.0
  0
SOLID
  5
4DC
  8
0
  6
CONTINUOUS
 62
     7
 10
-331.69833616860001
 20
163.05750632142019
 30
0.0
 11
-319.95185197516992
 21
149.25291215586461
 31
0.0
 12
-300.78125626795929
 22
149.25291215586461
 32
0.0
 13
-300.78125626795929
 23
149.25291215586461
 33
0.0
  0
SOLID
  5
4DD
  8
0
  6
CONTINUOUS
 62
     7
 10
331.69833616860001
 20
163.05750632142019
 30
0.0
 11
318.78368312100611
 21
163.05750632142019
 31
0.0
 12
300.78125626795929
 22
149.25291215586461
 32
0.0
 13
300.78125626795929
 23
149.25291215586461
 33
0.0
210
0.0
220
0.0
230
-1.0
  0
SOLID
  5
4DE
  8
0
  6
CONTINUOUS
 62
     7
 10
-319.95185197516992
 20
149.25291215586461
 30
0.0
 11
-297.17607426169798
 21
132.89024411459559
 31
0.0
 12
-279.44287203145501
 22
132.89024411459559
 32
0.0
 13
-279.44287203145501
 23
132.89024411459559
 33
0.0
210
0.0
220
0.0
230
1.0
  0
SOLID
  5
4DF
  8
0
  6
CONTINUOUS
 62
     7
 10
319.95185197516992
 20
149.25291215586461
 30
0.0
 11
300.78125626795929
 21
149.25291215586461
 31
0.0
 12
279.44287203145501
 22
132.89024411459559
 32
0.0
 13
279.44287203145501
 23
132.89024411459559
 33
0.0
210
0.0
220
0.0
230
-1.0
  0
SOLID
  5
4E0
  8
0
  6
CONTINUOUS
 62
     7
 10
-297.17607426169798
 20
132.89024411459559
 30
0.0
 11
-279.00090708808261
 21
119.8327656478766
 31
0.0
 12
-247.9021970335375
 22
119.8327656478766
 32
0.0
 13
-247.9021970335375
 23
119.8327656478766
 33
0.0
  0
SOLID
  5
4E1
  8
0
  6
CONTINUOUS
 62
     7
 10
297.17607426169798
 20
132.89024411459559
 30
0.0
 11
279.44287203145501
 21
132.89024411459559
 31
0.0
 12
247.9021970335375
 22
119.8327656478766
 32
0.0
 13
247.9021970335375
 23
119.8327656478766
 33
0.0
210
0.0
220
0.0
230
-1.0
  0
SOLID
  5
4E2
  8
0
  6
CONTINUOUS
 62
     7
 10
-279.00090708808261
 20
119.8327656478766
 30
0.0
 11
-264.22364651559172
 21
113.9271921400375
 31
0.0
 12
-233.6371323687309
 22
113.9271921400375
 32
0.0
 13
-233.6371323687309
 23
113.9271921400375
 33
0.0
  0
SOLID
  5
4E3
  8
0
  6
CONTINUOUS
 62
     7
 10
279.00090708808261
 20
119.8327656478766
 30
0.0
 11
247.9021970335375
 21
119.8327656478766
 31
0.0
 12
233.6371323687309
 22
113.9271921400375
 32
0.0
 13
233.6371323687309
 23
113.9271921400375
 33
0.0
210
0.0
220
0.0
230
-1.0
  0
SOLID
  5
4E4
  8
0
  6
CONTINUOUS
 62
     7
 10
-264.22364651559172
 20
113.9271921400375
 30
0.0
 11
-248.03955671881189
 21
107.4593944394084
 31
0.0
 12
-184.48501421353029
 22
107.4593944394084
 32
0.0
 13
-184.48501421353029
 23
107.4593944394084
 33
0.0
210
0.0
220
0.0
230
1.0
  0
SOLID
  5
4E5
  8
0
  6
CONTINUOUS
 62
     7
 10
264.22364651559172
 20
113.9271921400375
 30
0.0
 11
233.6371323687309
 21
113.9271921400375
 31
0.0
 12
184.48501421353029
 22
107.4593944394084
 32
0.0
 13
184.48501421353029
 23
107.4593944394084
 33
0.0
210
0.0
220
0.0
230
-1.0
  0
SOLID
  5
4E6
  8
0
  6
CONTINUOUS
 62
     7
 10
-248.03955671881189
 20
107.4593944394084
 30
0.0
 11
-232.17808144348211
 21
101.1205261680043
 31
0.0
 12
-2.8176589016331368
 22
101.1205261680043
 32
0.0
 13
-2.8176589016331368
 23
101.1205261680043
 33
0.0
210
0.0
220
0.0
230
1.0
  0
SOLID
  5
4E7
  8
0
  6
CONTINUOUS
 62
     7
 10
248.03955671881189
 20
107.4593944394084
 30
0.0
 11
184.33909624859729
 21
107.4593944394084
 31
0.0
 12
2.8176589016331368
 22
101.1205261680043
 32
0.0
 13
2.8176589016331368
 23
101.1205261680043
 33
0.0
210
0.0
220
0.0
230
-1.0
  0
SOLID
  5
4E8
  8
0
  6
CONTINUOUS
 62
     7
 10
-232.17808144348211
 20
101.1205261680043
 30
0.0
 11
-195.99386446957129
 21
96.117058011095494
 31
0.0
 12
140.4629225326089
 22
96.117058011095494
 32
0.0
 13
140.4629225326089
 23
96.117058011095494
 33
0.0
210
0.0
220
0.0
230
1.0
  0
SOLID
  5
4E9
  8
0
  6
CONTINUOUS
 62
     7
 10
232.17808144348211
 20
101.1205261680043
 30
0.0
 11
2.8176589016331368
 21
101.1205261680043
 31
0.0
 12
-140.4629225326089
 22
96.117058011095494
 32
0.0
 13
-140.4629225326089
 23
96.117058011095494
 33
0.0
210
0.0
220
0.0
230
-1.0
  0
SOLID
  5
4EA
  8
0
  6
CONTINUOUS
 62
     7
 10
-195.99386446957129
 20
96.117058011095494
 30
0.0
 11
-182.22988681098471
 21
94.213807652609205
 31
0.0
 12
142.73112798494111
 22
94.213807652609205
 32
0.0
 13
142.73112798494111
 23
94.213807652609205
 33
0.0
210
0.0
220
0.0
230
1.0
  0
SOLID
  5
4EB
  8
0
  6
CONTINUOUS
 62
     7
 10
195.99386446957129
 20
96.117058011095494
 30
0.0
 11
-140.4629225326089
 21
96.117058011095494
 31
0.0
 12
-142.73112798494111
 22
94.213807652609205
 32
0.0
 13
-142.73112798494111
 23
94.213807652609205
 33
0.0
210
0.0
220
0.0
230
-1.0
  0
SOLID
  5
4EC
  8
0
  6
CONTINUOUS
 62
     7
 10
-182.22988681098471
 20
94.213807652609205
 30
0.0
 11
1.407842713406779
 21
88.034530370724113
 31
0.0
 12
150.09530388526341
 22
88.034530370724113
 32
0.0
 13
150.09530388526341
 23
88.034530370724113
 33
0.0
210
0.0
220
0.0
230
1.0
  0
SOLID
  5
4ED
  8
0
  6
CONTINUOUS
 62
     7
 10
182.22988681098471
 20
94.213807652609205
 30
0.0
 11
-142.73112798494111
 21
94.213807652609205
 31
0.0
 12
-150.09530388526341
 22
88.034530370724113
 32
0.0
 13
-150.09530388526341
 23
88.034530370724113
 33
0.0
210
0.0
220
0.0
230
-1.0
  0
SOLID
  5
4EE
  8
0
  6
CONTINUOUS
 62
     7
 10
1.407842713406779
 20
88.034530370724113
 30
0.0
 11
122.21541599794151
 21
83.969442575257546
 31
0.0
 12
150.07977152961081
 22
83.969442575257546
 32
0.0
 13
150.07977152961081
 23
83.969442575257546
 33
0.0
  0
SOLID
  5
4EF
  8
0
  6
CONTINUOUS
 62
     7
 10
-1.407842713406779
 20
88.034530370724113
 30
0.0
 11
-150.09530388526341
 21
88.034530370724113
 31
0.0
 12
-150.07977152961081
 22
83.969442575257546
 32
0.0
 13
-150.07977152961081
 23
83.969442575257546
 33
0.0
210
0.0
220
0.0
230
-1.0
  0
SOLID
  5
4F0
  8
0
  6
CONTINUOUS
 62
     7
 10
122.21541599794151
 20
83.969442575257546
 30
0.0
 11
125.6376175161223
 21
82.445780292457101
 31
0.0
 12
150.0739497452702
 22
82.445780292457101
 32
0.0
 13
150.0739497452702
 23
82.445780292457101
 33
0.0
210
0.0
220
0.0
230
1.0
  0
SOLID
  5
4F1
  8
0
  6
CONTINUOUS
 62
     7
 10
-122.21541599794151
 20
83.969442575257546
 30
0.0
 11
-150.07977152961081
 21
83.969442575257546
 31
0.0
 12
-150.0739497452702
 22
82.445780292457101
 32
0.0
 13
-150.0739497452702
 23
82.445780292457101
 33
0.0
210
0.0
220
0.0
230
-1.0
  0
SOLID
  5
4F2
  8
0
  6
CONTINUOUS
 62
     7
 10
125.6376175161223
 20
82.445780292457101
 30
0.0
 11
127.04091851442909
 21
78.972488440162095
 31
0.0
 12
150.0606785917183
 22
78.972488440162095
 32
0.0
 13
150.0606785917183
 23
78.972488440162095
 33
0.0
210
0.0
220
0.0
230
1.0
  0
SOLID
  5
4F3
  8
0
  6
CONTINUOUS
 62
     7
 10
-125.6376175161223
 20
82.445780292457101
 30
0.0
 11
-150.0739497452702
 21
82.445780292457101
 31
0.0
 12
-150.0606785917183
 22
78.972488440162095
 32
0.0
 13
-150.0606785917183
 23
78.972488440162095
 33
0.0
210
0.0
220
0.0
230
-1.0
  0
SOLID
  5
4F4
  8
0
  6
CONTINUOUS
 62
     7
 10
127.04091851442909
 20
78.972488440162095
 30
0.0
 11
127.04091851442909
 21
73.800932314197453
 31
0.0
 12
150.04091851442911
 22
73.800932314197453
 32
0.0
 13
150.04091851442911
 23
73.800932314197453
 33
0.0
  0
SOLID
  5
4F5
  8
0
  6
CONTINUOUS
 62
     7
 10
-127.04091851442909
 20
78.972488440162095
 30
0.0
 11
-150.0606785917183
 21
78.972488440162095
 31
0.0
 12
-150.04091851442911
 22
73.800932314197453
 32
0.0
 13
-150.04091851442911
 23
73.800932314197453
 33
0.0
210
0.0
220
0.0
230
-1.0
  0
LINE
  5
4F6
  8
0
  6
CONTINUOUS
 62
     7
 10
-399.48587895662689
 20
298.51195816949439
 30
0.0
 11
-399.48587895662689
 21
297.31342044277449
 31
0.0
  0
LINE
  5
4F7
  8
0
  6
CONTINUOUS
 62
     7
 10
-374.48587895662689
 20
298.51195816949439
 30
0.0
 11
-374.48495813876508
 21
297.31342044277449
 31
0.0
  0
LINE
  5
4F8
  8
0
  6
CONTINUOUS
 62
     7
 10
-399.48587895662689
 20
297.31342044277449
 30
0.0
 11
-399.48587895662689
 21
286.51195816949439
 31
0.0
  0
LINE
  5
4F9
  8
0
  6
CONTINUOUS
 62
     7
 10
-374.48495813876508
 20
297.31342044277449
 30
0.0
 11
-373.05517904175542
 21
286.51195816949439
 31
0.0
  0
LINE
  5
4FA
  8
0
  6
CONTINUOUS
 62
     7
 10
-391.06765319389609
 20
286.51195816949439
 30
0.0
 11
-387.70962764277942
 21
285.21650461920268
 31
0.0
  0
LINE
  5
4FB
  8
0
  6
CONTINUOUS
 62
     7
 10
-373.05517904175542
 20
286.51195816949439
 30
0.0
 11
-372.88370111029639
 21
285.21650461920268
 31
0.0
  0
LINE
  5
4FC
  8
0
  6
CONTINUOUS
 62
     7
 10
-387.70962764277942
 20
285.21650461920268
 30
0.0
 11
-386.0916685405283
 21
282.00142392871311
 31
0.0
  0
LINE
  5
4FD
  8
0
  6
CONTINUOUS
 62
     7
 10
-372.88370111029639
 20
285.21650461920268
 30
0.0
 11
-372.45812399396169
 21
282.00142392871311
 31
0.0
  0
LINE
  5
4FE
  8
0
  6
CONTINUOUS
 62
     7
 10
-386.0916685405283
 20
282.00142392871311
 30
0.0
 11
-378.5451997713119
 21
248.1662859005913
 31
0.0
  0
LINE
  5
4FF
  8
0
  6
CONTINUOUS
 62
     7
 10
-372.45812399396169
 20
282.00142392871311
 30
0.0
 11
-367.97939955155761
 21
248.1662859005913
 31
0.0
  0
LINE
  5
500
  8
0
  6
CONTINUOUS
 62
     7
 10
-378.5451997713119
 20
248.1662859005913
 30
0.0
 11
-375.1151030041305
 21
232.78719918909221
 31
0.0
  0
LINE
  5
501
  8
0
  6
CONTINUOUS
 62
     7
 10
-367.97939955155761
 20
248.1662859005913
 30
0.0
 11
-361.5987887304592
 21
232.78719918909221
 31
0.0
  0
LINE
  5
502
  8
0
  6
CONTINUOUS
 62
     7
 10
-375.1151030041305
 20
232.78719918909221
 30
0.0
 11
-359.962776759154
 21
202.37512876961031
 31
0.0
  0
LINE
  5
503
  8
0
  6
CONTINUOUS
 62
     7
 10
-361.5987887304592
 20
232.78719918909221
 30
0.0
 11
-348.98116134784863
 21
202.37512876961031
 31
0.0
  0
LINE
  5
504
  8
0
  6
CONTINUOUS
 62
     7
 10
-359.962776759154
 20
202.37512876961031
 30
0.0
 11
-352.62883441571972
 21
187.655252270456
 31
0.0
  0
LINE
  5
505
  8
0
  6
CONTINUOUS
 62
     7
 10
-348.98116134784863
 20
202.37512876961031
 30
0.0
 11
-337.6757180782115
 21
187.655252270456
 31
0.0
  0
LINE
  5
506
  8
0
  6
CONTINUOUS
 62
     7
 10
-352.62883441571972
 20
187.655252270456
 30
0.0
 11
-331.69833616860001
 21
163.05750632142019
 31
0.0
  0
LINE
  5
507
  8
0
  6
CONTINUOUS
 62
     7
 10
-337.6757180782115
 20
187.655252270456
 30
0.0
 11
-318.78368312100611
 21
163.05750632142019
 31
0.0
  0
LINE
  5
508
  8
0
  6
CONTINUOUS
 62
     7
 10
-331.69833616860001
 20
163.05750632142019
 30
0.0
 11
-319.95185197516992
 21
149.25291215586461
 31
0.0
  0
LINE
  5
509
  8
0
  6
CONTINUOUS
 62
     7
 10
-318.78368312100611
 20
163.05750632142019
 30
0.0
 11
-300.78125626795929
 21
149.25291215586461
 31
0.0
  0
LINE
  5
50A
  8
0
  6
CONTINUOUS
 62
     7
 10
-319.95185197516992
 20
149.25291215586461
 30
0.0
 11
-297.17607426169798
 21
132.89024411459559
 31
0.0
  0
LINE
  5
50B
  8
0
  6
CONTINUOUS
 62
     7
 10
-300.78125626795929
 20
149.25291215586461
 30
0.0
 11
-279.44287203145501
 21
132.89024411459559
 31
0.0
  0
LINE
  5
50C
  8
0
  6
CONTINUOUS
 62
     7
 10
-297.17607426169798
 20
132.89024411459559
 30
0.0
 11
-279.00090708808261
 21
119.8327656478766
 31
0.0
  0
LINE
  5
50D
  8
0
  6
CONTINUOUS
 62
     7
 10
-279.44287203145501
 20
132.89024411459559
 30
0.0
 11
-247.9021970335375
 21
119.8327656478766
 31
0.0
  0
LINE
  5
50E
  8
0
  6
CONTINUOUS
 62
     7
 10
-279.00090708808261
 20
119.8327656478766
 30
0.0
 11
-264.22364651559172
 21
113.9271921400375
 31
0.0
  0
LINE
  5
50F
  8
0
  6
CONTINUOUS
 62
     7
 10
-247.9021970335375
 20
119.8327656478766
 30
0.0
 11
-233.6371323687309
 21
113.9271921400375
 31
0.0
  0
LINE
  5
510
  8
0
  6
CONTINUOUS
 62
     7
 10
-264.22364651559172
 20
113.9271921400375
 30
0.0
 11
-248.03955671881189
 21
107.4593944394084
 31
0.0
  0
LINE
  5
511
  8
0
  6
CONTINUOUS
 62
     7
 10
-233.6371323687309
 20
113.9271921400375
 30
0.0
 11
-184.48501421353029
 21
107.4593944394084
 31
0.0
  0
LINE
  5
512
  8
0
  6
CONTINUOUS
 62
     7
 10
-248.03955671881189
 20
107.4593944394084
 30
0.0
 11
-232.17808144348211
 21
101.1205261680043
 31
0.0
  0
LINE
  5
513
  8
0
  6
CONTINUOUS
 62
     7
 10
-184.33909624859729
 20
107.4593944394084
 30
0.0
 11
-2.8176589016331368
 21
101.1205261680043
 31
0.0
  0
LINE
  5
514
  8
0
  6
CONTINUOUS
 62
     7
 10
-232.17808144348211
 20
101.1205261680043
 30
0.0
 11
-195.99386446957129
 21
96.117058011095494
 31
0.0
  0
LINE
  5
515
  8
0
  6
CONTINUOUS
 62
     7
 10
-2.8176589016331368
 20
101.1205261680043
 30
0.0
 11
140.4629225326089
 21
96.117058011095494
 31
0.0
  0
LINE
  5
516
  8
0
  6
CONTINUOUS
 62
     7
 10
-195.99386446957129
 20
96.117058011095494
 30
0.0
 11
-182.22988681098471
 21
94.213807652609205
 31
0.0
  0
LINE
  5
517
  8
0
  6
CONTINUOUS
 62
     7
 10
140.4629225326089
 20
96.117058011095494
 30
0.0
 11
142.73112798494111
 21
94.213807652609205
 31
0.0
  0
LINE
  5
518
  8
0
  6
CONTINUOUS
 62
     7
 10
-182.22988681098471
 20
94.213807652609205
 30
0.0
 11
1.407842713406779
 21
88.034530370724113
 31
0.0
  0
LINE
  5
519
  8
0
  6
CONTINUOUS
 62
     7
 10
142.73112798494111
 20
94.213807652609205
 30
0.0
 11
150.09530388526341
 21
88.034530370724113
 31
0.0
  0
LINE
  5
51A
  8
0
  6
CONTINUOUS
 62
     7
 10
1.407842713406779
 20
88.034530370724113
 30
0.0
 11
122.21541599794151
 21
83.969442575257546
 31
0.0
  0
LINE
  5
51B
  8
0
  6
CONTINUOUS
 62
     7
 10
150.09530388526341
 20
88.034530370724113
 30
0.0
 11
150.07977152961081
 21
83.969442575257546
 31
0.0
  0
LINE
  5
51C
  8
0
  6
CONTINUOUS
 62
     7
 10
122.21541599794151
 20
83.969442575257546
 30
0.0
 11
125.6376175161223
 21
82.445780292457101
 31
0.0
  0
LINE
  5
51D
  8
0
  6
CONTINUOUS
 62
     7
 10
150.07977152961081
 20
83.969442575257546
 30
0.0
 11
150.0739497452702
 21
82.445780292457101
 31
0.0
  0
LINE
  5
51E
  8
0
  6
CONTINUOUS
 62
     7
 10
125.6376175161223
 20
82.445780292457101
 30
0.0
 11
127.04091851442909
 21
78.972488440162095
 31
0.0
  0
LINE
  5
51F
  8
0
  6
CONTINUOUS
 62
     7
 10
150.0739497452702
 20
82.445780292457101
 30
0.0
 11
150.0606785917183
 21
78.972488440162095
 31
0.0
  0
LINE
  5
520
  8
0
  6
CONTINUOUS
 62
     7
 10
127.04091851442909
 20
78.972488440162095
 30
0.0
 11
127.04091851442909
 21
73.800932314197453
 31
0.0
  0
LINE
  5
521
  8
0
  6
CONTINUOUS
 62
     7
 10
150.0606785917183
 20
78.972488440162095
 30
0.0
 11
150.04091851442911
 21
73.800932314197453
 31
0.0
  0
ENDBLK
  5
523
  8
0
 62
     7
  0
BLOCK
  8
0
 62
     7
  2
*U33
 70
     1
 10
0.0
 20
0.0
 30
0.0
  3
*U33
  1

  0
SOLID
  5
52F
  8
0
  6
CONTINUOUS
 62
     7
 10
192.96863565470071
 20
5.6867970965051988
 30
0.0
 11
172.96863565470071
 21
2.3534637631718658
 31
0.0
 12
192.96863565470071
 22
2.3534637631718658
 32
0.0
 13
192.96863565470071
 23
2.3534637631718658
 33
0.0
210
0.0
220
0.0
230
1.0
  0
SOLID
  5
530
  8
0
  6
CONTINUOUS
 62
     7
 10
-172.96863565470071
 20
2.3534637631718658
 30
0.0
 11
-192.96863565470071
 21
2.3534637631718658
 31
0.0
 12
-192.96863565470071
 22
-0.9798695701614665
 32
0.0
 13
-192.96863565470071
 23
-0.9798695701614665
 33
0.0
210
0.0
220
0.0
230
-1.0
  0
LINE
  5
531
  8
0
  6
CONTINUOUS
 62
     7
 10
192.96863565470071
 20
5.6867970965051988
 30
0.0
 11
172.96863565470071
 21
2.3534637631718658
 31
0.0
  0
LINE
  5
532
  8
0
  6
CONTINUOUS
 62
     7
 10
192.96863565470071
 20
2.3534637631718658
 30
0.0
 11
192.96863565470071
 21
5.6867970965051988
 31
0.0
  0
LINE
  5
533
  8
0
  6
CONTINUOUS
 62
     7
 10
192.96863565470071
 20
2.3534637631718658
 30
0.0
 11
192.96863565470071
 21
-0.9798695701614665
 31
0.0
  0
LINE
  5
534
  8
0
  6
CONTINUOUS
 62
     7
 10
192.96863565470071
 20
-0.9798695701614665
 30
0.0
 11
172.96863565470071
 21
2.3534637631718658
 31
0.0
  0
ENDBLK
  5
536
  8
0
 62
     7
  0
BLOCK
  8
0
 62
     7
  2
*U34
 70
     1
 10
0.0
 20
0.0
 30
0.0
  3
*U34
  1

  0
SOLID
  5
53C
  8
0
  6
CONTINUOUS
 62
     7
 10
324.6813428598432
 20
5.6867970965051988
 30
0.0
 11
324.6813428598432
 21
2.3534637631718658
 31
0.0
 12
344.6813428598432
 22
2.3534637631718658
 32
0.0
 13
344.6813428598432
 23
2.3534637631718658
 33
0.0
210
0.0
220
0.0
230
1.0
  0
SOLID
  5
53D
  8
0
  6
CONTINUOUS
 62
     7
 10
-324.6813428598432
 20
2.3534637631718658
 30
0.0
 11
-344.6813428598432
 21
2.3534637631718658
 31
0.0
 12
-324.6813428598432
 22
-0.9798695701614665
 32
0.0
 13
-324.6813428598432
 23
-0.9798695701614665
 33
0.0
210
0.0
220
0.0
230
-1.0
  0
LINE
  5
53E
  8
0
  6
CONTINUOUS
 62
     7
 10
324.6813428598432
 20
5.6867970965051988
 30
0.0
 11
324.6813428598432
 21
2.3534637631718658
 31
0.0
  0
LINE
  5
53F
  8
0
  6
CONTINUOUS
 62
     7
 10
344.6813428598432
 20
2.3534637631718658
 30
0.0
 11
324.6813428598432
 21
5.6867970965051988
 31
0.0
  0
LINE
  5
540
  8
0
  6
CONTINUOUS
 62
     7
 10
344.6813428598432
 20
2.3534637631718658
 30
0.0
 11
324.6813428598432
 21
-0.9798695701614665
 31
0.0
  0
LINE
  5
541
  8
0
  6
CONTINUOUS
 62
     7
 10
324.6813428598432
 20
-0.9798695701614665
 30
0.0
 11
324.6813428598432
 21
2.3534637631718658
 31
0.0
  0
ENDBLK
  5
543
  8
0
 62
     7
  0
BLOCK
  8
0
 62
     7
  2
*U35
 70
     1
 10
0.0
 20
0.0
 30
0.0
  3
*U35
  1

  0
TEXT
  5
549
  8
0
  6
CONTINUOUS
 62
     7
 10
225.4396506200865
 20
4.6097018165892312
 30
-0.0000000000000017
 40
24.61538461538462
  1
175
  0
ENDBLK
  5
54B
  8
0
 62
     7
  0
BLOCK
  8
0
 62
     7
  2
*U36
 70
     1
 10
0.0
 20
0.0
 30
0.0
  3
*U36
  1

  0
SOLID
  5
557
  8
0
  6
CONTINUOUS
 62
     7
 10
484.52190480357552
 20
1013.184036574746
 30
0.0
 11
481.1885714702421
 21
993.18403657474653
 31
0.0
 12
487.85523813690889
 22
993.18403657474653
 32
0.0
 13
487.85523813690889
 23
993.18403657474653
 33
0.0
210
0.0
220
0.0
230
1.0
  0
LINE
  5
558
  8
0
  6
CONTINUOUS
 62
     7
 10
484.52190480357552
 20
1013.184036574746
 30
0.0
 11
481.1885714702421
 21
993.18403657474653
 31
0.0
  0
LINE
  5
559
  8
0
  6
CONTINUOUS
 62
     7
 10
487.85523813690889
 20
993.18403657474653
 30
0.0
 11
484.52190480357552
 21
1013.184036574746
 31
0.0
  0
ENDBLK
  5
55B
  8
0
 62
     7
  0
BLOCK
  8
0
 62
     7
  2
*U37
 70
     1
 10
0.0
 20
0.0
 30
0.0
  3
*U37
  1

  0
SOLID
  5
561
  8
0
  6
CONTINUOUS
 62
     7
 10
-481.18857147024232
 20
616.66469951632121
 30
0.0
 11
-487.85523813690889
 21
616.66469951632121
 31
0.0
 12
-484.52190480357558
 22
596.66469951632121
 32
0.0
 13
-484.52190480357558
 23
596.66469951632121
 33
0.0
210
0.0
220
0.0
230
-1.0
  0
LINE
  5
562
  8
0
  6
CONTINUOUS
 62
     7
 10
487.85523813690889
 20
616.66469951632121
 30
0.0
 11
484.52190480357558
 21
596.66469951632121
 31
0.0
  0
LINE
  5
563
  8
0
  6
CONTINUOUS
 62
     7
 10
484.52190480357558
 20
596.66469951632121
 30
0.0
 11
481.18857147024232
 21
616.66469951632121
 31
0.0
  0
ENDBLK
  5
565
  8
0
 62
     7
  0
BLOCK
  8
0
 62
     7
  2
*U38
 70
     1
 10
0.0
 20
0.0
 30
0.0
  3
*U38
  1

  0
TEXT
  5
56B
  8
0
  6
CONTINUOUS
 62
     7
 10
452.51694535738039
 20
792.87291379125895
 30
0.0
 40
24.61538461538462
  1
426
  0
ENDBLK
  5
56D
  8
0
 62
     7
  0
BLOCK
  8
0
 62
     7
  2
*U39
 70
     1
 10
0.0
 20
0.0
 30
0.0
  3
*U39
  1

  0
SOLID
  5
579
  8
0
  6
CONTINUOUS
 62
     7
 10
579.41405774363534
 20
589.27825216081249
 30
0.0
 11
572.74739113564056
 21
589.27736768801333
 31
0.0
 12
579.41391045210275
 22
589.27736768801333
 32
0.0
 13
579.41391045210275
 23
589.27736768801333
 33
0.0
210
0.0
220
0.0
230
1.0
  0
SOLID
  5
57A
  8
0
  6
CONTINUOUS
 62
     7
 10
-572.74739113564056
 20
589.27736768801333
 30
0.0
 11
-579.41391045210275
 21
589.27736768801333
 31
0.0
 12
-576.08337785803542
 22
569.27781010042872
 32
0.0
 13
-576.08337785803542
 23
569.27781010042872
 33
0.0
210
0.0
220
0.0
230
-1.0
  0
LINE
  5
57B
  8
0
  6
CONTINUOUS
 62
     7
 10
579.41405774363534
 20
589.27825216081249
 30
0.0
 11
572.74739113564056
 21
589.27736768801333
 31
0.0
  0
LINE
  5
57C
  8
0
  6
CONTINUOUS
 62
     7
 10
579.41391045210275
 20
589.27736768801333
 30
0.0
 11
579.41405774363534
 21
589.27825216081249
 31
0.0
  0
LINE
  5
57D
  8
0
  6
CONTINUOUS
 62
     7
 10
579.41391045210275
 20
589.27736768801333
 30
0.0
 11
576.08337785803542
 21
569.27781010042872
 31
0.0
  0
LINE
  5
57E
  8
0
  6
CONTINUOUS
 62
     7
 10
576.08337785803542
 20
569.27781010042872
 30
0.0
 11
572.74739113564056
 21
589.27736768801333
 31
0.0
  0
ENDBLK
  5
580
  8
0
 62
     7
  0
BLOCK
  8
0
 62
     7
  2
*U40
 70
     1
 10
0.0
 20
0.0
 30
0.0
  3
*U40
  1

  0
SOLID
  5
586
  8
0
  6
CONTINUOUS
 62
     7
 10
576.02119120971315
 20
1038.006359160192
 30
0.0
 11
572.6906586156457
 21
1018.006801572608
 31
0.0
 12
579.35717793210802
 22
1018.006801572608
 32
0.0
 13
579.35717793210802
 23
1018.006801572608
 33
0.0
210
0.0
220
0.0
230
1.0
  0
SOLID
  5
587
  8
0
  6
CONTINUOUS
 62
     7
 10
-572.6906586156457
 20
1018.006801572608
 30
0.0
 11
-579.35717793210802
 21
1018.006801572608
 31
0.0
 12
-572.69051132411323
 22
1018.005917099809
 32
0.0
 13
-572.69051132411323
 23
1018.005917099809
 33
0.0
210
0.0
220
0.0
230
-1.0
  0
LINE
  5
588
  8
0
  6
CONTINUOUS
 62
     7
 10
576.02119120971315
 20
1038.006359160192
 30
0.0
 11
572.6906586156457
 21
1018.006801572608
 31
0.0
  0
LINE
  5
589
  8
0
  6
CONTINUOUS
 62
     7
 10
579.35717793210802
 20
1018.006801572608
 30
0.0
 11
576.02119120971315
 21
1038.006359160192
 31
0.0
  0
LINE
  5
58A
  8
0
  6
CONTINUOUS
 62
     7
 10
579.35717793210802
 20
1018.006801572608
 30
0.0
 11
572.69051132411323
 21
1018.005917099809
 31
0.0
  0
LINE
  5
58B
  8
0
  6
CONTINUOUS
 62
     7
 10
572.69051132411323
 20
1018.005917099809
 30
0.0
 11
572.6906586156457
 21
1018.006801572608
 31
0.0
  0
ENDBLK
  5
58D
  8
0
 62
     7
  0
BLOCK
  8
0
 62
     7
  2
*U41
 70
     1
 10
0.0
 20
0.0
 30
0.0
  3
*U41
  1

  0
TEXT
  5
593
  8
0
  6
CONTINUOUS
 62
     7
 10
544.04732508767904
 20
791.59063037603585
 30
0.0
 40
24.61538461538462
  1
476
  0
ENDBLK
  5
595
  8
0
 62
     7
  0
BLOCK
  8
0
 62
     7
  2
*U42
 70
     1
 10
0.0
 20
0.0
 30
0.0
  3
*U42
  1

  0
SOLID
  5
5A1
  8
0
  6
CONTINUOUS
 62
     7
 10
-350.07310706741703
 20
1134.000495734168
 30
0.0
 11
-370.07334876636219
 21
1130.668612918869
 31
0.0
 12
-350.07334871376281
 22
1130.668612918869
 32
0.0
 13
-350.07334871376281
 23
1130.668612918869
 33
0.0
210
0.0
220
0.0
230
1.0
  0
SOLID
  5
5A2
  8
0
  6
CONTINUOUS
 62
     7
 10
370.07334876636219
 20
1130.668612918869
 30
0.0
 11
350.07334871376281
 21
1130.668612918869
 31
0.0
 12
350.07359057050633
 22
1127.333829085034
 32
0.0
 13
350.07359057050633
 23
1127.333829085034
 33
0.0
210
0.0
220
0.0
230
-1.0
  0
LINE
  5
5A3
  8
0
  6
CONTINUOUS
 62
     7
 10
-350.07310706741703
 20
1134.000495734168
 30
0.0
 11
-370.07334876636219
 21
1130.668612918869
 31
0.0
  0
LINE
  5
5A4
  8
0
  6
CONTINUOUS
 62
     7
 10
-350.07334871376281
 20
1130.668612918869
 30
0.0
 11
-350.07310706741703
 21
1134.000495734168
 31
0.0
  0
LINE
  5
5A5
  8
0
  6
CONTINUOUS
 62
     7
 10
-350.07334871376281
 20
1130.668612918869
 30
0.0
 11
-350.07359057050633
 21
1127.333829085034
 31
0.0
  0
LINE
  5
5A6
  8
0
  6
CONTINUOUS
 62
     7
 10
-350.07359057050633
 20
1127.333829085034
 30
0.0
 11
-370.07334876636219
 21
1130.668612918869
 31
0.0
  0
ENDBLK
  5
5A8
  8
0
 62
     7
  0
BLOCK
  8
0
 62
     7
  2
*U43
 70
     1
 10
0.0
 20
0.0
 30
0.0
  3
*U43
  1

  0
SOLID
  5
5AE
  8
0
  6
CONTINUOUS
 62
     7
 10
327.02513818518668
 20
1133.951388870041
 30
0.0
 11
327.02489632844322
 21
1130.6166050362069
 31
0.0
 12
347.02489638104271
 22
1130.6166050362069
 32
0.0
 13
347.02489638104271
 23
1130.6166050362069
 33
0.0
210
0.0
220
0.0
230
1.0
  0
SOLID
  5
5AF
  8
0
  6
CONTINUOUS
 62
     7
 10
-327.02489632844322
 20
1130.6166050362069
 30
0.0
 11
-347.02489638104271
 21
1130.6166050362069
 31
0.0
 12
-327.02465468209738
 22
1127.284722220908
 32
0.0
 13
-327.02465468209738
 23
1127.284722220908
 33
0.0
210
0.0
220
0.0
230
-1.0
  0
LINE
  5
5B0
  8
0
  6
CONTINUOUS
 62
     7
 10
327.02513818518668
 20
1133.951388870041
 30
0.0
 11
327.02489632844322
 21
1130.6166050362069
 31
0.0
  0
LINE
  5
5B1
  8
0
  6
CONTINUOUS
 62
     7
 10
347.02489638104271
 20
1130.6166050362069
 30
0.0
 11
327.02513818518668
 21
1133.951388870041
 31
0.0
  0
LINE
  5
5B2
  8
0
  6
CONTINUOUS
 62
     7
 10
347.02489638104271
 20
1130.6166050362069
 30
0.0
 11
327.02465468209738
 21
1127.284722220908
 31
0.0
  0
LINE
  5
5B3
  8
0
  6
CONTINUOUS
 62
     7
 10
327.02465468209738
 20
1127.284722220908
 30
0.0
 11
327.02489632844322
 21
1130.6166050362069
 31
0.0
  0
ENDBLK
  5
5B5
  8
0
 62
     7
  0
BLOCK
  8
0
 62
     7
  2
*U44
 70
     1
 10
0.0
 20
0.0
 30
0.0
  3
*U44
  1

  0
TEXT
  5
5BB
  8
0
  6
CONTINUOUS
 62
     7
 10
-43.967270052762089
 20
1118.5911547232629
 30
0.0
 40
24.61538461538462
  1
720
  0
ENDBLK
  5
5BD
  8
0
 62
     7
  0
BLOCK
  8
0
 62
     7
  2
*U45
 70
     1
 10
0.0
 20
0.0
 30
0.0
  3
*U45
  1

  0
SOLID
  5
5C9
  8
0
  6
CONTINUOUS
 62
     7
 10
-373.34775915080547
 20
1231.3384643292261
 30
0.0
 11
-393.349047051686
 21
1228.0128676283009
 31
0.0
 12
-373.34904555539521
 22
1228.0128676283009
 32
0.0
 13
-373.34904555539521
 23
1228.0128676283009
 33
0.0
  0
SOLID
  5
5CA
  8
0
  6
CONTINUOUS
 62
     7
 10
393.349047051686
 20
1228.0128676283009
 30
0.0
 11
373.34904555539521
 21
1228.0128676283009
 31
0.0
 12
373.35033794514771
 22
1224.6717981613231
 32
0.0
 13
373.35033794514771
 23
1224.6717981613231
 33
0.0
210
0.0
220
0.0
230
-1.0
  0
LINE
  5
5CB
  8
0
  6
CONTINUOUS
 62
     7
 10
-373.34775915080547
 20
1231.3384643292261
 30
0.0
 11
-393.349047051686
 21
1228.0128676283009
 31
0.0
  0
LINE
  5
5CC
  8
0
  6
CONTINUOUS
 62
     7
 10
-373.34904555539521
 20
1228.0128676283009
 30
0.0
 11
-373.34775915080547
 21
1231.3384643292261
 31
0.0
  0
LINE
  5
5CD
  8
0
  6
CONTINUOUS
 62
     7
 10
-373.34904555539521
 20
1228.0128676283009
 30
0.0
 11
-373.35033794514771
 21
1224.6717981613231
 31
0.0
  0
LINE
  5
5CE
  8
0
  6
CONTINUOUS
 62
     7
 10
-373.35033794514771
 20
1224.6717981613231
 30
0.0
 11
-393.349047051686
 21
1228.0128676283009
 31
0.0
  0
ENDBLK
  5
5D0
  8
0
 62
     7
  0
BLOCK
  8
0
 62
     7
  2
*U46
 70
     1
 10
0.0
 20
0.0
 30
0.0
  3
*U46
  1

  0
SOLID
  5
5D6
  8
0
  6
CONTINUOUS
 62
     7
 10
355.56588236043632
 20
1231.056506551927
 30
0.0
 11
355.56458997068381
 21
1227.715437084948
 31
0.0
 12
375.5645914669746
 22
1227.715437084948
 32
0.0
 13
375.5645914669746
 23
1227.715437084948
 33
0.0
210
0.0
220
0.0
230
1.0
  0
SOLID
  5
5D7
  8
0
  6
CONTINUOUS
 62
     7
 10
355.56458997068381
 20
1227.715437084948
 30
0.0
 11
355.56330356609419
 21
1224.3898403841299
 31
0.0
 12
355.56330356673681
 22
1224.3898403841299
 32
0.0
 13
355.56330356673681
 23
1224.3898403841299
 33
0.0
210
0.0
220
0.0
230
1.0
  0
SOLID
  5
5D8
  8
0
  6
CONTINUOUS
 62
     7
 10
-355.56458997068381
 20
1227.715437084948
 30
0.0
 11
-375.5645914669746
 21
1227.715437084948
 31
0.0
 12
-355.56330356673681
 22
1224.3898403841299
 32
0.0
 13
-355.56330356673681
 23
1224.3898403841299
 33
0.0
210
0.0
220
0.0
230
-1.0
  0
LINE
  5
5D9
  8
0
  6
CONTINUOUS
 62
     7
 10
355.56588236043632
 20
1231.056506551927
 30
0.0
 11
355.56458997068381
 21
1227.715437084948
 31
0.0
  0
LINE
  5
5DA
  8
0
  6
CONTINUOUS
 62
     7
 10
375.5645914669746
 20
1227.715437084948
 30
0.0
 11
355.56588236043632
 21
1231.056506551927
 31
0.0
  0
LINE
  5
5DB
  8
0
  6
CONTINUOUS
 62
     7
 10
355.56458997068381
 20
1227.715437084948
 30
0.0
 11
355.56330356609419
 21
1224.3898403841299
 31
0.0
  0
LINE
  5
5DC
  8
0
  6
CONTINUOUS
 62
     7
 10
375.5645914669746
 20
1227.715437084948
 30
0.0
 11
355.56330356673681
 21
1224.3898403841299
 31
0.0
  0
ENDBLK
  5
5DE
  8
0
 62
     7
  0
BLOCK
  8
0
 62
     7
  2
*U47
 70
     1
 10
0.0
 20
0.0
 30
0.0
  3
*U47
  1

  0
TEXT
  5
5E4
  8
0
  6
CONTINUOUS
 62
     7
 10
-41.33527165245799
 20
1215.8126981023499
 30
0.0
 40
24.61538461538462
  1
770
  0
ENDBLK
  5
5E6
  8
0
 62
     7
  0
BLOCK
  8
0
 62
     7
  2
*U48
 70
     1
 10
0.0
 20
0.0
 30
0.0
  3
*U48
  1

  0
TEXT
  5
5E8
  8
0
  6
CONTINUOUS
 62
     7
 10
-314.64264696142828
 20
723.65229015662771
 30
0.0
 40
24.61538461538462
  1
R190
  0
ENDBLK
  5
5EA
  8
0
 62
     7
  0
BLOCK
  8
0
 62
     7
  2
*U49
 70
     1
 10
0.0
 20
0.0
 30
0.0
  3
*U49
  1

  0
SOLID
  5
5F0
  8
0
  6
CONTINUOUS
 62
     7
 10
-334.38287028925038
 20
715.64316073153111
 30
0.0
 11
-342.8490369622736
 21
709.64403082812964
 31
0.0
 12
-331.47514182074428
 22
709.64403082812964
 32
0.0
 13
-331.47514182074428
 23
709.64403082812964
 33
0.0
210
0.0
220
0.0
230
1.0
  0
SOLID
  5
5F1
  8
0
  6
CONTINUOUS
 62
     7
 10
342.8490369622736
 20
709.64403082812964
 30
0.0
 11
331.47514182074428
 21
709.64403082812964
 31
0.0
 12
350.92639576520122
 22
703.92041037431215
 32
0.0
 13
350.92639576520122
 23
703.92041037431215
 33
0.0
210
0.0
220
0.0
230
-1.0
  0
LINE
  5
5F2
  8
0
  6
CONTINUOUS
 62
     7
 10
-334.38287028925038
 20
715.64316073153111
 30
0.0
 11
-342.8490369622736
 21
709.64403082812964
 31
0.0
  0
LINE
  5
5F3
  8
0
  6
CONTINUOUS
 62
     7
 10
-331.47514182074428
 20
709.64403082812964
 30
0.0
 11
-334.38287028925038
 21
715.64316073153111
 31
0.0
  0
LINE
  5
5F4
  8
0
  6
CONTINUOUS
 62
     7
 10
-331.47514182074428
 20
709.64403082812964
 30
0.0
 11
-350.92639576520122
 21
703.92041037431215
 31
0.0
  0
LINE
  5
5F5
  8
0
  6
CONTINUOUS
 62
     7
 10
-350.92639576520122
 20
703.92041037431215
 30
0.0
 11
-342.8490369622736
 21
709.64403082812964
 31
0.0
  0
ENDBLK
  5
5F7
  8
0
 62
     7
  0
BLOCK
  8
0
 62
     7
  2
*U50
 70
     1
 10
0.0
 20
0.0
 30
0.0
  3
*U50
  1

  0
INSERT
  5
5FD
  8
0
  6
DURCHGEHEND
 62
     7
  2
TC_DIMARROW_FILLED30
 10
317.96578816651288
 20
649.49101169877349
 30
0.0
 41
20.0
 42
20.0
 43
20.0
 50
331.47688139368802
  0
POLYLINE
  5
5FE
  8
0
  6
DURCHGEHEND
 62
     7
 66
     1
 10
0.0
 20
0.0
 30
0.0
  0
VERTEX
  5
5FF
  8
0
  6
DURCHGEHEND
 62
     7
 10
300.39329797506201
 20
659.04127810717091
 30
0.0
  0
VERTEX
  5
600
  8
0
  6
DURCHGEHEND
 62
     7
 10
264.59562241529409
 20
678.49653656356645
 30
0.0
  0
VERTEX
  5
601
  8
0
  6
DURCHGEHEND
 62
     7
 10
191.50169975601611
 20
678.49653656356645
 30
0.0
  0
VERTEX
  5
602
  8
0
  6
DURCHGEHEND
 62
     7
 10
171.50169975601611
 20
678.49653656356645
 30
0.0
  0
SEQEND
  5
603
  8
0
  6
DURCHGEHEND
 62
     7
  0
ENDBLK
  5
605
  8
0
 62
     7
  0
BLOCK
  8
0
 62
     7
  2
*U51
 70
     1
 10
0.0
 20
0.0
 30
0.0
  3
*U51
  1

  0
SOLID
  5
617
  8
0
  6
CONTINUOUS
 62
     7
 10
-1720.271863431874
 20
690.29167810459046
 30
0.0
 11
-1720.271863431874
 21
678.29167810459046
 31
0.0
 12
-1695.271863431874
 22
678.29167810459046
 32
0.0
 13
-1695.271863431874
 23
678.29167810459046
 33
0.0
210
0.0
220
0.0
230
1.0
  0
SOLID
  5
618
  8
0
  6
CONTINUOUS
 62
     7
 10
1720.271863431874
 20
690.29167810459046
 30
0.0
 11
1695.271863431874
 21
690.29167810459046
 31
0.0
 12
1695.271863431874
 22
678.29167810459046
 32
0.0
 13
1695.271863431874
 23
678.29167810459046
 33
0.0
210
0.0
220
0.0
230
-1.0
  0
SOLID
  5
619
  8
0
  6
CONTINUOUS
 62
     7
 10
-1708.271863431874
 20
678.29167810459046
 30
0.0
 11
-1708.3131107180279
 21
622.33520399490067
 31
0.0
 12
-1695.271863431874
 22
622.33520399490067
 32
0.0
 13
-1695.271863431874
 23
622.33520399490067
 33
0.0
210
0.0
220
0.0
230
1.0
  0
SOLID
  5
61A
  8
0
  6
CONTINUOUS
 62
     7
 10
1708.271863431874
 20
678.29167810459046
 30
0.0
 11
1695.271863431874
 21
678.29167810459046
 31
0.0
 12
1695.271863431874
 22
622.33520399490067
 32
0.0
 13
1695.271863431874
 23
622.33520399490067
 33
0.0
210
0.0
220
0.0
230
-1.0
  0
SOLID
  5
61B
  8
0
  6
CONTINUOUS
 62
     7
 10
-1708.3131107180279
 20
622.33520399490067
 30
0.0
 11
-1708.305893236522
 21
622.19150279404971
 31
0.0
 12
-1695.271863431874
 22
622.19150279404971
 32
0.0
 13
-1695.271863431874
 23
622.19150279404971
 33
0.0
210
0.0
220
0.0
230
1.0
  0
SOLID
  5
61C
  8
0
  6
CONTINUOUS
 62
     7
 10
1708.3131107180279
 20
622.33520399490067
 30
0.0
 11
1695.271863431874
 21
622.33520399490067
 31
0.0
 12
1695.271863431874
 22
622.19150279404971
 32
0.0
 13
1695.271863431874
 23
622.19150279404971
 33
0.0
210
0.0
220
0.0
230
-1.0
  0
SOLID
  5
61D
  8
0
  6
CONTINUOUS
 62
     7
 10
-1708.305893236522
 20
622.19150279404971
 30
0.0
 11
-1707.591219230708
 21
607.96223005076854
 31
0.0
 12
-1694.5468712301049
 22
607.96223005076854
 32
0.0
 13
-1694.5468712301049
 23
607.96223005076854
 33
0.0
210
0.0
220
0.0
230
1.0
  0
SOLID
  5
61E
  8
0
  6
CONTINUOUS
 62
     7
 10
1708.305893236522
 20
622.19150279404971
 30
0.0
 11
1695.271863431874
 21
622.19150279404971
 31
0.0
 12
1694.5468712301049
 22
607.96223005076854
 32
0.0
 13
1694.5468712301049
 23
607.96223005076854
 33
0.0
210
0.0
220
0.0
230
-1.0
  0
SOLID
  5
61F
  8
0
  6
CONTINUOUS
 62
     7
 10
-1707.591219230708
 20
607.96223005076854
 30
0.0
 11
-1707.5369397121649
 21
606.88151623240253
 31
0.0
 12
-1694.3805291533531
 22
606.88151623240253
 32
0.0
 13
-1694.3805291533531
 23
606.88151623240253
 33
0.0
  0
SOLID
  5
620
  8
0
  6
CONTINUOUS
 62
     7
 10
1707.591219230708
 20
607.96223005076854
 30
0.0
 11
1694.5468712301049
 21
607.96223005076854
 31
0.0
 12
1694.3805291533531
 22
606.88151623240253
 32
0.0
 13
1694.3805291533531
 23
606.88151623240253
 33
0.0
210
0.0
220
0.0
230
-1.0
  0
SOLID
  5
621
  8
0
  6
CONTINUOUS
 62
     7
 10
-1707.5369397121649
 20
606.88151623240253
 30
0.0
 11
-1705.5450708371909
 21
593.88033033285467
 31
0.0
 12
-1692.379403391835
 22
593.88033033285467
 32
0.0
 13
-1692.379403391835
 23
593.88033033285467
 33
0.0
210
0.0
220
0.0
230
1.0
  0
SOLID
  5
622
  8
0
  6
CONTINUOUS
 62
     7
 10
1707.5369397121649
 20
606.88151623240253
 30
0.0
 11
1694.3805291533531
 21
606.88151623240253
 31
0.0
 12
1692.379403391835
 22
593.88033033285467
 32
0.0
 13
1692.379403391835
 23
593.88033033285467
 33
0.0
210
0.0
220
0.0
230
-1.0
  0
SOLID
  5
623
  8
0
  6
CONTINUOUS
 62
     7
 10
-1705.5450708371909
 20
593.88033033285467
 30
0.0
 11
-1705.1936879433731
 21
591.58680871512104
 31
0.0
 12
-1691.782682226725
 22
591.58680871512104
 32
0.0
 13
-1691.782682226725
 23
591.58680871512104
 33
0.0
  0
SOLID
  5
624
  8
0
  6
CONTINUOUS
 62
     7
 10
1705.5450708371909
 20
593.88033033285467
 30
0.0
 11
1692.379403391835
 21
593.88033033285467
 31
0.0
 12
1691.782682226725
 22
591.58680871512104
 32
0.0
 13
1691.782682226725
 23
591.58680871512104
 33
0.0
210
0.0
220
0.0
230
-1.0
  0
SOLID
  5
625
  8
0
  6
CONTINUOUS
 62
     7
 10
-1705.1936879433731
 20
591.58680871512104
 30
0.0
 11
-1702.2111102225419
 21
580.09165031861664
 31
0.0
 12
-1688.7919084496421
 22
580.09165031861664
 32
0.0
 13
-1688.7919084496421
 23
580.09165031861664
 33
0.0
210
0.0
220
0.0
230
1.0
  0
SOLID
  5
626
  8
0
  6
CONTINUOUS
 62
     7
 10
1705.1936879433731
 20
591.58680871512104
 30
0.0
 11
1691.782682226725
 21
591.58680871512104
 31
0.0
 12
1688.7919084496421
 22
580.09165031861664
 32
0.0
 13
1688.7919084496421
 23
580.09165031861664
 33
0.0
210
0.0
220
0.0
230
-1.0
  0
SOLID
  5
627
  8
0
  6
CONTINUOUS
 62
     7
 10
-1702.2111102225419
 20
580.09165031861664
 30
0.0
 11
-1701.307637734066
 21
576.60957530364374
 31
0.0
 12
-1687.495747203998
 22
576.60957530364374
 32
0.0
 13
-1687.495747203998
 23
576.60957530364374
 33
0.0
210
0.0
220
0.0
230
1.0
  0
SOLID
  5
628
  8
0
  6
CONTINUOUS
 62
     7
 10
1702.2111102225419
 20
580.09165031861664
 30
0.0
 11
1688.7919084496421
 21
580.09165031861664
 31
0.0
 12
1687.495747203998
 22
576.60957530364374
 32
0.0
 13
1687.495747203998
 23
576.60957530364374
 33
0.0
210
0.0
220
0.0
230
-1.0
  0
SOLID
  5
629
  8
0
  6
CONTINUOUS
 62
     7
 10
-1701.307637734066
 20
576.60957530364374
 30
0.0
 11
-1697.640626024521
 21
566.73899980066869
 31
0.0
 12
-1683.82154220148
 22
566.73899980066869
 32
0.0
 13
-1683.82154220148
 23
566.73899980066869
 33
0.0
210
0.0
220
0.0
230
1.0
  0
SOLID
  5
62A
  8
0
  6
CONTINUOUS
 62
     7
 10
1701.307637734066
 20
576.60957530364374
 30
0.0
 11
1687.495747203998
 21
576.60957530364374
 31
0.0
 12
1683.82154220148
 22
566.73899980066869
 32
0.0
 13
1683.82154220148
 23
566.73899980066869
 33
0.0
210
0.0
220
0.0
230
-1.0
  0
SOLID
  5
62B
  8
0
  6
CONTINUOUS
 62
     7
 10
-1697.640626024521
 20
566.73899980066869
 30
0.0
 11
-1695.9190589030291
 21
562.10501998219945
 31
0.0
 12
-1681.5362489055051
 22
562.10501998219945
 32
0.0
 13
-1681.5362489055051
 23
562.10501998219945
 33
0.0
210
0.0
220
0.0
230
1.0
  0
SOLID
  5
62C
  8
0
  6
CONTINUOUS
 62
     7
 10
1697.640626024521
 20
566.73899980066869
 30
0.0
 11
1683.82154220148
 21
566.73899980066869
 31
0.0
 12
1681.5362489055051
 22
562.10501998219945
 32
0.0
 13
1681.5362489055051
 23
562.10501998219945
 33
0.0
210
0.0
220
0.0
230
-1.0
  0
SOLID
  5
62D
  8
0
  6
CONTINUOUS
 62
     7
 10
-1695.9190589030291
 20
562.10501998219945
 30
0.0
 11
-1691.908793013401
 21
553.96067260041752
 31
0.0
 12
-1677.5197828869209
 22
553.96067260041752
 32
0.0
 13
-1677.5197828869209
 23
553.96067260041752
 33
0.0
210
0.0
220
0.0
230
1.0
  0
SOLID
  5
62E
  8
0
  6
CONTINUOUS
 62
     7
 10
1695.9190589030291
 20
562.10501998219945
 30
0.0
 11
1681.5362489055051
 21
562.10501998219945
 31
0.0
 12
1677.5197828869209
 22
553.96067260041752
 32
0.0
 13
1677.5197828869209
 23
553.96067260041752
 33
0.0
210
0.0
220
0.0
230
-1.0
  0
SOLID
  5
62F
  8
0
  6
CONTINUOUS
 62
     7
 10
-1691.908793013401
 20
553.96067260041752
 30
0.0
 11
-1689.0837914629631
 21
548.22344853247159
 31
0.0
 12
-1673.9230400097481
 22
548.22344853247159
 32
0.0
 13
-1673.9230400097481
 23
548.22344853247159
 33
0.0
210
0.0
220
0.0
230
1.0
  0
SOLID
  5
630
  8
0
  6
CONTINUOUS
 62
     7
 10
1691.908793013401
 20
553.96067260041752
 30
0.0
 11
1677.5197828869209
 21
553.96067260041752
 31
0.0
 12
1673.9230400097481
 22
548.22344853247159
 32
0.0
 13
1673.9230400097481
 23
548.22344853247159
 33
0.0
210
0.0
220
0.0
230
-1.0
  0
SOLID
  5
631
  8
0
  6
CONTINUOUS
 62
     7
 10
-1689.0837914629631
 20
548.22344853247159
 30
0.0
 11
-1685.1178082942131
 21
541.88901425460369
 31
0.0
 12
-1669.951898025399
 22
541.88901425460369
 32
0.0
 13
-1669.951898025399
 23
541.88901425460369
 33
0.0
210
0.0
220
0.0
230
1.0
  0
SOLID
  5
632
  8
0
  6
CONTINUOUS
 62
     7
 10
1689.0837914629631
 20
548.22344853247159
 30
0.0
 11
1673.9230400097481
 21
548.22344853247159
 31
0.0
 12
1669.951898025399
 22
541.88901425460369
 32
0.0
 13
1669.951898025399
 23
541.88901425460369
 33
0.0
210
0.0
220
0.0
230
-1.0
  0
SOLID
  5
633
  8
0
  6
CONTINUOUS
 62
     7
 10
-1685.1178082942131
 20
541.88901425460369
 30
0.0
 11
-1680.8726669693899
 21
535.10871096581809
 31
0.0
 12
-1664.6702236668721
 22
535.10871096581809
 32
0.0
 13
-1664.6702236668721
 23
535.10871096581809
 33
0.0
210
0.0
220
0.0
230
1.0
  0
SOLID
  5
634
  8
0
  6
CONTINUOUS
 62
     7
 10
1685.1178082942131
 20
541.88901425460369
 30
0.0
 11
1669.951898025399
 21
541.88901425460369
 31
0.0
 12
1664.6702236668721
 22
535.10871096581809
 32
0.0
 13
1664.6702236668721
 23
535.10871096581809
 33
0.0
210
0.0
220
0.0
230
-1.0
  0
SOLID
  5
635
  8
0
  6
CONTINUOUS
 62
     7
 10
-1680.8726669693899
 20
535.10871096581809
 30
0.0
 11
-1677.402702504018
 21
530.64905130841464
 31
0.0
 12
-1661.1962684384639
 22
530.64905130841464
 32
0.0
 13
-1661.1962684384639
 23
530.64905130841464
 33
0.0
210
0.0
220
0.0
230
1.0
  0
SOLID
  5
636
  8
0
  6
CONTINUOUS
 62
     7
 10
1680.8726669693899
 20
535.10871096581809
 30
0.0
 11
1664.6702236668721
 21
535.10871096581809
 31
0.0
 12
1661.1962684384639
 22
530.64905130841464
 32
0.0
 13
1661.1962684384639
 23
530.64905130841464
 33
0.0
210
0.0
220
0.0
230
-1.0
  0
SOLID
  5
637
  8
0
  6
CONTINUOUS
 62
     7
 10
-1677.402702504018
 20
530.64905130841464
 30
0.0
 11
-1671.3707745173001
 21
522.8967108544507
 31
0.0
 12
-1653.7747274827091
 22
522.8967108544507
 32
0.0
 13
-1653.7747274827091
 23
522.8967108544507
 33
0.0
210
0.0
220
0.0
230
1.0
  0
SOLID
  5
638
  8
0
  6
CONTINUOUS
 62
     7
 10
1677.402702504018
 20
530.64905130841464
 30
0.0
 11
1661.1962684384639
 21
530.64905130841464
 31
0.0
 12
1653.7747274827091
 22
522.8967108544507
 32
0.0
 13
1653.7747274827091
 23
522.8967108544507
 33
0.0
210
0.0
220
0.0
230
-1.0
  0
SOLID
  5
639
  8
0
  6
CONTINUOUS
 62
     7
 10
-1671.3707745173001
 20
522.8967108544507
 30
0.0
 11
-1668.942199095756
 21
520.35719641162416
 31
0.0
 12
-1651.3435764571459
 22
520.35719641162416
 32
0.0
 13
-1651.3435764571459
 23
520.35719641162416
 33
0.0
210
0.0
220
0.0
230
1.0
  0
SOLID
  5
63A
  8
0
  6
CONTINUOUS
 62
     7
 10
1671.3707745173001
 20
522.8967108544507
 30
0.0
 11
1653.7747274827091
 21
522.8967108544507
 31
0.0
 12
1651.3435764571459
 22
520.35719641162416
 32
0.0
 13
1651.3435764571459
 23
520.35719641162416
 33
0.0
210
0.0
220
0.0
230
-1.0
  0
SOLID
  5
63B
  8
0
  6
CONTINUOUS
 62
     7
 10
-1668.942199095756
 20
520.35719641162416
 30
0.0
 11
-1660.6765789917449
 21
511.71399700886161
 31
0.0
 12
-1641.1933807897351
 22
511.71399700886161
 32
0.0
 13
-1641.1933807897351
 23
511.71399700886161
 33
0.0
210
0.0
220
0.0
230
1.0
  0
SOLID
  5
63C
  8
0
  6
CONTINUOUS
 62
     7
 10
1668.942199095756
 20
520.35719641162416
 30
0.0
 11
1651.3435764571459
 21
520.35719641162416
 31
0.0
 12
1641.1933807897351
 22
511.71399700886161
 32
0.0
 13
1641.1933807897351
 23
511.71399700886161
 33
0.0
210
0.0
220
0.0
230
-1.0
  0
SOLID
  5
63D
  8
0
  6
CONTINUOUS
 62
     7
 10
-1660.6765789917449
 20
511.71399700886161
 30
0.0
 11
-1659.9797735726461
 21
511.1200426291166
 31
0.0
 12
-1640.4958667222011
 22
511.1200426291166
 32
0.0
 13
-1640.4958667222011
 23
511.1200426291166
 33
0.0
210
0.0
220
0.0
230
1.0
  0
SOLID
  5
63E
  8
0
  6
CONTINUOUS
 62
     7
 10
1660.6765789917449
 20
511.71399700886161
 30
0.0
 11
1641.1933807897351
 21
511.71399700886161
 31
0.0
 12
1640.4958667222011
 22
511.1200426291166
 32
0.0
 13
1640.4958667222011
 23
511.1200426291166
 33
0.0
210
0.0
220
0.0
230
-1.0
  0
SOLID
  5
63F
  8
0
  6
CONTINUOUS
 62
     7
 10
-1659.9797735726461
 20
511.1200426291166
 30
0.0
 11
-1650.4926571673309
 21
503.03325945316169
 31
0.0
 12
-1628.765489304556
 22
503.03325945316169
 32
0.0
 13
-1628.765489304556
 23
503.03325945316169
 33
0.0
210
0.0
220
0.0
230
1.0
  0
SOLID
  5
640
  8
0
  6
CONTINUOUS
 62
     7
 10
1659.9797735726461
 20
511.1200426291166
 30
0.0
 11
1640.4958667222011
 21
511.1200426291166
 31
0.0
 12
1628.765489304556
 22
503.03325945316169
 32
0.0
 13
1628.765489304556
 23
503.03325945316169
 33
0.0
210
0.0
220
0.0
230
-1.0
  0
SOLID
  5
641
  8
0
  6
CONTINUOUS
 62
     7
 10
-1650.4926571673309
 20
503.03325945316169
 30
0.0
 11
-1648.9009007096749
 21
501.67645209547192
 31
0.0
 12
-1626.2921960889721
 22
501.67645209547192
 32
0.0
 13
-1626.2921960889721
 23
501.67645209547192
 33
0.0
  0
SOLID
  5
642
  8
0
  6
CONTINUOUS
 62
     7
 10
1650.4926571673309
 20
503.03325945316169
 30
0.0
 11
1628.765489304556
 21
503.03325945316169
 31
0.0
 12
1626.2921960889721
 22
501.67645209547192
 32
0.0
 13
1626.2921960889721
 23
501.67645209547192
 33
0.0
210
0.0
220
0.0
230
-1.0
  0
SOLID
  5
643
  8
0
  6
CONTINUOUS
 62
     7
 10
-1648.9009007096749
 20
501.67645209547192
 30
0.0
 11
-1640.9369138219561
 21
496.18060195147291
 31
0.0
 12
-1616.27393609209
 22
496.18060195147291
 32
0.0
 13
-1616.27393609209
 23
496.18060195147291
 33
0.0
  0
SOLID
  5
644
  8
0
  6
CONTINUOUS
 62
     7
 10
1648.9009007096749
 20
501.67645209547192
 30
0.0
 11
1626.2921960889721
 21
501.67645209547192
 31
0.0
 12
1616.27393609209
 22
496.18060195147291
 32
0.0
 13
1616.27393609209
 23
496.18060195147291
 33
0.0
210
0.0
220
0.0
230
-1.0
  0
SOLID
  5
645
  8
0
  6
CONTINUOUS
 62
     7
 10
-1640.9369138219561
 20
496.18060195147291
 30
0.0
 11
-1636.165767026622
 21
492.8880917839071
 31
0.0
 12
-1608.4851450271069
 22
492.8880917839071
 32
0.0
 13
-1608.4851450271069
 23
492.8880917839071
 33
0.0
  0
SOLID
  5
646
  8
0
  6
CONTINUOUS
 62
     7
 10
1640.9369138219561
 20
496.18060195147291
 30
0.0
 11
1616.27393609209
 21
496.18060195147291
 31
0.0
 12
1608.4851450271069
 22
492.8880917839071
 32
0.0
 13
1608.4851450271069
 23
492.8880917839071
 33
0.0
210
0.0
220
0.0
230
-1.0
  0
SOLID
  5
647
  8
0
  6
CONTINUOUS
 62
     7
 10
-1636.165767026622
 20
492.8880917839071
 30
0.0
 11
-1632.0594387633321
 21
490.63304331333768
 31
0.0
 12
-1603.1505824943331
 22
490.63304331333768
 32
0.0
 13
-1603.1505824943331
 23
490.63304331333768
 33
0.0
210
0.0
220
0.0
230
1.0
  0
SOLID
  5
648
  8
0
  6
CONTINUOUS
 62
     7
 10
1636.165767026622
 20
492.8880917839071
 30
0.0
 11
1608.4851450271069
 21
492.8880917839071
 31
0.0
 12
1603.1505824943331
 22
490.63304331333768
 32
0.0
 13
1603.1505824943331
 23
490.63304331333768
 33
0.0
210
0.0
220
0.0
230
-1.0
  0
SOLID
  5
649
  8
0
  6
CONTINUOUS
 62
     7
 10
-1632.0594387633321
 20
490.63304331333768
 30
0.0
 11
-1624.4387607499129
 21
486.44803977806328
 31
0.0
 12
-1589.5313474972761
 22
486.44803977806328
 32
0.0
 13
-1589.5313474972761
 23
486.44803977806328
 33
0.0
210
0.0
220
0.0
230
1.0
  0
SOLID
  5
64A
  8
0
  6
CONTINUOUS
 62
     7
 10
1632.0594387633321
 20
490.63304331333768
 30
0.0
 11
1603.1505824943331
 21
490.63304331333768
 31
0.0
 12
1589.5313474972761
 22
486.44803977806328
 32
0.0
 13
1589.5313474972761
 23
486.44803977806328
 33
0.0
210
0.0
220
0.0
230
-1.0
  0
SOLID
  5
64B
  8
0
  6
CONTINUOUS
 62
     7
 10
-1624.4387607499129
 20
486.44803977806328
 30
0.0
 11
-1622.603147808647
 21
485.4399868679331
 31
0.0
 12
-1584.462594294067
 22
485.4399868679331
 32
0.0
 13
-1584.462594294067
 23
485.4399868679331
 33
0.0
  0
SOLID
  5
64C
  8
0
  6
CONTINUOUS
 62
     7
 10
1624.4387607499129
 20
486.44803977806328
 30
0.0
 11
1589.5313474972761
 21
486.44803977806328
 31
0.0
 12
1584.462594294067
 22
485.4399868679331
 32
0.0
 13
1584.462594294067
 23
485.4399868679331
 33
0.0
210
0.0
220
0.0
230
-1.0
  0
SOLID
  5
64D
  8
0
  6
CONTINUOUS
 62
     7
 10
-1622.603147808647
 20
485.4399868679331
 30
0.0
 11
-1618.4184199234589
 21
483.66893555889902
 31
0.0
 12
-1575.5572859461611
 22
483.66893555889902
 32
0.0
 13
-1575.5572859461611
 23
483.66893555889902
 33
0.0
  0
SOLID
  5
64E
  8
0
  6
CONTINUOUS
 62
     7
 10
1622.603147808647
 20
485.4399868679331
 30
0.0
 11
1584.462594294067
 21
485.4399868679331
 31
0.0
 12
1575.5572859461611
 22
483.66893555889902
 32
0.0
 13
1575.5572859461611
 23
483.66893555889902
 33
0.0
210
0.0
220
0.0
230
-1.0
  0
SOLID
  5
64F
  8
0
  6
CONTINUOUS
 62
     7
 10
-1561.342060630948
 20
482.47533344999778
 30
0.0
 11
-1561.373127636012
 21
482.32451392565622
 31
0.0
 12
-1557.8846340999171
 22
482.32451392565622
 32
0.0
 13
-1557.8846340999171
 23
482.32451392565622
 33
0.0
210
0.0
220
0.0
230
1.0
  0
SOLID
  5
650
  8
0
  6
CONTINUOUS
 62
     7
 10
-1618.4184199234589
 20
483.66893555889902
 30
0.0
 11
-1615.2417537990029
 21
482.32451392565622
 31
0.0
 12
-1561.373127636012
 22
482.32451392565622
 32
0.0
 13
-1561.373127636012
 23
482.32451392565622
 33
0.0
  0
SOLID
  5
651
  8
0
  6
CONTINUOUS
 62
     7
 10
1618.4184199234589
 20
483.66893555889902
 30
0.0
 11
1575.5572859461611
 21
483.66893555889902
 31
0.0
 12
1561.373127636012
 22
482.32451392565622
 32
0.0
 13
1561.373127636012
 23
482.32451392565622
 33
0.0
210
0.0
220
0.0
230
-1.0
  0
SOLID
  5
652
  8
0
  6
CONTINUOUS
 62
     7
 10
-1615.2417537990029
 20
482.32451392565622
 30
0.0
 11
-1610.8811208571281
 21
480.47901646636848
 31
0.0
 12
-1515.5779638823301
 22
480.47901646636848
 32
0.0
 13
-1515.5779638823301
 23
480.47901646636848
 33
0.0
  0
SOLID
  5
653
  8
0
  6
CONTINUOUS
 62
     7
 10
1615.2417537990029
 20
482.32451392565622
 30
0.0
 11
1557.8846340999171
 21
482.32451392565622
 31
0.0
 12
1515.5779638823301
 22
480.47901646636848
 32
0.0
 13
1515.5779638823301
 23
480.47901646636848
 33
0.0
210
0.0
220
0.0
230
-1.0
  0
SOLID
  5
654
  8
0
  6
CONTINUOUS
 62
     7
 10
-1610.8811208571281
 20
480.47901646636848
 30
0.0
 11
-1608.353587873434
 21
479.4093195297429
 31
0.0
 12
-1514.3029691249201
 22
479.4093195297429
 32
0.0
 13
-1514.3029691249201
 23
479.4093195297429
 33
0.0
210
0.0
220
0.0
230
1.0
  0
SOLID
  5
655
  8
0
  6
CONTINUOUS
 62
     7
 10
1610.8811208571281
 20
480.47901646636848
 30
0.0
 11
1515.5779638823301
 21
480.47901646636848
 31
0.0
 12
1514.3029691249201
 22
479.4093195297429
 32
0.0
 13
1514.3029691249201
 23
479.4093195297429
 33
0.0
210
0.0
220
0.0
230
-1.0
  0
SOLID
  5
656
  8
0
  6
CONTINUOUS
 62
     7
 10
-1608.353587873434
 20
479.4093195297429
 30
0.0
 11
-1593.564750572064
 21
474.85858352721129
 31
0.0
 12
-1508.8788491270741
 22
474.85858352721129
 32
0.0
 13
-1508.8788491270741
 23
474.85858352721129
 33
0.0
210
0.0
220
0.0
230
1.0
  0
SOLID
  5
657
  8
0
  6
CONTINUOUS
 62
     7
 10
1608.353587873434
 20
479.4093195297429
 30
0.0
 11
1514.3029691249201
 21
479.4093195297429
 31
0.0
 12
1508.8788491270741
 22
474.85858352721129
 32
0.0
 13
1508.8788491270741
 23
474.85858352721129
 33
0.0
210
0.0
220
0.0
230
-1.0
  0
SOLID
  5
658
  8
0
  6
CONTINUOUS
 62
     7
 10
-1593.564750572064
 20
474.85858352721129
 30
0.0
 11
-1581.0763760961961
 21
472.37022924783111
 31
0.0
 12
-1505.9129262080121
 22
472.37022924783111
 32
0.0
 13
-1505.9129262080121
 23
472.37022924783111
 33
0.0
  0
SOLID
  5
659
  8
0
  6
CONTINUOUS
 62
     7
 10
1593.564750572064
 20
474.85858352721129
 30
0.0
 11
1508.8788491270741
 21
474.85858352721129
 31
0.0
 12
1505.9129262080121
 22
472.37022924783111
 32
0.0
 13
1505.9129262080121
 23
472.37022924783111
 33
0.0
210
0.0
220
0.0
230
-1.0
  0
SOLID
  5
65A
  8
0
  6
CONTINUOUS
 62
     7
 10
-1581.0763760961961
 20
472.37022924783111
 30
0.0
 11
-1578.3898876038479
 21
471.83493659230112
 31
0.0
 12
-1505.9149715158439
 22
471.83493659230112
 32
0.0
 13
-1505.9149715158439
 23
471.83493659230112
 33
0.0
210
0.0
220
0.0
230
1.0
  0
SOLID
  5
65B
  8
0
  6
CONTINUOUS
 62
     7
 10
1581.0763760961961
 20
472.37022924783111
 30
0.0
 11
1505.9129262080121
 21
472.37022924783111
 31
0.0
 12
1505.9149715158439
 22
471.83493659230112
 32
0.0
 13
1505.9149715158439
 23
471.83493659230112
 33
0.0
210
0.0
220
0.0
230
-1.0
  0
SOLID
  5
65C
  8
0
  6
CONTINUOUS
 62
     7
 10
-1578.3898876038479
 20
471.83493659230112
 30
0.0
 11
-1562.986250921005
 21
470.36971175150069
 31
0.0
 12
-1505.9205700156749
 22
470.36971175150069
 32
0.0
 13
-1505.9205700156749
 23
470.36971175150069
 33
0.0
210
0.0
220
0.0
230
1.0
  0
SOLID
  5
65D
  8
0
  6
CONTINUOUS
 62
     7
 10
1578.3898876038479
 20
471.83493659230112
 30
0.0
 11
1505.9149715158439
 21
471.83493659230112
 31
0.0
 12
1505.9205700156749
 22
470.36971175150069
 32
0.0
 13
1505.9205700156749
 23
470.36971175150069
 33
0.0
210
0.0
220
0.0
230
-1.0
  0
SOLID
  5
65E
  8
0
  6
CONTINUOUS
 62
     7
 10
-1562.986250921005
 20
470.36971175150069
 30
0.0
 11
-1529.916333127494
 21
468.91647618252028
 31
0.0
 12
-1505.926122705516
 22
468.91647618252028
 32
0.0
 13
-1505.926122705516
 23
468.91647618252028
 33
0.0
210
0.0
220
0.0
230
1.0
  0
SOLID
  5
65F
  8
0
  6
CONTINUOUS
 62
     7
 10
1562.986250921005
 20
470.36971175150069
 30
0.0
 11
1505.9205700156749
 21
470.36971175150069
 31
0.0
 12
1505.926122705516
 22
468.91647618252028
 32
0.0
 13
1505.926122705516
 23
468.91647618252028
 33
0.0
210
0.0
220
0.0
230
-1.0
  0
SOLID
  5
660
  8
0
  6
CONTINUOUS
 62
     7
 10
-1529.916333127494
 20
468.91647618252028
 30
0.0
 11
-1529.409675750733
 21
468.86828404463762
 31
0.0
 12
-1505.9263068435871
 22
468.86828404463762
 32
0.0
 13
-1505.9263068435871
 23
468.86828404463762
 33
0.0
210
0.0
220
0.0
230
1.0
  0
SOLID
  5
661
  8
0
  6
CONTINUOUS
 62
     7
 10
1529.916333127494
 20
468.91647618252028
 30
0.0
 11
1505.926122705516
 21
468.91647618252028
 31
0.0
 12
1505.9263068435871
 22
468.86828404463762
 32
0.0
 13
1505.9263068435871
 23
468.86828404463762
 33
0.0
210
0.0
220
0.0
230
-1.0
  0
SOLID
  5
662
  8
0
  6
CONTINUOUS
 62
     7
 10
-1529.409675750733
 20
468.86828404463762
 30
0.0
 11
-1528.910542168597
 21
468.76883633594809
 31
0.0
 12
-1505.9266868248469
 22
468.76883633594809
 32
0.0
 13
-1505.9266868248469
 23
468.76883633594809
 33
0.0
210
0.0
220
0.0
230
1.0
  0
SOLID
  5
663
  8
0
  6
CONTINUOUS
 62
     7
 10
1529.409675750733
 20
468.86828404463762
 30
0.0
 11
1505.9263068435871
 21
468.86828404463762
 31
0.0
 12
1505.9266868248469
 22
468.76883633594809
 32
0.0
 13
1505.9266868248469
 23
468.76883633594809
 33
0.0
210
0.0
220
0.0
230
-1.0
  0
SOLID
  5
664
  8
0
  6
CONTINUOUS
 62
     7
 10
-1528.910542168597
 20
468.76883633594809
 30
0.0
 11
-1528.4241038877501
 21
468.61916343089808
 31
0.0
 12
-1505.927258712321
 22
468.61916343089808
 32
0.0
 13
-1505.927258712321
 23
468.61916343089808
 33
0.0
210
0.0
220
0.0
230
1.0
  0
SOLID
  5
665
  8
0
  6
CONTINUOUS
 62
     7
 10
1528.910542168597
 20
468.76883633594809
 30
0.0
 11
1505.9266868248469
 21
468.76883633594809
 31
0.0
 12
1505.927258712321
 22
468.61916343089808
 32
0.0
 13
1505.927258712321
 23
468.61916343089808
 33
0.0
210
0.0
220
0.0
230
-1.0
  0
SOLID
  5
666
  8
0
  6
CONTINUOUS
 62
     7
 10
-1528.4241038877501
 20
468.61916343089808
 30
0.0
 11
-1527.9554008792561
 21
468.4208160855448
 31
0.0
 12
-1505.928016580704
 22
468.4208160855448
 32
0.0
 13
-1505.928016580704
 23
468.4208160855448
 33
0.0
210
0.0
220
0.0
230
1.0
  0
SOLID
  5
667
  8
0
  6
CONTINUOUS
 62
     7
 10
1528.4241038877501
 20
468.61916343089808
 30
0.0
 11
1505.927258712321
 21
468.61916343089808
 31
0.0
 12
1505.928016580704
 22
468.4208160855448
 32
0.0
 13
1505.928016580704
 23
468.4208160855448
 33
0.0
210
0.0
220
0.0
230
-1.0
  0
SOLID
  5
668
  8
0
  6
CONTINUOUS
 62
     7
 10
-1527.9554008792561
 20
468.4208160855448
 30
0.0
 11
-1527.509289359605
 21
468.17584937022451
 31
0.0
 12
-1505.928952577744
 22
468.17584937022451
 32
0.0
 13
-1505.928952577744
 23
468.17584937022451
 33
0.0
210
0.0
220
0.0
230
1.0
  0
SOLID
  5
669
  8
0
  6
CONTINUOUS
 62
     7
 10
1527.9554008792561
 20
468.4208160855448
 30
0.0
 11
1505.928016580704
 21
468.4208160855448
 31
0.0
 12
1505.928952577744
 22
468.17584937022451
 32
0.0
 13
1505.928952577744
 23
468.17584937022451
 33
0.0
210
0.0
220
0.0
230
-1.0
  0
SOLID
  5
66A
  8
0
  6
CONTINUOUS
 62
     7
 10
-1527.509289359605
 20
468.17584937022451
 30
0.0
 11
-1527.0903914756129
 21
467.88680137703551
 31
0.0
 12
-1505.930057005608
 22
467.88680137703551
 32
0.0
 13
-1505.930057005608
 23
467.88680137703551
 33
0.0
210
0.0
220
0.0
230
1.0
  0
SOLID
  5
66B
  8
0
  6
CONTINUOUS
 62
     7
 10
1527.509289359605
 20
468.17584937022451
 30
0.0
 11
1505.928952577744
 21
468.17584937022451
 31
0.0
 12
1505.930057005608
 22
467.88680137703551
 32
0.0
 13
1505.930057005608
 23
467.88680137703551
 33
0.0
210
0.0
220
0.0
230
-1.0
  0
SOLID
  5
66C
  8
0
  6
CONTINUOUS
 62
     7
 10
-1527.0903914756129
 20
467.88680137703551
 30
0.0
 11
-1526.7030474145081
 21
467.55666692274963
 31
0.0
 12
-1505.931318421354
 22
467.55666692274963
 32
0.0
 13
-1505.931318421354
 23
467.55666692274963
 33
0.0
  0
SOLID
  5
66D
  8
0
  6
CONTINUOUS
 62
     7
 10
1527.0903914756129
 20
467.88680137703551
 30
0.0
 11
1505.930057005608
 21
467.88680137703551
 31
0.0
 12
1505.931318421354
 22
467.55666692274963
 32
0.0
 13
1505.931318421354
 23
467.55666692274963
 33
0.0
210
0.0
220
0.0
230
-1.0
  0
SOLID
  5
66E
  8
0
  6
CONTINUOUS
 62
     7
 10
-1526.7030474145081
 20
467.55666692274963
 30
0.0
 11
-1526.3512704353959
 21
467.18886651961373
 31
0.0
 12
-1505.9327237554969
 22
467.18886651961373
 32
0.0
 13
-1505.9327237554969
 23
467.18886651961373
 33
0.0
210
0.0
220
0.0
230
1.0
  0
SOLID
  5
66F
  8
0
  6
CONTINUOUS
 62
     7
 10
1526.7030474145081
 20
467.55666692274963
 30
0.0
 11
1505.931318421354
 21
467.55666692274963
 31
0.0
 12
1505.9327237554969
 22
467.18886651961373
 32
0.0
 13
1505.9327237554969
 23
467.18886651961373
 33
0.0
210
0.0
220
0.0
230
-1.0
  0
SOLID
  5
670
  8
0
  6
CONTINUOUS
 62
     7
 10
-1526.3512704353959
 20
467.18886651961373
 30
0.0
 11
-1526.0387052880139
 21
466.78721093553469
 31
0.0
 12
-1505.9342584474141
 22
466.78721093553469
 32
0.0
 13
-1505.9342584474141
 23
466.78721093553469
 33
0.0
  0
SOLID
  5
671
  8
0
  6
CONTINUOUS
 62
     7
 10
1526.3512704353959
 20
467.18886651961373
 30
0.0
 11
1505.9327237554969
 21
467.18886651961373
 31
0.0
 12
1505.9342584474141
 22
466.78721093553469
 32
0.0
 13
1505.9342584474141
 23
466.78721093553469
 33
0.0
210
0.0
220
0.0
230
-1.0
  0
SOLID
  5
672
  8
0
  6
CONTINUOUS
 62
     7
 10
-1526.0387052880139
 20
466.78721093553469
 30
0.0
 11
-1525.768590449597
 21
466.35586171083821
 31
0.0
 12
-1505.935906596213
 22
466.35586171083821
 32
0.0
 13
-1505.935906596213
 23
466.35586171083821
 33
0.0
210
0.0
220
0.0
230
1.0
  0
SOLID
  5
673
  8
0
  6
CONTINUOUS
 62
     7
 10
1526.0387052880139
 20
466.78721093553469
 30
0.0
 11
1505.9342584474141
 21
466.78721093553469
 31
0.0
 12
1505.935906596213
 22
466.35586171083821
 32
0.0
 13
1505.935906596213
 23
466.35586171083821
 33
0.0
210
0.0
220
0.0
230
-1.0
  0
SOLID
  5
674
  8
0
  6
CONTINUOUS
 62
     7
 10
-1525.768590449597
 20
466.35586171083821
 30
0.0
 11
-1525.5437245711189
 21
465.89928804068569
 31
0.0
 12
-1505.9376511254791
 22
465.89928804068569
 32
0.0
 13
-1505.9376511254791
 23
465.89928804068569
 33
0.0
210
0.0
220
0.0
230
1.0
  0
SOLID
  5
675
  8
0
  6
CONTINUOUS
 62
     7
 10
1525.768590449597
 20
466.35586171083821
 30
0.0
 11
1505.935906596213
 21
466.35586171083821
 31
0.0
 12
1505.9376511254791
 22
465.89928804068569
 32
0.0
 13
1505.9376511254791
 23
465.89928804068569
 33
0.0
210
0.0
220
0.0
230
-1.0
  0
SOLID
  5
676
  8
0
  6
CONTINUOUS
 62
     7
 10
-1525.5437245711189
 20
465.89928804068569
 30
0.0
 11
-1525.3664374805701
 21
465.42222046989031
 31
0.0
 12
-1505.9394739602001
 22
465.42222046989031
 32
0.0
 13
-1505.9394739602001
 23
465.42222046989031
 33
0.0
210
0.0
220
0.0
230
1.0
  0
SOLID
  5
677
  8
0
  6
CONTINUOUS
 62
     7
 10
1525.5437245711189
 20
465.89928804068569
 30
0.0
 11
1505.9376511254791
 21
465.89928804068569
 31
0.0
 12
1505.9394739602001
 22
465.42222046989031
 32
0.0
 13
1505.9394739602001
 23
465.42222046989031
 33
0.0
210
0.0
220
0.0
230
-1.0
  0
SOLID
  5
678
  8
0
  6
CONTINUOUS
 62
     7
 10
-1525.3664374805701
 20
465.42222046989031
 30
0.0
 11
-1525.2385660436771
 21
464.9296018798974
 31
0.0
 12
-1505.9413562140469
 22
464.9296018798974
 32
0.0
 13
-1505.9413562140469
 23
464.9296018798974
 33
0.0
210
0.0
220
0.0
230
1.0
  0
SOLID
  5
679
  8
0
  6
CONTINUOUS
 62
     7
 10
1525.3664374805701
 20
465.42222046989031
 30
0.0
 11
1505.9394739602001
 21
465.42222046989031
 31
0.0
 12
1505.9413562140469
 22
464.9296018798974
 32
0.0
 13
1505.9413562140469
 23
464.9296018798974
 33
0.0
210
0.0
220
0.0
230
-1.0
  0
SOLID
  5
67A
  8
0
  6
CONTINUOUS
 62
     7
 10
-1525.2385660436771
 20
464.9296018798974
 30
0.0
 11
-1525.1614351322
 21
464.42653627575157
 31
0.0
 12
-1505.9432783850491
 22
464.42653627575157
 32
0.0
 13
-1505.9432783850491
 23
464.42653627575157
 33
0.0
210
0.0
220
0.0
230
1.0
  0
SOLID
  5
67B
  8
0
  6
CONTINUOUS
 62
     7
 10
1525.2385660436771
 20
464.9296018798974
 30
0.0
 11
1505.9413562140469
 21
464.9296018798974
 31
0.0
 12
1505.9432783850491
 22
464.42653627575157
 32
0.0
 13
1505.9432783850491
 23
464.42653627575157
 33
0.0
210
0.0
220
0.0
230
-1.0
  0
SOLID
  5
67C
  8
0
  6
CONTINUOUS
 62
     7
 10
-1525.1614351322
 20
464.42653627575157
 30
0.0
 11
-1525.135843896983
 21
463.9182359036684
 31
0.0
 12
-1505.9452205576549
 22
463.9182359036684
 32
0.0
 13
-1505.9452205576549
 23
463.9182359036684
 33
0.0
210
0.0
220
0.0
230
1.0
  0
SOLID
  5
67D
  8
0
  6
CONTINUOUS
 62
     7
 10
1525.1614351322
 20
464.42653627575157
 30
0.0
 11
1505.9432783850491
 21
464.42653627575157
 31
0.0
 12
1505.9452205576549
 22
463.9182359036684
 32
0.0
 13
1505.9452205576549
 23
463.9182359036684
 33
0.0
210
0.0
220
0.0
230
-1.0
  0
SOLID
  5
67E
  8
0
  6
CONTINUOUS
 62
     7
 10
1525.139383464852
 20
458.13663119130439
 30
0.0
 11
1505.9673115788471
 21
458.13663119130439
 31
0.0
 12
1525.1394820792191
 22
457.97555240769242
 32
0.0
 13
1525.1394820792191
 23
457.97555240769242
 33
0.0
210
0.0
220
0.0
230
-1.0
  0
SOLID
  5
67F
  8
0
  6
CONTINUOUS
 62
     7
 10
-1525.135843896983
 20
463.9182359036684
 30
0.0
 11
-1525.139383464852
 21
458.13663119130439
 31
0.0
 12
-1505.9673115788471
 22
458.13663119130439
 32
0.0
 13
-1505.9673115788471
 23
458.13663119130439
 33
0.0
210
0.0
220
0.0
230
1.0
  0
SOLID
  5
680
  8
0
  6
CONTINUOUS
 62
     7
 10
1525.135843896983
 20
463.9182359036684
 30
0.0
 11
1505.9452205576549
 21
463.9182359036684
 31
0.0
 12
1505.9673115788471
 22
458.13663119130439
 32
0.0
 13
1505.9673115788471
 23
458.13663119130439
 33
0.0
210
0.0
220
0.0
230
-1.0
  0
LINE
  5
681
  8
0
  6
CONTINUOUS
 62
     7
 10
-1720.271863431874
 20
690.29167810459046
 30
0.0
 11
-1720.271863431874
 21
678.29167810459046
 31
0.0
  0
LINE
  5
682
  8
0
  6
CONTINUOUS
 62
     7
 10
-1695.271863431874
 20
690.29167810459046
 30
0.0
 11
-1695.271863431874
 21
678.29167810459046
 31
0.0
  0
LINE
  5
683
  8
0
  6
CONTINUOUS
 62
     7
 10
-1708.271863431874
 20
678.29167810459046
 30
0.0
 11
-1708.3131107180279
 21
622.33520399490067
 31
0.0
  0
LINE
  5
684
  8
0
  6
CONTINUOUS
 62
     7
 10
-1695.271863431874
 20
678.29167810459046
 30
0.0
 11
-1695.271863431874
 21
622.33520399490067
 31
0.0
  0
LINE
  5
685
  8
0
  6
CONTINUOUS
 62
     7
 10
-1708.3131107180279
 20
622.33520399490067
 30
0.0
 11
-1708.305893236522
 21
622.19150279404971
 31
0.0
  0
LINE
  5
686
  8
0
  6
CONTINUOUS
 62
     7
 10
-1695.271863431874
 20
622.33520399490067
 30
0.0
 11
-1695.271863431874
 21
622.19150279404971
 31
0.0
  0
LINE
  5
687
  8
0
  6
CONTINUOUS
 62
     7
 10
-1708.305893236522
 20
622.19150279404971
 30
0.0
 11
-1707.591219230708
 21
607.96223005076854
 31
0.0
  0
LINE
  5
688
  8
0
  6
CONTINUOUS
 62
     7
 10
-1695.271863431874
 20
622.19150279404971
 30
0.0
 11
-1694.5468712301049
 21
607.96223005076854
 31
0.0
  0
LINE
  5
689
  8
0
  6
CONTINUOUS
 62
     7
 10
-1707.591219230708
 20
607.96223005076854
 30
0.0
 11
-1707.5369397121649
 21
606.88151623240253
 31
0.0
  0
LINE
  5
68A
  8
0
  6
CONTINUOUS
 62
     7
 10
-1694.5468712301049
 20
607.96223005076854
 30
0.0
 11
-1694.3805291533531
 21
606.88151623240253
 31
0.0
  0
LINE
  5
68B
  8
0
  6
CONTINUOUS
 62
     7
 10
-1707.5369397121649
 20
606.88151623240253
 30
0.0
 11
-1705.5450708371909
 21
593.88033033285467
 31
0.0
  0
LINE
  5
68C
  8
0
  6
CONTINUOUS
 62
     7
 10
-1694.3805291533531
 20
606.88151623240253
 30
0.0
 11
-1692.379403391835
 21
593.88033033285467
 31
0.0
  0
LINE
  5
68D
  8
0
  6
CONTINUOUS
 62
     7
 10
-1705.5450708371909
 20
593.88033033285467
 30
0.0
 11
-1705.1936879433731
 21
591.58680871512104
 31
0.0
  0
LINE
  5
68E
  8
0
  6
CONTINUOUS
 62
     7
 10
-1692.379403391835
 20
593.88033033285467
 30
0.0
 11
-1691.782682226725
 21
591.58680871512104
 31
0.0
  0
LINE
  5
68F
  8
0
  6
CONTINUOUS
 62
     7
 10
-1705.1936879433731
 20
591.58680871512104
 30
0.0
 11
-1702.2111102225419
 21
580.09165031861664
 31
0.0
  0
LINE
  5
690
  8
0
  6
CONTINUOUS
 62
     7
 10
-1691.782682226725
 20
591.58680871512104
 30
0.0
 11
-1688.7919084496421
 21
580.09165031861664
 31
0.0
  0
LINE
  5
691
  8
0
  6
CONTINUOUS
 62
     7
 10
-1702.2111102225419
 20
580.09165031861664
 30
0.0
 11
-1701.307637734066
 21
576.60957530364374
 31
0.0
  0
LINE
  5
692
  8
0
  6
CONTINUOUS
 62
     7
 10
-1688.7919084496421
 20
580.09165031861664
 30
0.0
 11
-1687.495747203998
 21
576.60957530364374
 31
0.0
  0
LINE
  5
693
  8
0
  6
CONTINUOUS
 62
     7
 10
-1701.307637734066
 20
576.60957530364374
 30
0.0
 11
-1697.640626024521
 21
566.73899980066869
 31
0.0
  0
LINE
  5
694
  8
0
  6
CONTINUOUS
 62
     7
 10
-1687.495747203998
 20
576.60957530364374
 30
0.0
 11
-1683.82154220148
 21
566.73899980066869
 31
0.0
  0
LINE
  5
695
  8
0
  6
CONTINUOUS
 62
     7
 10
-1697.640626024521
 20
566.73899980066869
 30
0.0
 11
-1695.9190589030291
 21
562.10501998219945
 31
0.0
  0
LINE
  5
696
  8
0
  6
CONTINUOUS
 62
     7
 10
-1683.82154220148
 20
566.73899980066869
 30
0.0
 11
-1681.5362489055051
 21
562.10501998219945
 31
0.0
  0
LINE
  5
697
  8
0
  6
CONTINUOUS
 62
     7
 10
-1695.9190589030291
 20
562.10501998219945
 30
0.0
 11
-1691.908793013401
 21
553.96067260041752
 31
0.0
  0
LINE
  5
698
  8
0
  6
CONTINUOUS
 62
     7
 10
-1681.5362489055051
 20
562.10501998219945
 30
0.0
 11
-1677.5197828869209
 21
553.96067260041752
 31
0.0
  0
LINE
  5
699
  8
0
  6
CONTINUOUS
 62
     7
 10
-1691.908793013401
 20
553.96067260041752
 30
0.0
 11
-1689.0837914629631
 21
548.22344853247159
 31
0.0
  0
LINE
  5
69A
  8
0
  6
CONTINUOUS
 62
     7
 10
-1677.5197828869209
 20
553.96067260041752
 30
0.0
 11
-1673.9230400097481
 21
548.22344853247159
 31
0.0
  0
LINE
  5
69B
  8
0
  6
CONTINUOUS
 62
     7
 10
-1689.0837914629631
 20
548.22344853247159
 30
0.0
 11
-1685.1178082942131
 21
541.88901425460369
 31
0.0
  0
LINE
  5
69C
  8
0
  6
CONTINUOUS
 62
     7
 10
-1673.9230400097481
 20
548.22344853247159
 30
0.0
 11
-1669.951898025399
 21
541.88901425460369
 31
0.0
  0
LINE
  5
69D
  8
0
  6
CONTINUOUS
 62
     7
 10
-1685.1178082942131
 20
541.88901425460369
 30
0.0
 11
-1680.8726669693899
 21
535.10871096581809
 31
0.0
  0
LINE
  5
69E
  8
0
  6
CONTINUOUS
 62
     7
 10
-1669.951898025399
 20
541.88901425460369
 30
0.0
 11
-1664.6702236668721
 21
535.10871096581809
 31
0.0
  0
LINE
  5
69F
  8
0
  6
CONTINUOUS
 62
     7
 10
-1680.8726669693899
 20
535.10871096581809
 30
0.0
 11
-1677.402702504018
 21
530.64905130841464
 31
0.0
  0
LINE
  5
6A0
  8
0
  6
CONTINUOUS
 62
     7
 10
-1664.6702236668721
 20
535.10871096581809
 30
0.0
 11
-1661.1962684384639
 21
530.64905130841464
 31
0.0
  0
LINE
  5
6A1
  8
0
  6
CONTINUOUS
 62
     7
 10
-1677.402702504018
 20
530.64905130841464
 30
0.0
 11
-1671.3707745173001
 21
522.8967108544507
 31
0.0
  0
LINE
  5
6A2
  8
0
  6
CONTINUOUS
 62
     7
 10
-1661.1962684384639
 20
530.64905130841464
 30
0.0
 11
-1653.7747274827091
 21
522.8967108544507
 31
0.0
  0
LINE
  5
6A3
  8
0
  6
CONTINUOUS
 62
     7
 10
-1671.3707745173001
 20
522.8967108544507
 30
0.0
 11
-1668.942199095756
 21
520.35719641162416
 31
0.0
  0
LINE
  5
6A4
  8
0
  6
CONTINUOUS
 62
     7
 10
-1653.7747274827091
 20
522.8967108544507
 30
0.0
 11
-1651.3435764571459
 21
520.35719641162416
 31
0.0
  0
LINE
  5
6A5
  8
0
  6
CONTINUOUS
 62
     7
 10
-1668.942199095756
 20
520.35719641162416
 30
0.0
 11
-1660.6765789917449
 21
511.71399700886161
 31
0.0
  0
LINE
  5
6A6
  8
0
  6
CONTINUOUS
 62
     7
 10
-1651.3435764571459
 20
520.35719641162416
 30
0.0
 11
-1641.1933807897351
 21
511.71399700886161
 31
0.0
  0
LINE
  5
6A7
  8
0
  6
CONTINUOUS
 62
     7
 10
-1660.6765789917449
 20
511.71399700886161
 30
0.0
 11
-1659.9797735726461
 21
511.1200426291166
 31
0.0
  0
LINE
  5
6A8
  8
0
  6
CONTINUOUS
 62
     7
 10
-1641.1933807897351
 20
511.71399700886161
 30
0.0
 11
-1640.4958667222011
 21
511.1200426291166
 31
0.0
  0
LINE
  5
6A9
  8
0
  6
CONTINUOUS
 62
     7
 10
-1659.9797735726461
 20
511.1200426291166
 30
0.0
 11
-1650.4926571673309
 21
503.03325945316169
 31
0.0
  0
LINE
  5
6AA
  8
0
  6
CONTINUOUS
 62
     7
 10
-1640.4958667222011
 20
511.1200426291166
 30
0.0
 11
-1628.765489304556
 21
503.03325945316169
 31
0.0
  0
LINE
  5
6AB
  8
0
  6
CONTINUOUS
 62
     7
 10
-1650.4926571673309
 20
503.03325945316169
 30
0.0
 11
-1648.9009007096749
 21
501.67645209547192
 31
0.0
  0
LINE
  5
6AC
  8
0
  6
CONTINUOUS
 62
     7
 10
-1628.765489304556
 20
503.03325945316169
 30
0.0
 11
-1626.2921960889721
 21
501.67645209547192
 31
0.0
  0
LINE
  5
6AD
  8
0
  6
CONTINUOUS
 62
     7
 10
-1648.9009007096749
 20
501.67645209547192
 30
0.0
 11
-1640.9369138219561
 21
496.18060195147291
 31
0.0
  0
LINE
  5
6AE
  8
0
  6
CONTINUOUS
 62
     7
 10
-1626.2921960889721
 20
501.67645209547192
 30
0.0
 11
-1616.27393609209
 21
496.18060195147291
 31
0.0
  0
LINE
  5
6AF
  8
0
  6
CONTINUOUS
 62
     7
 10
-1640.9369138219561
 20
496.18060195147291
 30
0.0
 11
-1636.165767026622
 21
492.8880917839071
 31
0.0
  0
LINE
  5
6B0
  8
0
  6
CONTINUOUS
 62
     7
 10
-1616.27393609209
 20
496.18060195147291
 30
0.0
 11
-1608.4851450271069
 21
492.8880917839071
 31
0.0
  0
LINE
  5
6B1
  8
0
  6
CONTINUOUS
 62
     7
 10
-1636.165767026622
 20
492.8880917839071
 30
0.0
 11
-1632.0594387633321
 21
490.63304331333768
 31
0.0
  0
LINE
  5
6B2
  8
0
  6
CONTINUOUS
 62
     7
 10
-1608.4851450271069
 20
492.8880917839071
 30
0.0
 11
-1603.1505824943331
 21
490.63304331333768
 31
0.0
  0
LINE
  5
6B3
  8
0
  6
CONTINUOUS
 62
     7
 10
-1632.0594387633321
 20
490.63304331333768
 30
0.0
 11
-1624.4387607499129
 21
486.44803977806328
 31
0.0
  0
LINE
  5
6B4
  8
0
  6
CONTINUOUS
 62
     7
 10
-1603.1505824943331
 20
490.63304331333768
 30
0.0
 11
-1589.5313474972761
 21
486.44803977806328
 31
0.0
  0
LINE
  5
6B5
  8
0
  6
CONTINUOUS
 62
     7
 10
-1624.4387607499129
 20
486.44803977806328
 30
0.0
 11
-1622.603147808647
 21
485.4399868679331
 31
0.0
  0
LINE
  5
6B6
  8
0
  6
CONTINUOUS
 62
     7
 10
-1589.5313474972761
 20
486.44803977806328
 30
0.0
 11
-1584.462594294067
 21
485.4399868679331
 31
0.0
  0
LINE
  5
6B7
  8
0
  6
CONTINUOUS
 62
     7
 10
-1622.603147808647
 20
485.4399868679331
 30
0.0
 11
-1618.4184199234589
 21
483.66893555889902
 31
0.0
  0
LINE
  5
6B8
  8
0
  6
CONTINUOUS
 62
     7
 10
-1584.462594294067
 20
485.4399868679331
 30
0.0
 11
-1575.5572859461611
 21
483.66893555889902
 31
0.0
  0
LINE
  5
6B9
  8
0
  6
CONTINUOUS
 62
     7
 10
-1561.342060630948
 20
482.47533344999778
 30
0.0
 11
-1561.373127636012
 21
482.32451392565622
 31
0.0
  0
LINE
  5
6BA
  8
0
  6
CONTINUOUS
 62
     7
 10
-1557.8846340999171
 20
482.32451392565622
 30
0.0
 11
-1561.342060630948
 21
482.47533344999778
 31
0.0
  0
LINE
  5
6BB
  8
0
  6
CONTINUOUS
 62
     7
 10
-1618.4184199234589
 20
483.66893555889902
 30
0.0
 11
-1615.2417537990029
 21
482.32451392565622
 31
0.0
  0
LINE
  5
6BC
  8
0
  6
CONTINUOUS
 62
     7
 10
-1575.5572859461611
 20
483.66893555889902
 30
0.0
 11
-1561.373127636012
 21
482.32451392565622
 31
0.0
  0
LINE
  5
6BD
  8
0
  6
CONTINUOUS
 62
     7
 10
-1615.2417537990029
 20
482.32451392565622
 30
0.0
 11
-1610.8811208571281
 21
480.47901646636848
 31
0.0
  0
LINE
  5
6BE
  8
0
  6
CONTINUOUS
 62
     7
 10
-1557.8846340999171
 20
482.32451392565622
 30
0.0
 11
-1515.5779638823301
 21
480.47901646636848
 31
0.0
  0
LINE
  5
6BF
  8
0
  6
CONTINUOUS
 62
     7
 10
-1610.8811208571281
 20
480.47901646636848
 30
0.0
 11
-1608.353587873434
 21
479.4093195297429
 31
0.0
  0
LINE
  5
6C0
  8
0
  6
CONTINUOUS
 62
     7
 10
-1515.5779638823301
 20
480.47901646636848
 30
0.0
 11
-1514.3029691249201
 21
479.4093195297429
 31
0.0
  0
LINE
  5
6C1
  8
0
  6
CONTINUOUS
 62
     7
 10
-1608.353587873434
 20
479.4093195297429
 30
0.0
 11
-1593.564750572064
 21
474.85858352721129
 31
0.0
  0
LINE
  5
6C2
  8
0
  6
CONTINUOUS
 62
     7
 10
-1514.3029691249201
 20
479.4093195297429
 30
0.0
 11
-1508.8788491270741
 21
474.85858352721129
 31
0.0
  0
LINE
  5
6C3
  8
0
  6
CONTINUOUS
 62
     7
 10
-1593.564750572064
 20
474.85858352721129
 30
0.0
 11
-1581.0763760961961
 21
472.37022924783111
 31
0.0
  0
LINE
  5
6C4
  8
0
  6
CONTINUOUS
 62
     7
 10
-1508.8788491270741
 20
474.85858352721129
 30
0.0
 11
-1505.9129262080121
 21
472.37022924783111
 31
0.0
  0
LINE
  5
6C5
  8
0
  6
CONTINUOUS
 62
     7
 10
-1581.0763760961961
 20
472.37022924783111
 30
0.0
 11
-1578.3898876038479
 21
471.83493659230112
 31
0.0
  0
LINE
  5
6C6
  8
0
  6
CONTINUOUS
 62
     7
 10
-1505.9129262080121
 20
472.37022924783111
 30
0.0
 11
-1505.9149715158439
 21
471.83493659230112
 31
0.0
  0
LINE
  5
6C7
  8
0
  6
CONTINUOUS
 62
     7
 10
-1578.3898876038479
 20
471.83493659230112
 30
0.0
 11
-1562.986250921005
 21
470.36971175150069
 31
0.0
  0
LINE
  5
6C8
  8
0
  6
CONTINUOUS
 62
     7
 10
-1505.9149715158439
 20
471.83493659230112
 30
0.0
 11
-1505.9205700156749
 21
470.36971175150069
 31
0.0
  0
LINE
  5
6C9
  8
0
  6
CONTINUOUS
 62
     7
 10
-1562.986250921005
 20
470.36971175150069
 30
0.0
 11
-1529.916333127494
 21
468.91647618252028
 31
0.0
  0
LINE
  5
6CA
  8
0
  6
CONTINUOUS
 62
     7
 10
-1505.9205700156749
 20
470.36971175150069
 30
0.0
 11
-1505.926122705516
 21
468.91647618252028
 31
0.0
  0
LINE
  5
6CB
  8
0
  6
CONTINUOUS
 62
     7
 10
-1529.916333127494
 20
468.91647618252028
 30
0.0
 11
-1529.409675750733
 21
468.86828404463762
 31
0.0
  0
LINE
  5
6CC
  8
0
  6
CONTINUOUS
 62
     7
 10
-1505.926122705516
 20
468.91647618252028
 30
0.0
 11
-1505.9263068435871
 21
468.86828404463762
 31
0.0
  0
LINE
  5
6CD
  8
0
  6
CONTINUOUS
 62
     7
 10
-1529.409675750733
 20
468.86828404463762
 30
0.0
 11
-1528.910542168597
 21
468.76883633594809
 31
0.0
  0
LINE
  5
6CE
  8
0
  6
CONTINUOUS
 62
     7
 10
-1505.9263068435871
 20
468.86828404463762
 30
0.0
 11
-1505.9266868248469
 21
468.76883633594809
 31
0.0
  0
LINE
  5
6CF
  8
0
  6
CONTINUOUS
 62
     7
 10
-1528.910542168597
 20
468.76883633594809
 30
0.0
 11
-1528.4241038877501
 21
468.61916343089808
 31
0.0
  0
LINE
  5
6D0
  8
0
  6
CONTINUOUS
 62
     7
 10
-1505.9266868248469
 20
468.76883633594809
 30
0.0
 11
-1505.927258712321
 21
468.61916343089808
 31
0.0
  0
LINE
  5
6D1
  8
0
  6
CONTINUOUS
 62
     7
 10
-1528.4241038877501
 20
468.61916343089808
 30
0.0
 11
-1527.9554008792561
 21
468.4208160855448
 31
0.0
  0
LINE
  5
6D2
  8
0
  6
CONTINUOUS
 62
     7
 10
-1505.927258712321
 20
468.61916343089808
 30
0.0
 11
-1505.928016580704
 21
468.4208160855448
 31
0.0
  0
LINE
  5
6D3
  8
0
  6
CONTINUOUS
 62
     7
 10
-1527.9554008792561
 20
468.4208160855448
 30
0.0
 11
-1527.509289359605
 21
468.17584937022451
 31
0.0
  0
LINE
  5
6D4
  8
0
  6
CONTINUOUS
 62
     7
 10
-1505.928016580704
 20
468.4208160855448
 30
0.0
 11
-1505.928952577744
 21
468.17584937022451
 31
0.0
  0
LINE
  5
6D5
  8
0
  6
CONTINUOUS
 62
     7
 10
-1527.509289359605
 20
468.17584937022451
 30
0.0
 11
-1527.0903914756129
 21
467.88680137703551
 31
0.0
  0
LINE
  5
6D6
  8
0
  6
CONTINUOUS
 62
     7
 10
-1505.928952577744
 20
468.17584937022451
 30
0.0
 11
-1505.930057005608
 21
467.88680137703551
 31
0.0
  0
LINE
  5
6D7
  8
0
  6
CONTINUOUS
 62
     7
 10
-1527.0903914756129
 20
467.88680137703551
 30
0.0
 11
-1526.7030474145081
 21
467.55666692274963
 31
0.0
  0
LINE
  5
6D8
  8
0
  6
CONTINUOUS
 62
     7
 10
-1505.930057005608
 20
467.88680137703551
 30
0.0
 11
-1505.931318421354
 21
467.55666692274963
 31
0.0
  0
LINE
  5
6D9
  8
0
  6
CONTINUOUS
 62
     7
 10
-1526.7030474145081
 20
467.55666692274963
 30
0.0
 11
-1526.3512704353959
 21
467.18886651961373
 31
0.0
  0
LINE
  5
6DA
  8
0
  6
CONTINUOUS
 62
     7
 10
-1505.931318421354
 20
467.55666692274963
 30
0.0
 11
-1505.9327237554969
 21
467.18886651961373
 31
0.0
  0
LINE
  5
6DB
  8
0
  6
CONTINUOUS
 62
     7
 10
-1526.3512704353959
 20
467.18886651961373
 30
0.0
 11
-1526.0387052880139
 21
466.78721093553469
 31
0.0
  0
LINE
  5
6DC
  8
0
  6
CONTINUOUS
 62
     7
 10
-1505.9327237554969
 20
467.18886651961373
 30
0.0
 11
-1505.9342584474141
 21
466.78721093553469
 31
0.0
  0
LINE
  5
6DD
  8
0
  6
CONTINUOUS
 62
     7
 10
-1526.0387052880139
 20
466.78721093553469
 30
0.0
 11
-1525.768590449597
 21
466.35586171083821
 31
0.0
  0
LINE
  5
6DE
  8
0
  6
CONTINUOUS
 62
     7
 10
-1505.9342584474141
 20
466.78721093553469
 30
0.0
 11
-1505.935906596213
 21
466.35586171083821
 31
0.0
  0
LINE
  5
6DF
  8
0
  6
CONTINUOUS
 62
     7
 10
-1525.768590449597
 20
466.35586171083821
 30
0.0
 11
-1525.5437245711189
 21
465.89928804068569
 31
0.0
  0
LINE
  5
6E0
  8
0
  6
CONTINUOUS
 62
     7
 10
-1505.935906596213
 20
466.35586171083821
 30
0.0
 11
-1505.9376511254791
 21
465.89928804068569
 31
0.0
  0
LINE
  5
6E1
  8
0
  6
CONTINUOUS
 62
     7
 10
-1525.5437245711189
 20
465.89928804068569
 30
0.0
 11
-1525.3664374805701
 21
465.42222046989031
 31
0.0
  0
LINE
  5
6E2
  8
0
  6
CONTINUOUS
 62
     7
 10
-1505.9376511254791
 20
465.89928804068569
 30
0.0
 11
-1505.9394739602001
 21
465.42222046989031
 31
0.0
  0
LINE
  5
6E3
  8
0
  6
CONTINUOUS
 62
     7
 10
-1525.3664374805701
 20
465.42222046989031
 30
0.0
 11
-1525.2385660436771
 21
464.9296018798974
 31
0.0
  0
LINE
  5
6E4
  8
0
  6
CONTINUOUS
 62
     7
 10
-1505.9394739602001
 20
465.42222046989031
 30
0.0
 11
-1505.9413562140469
 21
464.9296018798974
 31
0.0
  0
LINE
  5
6E5
  8
0
  6
CONTINUOUS
 62
     7
 10
-1525.2385660436771
 20
464.9296018798974
 30
0.0
 11
-1525.1614351322
 21
464.42653627575157
 31
0.0
  0
LINE
  5
6E6
  8
0
  6
CONTINUOUS
 62
     7
 10
-1505.9413562140469
 20
464.9296018798974
 30
0.0
 11
-1505.9432783850491
 21
464.42653627575157
 31
0.0
  0
LINE
  5
6E7
  8
0
  6
CONTINUOUS
 62
     7
 10
-1525.1614351322
 20
464.42653627575157
 30
0.0
 11
-1525.135843896983
 21
463.9182359036684
 31
0.0
  0
LINE
  5
6E8
  8
0
  6
CONTINUOUS
 62
     7
 10
-1505.9432783850491
 20
464.42653627575157
 30
0.0
 11
-1505.9452205576549
 21
463.9182359036684
 31
0.0
  0
LINE
  5
6E9
  8
0
  6
CONTINUOUS
 62
     7
 10
-1505.9673115788471
 20
458.13663119130439
 30
0.0
 11
-1525.1394820792191
 21
457.97555240769242
 31
0.0
  0
LINE
  5
6EA
  8
0
  6
CONTINUOUS
 62
     7
 10
-1525.1394820792191
 20
457.97555240769242
 30
0.0
 11
-1525.139383464852
 21
458.13663119130439
 31
0.0
  0
LINE
  5
6EB
  8
0
  6
CONTINUOUS
 62
     7
 10
-1525.135843896983
 20
463.9182359036684
 30
0.0
 11
-1525.139383464852
 21
458.13663119130439
 31
0.0
  0
LINE
  5
6EC
  8
0
  6
CONTINUOUS
 62
     7
 10
-1505.9452205576549
 20
463.9182359036684
 30
0.0
 11
-1505.9673115788471
 21
458.13663119130439
 31
0.0
  0
ENDBLK
  5
6EE
  8
0
 62
     7
  0
BLOCK
  8
0
 62
     7
  2
*U52
 70
     1
 10
0.0
 20
0.0
 30
0.0
  3
*U52
  1

  0
SOLID
  5
6FF
  8
0
  6
CONTINUOUS
 62
     7
 10
-1270.490965929122
 20
690.06841984178243
 30
0.0
 11
-1270.490965929122
 21
678.06841984178243
 31
0.0
 12
-1245.490965929122
 22
678.06841984178243
 32
0.0
 13
-1245.490965929122
 23
678.06841984178243
 33
0.0
210
0.0
220
0.0
230
1.0
  0
SOLID
  5
700
  8
0
  6
CONTINUOUS
 62
     7
 10
1270.490965929122
 20
690.06841984178243
 30
0.0
 11
1245.490965929122
 21
690.06841984178243
 31
0.0
 12
1245.490965929122
 22
678.06841984178243
 32
0.0
 13
1245.490965929122
 23
678.06841984178243
 33
0.0
210
0.0
220
0.0
230
-1.0
  0
SOLID
  5
701
  8
0
  6
CONTINUOUS
 62
     7
 10
-1270.490965929122
 20
678.06841984178243
 30
0.0
 11
-1270.490965929122
 21
622.11194573209275
 31
0.0
 12
-1257.449718642968
 22
622.11194573209275
 32
0.0
 13
-1257.449718642968
 23
622.11194573209275
 33
0.0
210
0.0
220
0.0
230
1.0
  0
SOLID
  5
702
  8
0
  6
CONTINUOUS
 62
     7
 10
1270.490965929122
 20
678.06841984178243
 30
0.0
 11
1257.490965929122
 21
678.06841984178243
 31
0.0
 12
1257.449718642968
 22
622.11194573209275
 32
0.0
 13
1257.449718642968
 23
622.11194573209275
 33
0.0
210
0.0
220
0.0
230
-1.0
  0
SOLID
  5
703
  8
0
  6
CONTINUOUS
 62
     7
 10
-1270.490965929122
 20
622.11194573209275
 30
0.0
 11
-1270.490965929122
 21
621.96824453124157
 31
0.0
 12
-1257.4569361244739
 22
621.96824453124157
 32
0.0
 13
-1257.4569361244739
 23
621.96824453124157
 33
0.0
210
0.0
220
0.0
230
1.0
  0
SOLID
  5
704
  8
0
  6
CONTINUOUS
 62
     7
 10
1270.490965929122
 20
622.11194573209275
 30
0.0
 11
1257.449718642968
 21
622.11194573209275
 31
0.0
 12
1257.4569361244739
 22
621.96824453124157
 32
0.0
 13
1257.4569361244739
 23
621.96824453124157
 33
0.0
210
0.0
220
0.0
230
-1.0
  0
SOLID
  5
705
  8
0
  6
CONTINUOUS
 62
     7
 10
-1270.490965929122
 20
621.96824453124157
 30
0.0
 11
-1271.2159581308911
 21
607.73897178796028
 31
0.0
 12
-1258.1716101302879
 22
607.73897178796028
 32
0.0
 13
-1258.1716101302879
 23
607.73897178796028
 33
0.0
210
0.0
220
0.0
230
1.0
  0
SOLID
  5
706
  8
0
  6
CONTINUOUS
 62
     7
 10
1270.490965929122
 20
621.96824453124157
 30
0.0
 11
1257.4569361244739
 21
621.96824453124157
 31
0.0
 12
1258.1716101302879
 22
607.73897178796028
 32
0.0
 13
1258.1716101302879
 23
607.73897178796028
 33
0.0
210
0.0
220
0.0
230
-1.0
  0
SOLID
  5
707
  8
0
  6
CONTINUOUS
 62
     7
 10
-1271.2159581308911
 20
607.73897178796028
 30
0.0
 11
-1271.3823002076431
 21
606.65825796959439
 31
0.0
 12
-1258.2258896488311
 22
606.65825796959439
 32
0.0
 13
-1258.2258896488311
 23
606.65825796959439
 33
0.0
210
0.0
220
0.0
230
1.0
  0
SOLID
  5
708
  8
0
  6
CONTINUOUS
 62
     7
 10
1271.2159581308911
 20
607.73897178796028
 30
0.0
 11
1258.1716101302879
 21
607.73897178796028
 31
0.0
 12
1258.2258896488311
 22
606.65825796959439
 32
0.0
 13
1258.2258896488311
 23
606.65825796959439
 33
0.0
210
0.0
220
0.0
230
-1.0
  0
SOLID
  5
709
  8
0
  6
CONTINUOUS
 62
     7
 10
-1271.3823002076431
 20
606.65825796959439
 30
0.0
 11
-1273.383425969161
 21
593.65707207004652
 31
0.0
 12
-1260.2177585238051
 22
593.65707207004652
 32
0.0
 13
-1260.2177585238051
 23
593.65707207004652
 33
0.0
210
0.0
220
0.0
230
1.0
  0
SOLID
  5
70A
  8
0
  6
CONTINUOUS
 62
     7
 10
1271.3823002076431
 20
606.65825796959439
 30
0.0
 11
1258.2258896488311
 21
606.65825796959439
 31
0.0
 12
1260.2177585238051
 22
593.65707207004652
 32
0.0
 13
1260.2177585238051
 23
593.65707207004652
 33
0.0
210
0.0
220
0.0
230
-1.0
  0
SOLID
  5
70B
  8
0
  6
CONTINUOUS
 62
     7
 10
-1273.383425969161
 20
593.65707207004652
 30
0.0
 11
-1273.980147134271
 21
591.36355045231301
 31
0.0
 12
-1260.5691414176231
 22
591.36355045231301
 32
0.0
 13
-1260.5691414176231
 23
591.36355045231301
 33
0.0
  0
SOLID
  5
70C
  8
0
  6
CONTINUOUS
 62
     7
 10
1273.383425969161
 20
593.65707207004652
 30
0.0
 11
1260.2177585238051
 21
593.65707207004652
 31
0.0
 12
1260.5691414176231
 22
591.36355045231301
 32
0.0
 13
1260.5691414176231
 23
591.36355045231301
 33
0.0
210
0.0
220
0.0
230
-1.0
  0
SOLID
  5
70D
  8
0
  6
CONTINUOUS
 62
     7
 10
-1273.980147134271
 20
591.36355045231301
 30
0.0
 11
-1276.9709209113539
 21
579.8683920558085
 31
0.0
 12
-1263.551719138454
 22
579.8683920558085
 32
0.0
 13
-1263.551719138454
 23
579.8683920558085
 33
0.0
210
0.0
220
0.0
230
1.0
  0
SOLID
  5
70E
  8
0
  6
CONTINUOUS
 62
     7
 10
1273.980147134271
 20
591.36355045231301
 30
0.0
 11
1260.5691414176231
 21
591.36355045231301
 31
0.0
 12
1263.551719138454
 22
579.8683920558085
 32
0.0
 13
1263.551719138454
 23
579.8683920558085
 33
0.0
210
0.0
220
0.0
230
-1.0
  0
SOLID
  5
70F
  8
0
  6
CONTINUOUS
 62
     7
 10
-1276.9709209113539
 20
579.8683920558085
 30
0.0
 11
-1278.267082156998
 21
576.38631704083571
 31
0.0
 12
-1264.4551916269299
 22
576.38631704083571
 32
0.0
 13
-1264.4551916269299
 23
576.38631704083571
 33
0.0
210
0.0
220
0.0
230
1.0
  0
SOLID
  5
710
  8
0
  6
CONTINUOUS
 62
     7
 10
1276.9709209113539
 20
579.8683920558085
 30
0.0
 11
1263.551719138454
 21
579.8683920558085
 31
0.0
 12
1264.4551916269299
 22
576.38631704083571
 32
0.0
 13
1264.4551916269299
 23
576.38631704083571
 33
0.0
210
0.0
220
0.0
230
-1.0
  0
SOLID
  5
711
  8
0
  6
CONTINUOUS
 62
     7
 10
-1278.267082156998
 20
576.38631704083571
 30
0.0
 11
-1281.9412871595159
 21
566.51574153786055
 31
0.0
 12
-1268.122203336475
 22
566.51574153786055
 32
0.0
 13
-1268.122203336475
 23
566.51574153786055
 33
0.0
210
0.0
220
0.0
230
1.0
  0
SOLID
  5
712
  8
0
  6
CONTINUOUS
 62
     7
 10
1278.267082156998
 20
576.38631704083571
 30
0.0
 11
1264.4551916269299
 21
576.38631704083571
 31
0.0
 12
1268.122203336475
 22
566.51574153786055
 32
0.0
 13
1268.122203336475
 23
566.51574153786055
 33
0.0
210
0.0
220
0.0
230
-1.0
  0
SOLID
  5
713
  8
0
  6
CONTINUOUS
 62
     7
 10
-1281.9412871595159
 20
566.51574153786055
 30
0.0
 11
-1284.2265804554911
 21
561.88176171939153
 31
0.0
 12
-1269.8437704579669
 22
561.88176171939153
 32
0.0
 13
-1269.8437704579669
 23
561.88176171939153
 33
0.0
  0
SOLID
  5
714
  8
0
  6
CONTINUOUS
 62
     7
 10
1281.9412871595159
 20
566.51574153786055
 30
0.0
 11
1268.122203336475
 21
566.51574153786055
 31
0.0
 12
1269.8437704579669
 22
561.88176171939153
 32
0.0
 13
1269.8437704579669
 23
561.88176171939153
 33
0.0
210
0.0
220
0.0
230
-1.0
  0
SOLID
  5
715
  8
0
  6
CONTINUOUS
 62
     7
 10
-1284.2265804554911
 20
561.88176171939153
 30
0.0
 11
-1288.2430464740751
 21
553.73741433760938
 31
0.0
 12
-1273.854036347595
 22
553.73741433760938
 32
0.0
 13
-1273.854036347595
 23
553.73741433760938
 33
0.0
210
0.0
220
0.0
230
1.0
  0
SOLID
  5
716
  8
0
  6
CONTINUOUS
 62
     7
 10
1284.2265804554911
 20
561.88176171939153
 30
0.0
 11
1269.8437704579669
 21
561.88176171939153
 31
0.0
 12
1273.854036347595
 22
553.73741433760938
 32
0.0
 13
1273.854036347595
 23
553.73741433760938
 33
0.0
210
0.0
220
0.0
230
-1.0
  0
SOLID
  5
717
  8
0
  6
CONTINUOUS
 62
     7
 10
-1288.2430464740751
 20
553.73741433760938
 30
0.0
 11
-1291.8397893512481
 21
548.00019026966345
 31
0.0
 12
-1276.6790378980329
 22
548.00019026966345
 32
0.0
 13
-1276.6790378980329
 23
548.00019026966345
 33
0.0
210
0.0
220
0.0
230
1.0
  0
SOLID
  5
718
  8
0
  6
CONTINUOUS
 62
     7
 10
1288.2430464740751
 20
553.73741433760938
 30
0.0
 11
1273.854036347595
 21
553.73741433760938
 31
0.0
 12
1276.6790378980329
 22
548.00019026966345
 32
0.0
 13
1276.6790378980329
 23
548.00019026966345
 33
0.0
210
0.0
220
0.0
230
-1.0
  0
SOLID
  5
719
  8
0
  6
CONTINUOUS
 62
     7
 10
-1291.8397893512481
 20
548.00019026966345
 30
0.0
 11
-1295.8109313355969
 21
541.66575599179555
 31
0.0
 12
-1280.645021066784
 22
541.66575599179555
 32
0.0
 13
-1280.645021066784
 23
541.66575599179555
 33
0.0
210
0.0
220
0.0
230
1.0
  0
SOLID
  5
71A
  8
0
  6
CONTINUOUS
 62
     7
 10
1291.8397893512481
 20
548.00019026966345
 30
0.0
 11
1276.6790378980329
 21
548.00019026966345
 31
0.0
 12
1280.645021066784
 22
541.66575599179555
 32
0.0
 13
1280.645021066784
 23
541.66575599179555
 33
0.0
210
0.0
220
0.0
230
-1.0
  0
SOLID
  5
71B
  8
0
  6
CONTINUOUS
 62
     7
 10
-1295.8109313355969
 20
541.66575599179555
 30
0.0
 11
-1301.0926056941239
 21
534.88545270301006
 31
0.0
 12
-1284.8901623916061
 22
534.88545270301006
 32
0.0
 13
-1284.8901623916061
 23
534.88545270301006
 33
0.0
210
0.0
220
0.0
230
1.0
  0
SOLID
  5
71C
  8
0
  6
CONTINUOUS
 62
     7
 10
1295.8109313355969
 20
541.66575599179555
 30
0.0
 11
1280.645021066784
 21
541.66575599179555
 31
0.0
 12
1284.8901623916061
 22
534.88545270301006
 32
0.0
 13
1284.8901623916061
 23
534.88545270301006
 33
0.0
210
0.0
220
0.0
230
-1.0
  0
SOLID
  5
71D
  8
0
  6
CONTINUOUS
 62
     7
 10
-1301.0926056941239
 20
534.88545270301006
 30
0.0
 11
-1304.5665609225321
 21
530.42579304560638
 31
0.0
 12
-1288.360126856978
 22
530.42579304560638
 32
0.0
 13
-1288.360126856978
 23
530.42579304560638
 33
0.0
  0
SOLID
  5
71E
  8
0
  6
CONTINUOUS
 62
     7
 10
1301.0926056941239
 20
534.88545270301006
 30
0.0
 11
1284.8901623916061
 21
534.88545270301006
 31
0.0
 12
1288.360126856978
 22
530.42579304560638
 32
0.0
 13
1288.360126856978
 23
530.42579304560638
 33
0.0
210
0.0
220
0.0
230
-1.0
  0
SOLID
  5
71F
  8
0
  6
CONTINUOUS
 62
     7
 10
-1304.5665609225321
 20
530.42579304560638
 30
0.0
 11
-1311.9881018782869
 21
522.67345259164256
 31
0.0
 12
-1294.3920548436961
 22
522.67345259164256
 32
0.0
 13
-1294.3920548436961
 23
522.67345259164256
 33
0.0
210
0.0
220
0.0
230
1.0
  0
SOLID
  5
720
  8
0
  6
CONTINUOUS
 62
     7
 10
1304.5665609225321
 20
530.42579304560638
 30
0.0
 11
1288.360126856978
 21
530.42579304560638
 31
0.0
 12
1294.3920548436961
 22
522.67345259164256
 32
0.0
 13
1294.3920548436961
 23
522.67345259164256
 33
0.0
210
0.0
220
0.0
230
-1.0
  0
SOLID
  5
721
  8
0
  6
CONTINUOUS
 62
     7
 10
-1311.9881018782869
 20
522.67345259164256
 30
0.0
 11
-1314.4192529038501
 21
520.13393814881601
 31
0.0
 12
-1296.82063026524
 22
520.13393814881601
 32
0.0
 13
-1296.82063026524
 23
520.13393814881601
 33
0.0
  0
SOLID
  5
722
  8
0
  6
CONTINUOUS
 62
     7
 10
1311.9881018782869
 20
522.67345259164256
 30
0.0
 11
1294.3920548436961
 21
522.67345259164256
 31
0.0
 12
1296.82063026524
 22
520.13393814881601
 32
0.0
 13
1296.82063026524
 23
520.13393814881601
 33
0.0
210
0.0
220
0.0
230
-1.0
  0
SOLID
  5
723
  8
0
  6
CONTINUOUS
 62
     7
 10
-1314.4192529038501
 20
520.13393814881601
 30
0.0
 11
-1324.5694485712611
 21
511.49073874605358
 31
0.0
 12
-1305.086250369251
 22
511.49073874605358
 32
0.0
 13
-1305.086250369251
 23
511.49073874605358
 33
0.0
210
0.0
220
0.0
230
1.0
  0
SOLID
  5
724
  8
0
  6
CONTINUOUS
 62
     7
 10
1314.4192529038501
 20
520.13393814881601
 30
0.0
 11
1296.82063026524
 21
520.13393814881601
 31
0.0
 12
1305.086250369251
 22
511.49073874605358
 32
0.0
 13
1305.086250369251
 23
511.49073874605358
 33
0.0
210
0.0
220
0.0
230
-1.0
  0
SOLID
  5
725
  8
0
  6
CONTINUOUS
 62
     7
 10
-1324.5694485712611
 20
511.49073874605358
 30
0.0
 11
-1325.2669626387949
 21
510.89678436630862
 31
0.0
 12
-1305.7830557883501
 22
510.89678436630862
 32
0.0
 13
-1305.7830557883501
 23
510.89678436630862
 33
0.0
210
0.0
220
0.0
230
1.0
  0
SOLID
  5
726
  8
0
  6
CONTINUOUS
 62
     7
 10
1324.5694485712611
 20
511.49073874605358
 30
0.0
 11
1305.086250369251
 21
511.49073874605358
 31
0.0
 12
1305.7830557883501
 22
510.89678436630862
 32
0.0
 13
1305.7830557883501
 23
510.89678436630862
 33
0.0
210
0.0
220
0.0
230
-1.0
  0
SOLID
  5
727
  8
0
  6
CONTINUOUS
 62
     7
 10
-1325.2669626387949
 20
510.89678436630862
 30
0.0
 11
-1336.9973400564411
 21
502.81000119035372
 31
0.0
 12
-1315.2701721936651
 22
502.81000119035372
 32
0.0
 13
-1315.2701721936651
 23
502.81000119035372
 33
0.0
  0
SOLID
  5
728
  8
0
  6
CONTINUOUS
 62
     7
 10
1325.2669626387949
 20
510.89678436630862
 30
0.0
 11
1305.7830557883501
 21
510.89678436630862
 31
0.0
 12
1315.2701721936651
 22
502.81000119035372
 32
0.0
 13
1315.2701721936651
 23
502.81000119035372
 33
0.0
210
0.0
220
0.0
230
-1.0
  0
SOLID
  5
729
  8
0
  6
CONTINUOUS
 62
     7
 10
-1336.9973400564411
 20
502.81000119035372
 30
0.0
 11
-1339.470633272025
 21
501.45319383266383
 31
0.0
 12
-1316.861928651321
 22
501.45319383266383
 32
0.0
 13
-1316.861928651321
 23
501.45319383266383
 33
0.0
210
0.0
220
0.0
230
1.0
  0
SOLID
  5
72A
  8
0
  6
CONTINUOUS
 62
     7
 10
1336.9973400564411
 20
502.81000119035372
 30
0.0
 11
1315.2701721936651
 21
502.81000119035372
 31
0.0
 12
1316.861928651321
 22
501.45319383266383
 32
0.0
 13
1316.861928651321
 23
501.45319383266383
 33
0.0
210
0.0
220
0.0
230
-1.0
  0
SOLID
  5
72B
  8
0
  6
CONTINUOUS
 62
     7
 10
-1339.470633272025
 20
501.45319383266383
 30
0.0
 11
-1349.4888932689071
 21
495.95734368866488
 31
0.0
 12
-1324.8259155390399
 22
495.95734368866488
 32
0.0
 13
-1324.8259155390399
 23
495.95734368866488
 33
0.0
210
0.0
220
0.0
230
1.0
  0
SOLID
  5
72C
  8
0
  6
CONTINUOUS
 62
     7
 10
1339.470633272025
 20
501.45319383266383
 30
0.0
 11
1316.861928651321
 21
501.45319383266383
 31
0.0
 12
1324.8259155390399
 22
495.95734368866488
 32
0.0
 13
1324.8259155390399
 23
495.95734368866488
 33
0.0
210
0.0
220
0.0
230
-1.0
  0
SOLID
  5
72D
  8
0
  6
CONTINUOUS
 62
     7
 10
-1349.4888932689071
 20
495.95734368866488
 30
0.0
 11
-1357.2776843338891
 21
492.66483352109913
 31
0.0
 12
-1329.597062334374
 22
492.66483352109913
 32
0.0
 13
-1329.597062334374
 23
492.66483352109913
 33
0.0
210
0.0
220
0.0
230
1.0
  0
SOLID
  5
72E
  8
0
  6
CONTINUOUS
 62
     7
 10
1349.4888932689071
 20
495.95734368866488
 30
0.0
 11
1324.8259155390399
 21
495.95734368866488
 31
0.0
 12
1329.597062334374
 22
492.66483352109913
 32
0.0
 13
1329.597062334374
 23
492.66483352109913
 33
0.0
210
0.0
220
0.0
230
-1.0
  0
SOLID
  5
72F
  8
0
  6
CONTINUOUS
 62
     7
 10
-1357.2776843338891
 20
492.66483352109913
 30
0.0
 11
-1362.612246866664
 21
490.40978505052971
 31
0.0
 12
-1333.7033905976641
 22
490.40978505052971
 32
0.0
 13
-1333.7033905976641
 23
490.40978505052971
 33
0.0
  0
SOLID
  5
730
  8
0
  6
CONTINUOUS
 62
     7
 10
1357.2776843338891
 20
492.66483352109913
 30
0.0
 11
1329.597062334374
 21
492.66483352109913
 31
0.0
 12
1333.7033905976641
 22
490.40978505052971
 32
0.0
 13
1333.7033905976641
 23
490.40978505052971
 33
0.0
210
0.0
220
0.0
230
-1.0
  0
SOLID
  5
731
  8
0
  6
CONTINUOUS
 62
     7
 10
-1362.612246866664
 20
490.40978505052971
 30
0.0
 11
-1376.2314818637201
 21
486.2247815152553
 31
0.0
 12
-1341.324068611083
 22
486.2247815152553
 32
0.0
 13
-1341.324068611083
 23
486.2247815152553
 33
0.0
  0
SOLID
  5
732
  8
0
  6
CONTINUOUS
 62
     7
 10
1362.612246866664
 20
490.40978505052971
 30
0.0
 11
1333.7033905976641
 21
490.40978505052971
 31
0.0
 12
1341.324068611083
 22
486.2247815152553
 32
0.0
 13
1341.324068611083
 23
486.2247815152553
 33
0.0
210
0.0
220
0.0
230
-1.0
  0
SOLID
  5
733
  8
0
  6
CONTINUOUS
 62
     7
 10
-1376.2314818637201
 20
486.2247815152553
 30
0.0
 11
-1381.300235066929
 21
485.21672860512501
 31
0.0
 12
-1343.159681552349
 22
485.21672860512501
 32
0.0
 13
-1343.159681552349
 23
485.21672860512501
 33
0.0
  0
SOLID
  5
734
  8
0
  6
CONTINUOUS
 62
     7
 10
1376.2314818637201
 20
486.2247815152553
 30
0.0
 11
1341.324068611083
 21
486.2247815152553
 31
0.0
 12
1343.159681552349
 22
485.21672860512501
 32
0.0
 13
1343.159681552349
 23
485.21672860512501
 33
0.0
210
0.0
220
0.0
230
-1.0
  0
SOLID
  5
735
  8
0
  6
CONTINUOUS
 62
     7
 10
-1381.300235066929
 20
485.21672860512501
 30
0.0
 11
-1390.2055434148349
 21
483.44567729609099
 31
0.0
 12
-1347.344409437537
 22
483.44567729609099
 32
0.0
 13
-1347.344409437537
 23
483.44567729609099
 33
0.0
210
0.0
220
0.0
230
1.0
  0
SOLID
  5
736
  8
0
  6
CONTINUOUS
 62
     7
 10
1381.300235066929
 20
485.21672860512501
 30
0.0
 11
1343.159681552349
 21
485.21672860512501
 31
0.0
 12
1347.344409437537
 22
483.44567729609099
 32
0.0
 13
1347.344409437537
 23
483.44567729609099
 33
0.0
210
0.0
220
0.0
230
-1.0
  0
SOLID
  5
737
  8
0
  6
CONTINUOUS
 62
     7
 10
-1390.2055434148349
 20
483.44567729609099
 30
0.0
 11
-1404.389701724984
 21
482.10125566284808
 31
0.0
 12
-1350.521075561993
 22
482.10125566284808
 32
0.0
 13
-1350.521075561993
 23
482.10125566284808
 33
0.0
210
0.0
220
0.0
230
1.0
  0
SOLID
  5
738
  8
0
  6
CONTINUOUS
 62
     7
 10
1390.2055434148349
 20
483.44567729609099
 30
0.0
 11
1347.344409437537
 21
483.44567729609099
 31
0.0
 12
1350.521075561993
 22
482.10125566284808
 32
0.0
 13
1350.521075561993
 23
482.10125566284808
 33
0.0
210
0.0
220
0.0
230
-1.0
  0
SOLID
  5
739
  8
0
  6
CONTINUOUS
 62
     7
 10
-1404.389701724984
 20
482.10125566284808
 30
0.0
 11
-1450.990965929122
 21
480.06841984178237
 31
0.0
 12
-1355.3243608779121
 22
480.06841984178237
 32
0.0
 13
-1355.3243608779121
 23
480.06841984178237
 33
0.0
210
0.0
220
0.0
230
1.0
  0
SOLID
  5
73A
  8
0
  6
CONTINUOUS
 62
     7
 10
1404.389701724984
 20
482.10125566284808
 30
0.0
 11
1350.521075561993
 21
482.10125566284808
 31
0.0
 12
1355.3243608779121
 22
480.06841984178237
 32
0.0
 13
1355.3243608779121
 23
480.06841984178237
 33
0.0
210
0.0
220
0.0
230
-1.0
  0
SOLID
  5
73B
  8
0
  6
CONTINUOUS
 62
     7
 10
-1450.990965929122
 20
480.06841984178237
 30
0.0
 11
-1452.042519930653
 21
479.18606126693493
 31
0.0
 12
-1357.409241487562
 22
479.18606126693493
 32
0.0
 13
-1357.409241487562
 23
479.18606126693493
 33
0.0
210
0.0
220
0.0
230
1.0
  0
SOLID
  5
73C
  8
0
  6
CONTINUOUS
 62
     7
 10
1450.990965929122
 20
480.06841984178237
 30
0.0
 11
1355.3243608779121
 21
480.06841984178237
 31
0.0
 12
1357.409241487562
 22
479.18606126693493
 32
0.0
 13
1357.409241487562
 23
479.18606126693493
 33
0.0
210
0.0
220
0.0
230
-1.0
  0
SOLID
  5
73D
  8
0
  6
CONTINUOUS
 62
     7
 10
-1452.042519930653
 20
479.18606126693493
 30
0.0
 11
-1457.465875910618
 21
474.63532526440321
 31
0.0
 12
-1372.198078788932
 22
474.63532526440321
 32
0.0
 13
-1372.198078788932
 23
474.63532526440321
 33
0.0
210
0.0
220
0.0
230
1.0
  0
SOLID
  5
73E
  8
0
  6
CONTINUOUS
 62
     7
 10
1452.042519930653
 20
479.18606126693493
 30
0.0
 11
1357.409241487562
 21
479.18606126693493
 31
0.0
 12
1372.198078788932
 22
474.63532526440321
 32
0.0
 13
1372.198078788932
 23
474.63532526440321
 33
0.0
210
0.0
220
0.0
230
-1.0
  0
SOLID
  5
73F
  8
0
  6
CONTINUOUS
 62
     7
 10
-1457.465875910618
 20
474.63532526440321
 30
0.0
 11
-1460.6233472817769
 21
471.98589220141088
 31
0.0
 12
-1385.4948639427059
 22
471.98589220141088
 32
0.0
 13
-1385.4948639427059
 23
471.98589220141088
 33
0.0
210
0.0
220
0.0
230
1.0
  0
SOLID
  5
740
  8
0
  6
CONTINUOUS
 62
     7
 10
1457.465875910618
 20
474.63532526440321
 30
0.0
 11
1372.198078788932
 21
474.63532526440321
 31
0.0
 12
1385.4948639427059
 22
471.98589220141088
 32
0.0
 13
1385.4948639427059
 23
471.98589220141088
 33
0.0
210
0.0
220
0.0
230
-1.0
  0
SOLID
  5
741
  8
0
  6
CONTINUOUS
 62
     7
 10
-1460.6233472817769
 20
471.98589220141088
 30
0.0
 11
-1460.6233472817769
 21
471.61167832949309
 31
0.0
 12
-1387.3729417571481
 22
471.61167832949309
 32
0.0
 13
-1387.3729417571481
 23
471.61167832949309
 33
0.0
210
0.0
220
0.0
230
1.0
  0
SOLID
  5
742
  8
0
  6
CONTINUOUS
 62
     7
 10
1460.6233472817769
 20
471.98589220141088
 30
0.0
 11
1385.4948639427059
 21
471.98589220141088
 31
0.0
 12
1387.3729417571481
 22
471.61167832949309
 32
0.0
 13
1387.3729417571481
 23
471.61167832949309
 33
0.0
210
0.0
220
0.0
230
-1.0
  0
SOLID
  5
743
  8
0
  6
CONTINUOUS
 62
     7
 10
-1460.6233472817769
 20
471.61167832949309
 30
0.0
 11
-1460.6233472817769
 21
470.14645348869271
 31
0.0
 12
-1402.776578439991
 22
470.14645348869271
 32
0.0
 13
-1402.776578439991
 23
470.14645348869271
 33
0.0
210
0.0
220
0.0
230
1.0
  0
SOLID
  5
744
  8
0
  6
CONTINUOUS
 62
     7
 10
1460.6233472817769
 20
471.61167832949309
 30
0.0
 11
1387.3729417571481
 21
471.61167832949309
 31
0.0
 12
1402.776578439991
 22
470.14645348869271
 32
0.0
 13
1402.776578439991
 23
470.14645348869271
 33
0.0
210
0.0
220
0.0
230
-1.0
  0
SOLID
  5
745
  8
0
  6
CONTINUOUS
 62
     7
 10
-1460.6233472817769
 20
470.14645348869271
 30
0.0
 11
-1460.6233472817769
 21
468.69321791971231
 31
0.0
 12
-1435.846496233502
 22
468.69321791971231
 32
0.0
 13
-1435.846496233502
 23
468.69321791971231
 33
0.0
210
0.0
220
0.0
230
1.0
  0
SOLID
  5
746
  8
0
  6
CONTINUOUS
 62
     7
 10
1460.6233472817769
 20
470.14645348869271
 30
0.0
 11
1402.776578439991
 21
470.14645348869271
 31
0.0
 12
1435.846496233502
 22
468.69321791971231
 32
0.0
 13
1435.846496233502
 23
468.69321791971231
 33
0.0
210
0.0
220
0.0
230
-1.0
  0
SOLID
  5
747
  8
0
  6
CONTINUOUS
 62
     7
 10
-1460.6233472817769
 20
468.69321791971231
 30
0.0
 11
-1460.6233472817769
 21
468.64502578182959
 31
0.0
 12
-1436.353153610263
 22
468.64502578182959
 32
0.0
 13
-1436.353153610263
 23
468.64502578182959
 33
0.0
210
0.0
220
0.0
230
1.0
  0
SOLID
  5
748
  8
0
  6
CONTINUOUS
 62
     7
 10
1460.6233472817769
 20
468.69321791971231
 30
0.0
 11
1435.846496233502
 21
468.69321791971231
 31
0.0
 12
1436.353153610263
 22
468.64502578182959
 32
0.0
 13
1436.353153610263
 23
468.64502578182959
 33
0.0
210
0.0
220
0.0
230
-1.0
  0
SOLID
  5
749
  8
0
  6
CONTINUOUS
 62
     7
 10
-1460.6233472817769
 20
468.64502578182959
 30
0.0
 11
-1460.6233472817769
 21
468.54557807314012
 31
0.0
 12
-1436.852287192399
 22
468.54557807314012
 32
0.0
 13
-1436.852287192399
 23
468.54557807314012
 33
0.0
210
0.0
220
0.0
230
1.0
  0
SOLID
  5
74A
  8
0
  6
CONTINUOUS
 62
     7
 10
1460.6233472817769
 20
468.64502578182959
 30
0.0
 11
1436.353153610263
 21
468.64502578182959
 31
0.0
 12
1436.852287192399
 22
468.54557807314012
 32
0.0
 13
1436.852287192399
 23
468.54557807314012
 33
0.0
210
0.0
220
0.0
230
-1.0
  0
SOLID
  5
74B
  8
0
  6
CONTINUOUS
 62
     7
 10
-1460.6233472817769
 20
468.54557807314012
 30
0.0
 11
-1460.6233472817769
 21
468.39590516809
 31
0.0
 12
-1437.3387254732461
 22
468.39590516809
 32
0.0
 13
-1437.3387254732461
 23
468.39590516809
 33
0.0
210
0.0
220
0.0
230
1.0
  0
SOLID
  5
74C
  8
0
  6
CONTINUOUS
 62
     7
 10
1460.6233472817769
 20
468.54557807314012
 30
0.0
 11
1436.852287192399
 21
468.54557807314012
 31
0.0
 12
1437.3387254732461
 22
468.39590516809
 32
0.0
 13
1437.3387254732461
 23
468.39590516809
 33
0.0
210
0.0
220
0.0
230
-1.0
  0
SOLID
  5
74D
  8
0
  6
CONTINUOUS
 62
     7
 10
-1460.6233472817769
 20
468.39590516809
 30
0.0
 11
-1460.6233472817769
 21
468.19755782273671
 31
0.0
 12
-1437.8074284817401
 22
468.19755782273671
 32
0.0
 13
-1437.8074284817401
 23
468.19755782273671
 33
0.0
210
0.0
220
0.0
230
1.0
  0
SOLID
  5
74E
  8
0
  6
CONTINUOUS
 62
     7
 10
1460.6233472817769
 20
468.39590516809
 30
0.0
 11
1437.3387254732461
 21
468.39590516809
 31
0.0
 12
1437.8074284817401
 22
468.19755782273671
 32
0.0
 13
1437.8074284817401
 23
468.19755782273671
 33
0.0
210
0.0
220
0.0
230
-1.0
  0
SOLID
  5
74F
  8
0
  6
CONTINUOUS
 62
     7
 10
-1460.6233472817769
 20
468.19755782273671
 30
0.0
 11
-1460.6233472817769
 21
467.95259110741642
 31
0.0
 12
-1438.253540001391
 22
467.95259110741642
 32
0.0
 13
-1438.253540001391
 23
467.95259110741642
 33
0.0
  0
SOLID
  5
750
  8
0
  6
CONTINUOUS
 62
     7
 10
1460.6233472817769
 20
468.19755782273671
 30
0.0
 11
1437.8074284817401
 21
468.19755782273671
 31
0.0
 12
1438.253540001391
 22
467.95259110741642
 32
0.0
 13
1438.253540001391
 23
467.95259110741642
 33
0.0
210
0.0
220
0.0
230
-1.0
  0
SOLID
  5
751
  8
0
  6
CONTINUOUS
 62
     7
 10
-1460.6233472817769
 20
467.95259110741642
 30
0.0
 11
-1460.6233472817769
 21
467.66354311422731
 31
0.0
 12
-1438.672437885383
 22
467.66354311422731
 32
0.0
 13
-1438.672437885383
 23
467.66354311422731
 33
0.0
210
0.0
220
0.0
230
1.0
  0
SOLID
  5
752
  8
0
  6
CONTINUOUS
 62
     7
 10
1460.6233472817769
 20
467.95259110741642
 30
0.0
 11
1438.253540001391
 21
467.95259110741642
 31
0.0
 12
1438.672437885383
 22
467.66354311422731
 32
0.0
 13
1438.672437885383
 23
467.66354311422731
 33
0.0
210
0.0
220
0.0
230
-1.0
  0
SOLID
  5
753
  8
0
  6
CONTINUOUS
 62
     7
 10
-1460.6233472817769
 20
467.66354311422731
 30
0.0
 11
-1460.6233472817769
 21
467.33340865994148
 31
0.0
 12
-1439.0597819464881
 22
467.33340865994148
 32
0.0
 13
-1439.0597819464881
 23
467.33340865994148
 33
0.0
210
0.0
220
0.0
230
1.0
  0
SOLID
  5
754
  8
0
  6
CONTINUOUS
 62
     7
 10
1460.6233472817769
 20
467.66354311422731
 30
0.0
 11
1438.672437885383
 21
467.66354311422731
 31
0.0
 12
1439.0597819464881
 22
467.33340865994148
 32
0.0
 13
1439.0597819464881
 23
467.33340865994148
 33
0.0
210
0.0
220
0.0
230
-1.0
  0
SOLID
  5
755
  8
0
  6
CONTINUOUS
 62
     7
 10
-1460.6233472817769
 20
467.33340865994148
 30
0.0
 11
-1460.6233472817769
 21
466.96560825680569
 31
0.0
 12
-1439.4115589255989
 22
466.96560825680569
 32
0.0
 13
-1439.4115589255989
 23
466.96560825680569
 33
0.0
  0
SOLID
  5
756
  8
0
  6
CONTINUOUS
 62
     7
 10
1460.6233472817769
 20
467.33340865994148
 30
0.0
 11
1439.0597819464881
 21
467.33340865994148
 31
0.0
 12
1439.4115589255989
 22
466.96560825680569
 32
0.0
 13
1439.4115589255989
 23
466.96560825680569
 33
0.0
210
0.0
220
0.0
230
-1.0
  0
SOLID
  5
757
  8
0
  6
CONTINUOUS
 62
     7
 10
-1460.6233472817769
 20
466.96560825680569
 30
0.0
 11
-1460.6233472817769
 21
466.5639526727266
 31
0.0
 12
-1439.724124072982
 22
466.5639526727266
 32
0.0
 13
-1439.724124072982
 23
466.5639526727266
 33
0.0
210
0.0
220
0.0
230
1.0
  0
SOLID
  5
758
  8
0
  6
CONTINUOUS
 62
     7
 10
1460.6233472817769
 20
466.96560825680569
 30
0.0
 11
1439.4115589255989
 21
466.96560825680569
 31
0.0
 12
1439.724124072982
 22
466.5639526727266
 32
0.0
 13
1439.724124072982
 23
466.5639526727266
 33
0.0
210
0.0
220
0.0
230
-1.0
  0
SOLID
  5
759
  8
0
  6
CONTINUOUS
 62
     7
 10
-1460.6233472817769
 20
466.5639526727266
 30
0.0
 11
-1460.6233472817769
 21
466.13260344803012
 31
0.0
 12
-1439.9942389114001
 22
466.13260344803012
 32
0.0
 13
-1439.9942389114001
 23
466.13260344803012
 33
0.0
210
0.0
220
0.0
230
1.0
  0
SOLID
  5
75A
  8
0
  6
CONTINUOUS
 62
     7
 10
1460.6233472817769
 20
466.5639526727266
 30
0.0
 11
1439.724124072982
 21
466.5639526727266
 31
0.0
 12
1439.9942389114001
 22
466.13260344803012
 32
0.0
 13
1439.9942389114001
 23
466.13260344803012
 33
0.0
210
0.0
220
0.0
230
-1.0
  0
SOLID
  5
75B
  8
0
  6
CONTINUOUS
 62
     7
 10
-1460.6233472817769
 20
466.13260344803012
 30
0.0
 11
-1460.6233472817769
 21
465.6760297778776
 31
0.0
 12
-1440.2191047898771
 22
465.6760297778776
 32
0.0
 13
-1440.2191047898771
 23
465.6760297778776
 33
0.0
210
0.0
220
0.0
230
1.0
  0
SOLID
  5
75C
  8
0
  6
CONTINUOUS
 62
     7
 10
1460.6233472817769
 20
466.13260344803012
 30
0.0
 11
1439.9942389114001
 21
466.13260344803012
 31
0.0
 12
1440.2191047898771
 22
465.6760297778776
 32
0.0
 13
1440.2191047898771
 23
465.6760297778776
 33
0.0
210
0.0
220
0.0
230
-1.0
  0
SOLID
  5
75D
  8
0
  6
CONTINUOUS
 62
     7
 10
-1460.6233472817769
 20
465.6760297778776
 30
0.0
 11
-1460.6233472817769
 21
465.19896220708222
 31
0.0
 12
-1440.3963918804261
 22
465.19896220708222
 32
0.0
 13
-1440.3963918804261
 23
465.19896220708222
 33
0.0
  0
SOLID
  5
75E
  8
0
  6
CONTINUOUS
 62
     7
 10
1460.6233472817769
 20
465.6760297778776
 30
0.0
 11
1440.2191047898771
 21
465.6760297778776
 31
0.0
 12
1440.3963918804261
 22
465.19896220708222
 32
0.0
 13
1440.3963918804261
 23
465.19896220708222
 33
0.0
210
0.0
220
0.0
230
-1.0
  0
SOLID
  5
75F
  8
0
  6
CONTINUOUS
 62
     7
 10
-1460.6233472817769
 20
465.19896220708222
 30
0.0
 11
-1460.6233472817769
 21
464.70634361708937
 31
0.0
 12
-1440.5242633173191
 22
464.70634361708937
 32
0.0
 13
-1440.5242633173191
 23
464.70634361708937
 33
0.0
210
0.0
220
0.0
230
1.0
  0
SOLID
  5
760
  8
0
  6
CONTINUOUS
 62
     7
 10
1460.6233472817769
 20
465.19896220708222
 30
0.0
 11
1440.3963918804261
 21
465.19896220708222
 31
0.0
 12
1440.5242633173191
 22
464.70634361708937
 32
0.0
 13
1440.5242633173191
 23
464.70634361708937
 33
0.0
210
0.0
220
0.0
230
-1.0
  0
SOLID
  5
761
  8
0
  6
CONTINUOUS
 62
     7
 10
-1460.6233472817769
 20
464.70634361708937
 30
0.0
 11
-1460.6233472817769
 21
464.20327801294349
 31
0.0
 12
-1440.6013942287959
 22
464.20327801294349
 32
0.0
 13
-1440.6013942287959
 23
464.20327801294349
 33
0.0
  0
SOLID
  5
762
  8
0
  6
CONTINUOUS
 62
     7
 10
1460.6233472817769
 20
464.70634361708937
 30
0.0
 11
1440.5242633173191
 21
464.70634361708937
 31
0.0
 12
1440.6013942287959
 22
464.20327801294349
 32
0.0
 13
1440.6013942287959
 23
464.20327801294349
 33
0.0
210
0.0
220
0.0
230
-1.0
  0
SOLID
  5
763
  8
0
  6
CONTINUOUS
 62
     7
 10
-1460.6233472817769
 20
464.20327801294349
 30
0.0
 11
-1460.6233472817769
 21
463.69497764086032
 31
0.0
 12
-1440.6269854640129
 22
463.69497764086032
 32
0.0
 13
-1440.6269854640129
 23
463.69497764086032
 33
0.0
210
0.0
220
0.0
230
1.0
  0
SOLID
  5
764
  8
0
  6
CONTINUOUS
 62
     7
 10
1460.6233472817769
 20
464.20327801294349
 30
0.0
 11
1440.6013942287959
 21
464.20327801294349
 31
0.0
 12
1440.6269854640129
 22
463.69497764086032
 32
0.0
 13
1440.6269854640129
 23
463.69497764086032
 33
0.0
210
0.0
220
0.0
230
-1.0
  0
SOLID
  5
765
  8
0
  6
CONTINUOUS
 62
     7
 10
-1460.6233472817769
 20
463.69497764086032
 30
0.0
 11
-1460.6233472817769
 21
457.75229414488427
 31
0.0
 12
-1440.6233472817769
 22
457.75229414488427
 32
0.0
 13
-1440.6233472817769
 23
457.75229414488427
 33
0.0
210
0.0
220
0.0
230
1.0
  0
SOLID
  5
766
  8
0
  6
CONTINUOUS
 62
     7
 10
1460.6233472817769
 20
463.69497764086032
 30
0.0
 11
1440.6269854640129
 21
463.69497764086032
 31
0.0
 12
1440.6233472817769
 22
457.75229414488427
 32
0.0
 13
1440.6233472817769
 23
457.75229414488427
 33
0.0
210
0.0
220
0.0
230
-1.0
  0
LINE
  5
767
  8
0
  6
CONTINUOUS
 62
     7
 10
-1270.490965929122
 20
690.06841984178243
 30
0.0
 11
-1270.490965929122
 21
678.06841984178243
 31
0.0
  0
LINE
  5
768
  8
0
  6
CONTINUOUS
 62
     7
 10
-1245.490965929122
 20
690.06841984178243
 30
0.0
 11
-1245.490965929122
 21
678.06841984178243
 31
0.0
  0
LINE
  5
769
  8
0
  6
CONTINUOUS
 62
     7
 10
-1270.490965929122
 20
678.06841984178243
 30
0.0
 11
-1270.490965929122
 21
622.11194573209275
 31
0.0
  0
LINE
  5
76A
  8
0
  6
CONTINUOUS
 62
     7
 10
-1257.490965929122
 20
678.06841984178243
 30
0.0
 11
-1257.449718642968
 21
622.11194573209275
 31
0.0
  0
LINE
  5
76B
  8
0
  6
CONTINUOUS
 62
     7
 10
-1270.490965929122
 20
622.11194573209275
 30
0.0
 11
-1270.490965929122
 21
621.96824453124157
 31
0.0
  0
LINE
  5
76C
  8
0
  6
CONTINUOUS
 62
     7
 10
-1257.449718642968
 20
622.11194573209275
 30
0.0
 11
-1257.4569361244739
 21
621.96824453124157
 31
0.0
  0
LINE
  5
76D
  8
0
  6
CONTINUOUS
 62
     7
 10
-1270.490965929122
 20
621.96824453124157
 30
0.0
 11
-1271.2159581308911
 21
607.73897178796028
 31
0.0
  0
LINE
  5
76E
  8
0
  6
CONTINUOUS
 62
     7
 10
-1257.4569361244739
 20
621.96824453124157
 30
0.0
 11
-1258.1716101302879
 21
607.73897178796028
 31
0.0
  0
LINE
  5
76F
  8
0
  6
CONTINUOUS
 62
     7
 10
-1271.2159581308911
 20
607.73897178796028
 30
0.0
 11
-1271.3823002076431
 21
606.65825796959439
 31
0.0
  0
LINE
  5
770
  8
0
  6
CONTINUOUS
 62
     7
 10
-1258.1716101302879
 20
607.73897178796028
 30
0.0
 11
-1258.2258896488311
 21
606.65825796959439
 31
0.0
  0
LINE
  5
771
  8
0
  6
CONTINUOUS
 62
     7
 10
-1271.3823002076431
 20
606.65825796959439
 30
0.0
 11
-1273.383425969161
 21
593.65707207004652
 31
0.0
  0
LINE
  5
772
  8
0
  6
CONTINUOUS
 62
     7
 10
-1258.2258896488311
 20
606.65825796959439
 30
0.0
 11
-1260.2177585238051
 21
593.65707207004652
 31
0.0
  0
LINE
  5
773
  8
0
  6
CONTINUOUS
 62
     7
 10
-1273.383425969161
 20
593.65707207004652
 30
0.0
 11
-1273.980147134271
 21
591.36355045231301
 31
0.0
  0
LINE
  5
774
  8
0
  6
CONTINUOUS
 62
     7
 10
-1260.2177585238051
 20
593.65707207004652
 30
0.0
 11
-1260.5691414176231
 21
591.36355045231301
 31
0.0
  0
LINE
  5
775
  8
0
  6
CONTINUOUS
 62
     7
 10
-1273.980147134271
 20
591.36355045231301
 30
0.0
 11
-1276.9709209113539
 21
579.8683920558085
 31
0.0
  0
LINE
  5
776
  8
0
  6
CONTINUOUS
 62
     7
 10
-1260.5691414176231
 20
591.36355045231301
 30
0.0
 11
-1263.551719138454
 21
579.8683920558085
 31
0.0
  0
LINE
  5
777
  8
0
  6
CONTINUOUS
 62
     7
 10
-1276.9709209113539
 20
579.8683920558085
 30
0.0
 11
-1278.267082156998
 21
576.38631704083571
 31
0.0
  0
LINE
  5
778
  8
0
  6
CONTINUOUS
 62
     7
 10
-1263.551719138454
 20
579.8683920558085
 30
0.0
 11
-1264.4551916269299
 21
576.38631704083571
 31
0.0
  0
LINE
  5
779
  8
0
  6
CONTINUOUS
 62
     7
 10
-1278.267082156998
 20
576.38631704083571
 30
0.0
 11
-1281.9412871595159
 21
566.51574153786055
 31
0.0
  0
LINE
  5
77A
  8
0
  6
CONTINUOUS
 62
     7
 10
-1264.4551916269299
 20
576.38631704083571
 30
0.0
 11
-1268.122203336475
 21
566.51574153786055
 31
0.0
  0
LINE
  5
77B
  8
0
  6
CONTINUOUS
 62
     7
 10
-1281.9412871595159
 20
566.51574153786055
 30
0.0
 11
-1284.2265804554911
 21
561.88176171939153
 31
0.0
  0
LINE
  5
77C
  8
0
  6
CONTINUOUS
 62
     7
 10
-1268.122203336475
 20
566.51574153786055
 30
0.0
 11
-1269.8437704579669
 21
561.88176171939153
 31
0.0
  0
LINE
  5
77D
  8
0
  6
CONTINUOUS
 62
     7
 10
-1284.2265804554911
 20
561.88176171939153
 30
0.0
 11
-1288.2430464740751
 21
553.73741433760938
 31
0.0
  0
LINE
  5
77E
  8
0
  6
CONTINUOUS
 62
     7
 10
-1269.8437704579669
 20
561.88176171939153
 30
0.0
 11
-1273.854036347595
 21
553.73741433760938
 31
0.0
  0
LINE
  5
77F
  8
0
  6
CONTINUOUS
 62
     7
 10
-1288.2430464740751
 20
553.73741433760938
 30
0.0
 11
-1291.8397893512481
 21
548.00019026966345
 31
0.0
  0
LINE
  5
780
  8
0
  6
CONTINUOUS
 62
     7
 10
-1273.854036347595
 20
553.73741433760938
 30
0.0
 11
-1276.6790378980329
 21
548.00019026966345
 31
0.0
  0
LINE
  5
781
  8
0
  6
CONTINUOUS
 62
     7
 10
-1291.8397893512481
 20
548.00019026966345
 30
0.0
 11
-1295.8109313355969
 21
541.66575599179555
 31
0.0
  0
LINE
  5
782
  8
0
  6
CONTINUOUS
 62
     7
 10
-1276.6790378980329
 20
548.00019026966345
 30
0.0
 11
-1280.645021066784
 21
541.66575599179555
 31
0.0
  0
LINE
  5
783
  8
0
  6
CONTINUOUS
 62
     7
 10
-1295.8109313355969
 20
541.66575599179555
 30
0.0
 11
-1301.0926056941239
 21
534.88545270301006
 31
0.0
  0
LINE
  5
784
  8
0
  6
CONTINUOUS
 62
     7
 10
-1280.645021066784
 20
541.66575599179555
 30
0.0
 11
-1284.8901623916061
 21
534.88545270301006
 31
0.0
  0
LINE
  5
785
  8
0
  6
CONTINUOUS
 62
     7
 10
-1301.0926056941239
 20
534.88545270301006
 30
0.0
 11
-1304.5665609225321
 21
530.42579304560638
 31
0.0
  0
LINE
  5
786
  8
0
  6
CONTINUOUS
 62
     7
 10
-1284.8901623916061
 20
534.88545270301006
 30
0.0
 11
-1288.360126856978
 21
530.42579304560638
 31
0.0
  0
LINE
  5
787
  8
0
  6
CONTINUOUS
 62
     7
 10
-1304.5665609225321
 20
530.42579304560638
 30
0.0
 11
-1311.9881018782869
 21
522.67345259164256
 31
0.0
  0
LINE
  5
788
  8
0
  6
CONTINUOUS
 62
     7
 10
-1288.360126856978
 20
530.42579304560638
 30
0.0
 11
-1294.3920548436961
 21
522.67345259164256
 31
0.0
  0
LINE
  5
789
  8
0
  6
CONTINUOUS
 62
     7
 10
-1311.9881018782869
 20
522.67345259164256
 30
0.0
 11
-1314.4192529038501
 21
520.13393814881601
 31
0.0
  0
LINE
  5
78A
  8
0
  6
CONTINUOUS
 62
     7
 10
-1294.3920548436961
 20
522.67345259164256
 30
0.0
 11
-1296.82063026524
 21
520.13393814881601
 31
0.0
  0
LINE
  5
78B
  8
0
  6
CONTINUOUS
 62
     7
 10
-1314.4192529038501
 20
520.13393814881601
 30
0.0
 11
-1324.5694485712611
 21
511.49073874605358
 31
0.0
  0
LINE
  5
78C
  8
0
  6
CONTINUOUS
 62
     7
 10
-1296.82063026524
 20
520.13393814881601
 30
0.0
 11
-1305.086250369251
 21
511.49073874605358
 31
0.0
  0
LINE
  5
78D
  8
0
  6
CONTINUOUS
 62
     7
 10
-1324.5694485712611
 20
511.49073874605358
 30
0.0
 11
-1325.2669626387949
 21
510.89678436630862
 31
0.0
  0
LINE
  5
78E
  8
0
  6
CONTINUOUS
 62
     7
 10
-1305.086250369251
 20
511.49073874605358
 30
0.0
 11
-1305.7830557883501
 21
510.89678436630862
 31
0.0
  0
LINE
  5
78F
  8
0
  6
CONTINUOUS
 62
     7
 10
-1325.2669626387949
 20
510.89678436630862
 30
0.0
 11
-1336.9973400564411
 21
502.81000119035372
 31
0.0
  0
LINE
  5
790
  8
0
  6
CONTINUOUS
 62
     7
 10
-1305.7830557883501
 20
510.89678436630862
 30
0.0
 11
-1315.2701721936651
 21
502.81000119035372
 31
0.0
  0
LINE
  5
791
  8
0
  6
CONTINUOUS
 62
     7
 10
-1336.9973400564411
 20
502.81000119035372
 30
0.0
 11
-1339.470633272025
 21
501.45319383266383
 31
0.0
  0
LINE
  5
792
  8
0
  6
CONTINUOUS
 62
     7
 10
-1315.2701721936651
 20
502.81000119035372
 30
0.0
 11
-1316.861928651321
 21
501.45319383266383
 31
0.0
  0
LINE
  5
793
  8
0
  6
CONTINUOUS
 62
     7
 10
-1339.470633272025
 20
501.45319383266383
 30
0.0
 11
-1349.4888932689071
 21
495.95734368866488
 31
0.0
  0
LINE
  5
794
  8
0
  6
CONTINUOUS
 62
     7
 10
-1316.861928651321
 20
501.45319383266383
 30
0.0
 11
-1324.8259155390399
 21
495.95734368866488
 31
0.0
  0
LINE
  5
795
  8
0
  6
CONTINUOUS
 62
     7
 10
-1349.4888932689071
 20
495.95734368866488
 30
0.0
 11
-1357.2776843338891
 21
492.66483352109913
 31
0.0
  0
LINE
  5
796
  8
0
  6
CONTINUOUS
 62
     7
 10
-1324.8259155390399
 20
495.95734368866488
 30
0.0
 11
-1329.597062334374
 21
492.66483352109913
 31
0.0
  0
LINE
  5
797
  8
0
  6
CONTINUOUS
 62
     7
 10
-1357.2776843338891
 20
492.66483352109913
 30
0.0
 11
-1362.612246866664
 21
490.40978505052971
 31
0.0
  0
LINE
  5
798
  8
0
  6
CONTINUOUS
 62
     7
 10
-1329.597062334374
 20
492.66483352109913
 30
0.0
 11
-1333.7033905976641
 21
490.40978505052971
 31
0.0
  0
LINE
  5
799
  8
0
  6
CONTINUOUS
 62
     7
 10
-1362.612246866664
 20
490.40978505052971
 30
0.0
 11
-1376.2314818637201
 21
486.2247815152553
 31
0.0
  0
LINE
  5
79A
  8
0
  6
CONTINUOUS
 62
     7
 10
-1333.7033905976641
 20
490.40978505052971
 30
0.0
 11
-1341.324068611083
 21
486.2247815152553
 31
0.0
  0
LINE
  5
79B
  8
0
  6
CONTINUOUS
 62
     7
 10
-1376.2314818637201
 20
486.2247815152553
 30
0.0
 11
-1381.300235066929
 21
485.21672860512501
 31
0.0
  0
LINE
  5
79C
  8
0
  6
CONTINUOUS
 62
     7
 10
-1341.324068611083
 20
486.2247815152553
 30
0.0
 11
-1343.159681552349
 21
485.21672860512501
 31
0.0
  0
LINE
  5
79D
  8
0
  6
CONTINUOUS
 62
     7
 10
-1381.300235066929
 20
485.21672860512501
 30
0.0
 11
-1390.2055434148349
 21
483.44567729609099
 31
0.0
  0
LINE
  5
79E
  8
0
  6
CONTINUOUS
 62
     7
 10
-1343.159681552349
 20
485.21672860512501
 30
0.0
 11
-1347.344409437537
 21
483.44567729609099
 31
0.0
  0
LINE
  5
79F
  8
0
  6
CONTINUOUS
 62
     7
 10
-1390.2055434148349
 20
483.44567729609099
 30
0.0
 11
-1404.389701724984
 21
482.10125566284808
 31
0.0
  0
LINE
  5
7A0
  8
0
  6
CONTINUOUS
 62
     7
 10
-1347.344409437537
 20
483.44567729609099
 30
0.0
 11
-1350.521075561993
 21
482.10125566284808
 31
0.0
  0
LINE
  5
7A1
  8
0
  6
CONTINUOUS
 62
     7
 10
-1404.389701724984
 20
482.10125566284808
 30
0.0
 11
-1450.990965929122
 21
480.06841984178237
 31
0.0
  0
LINE
  5
7A2
  8
0
  6
CONTINUOUS
 62
     7
 10
-1350.521075561993
 20
482.10125566284808
 30
0.0
 11
-1355.3243608779121
 21
480.06841984178237
 31
0.0
  0
LINE
  5
7A3
  8
0
  6
CONTINUOUS
 62
     7
 10
-1450.990965929122
 20
480.06841984178237
 30
0.0
 11
-1452.042519930653
 21
479.18606126693493
 31
0.0
  0
LINE
  5
7A4
  8
0
  6
CONTINUOUS
 62
     7
 10
-1355.3243608779121
 20
480.06841984178237
 30
0.0
 11
-1357.409241487562
 21
479.18606126693493
 31
0.0
  0
LINE
  5
7A5
  8
0
  6
CONTINUOUS
 62
     7
 10
-1452.042519930653
 20
479.18606126693493
 30
0.0
 11
-1457.465875910618
 21
474.63532526440321
 31
0.0
  0
LINE
  5
7A6
  8
0
  6
CONTINUOUS
 62
     7
 10
-1357.409241487562
 20
479.18606126693493
 30
0.0
 11
-1372.198078788932
 21
474.63532526440321
 31
0.0
  0
LINE
  5
7A7
  8
0
  6
CONTINUOUS
 62
     7
 10
-1457.465875910618
 20
474.63532526440321
 30
0.0
 11
-1460.6233472817769
 21
471.98589220141088
 31
0.0
  0
LINE
  5
7A8
  8
0
  6
CONTINUOUS
 62
     7
 10
-1372.198078788932
 20
474.63532526440321
 30
0.0
 11
-1385.4948639427059
 21
471.98589220141088
 31
0.0
  0
LINE
  5
7A9
  8
0
  6
CONTINUOUS
 62
     7
 10
-1460.6233472817769
 20
471.98589220141088
 30
0.0
 11
-1460.6233472817769
 21
471.61167832949309
 31
0.0
  0
LINE
  5
7AA
  8
0
  6
CONTINUOUS
 62
     7
 10
-1385.4948639427059
 20
471.98589220141088
 30
0.0
 11
-1387.3729417571481
 21
471.61167832949309
 31
0.0
  0
LINE
  5
7AB
  8
0
  6
CONTINUOUS
 62
     7
 10
-1460.6233472817769
 20
471.61167832949309
 30
0.0
 11
-1460.6233472817769
 21
470.14645348869271
 31
0.0
  0
LINE
  5
7AC
  8
0
  6
CONTINUOUS
 62
     7
 10
-1387.3729417571481
 20
471.61167832949309
 30
0.0
 11
-1402.776578439991
 21
470.14645348869271
 31
0.0
  0
LINE
  5
7AD
  8
0
  6
CONTINUOUS
 62
     7
 10
-1460.6233472817769
 20
470.14645348869271
 30
0.0
 11
-1460.6233472817769
 21
468.69321791971231
 31
0.0
  0
LINE
  5
7AE
  8
0
  6
CONTINUOUS
 62
     7
 10
-1402.776578439991
 20
470.14645348869271
 30
0.0
 11
-1435.846496233502
 21
468.69321791971231
 31
0.0
  0
LINE
  5
7AF
  8
0
  6
CONTINUOUS
 62
     7
 10
-1460.6233472817769
 20
468.69321791971231
 30
0.0
 11
-1460.6233472817769
 21
468.64502578182959
 31
0.0
  0
LINE
  5
7B0
  8
0
  6
CONTINUOUS
 62
     7
 10
-1435.846496233502
 20
468.69321791971231
 30
0.0
 11
-1436.353153610263
 21
468.64502578182959
 31
0.0
  0
LINE
  5
7B1
  8
0
  6
CONTINUOUS
 62
     7
 10
-1460.6233472817769
 20
468.64502578182959
 30
0.0
 11
-1460.6233472817769
 21
468.54557807314012
 31
0.0
  0
LINE
  5
7B2
  8
0
  6
CONTINUOUS
 62
     7
 10
-1436.353153610263
 20
468.64502578182959
 30
0.0
 11
-1436.852287192399
 21
468.54557807314012
 31
0.0
  0
LINE
  5
7B3
  8
0
  6
CONTINUOUS
 62
     7
 10
-1460.6233472817769
 20
468.54557807314012
 30
0.0
 11
-1460.6233472817769
 21
468.39590516809
 31
0.0
  0
LINE
  5
7B4
  8
0
  6
CONTINUOUS
 62
     7
 10
-1436.852287192399
 20
468.54557807314012
 30
0.0
 11
-1437.3387254732461
 21
468.39590516809
 31
0.0
  0
LINE
  5
7B5
  8
0
  6
CONTINUOUS
 62
     7
 10
-1460.6233472817769
 20
468.39590516809
 30
0.0
 11
-1460.6233472817769
 21
468.19755782273671
 31
0.0
  0
LINE
  5
7B6
  8
0
  6
CONTINUOUS
 62
     7
 10
-1437.3387254732461
 20
468.39590516809
 30
0.0
 11
-1437.8074284817401
 21
468.19755782273671
 31
0.0
  0
LINE
  5
7B7
  8
0
  6
CONTINUOUS
 62
     7
 10
-1460.6233472817769
 20
468.19755782273671
 30
0.0
 11
-1460.6233472817769
 21
467.95259110741642
 31
0.0
  0
LINE
  5
7B8
  8
0
  6
CONTINUOUS
 62
     7
 10
-1437.8074284817401
 20
468.19755782273671
 30
0.0
 11
-1438.253540001391
 21
467.95259110741642
 31
0.0
  0
LINE
  5
7B9
  8
0
  6
CONTINUOUS
 62
     7
 10
-1460.6233472817769
 20
467.95259110741642
 30
0.0
 11
-1460.6233472817769
 21
467.66354311422731
 31
0.0
  0
LINE
  5
7BA
  8
0
  6
CONTINUOUS
 62
     7
 10
-1438.253540001391
 20
467.95259110741642
 30
0.0
 11
-1438.672437885383
 21
467.66354311422731
 31
0.0
  0
LINE
  5
7BB
  8
0
  6
CONTINUOUS
 62
     7
 10
-1460.6233472817769
 20
467.66354311422731
 30
0.0
 11
-1460.6233472817769
 21
467.33340865994148
 31
0.0
  0
LINE
  5
7BC
  8
0
  6
CONTINUOUS
 62
     7
 10
-1438.672437885383
 20
467.66354311422731
 30
0.0
 11
-1439.0597819464881
 21
467.33340865994148
 31
0.0
  0
LINE
  5
7BD
  8
0
  6
CONTINUOUS
 62
     7
 10
-1460.6233472817769
 20
467.33340865994148
 30
0.0
 11
-1460.6233472817769
 21
466.96560825680569
 31
0.0
  0
LINE
  5
7BE
  8
0
  6
CONTINUOUS
 62
     7
 10
-1439.0597819464881
 20
467.33340865994148
 30
0.0
 11
-1439.4115589255989
 21
466.96560825680569
 31
0.0
  0
LINE
  5
7BF
  8
0
  6
CONTINUOUS
 62
     7
 10
-1460.6233472817769
 20
466.96560825680569
 30
0.0
 11
-1460.6233472817769
 21
466.5639526727266
 31
0.0
  0
LINE
  5
7C0
  8
0
  6
CONTINUOUS
 62
     7
 10
-1439.4115589255989
 20
466.96560825680569
 30
0.0
 11
-1439.724124072982
 21
466.5639526727266
 31
0.0
  0
LINE
  5
7C1
  8
0
  6
CONTINUOUS
 62
     7
 10
-1460.6233472817769
 20
466.5639526727266
 30
0.0
 11
-1460.6233472817769
 21
466.13260344803012
 31
0.0
  0
LINE
  5
7C2
  8
0
  6
CONTINUOUS
 62
     7
 10
-1439.724124072982
 20
466.5639526727266
 30
0.0
 11
-1439.9942389114001
 21
466.13260344803012
 31
0.0
  0
LINE
  5
7C3
  8
0
  6
CONTINUOUS
 62
     7
 10
-1460.6233472817769
 20
466.13260344803012
 30
0.0
 11
-1460.6233472817769
 21
465.6760297778776
 31
0.0
  0
LINE
  5
7C4
  8
0
  6
CONTINUOUS
 62
     7
 10
-1439.9942389114001
 20
466.13260344803012
 30
0.0
 11
-1440.2191047898771
 21
465.6760297778776
 31
0.0
  0
LINE
  5
7C5
  8
0
  6
CONTINUOUS
 62
     7
 10
-1460.6233472817769
 20
465.6760297778776
 30
0.0
 11
-1460.6233472817769
 21
465.19896220708222
 31
0.0
  0
LINE
  5
7C6
  8
0
  6
CONTINUOUS
 62
     7
 10
-1440.2191047898771
 20
465.6760297778776
 30
0.0
 11
-1440.3963918804261
 21
465.19896220708222
 31
0.0
  0
LINE
  5
7C7
  8
0
  6
CONTINUOUS
 62
     7
 10
-1460.6233472817769
 20
465.19896220708222
 30
0.0
 11
-1460.6233472817769
 21
464.70634361708937
 31
0.0
  0
LINE
  5
7C8
  8
0
  6
CONTINUOUS
 62
     7
 10
-1440.3963918804261
 20
465.19896220708222
 30
0.0
 11
-1440.5242633173191
 21
464.70634361708937
 31
0.0
  0
LINE
  5
7C9
  8
0
  6
CONTINUOUS
 62
     7
 10
-1460.6233472817769
 20
464.70634361708937
 30
0.0
 11
-1460.6233472817769
 21
464.20327801294349
 31
0.0
  0
LINE
  5
7CA
  8
0
  6
CONTINUOUS
 62
     7
 10
-1440.5242633173191
 20
464.70634361708937
 30
0.0
 11
-1440.6013942287959
 21
464.20327801294349
 31
0.0
  0
LINE
  5
7CB
  8
0
  6
CONTINUOUS
 62
     7
 10
-1460.6233472817769
 20
464.20327801294349
 30
0.0
 11
-1460.6233472817769
 21
463.69497764086032
 31
0.0
  0
LINE
  5
7CC
  8
0
  6
CONTINUOUS
 62
     7
 10
-1440.6013942287959
 20
464.20327801294349
 30
0.0
 11
-1440.6269854640129
 21
463.69497764086032
 31
0.0
  0
LINE
  5
7CD
  8
0
  6
CONTINUOUS
 62
     7
 10
-1460.6233472817769
 20
463.69497764086032
 30
0.0
 11
-1460.6233472817769
 21
457.75229414488427
 31
0.0
  0
LINE
  5
7CE
  8
0
  6
CONTINUOUS
 62
     7
 10
-1440.6269854640129
 20
463.69497764086032
 30
0.0
 11
-1440.6233472817769
 21
457.75229414488427
 31
0.0
  0
ENDBLK
  5
7D0
  8
0
 62
     7
  0
BLOCK
  8
0
 62
     7
  2
*U53
 70
     1
 10
0.0
 20
0.0
 30
0.0
  3
*U53
  1

  0
SOLID
  5
7DC
  8
0
  6
CONTINUOUS
 62
     7
 10
1695.2297104983479
 20
770.4936859056121
 30
0.0
 11
1675.2297077359581
 21
770.4936859056121
 31
0.0
 12
1675.231465208886
 22
767.14984134379074
 32
0.0
 13
1675.231465208886
 23
767.14984134379074
 33
0.0
210
0.0
220
0.0
230
-1.0
  0
SOLID
  5
7DD
  8
0
  6
CONTINUOUS
 62
     7
 10
-1675.2279613140549
 20
773.81650708941743
 30
0.0
 11
-1695.2297104983479
 21
770.4936859056121
 31
0.0
 12
-1675.2297077359581
 22
770.4936859056121
 32
0.0
 13
-1675.2297077359581
 23
770.4936859056121
 33
0.0
  0
SOLID
  5
7DE
  8
0
  6
CONTINUOUS
 62
     7
 10
1675.2279613140549
 20
773.81650708941743
 30
0.0
 11
1675.2279613125911
 21
773.81650708941743
 31
0.0
 12
1675.2297077359581
 22
770.4936859056121
 32
0.0
 13
1675.2297077359581
 23
770.4936859056121
 33
0.0
210
0.0
220
0.0
230
-1.0
  0
LINE
  5
7DF
  8
0
  6
CONTINUOUS
 62
     7
 10
-1675.2297077359581
 20
770.4936859056121
 30
0.0
 11
-1675.231465208886
 21
767.14984134379074
 31
0.0
  0
LINE
  5
7E0
  8
0
  6
CONTINUOUS
 62
     7
 10
-1675.231465208886
 20
767.14984134379074
 30
0.0
 11
-1695.2297104983479
 21
770.4936859056121
 31
0.0
  0
LINE
  5
7E1
  8
0
  6
CONTINUOUS
 62
     7
 10
-1675.2279613140549
 20
773.81650708941743
 30
0.0
 11
-1695.2297104983479
 21
770.4936859056121
 31
0.0
  0
LINE
  5
7E2
  8
0
  6
CONTINUOUS
 62
     7
 10
-1675.2279613125911
 20
773.81650708941743
 30
0.0
 11
-1675.2297077359581
 21
770.4936859056121
 31
0.0
  0
ENDBLK
  5
7E4
  8
0
 62
     7
  0
BLOCK
  8
0
 62
     7
  2
*U54
 70
     1
 10
0.0
 20
0.0
 30
0.0
  3
*U54
  1

  0
SOLID
  5
7EA
  8
0
  6
CONTINUOUS
 62
     7
 10
-1290.447058285059
 20
773.61427220462531
 30
0.0
 11
-1290.4488157579869
 21
770.27042764280395
 31
0.0
 12
-1270.4488129955971
 22
770.27042764280395
 32
0.0
 13
-1270.4488129955971
 23
770.27042764280395
 33
0.0
210
0.0
220
0.0
230
1.0
  0
SOLID
  5
7EB
  8
0
  6
CONTINUOUS
 62
     7
 10
1290.4488157579869
 20
770.27042764280395
 30
0.0
 11
1270.4488129955971
 21
770.27042764280395
 31
0.0
 12
1290.4505621813539
 22
766.94760645875533
 32
0.0
 13
1290.4505621813539
 23
766.94760645875533
 33
0.0
210
0.0
220
0.0
230
-1.0
  0
LINE
  5
7EC
  8
0
  6
CONTINUOUS
 62
     7
 10
-1290.447058285059
 20
773.61427220462531
 30
0.0
 11
-1290.4488157579869
 21
770.27042764280395
 31
0.0
  0
LINE
  5
7ED
  8
0
  6
CONTINUOUS
 62
     7
 10
-1270.4488129955971
 20
770.27042764280395
 30
0.0
 11
-1290.447058285059
 21
773.61427220462531
 31
0.0
  0
LINE
  5
7EE
  8
0
  6
CONTINUOUS
 62
     7
 10
-1270.4488129955971
 20
770.27042764280395
 30
0.0
 11
-1290.4505621813539
 21
766.94760645875533
 31
0.0
  0
LINE
  5
7EF
  8
0
  6
CONTINUOUS
 62
     7
 10
-1290.4505621813539
 20
766.94760645875533
 30
0.0
 11
-1290.4488157579869
 21
770.27042764280395
 31
0.0
  0
ENDBLK
  5
7F1
  8
0
 62
     7
  0
BLOCK
  8
0
 62
     7
  2
*U55
 70
     1
 10
0.0
 20
0.0
 30
0.0
  3
*U55
  1

  0
TEXT
  5
7F7
  8
0
  6
CONTINUOUS
 62
     7
 10
-1514.8442211931681
 20
758.330602519933
 30
0.0
 40
24.61538461538462
  1
426
  0
ENDBLK
  5
7F9
  8
0
 62
     7
  0
BLOCK
  8
0
 62
     7
  2
*U56
 70
     1
 10
0.0
 20
0.0
 30
0.0
  3
*U56
  1

  0
SOLID
  5
805
  8
0
  6
CONTINUOUS
 62
     7
 10
1720.2084732736139
 20
825.09715339933314
 30
0.0
 11
1700.208471062411
 21
825.09715339933314
 31
0.0
 12
1700.2100429323091
 22
821.75441574958097
 32
0.0
 13
1700.2100429323091
 23
821.75441574958097
 33
0.0
210
0.0
220
0.0
230
-1.0
  0
SOLID
  5
806
  8
0
  6
CONTINUOUS
 62
     7
 10
-1700.206908038758
 20
828.42108167894185
 30
0.0
 11
-1720.2084732736139
 21
825.09715339933314
 31
0.0
 12
-1700.208471062411
 22
825.09715339933314
 32
0.0
 13
-1700.208471062411
 23
825.09715339933314
 33
0.0
210
0.0
220
0.0
230
1.0
  0
SOLID
  5
807
  8
0
  6
CONTINUOUS
 62
     7
 10
1700.206908038758
 20
828.42108167894185
 30
0.0
 11
1700.2069080373251
 21
828.42108167894185
 31
0.0
 12
1700.208471062411
 22
825.09715339933314
 32
0.0
 13
1700.208471062411
 23
825.09715339933314
 33
0.0
210
0.0
220
0.0
230
-1.0
  0
LINE
  5
808
  8
0
  6
CONTINUOUS
 62
     7
 10
-1700.208471062411
 20
825.09715339933314
 30
0.0
 11
-1700.2100429323091
 21
821.75441574958097
 31
0.0
  0
LINE
  5
809
  8
0
  6
CONTINUOUS
 62
     7
 10
-1700.2100429323091
 20
821.75441574958097
 30
0.0
 11
-1720.2084732736139
 21
825.09715339933314
 31
0.0
  0
LINE
  5
80A
  8
0
  6
CONTINUOUS
 62
     7
 10
-1700.206908038758
 20
828.42108167894185
 30
0.0
 11
-1720.2084732736139
 21
825.09715339933314
 31
0.0
  0
LINE
  5
80B
  8
0
  6
CONTINUOUS
 62
     7
 10
-1700.2069080373251
 20
828.42108167894185
 30
0.0
 11
-1700.208471062411
 21
825.09715339933314
 31
0.0
  0
ENDBLK
  5
80D
  8
0
 62
     7
  0
BLOCK
  8
0
 62
     7
  2
*U57
 70
     1
 10
0.0
 20
0.0
 30
0.0
  3
*U57
  1

  0
SOLID
  5
813
  8
0
  6
CONTINUOUS
 62
     7
 10
-1265.4260061121679
 20
828.21663278627693
 30
0.0
 11
-1265.4275779820659
 21
824.87389513652488
 31
0.0
 12
-1245.4275757708631
 22
824.87389513652488
 32
0.0
 13
-1245.4275757708631
 23
824.87389513652488
 33
0.0
210
0.0
220
0.0
230
1.0
  0
SOLID
  5
814
  8
0
  6
CONTINUOUS
 62
     7
 10
1265.4275779820659
 20
824.87389513652488
 30
0.0
 11
1245.4275757708631
 21
824.87389513652488
 31
0.0
 12
1265.4291410071521
 22
821.54996685667777
 32
0.0
 13
1265.4291410071521
 23
821.54996685667777
 33
0.0
210
0.0
220
0.0
230
-1.0
  0
LINE
  5
815
  8
0
  6
CONTINUOUS
 62
     7
 10
-1265.4260061121679
 20
828.21663278627693
 30
0.0
 11
-1265.4275779820659
 21
824.87389513652488
 31
0.0
  0
LINE
  5
816
  8
0
  6
CONTINUOUS
 62
     7
 10
-1245.4275757708631
 20
824.87389513652488
 30
0.0
 11
-1265.4260061121679
 21
828.21663278627693
 31
0.0
  0
LINE
  5
817
  8
0
  6
CONTINUOUS
 62
     7
 10
-1245.4275757708631
 20
824.87389513652488
 30
0.0
 11
-1265.4291410071521
 21
821.54996685667777
 31
0.0
  0
LINE
  5
818
  8
0
  6
CONTINUOUS
 62
     7
 10
-1265.4291410071521
 20
821.54996685667777
 30
0.0
 11
-1265.4275779820659
 21
824.87389513652488
 31
0.0
  0
ENDBLK
  5
81A
  8
0
 62
     7
  0
BLOCK
  8
0
 62
     7
  2
*U58
 70
     1
 10
0.0
 20
0.0
 30
0.0
  3
*U58
  1

  0
TEXT
  5
820
  8
0
  6
CONTINUOUS
 62
     7
 10
-1514.8229839684341
 20
812.93407001365392
 30
0.0
 40
24.61538461538462
  1
476
  0
ENDBLK
  5
822
  8
0
 62
     7
  0
BLOCK
  8
0
 62
     7
  2
*U59
 70
     1
 10
0.0
 20
0.0
 30
0.0
  3
*U59
  1

  0
SOLID
  5
82E
  8
0
  6
CONTINUOUS
 62
     7
 10
-1126.531649899807
 20
500.09100094112659
 30
0.0
 11
-1126.530640000324
 21
500.08490720080209
 31
0.0
 12
-1119.8649860181661
 22
500.08490720080209
 32
0.0
 13
-1119.8649860181661
 23
500.08490720080209
 33
0.0
210
0.0
220
0.0
230
1.0
  0
SOLID
  5
82F
  8
0
  6
CONTINUOUS
 62
     7
 10
1126.530640000324
 20
500.08490720080209
 30
0.0
 11
1119.8649860181661
 21
500.08490720080209
 31
0.0
 12
1123.21659917996
 22
480.08796242604211
 32
0.0
 13
1123.21659917996
 23
480.08796242604211
 33
0.0
210
0.0
220
0.0
230
-1.0
  0
LINE
  5
830
  8
0
  6
CONTINUOUS
 62
     7
 10
-1126.531649899807
 20
500.09100094112659
 30
0.0
 11
-1126.530640000324
 21
500.08490720080209
 31
0.0
  0
LINE
  5
831
  8
0
  6
CONTINUOUS
 62
     7
 10
-1119.8649860181661
 20
500.08490720080209
 30
0.0
 11
-1126.531649899807
 21
500.09100094112659
 31
0.0
  0
LINE
  5
832
  8
0
  6
CONTINUOUS
 62
     7
 10
-1119.8649860181661
 20
500.08490720080209
 30
0.0
 11
-1123.21659917996
 21
480.08796242604211
 31
0.0
  0
LINE
  5
833
  8
0
  6
CONTINUOUS
 62
     7
 10
-1123.21659917996
 20
480.08796242604211
 30
0.0
 11
-1126.530640000324
 21
500.08490720080209
 31
0.0
  0
ENDBLK
  5
835
  8
0
 62
     7
  0
BLOCK
  8
0
 62
     7
  2
*U60
 70
     1
 10
0.0
 20
0.0
 30
0.0
  3
*U60
  1

  0
SOLID
  5
83B
  8
0
  6
CONTINUOUS
 62
     7
 10
-1123.0241846636641
 20
690.59297868351553
 30
0.0
 11
-1126.375797825458
 21
670.59603390875554
 31
0.0
 12
-1119.710143843301
 22
670.59603390875554
 32
0.0
 13
-1119.710143843301
 23
670.59603390875554
 33
0.0
210
0.0
220
0.0
230
1.0
  0
SOLID
  5
83C
  8
0
  6
CONTINUOUS
 62
     7
 10
1126.375797825458
 20
670.59603390875554
 30
0.0
 11
1119.710143843301
 21
670.59603390875554
 31
0.0
 12
1119.709133943818
 22
670.58994016843099
 32
0.0
 13
1119.709133943818
 23
670.58994016843099
 33
0.0
210
0.0
220
0.0
230
-1.0
  0
LINE
  5
83D
  8
0
  6
CONTINUOUS
 62
     7
 10
-1123.0241846636641
 20
690.59297868351553
 30
0.0
 11
-1126.375797825458
 21
670.59603390875554
 31
0.0
  0
LINE
  5
83E
  8
0
  6
CONTINUOUS
 62
     7
 10
-1119.710143843301
 20
670.59603390875554
 30
0.0
 11
-1123.0241846636641
 21
690.59297868351553
 31
0.0
  0
LINE
  5
83F
  8
0
  6
CONTINUOUS
 62
     7
 10
-1119.710143843301
 20
670.59603390875554
 30
0.0
 11
-1119.709133943818
 21
670.58994016843099
 31
0.0
  0
LINE
  5
840
  8
0
  6
CONTINUOUS
 62
     7
 10
-1119.709133943818
 20
670.58994016843099
 30
0.0
 11
-1126.375797825458
 21
670.59603390875554
 31
0.0
  0
ENDBLK
  5
842
  8
0
 62
     7
  0
BLOCK
  8
0
 62
     7
  2
*U61
 70
     1
 10
0.0
 20
0.0
 30
0.0
  3
*U61
  1

  0
TEXT
  5
848
  8
0
  6
CONTINUOUS
 62
     7
 10
-1155.637827474842
 20
573.28901630050393
 30
0.0
 40
24.61538461538462
  1
202
  0
ENDBLK
  5
84A
  8
0
 62
     7
  0
BLOCK
  8
0
 62
     7
  2
*U62
 70
     1
 10
0.0
 20
0.0
 30
0.0
  3
*U62
  1

  0
SOLID
  5
856
  8
0
  6
CONTINUOUS
 62
     7
 10
-992.98161832731626
 20
477.72555577918342
 30
0.0
 11
-992.98139254854027
 21
477.72419940481518
 31
0.0
 12
-986.31495179863089
 22
477.72419940481518
 32
0.0
 13
-986.31495179863089
 23
477.72419940481518
 33
0.0
210
0.0
220
0.0
230
1.0
  0
SOLID
  5
857
  8
0
  6
CONTINUOUS
 62
     7
 10
992.98139254854027
 20
477.72419940481518
 30
0.0
 11
986.31495179863089
 21
477.72419940481518
 31
0.0
 12
989.65235418607824
 22
457.72487800594331
 32
0.0
 13
989.65235418607824
 23
457.72487800594331
 33
0.0
210
0.0
220
0.0
230
-1.0
  0
LINE
  5
858
  8
0
  6
CONTINUOUS
 62
     7
 10
-992.98161832731626
 20
477.72555577918342
 30
0.0
 11
-992.98139254854027
 21
477.72419940481518
 31
0.0
  0
LINE
  5
859
  8
0
  6
CONTINUOUS
 62
     7
 10
-986.31495179863089
 20
477.72419940481518
 30
0.0
 11
-992.98161832731626
 21
477.72555577918342
 31
0.0
  0
LINE
  5
85A
  8
0
  6
CONTINUOUS
 62
     7
 10
-986.31495179863089
 20
477.72419940481518
 30
0.0
 11
-989.65235418607824
 21
457.72487800594331
 31
0.0
  0
LINE
  5
85B
  8
0
  6
CONTINUOUS
 62
     7
 10
-989.65235418607824
 20
457.72487800594331
 30
0.0
 11
-992.98139254854027
 21
477.72419940481518
 31
0.0
  0
ENDBLK
  5
85D
  8
0
 62
     7
  0
BLOCK
  8
0
 62
     7
  2
*U63
 70
     1
 10
0.0
 20
0.0
 30
0.0
  3
*U63
  1

  0
SOLID
  5
863
  8
0
  6
CONTINUOUS
 62
     7
 10
-989.6051808592423
 20
689.5847880981928
 30
0.0
 11
-992.94258324668954
 21
669.58546669932105
 31
0.0
 12
-986.27614249678015
 22
669.58546669932105
 32
0.0
 13
-986.27614249678015
 23
669.58546669932105
 33
0.0
210
0.0
220
0.0
230
1.0
  0
SOLID
  5
864
  8
0
  6
CONTINUOUS
 62
     7
 10
992.94258324668954
 20
669.58546669932105
 30
0.0
 11
986.27614249678015
 21
669.58546669932105
 31
0.0
 12
986.27591671800417
 22
669.58411032495269
 32
0.0
 13
986.27591671800417
 23
669.58411032495269
 33
0.0
210
0.0
220
0.0
230
-1.0
  0
LINE
  5
865
  8
0
  6
CONTINUOUS
 62
     7
 10
-989.6051808592423
 20
689.5847880981928
 30
0.0
 11
-992.94258324668954
 21
669.58546669932105
 31
0.0
  0
LINE
  5
866
  8
0
  6
CONTINUOUS
 62
     7
 10
-986.27614249678015
 20
669.58546669932105
 30
0.0
 11
-989.6051808592423
 21
689.5847880981928
 31
0.0
  0
LINE
  5
867
  8
0
  6
CONTINUOUS
 62
     7
 10
-986.27614249678015
 20
669.58546669932105
 30
0.0
 11
-986.27591671800417
 21
669.58411032495269
 31
0.0
  0
LINE
  5
868
  8
0
  6
CONTINUOUS
 62
     7
 10
-986.27591671800417
 20
669.58411032495269
 30
0.0
 11
-992.94258324668954
 21
669.58546669932105
 31
0.0
  0
ENDBLK
  5
86A
  8
0
 62
     7
  0
BLOCK
  8
0
 62
     7
  2
*U64
 70
     1
 10
0.0
 20
0.0
 30
0.0
  3
*U64
  1

  0
TEXT
  5
870
  8
0
  6
CONTINUOUS
 62
     7
 10
-1022.427238360083
 20
561.34714074437579
 30
0.0
 40
24.61538461538462
  1
224
  0
ENDBLK
  5
872
  8
0
 62
     7
  0
BLOCK
  8
0
 62
     7
  2
*U65
 70
     1
 10
0.0
 20
0.0
 30
0.0
  3
*U65
  1

  0
SOLID
  5
87E
  8
0
  6
CONTINUOUS
 62
     7
 10
-1440.4732315560741
 20
417.4900559745551
 30
0.0
 11
-1460.4750677996281
 21
414.16775887809848
 31
0.0
 12
-1440.4750647549449
 22
414.16775887809848
 32
0.0
 13
-1440.4750647549449
 23
414.16775887809848
 33
0.0
210
0.0
220
0.0
230
1.0
  0
SOLID
  5
87F
  8
0
  6
CONTINUOUS
 62
     7
 10
1460.4750677996281
 20
414.16775887809848
 30
0.0
 11
1440.4750647549449
 21
414.16775887809848
 31
0.0
 12
1440.4769101325501
 22
410.82339032278293
 32
0.0
 13
1440.4769101325501
 23
410.82339032278293
 33
0.0
210
0.0
220
0.0
230
-1.0
  0
LINE
  5
880
  8
0
  6
CONTINUOUS
 62
     7
 10
-1440.4732315560741
 20
417.4900559745551
 30
0.0
 11
-1460.4750677996281
 21
414.16775887809848
 31
0.0
  0
LINE
  5
881
  8
0
  6
CONTINUOUS
 62
     7
 10
-1440.4750647549449
 20
414.16775887809848
 30
0.0
 11
-1440.4732315560741
 21
417.4900559745551
 31
0.0
  0
LINE
  5
882
  8
0
  6
CONTINUOUS
 62
     7
 10
-1440.4750647549449
 20
414.16775887809848
 30
0.0
 11
-1440.4769101325501
 21
410.82339032278293
 31
0.0
  0
LINE
  5
883
  8
0
  6
CONTINUOUS
 62
     7
 10
-1440.4769101325501
 20
410.82339032278293
 30
0.0
 11
-1460.4750677996281
 21
414.16775887809848
 31
0.0
  0
ENDBLK
  5
885
  8
0
 62
     7
  0
BLOCK
  8
0
 62
     7
  2
*U66
 70
     1
 10
0.0
 20
0.0
 30
0.0
  3
*U66
  1

  0
SOLID
  5
88B
  8
0
  6
CONTINUOUS
 62
     7
 10
-1525.9897168201951
 20
417.53724282139649
 30
0.0
 11
-1525.9915621978
 21
414.19287426608088
 31
0.0
 12
-1505.991559153116
 22
414.19287426608088
 32
0.0
 13
-1505.991559153116
 23
414.19287426608088
 33
0.0
210
0.0
220
0.0
230
1.0
  0
SOLID
  5
88C
  8
0
  6
CONTINUOUS
 62
     7
 10
1525.9915621978
 20
414.19287426608088
 30
0.0
 11
1505.991559153116
 21
414.19287426608088
 31
0.0
 12
1525.9933953966711
 22
410.87057716962431
 32
0.0
 13
1525.9933953966711
 23
410.87057716962431
 33
0.0
210
0.0
220
0.0
230
-1.0
  0
LINE
  5
88D
  8
0
  6
CONTINUOUS
 62
     7
 10
-1525.9897168201951
 20
417.53724282139649
 30
0.0
 11
-1525.9915621978
 21
414.19287426608088
 31
0.0
  0
LINE
  5
88E
  8
0
  6
CONTINUOUS
 62
     7
 10
-1505.991559153116
 20
414.19287426608088
 30
0.0
 11
-1525.9897168201951
 21
417.53724282139649
 31
0.0
  0
LINE
  5
88F
  8
0
  6
CONTINUOUS
 62
     7
 10
-1505.991559153116
 20
414.19287426608088
 30
0.0
 11
-1525.9933953966711
 21
410.87057716962431
 31
0.0
  0
LINE
  5
890
  8
0
  6
CONTINUOUS
 62
     7
 10
-1525.9933953966711
 20
410.87057716962431
 30
0.0
 11
-1525.9915621978
 21
414.19287426608088
 31
0.0
  0
ENDBLK
  5
892
  8
0
 62
     7
  0
BLOCK
  8
0
 62
     7
  2
*U67
 70
     1
 10
0.0
 20
0.0
 30
0.0
  3
*U67
  1

  0
TEXT
  5
898
  8
0
  6
CONTINUOUS
 62
     7
 10
-1387.5692981179791
 20
416.3982751929214
 30
0.0
 40
24.61538461538462
  1
46
  0
ENDBLK
  5
89A
  8
0
 62
     7
  0
ENDSEC
  0
SECTION
  2
ENTITIES
  0
LINE
  5
2E
  8
0
 62
     7
 10
140.4629225326089
 20
96.117058011095494
 30
0.0
 11
205.72768523791811
 21
96.117058011095494
 31
0.0
1001
TCAD
1000
TCW_CUSTOM_DATA
1002
{
1000
#$AUX@_ToolInfo Properties
1070
     8
1000
CMD_LINE@
1002
}
  0
LINE
  5
2F
  8
0
 62
     7
 10
205.72768523791811
 20
96.117058011095494
 30
0.0
 11
205.72768523791811
 21
96.117058011095494
 31
0.0
1001
TCAD
1000
TCW_CUSTOM_DATA
1002
{
1000
#$AUX@_ToolInfo Properties
1070
     8
1000
CMD_FILLETARC@
1002
}
  0
LINE
  5
30
  8
0
 62
     7
 10
-217.3189935402275
 20
108.6110778305909
 30
0.0
 11
-217.7508327246953
 21
108.6110778305909
 31
0.0
1001
TCAD
1000
TCW_CUSTOM_DATA
1002
{
1000
#$AUX@_ToolInfo Properties
1070
     8
1000
CMD_FILLETARC@
1002
}
  0
LINE
  5
31
  8
0
 62
     7
 10
150.04091851442911
 20
73.800932314197453
 30
0.0
 11
196.09530388526329
 21
73.800932314197453
 31
0.0
1001
TCAD
1000
TCW_CUSTOM_DATA
1002
{
1000
#$AUX@_ToolInfo Properties
1070
     8
1000
CMD_LINE@
1002
}
  0
LINE
  5
32
  8
0
 62
     7
 10
150.09530388526341
 20
88.034530370724113
 30
0.0
 11
196.09530388526341
 21
88.034530370724113
 31
0.0
1001
TCAD
1000
TCW_CUSTOM_DATA
1002
{
1000
#$AUX@_ToolInfo Properties
1070
     8
1000
CMD_LINE@
1002
}
  0
INSERT
  5
33
  8
0
  6
CONTINUOUS
 62
     7
  2
*U19
 10
0.0
 20
0.0
 30
0.0
1001
ACAD
1002
{
1000
R14_HATCH_DATA
1000
33
1011
1.0
1021
0.0
1031
0.0
1021
0.0
1031
0.0
1011
0.0
1021
0.0
1031
0.0
1021
1.0
1031
0.0
1011
0.0
1021
0.0
1031
0.0
1021
0.0
1031
1.0
1040
0.0
1010
0.0
1020
0.0
1030
1.0
1000
SOLID
1070
     1
1070
     0
1071
        1
1071
        3
1070
     1
1070
     1
1071
       14
1040
345.73743781591071
1040
298.51195816949428
1040
0.0123462743618816
1040
345.72768523791808
1040
298.11705801109559
1040
0.0
1040
345.72768523791808
1040
236.11705801109551
1040
-0.4142135623730951
1040
205.72768523791811
1040
96.117058011095494
1040
0.0
1040
196.09530388526341
1040
88.034530370724113
1040
0.0
1040
196.09530388526329
1040
73.800932314197453
1040
0.0
1040
219.09530388526329
1040
73.800932314197453
1040
0.0
1040
219.09530388526329
1040
79.178305660603996
1040
-0.3870518261482465
1040
223.62789703264261
1040
84.156410805548546
1040
0.3839091390857758
1040
357.86550419357002
1040
229.97734144132269
1040
0.0
1040
357.75475537466008
1040
281.51885706023018
1040
-0.4154920512052346
1040
362.76581548790222
1040
286.52958842900853
1040
0.0
1040
370.72768523791808
1040
286.51195816949428
1040
0.0
1040
370.72768523791808
1040
298.51195816949428
1040
0.0
1071
        0
1070
     0
1070
     0
1071
        0
1002
}
  0
LINE
  5
34
  8
0
 62
     7
 10
-159.35432557311981
 20
106.5869070218458
 30
0.0
 11
-159.442858189601
 21
106.5869070218458
 31
0.0
1001
TCAD
1000
TCW_CUSTOM_DATA
1002
{
1000
#$AUX@_ToolInfo Properties
1070
     8
1000
CMD_FILLETARC@
1002
}
  0
DIMENSION
  5
41
  8
0
  6
DURCHGEHEND
 62
     7
  2
*D1
 10
346.18632954882281
 20
334.57939455601769
 30
0.0
 11
-13.92532883744604
 21
348.88708686371012
 31
0.0
 70
     1
  1
720
 13
-374.0369872237149
 23
320.90102571783552
 33
0.0
 14
346.18632954882281
 24
320.9010257178353
 34
0.0
1001
TCAD
1000
TCW_CUSTOM_DATA
1002
{
1000
#$AUX@_ToolInfo Properties
1070
     8
1000
CMD_PARALLELDIM@
1002
}
1001
ACAD
1000
DSTYLE
1002
{
1002
}
  0
LINE
  5
42
  8
0
 62
     7
 10
345.73743781591071
 20
298.51195816949428
 30
0.0
 11
-374.48587895662689
 21
298.51195816949439
 31
0.0
1001
TCAD
1000
TCW_CUSTOM_DATA
1002
{
1000
#$AUX@_ToolInfo Properties
1070
     8
1000
CMD_LINE@
1002
}
  0
DIMENSION
  5
4F
  8
0
  6
DURCHGEHEND
 62
     7
  2
*D2
 10
370.72768523791802
 20
393.88955182484682
 30
0.0
 11
-14.37909685935443
 21
408.19724413253908
 31
0.0
 70
     1
  1
770
 13
-399.48587895662689
 23
298.51195816949439
 33
0.0
 14
370.72768523791802
 24
298.51195816949428
 34
0.0
1001
TCAD
1000
TCW_CUSTOM_DATA
1002
{
1000
#$AUX@_ToolInfo Properties
1070
     8
1000
CMD_PARALLELDIM@
1002
}
1001
ACAD
1000
DSTYLE
1002
{
1002
}
  0
DIMENSION
  5
5C
  8
0
  6
DURCHGEHEND
 62
     7
  2
*D3
 10
451.3337764866921
 20
298.43830902087899
 30
0.000000000000137
 11
451.3261035889733
 21
197.2383461095902
 31
0.000000000000137
 70
     1
  1
202
 13
386.194678842727
 23
96.043320827452874
 33
0.000000000000137
 14
386.2100246381645
 24
298.44324665003052
 34
0.000000000000137
1001
TCAD
1000
TCW_CUSTOM_DATA
1002
{
1000
#$AUX@_ToolInfo Properties
1070
     8
1000
CMD_PARALLELDIM@
1002
}
1001
ACAD
1000
DSTYLE
1002
{
1002
}
  0
DIMENSION
  5
69
  8
0
  6
DURCHGEHEND
 62
     7
  2
*D4
 10
572.22717215523573
 20
297.9619210676309
 30
0.0
 11
572.25026206260861
 21
185.88967702263821
 31
0.0
 70
     1
  1
224
 13
492.18353822713692
 23
73.80093231419761
 33
0.0
 14
492.13735841239111
 24
297.94542040418298
 34
0.0
1001
TCAD
1000
TCW_CUSTOM_DATA
1002
{
1000
#$AUX@_ToolInfo Properties
1070
     8
1000
CMD_PARALLELDIM@
1002
}
1001
ACAD
1000
DSTYLE
1002
{
1002
}
  0
INSERT
  5
6A
  8
0
  6
CONTINUOUS
 62
     7
  2
*U32
 10
0.0
 20
0.0
 30
0.0
1001
ACAD
1002
{
1000
R14_HATCH_DATA
1000
6A
1011
1.0
1021
0.0
1031
0.0
1021
0.0
1031
0.0
1011
0.0
1021
0.0
1031
0.0
1021
1.0
1031
0.0
1011
0.0
1021
0.0
1031
0.0
1021
0.0
1031
1.0
1040
0.0
1010
0.0
1020
0.0
1030
1.0
1000
SOLID
1070
     1
1070
     0
1071
        1
1071
        3
1070
     1
1070
     1
1071
       15
1040
150.09530388526341
1040
88.034530370724113
1040
0.0
1040
140.4629225326089
1040
96.117058011095494
1040
0.0
1040
-184.33909624859729
1040
107.4593944394084
1040
0.0
1040
-184.48501421353049
1040
107.4593944394084
1040
-0.4139885550192293
1040
-374.48495813876508
1040
297.31342044277449
1040
0.0
1040
-374.48587895662689
1040
298.51195816949439
1040
0.0
1040
-399.48587895662689
1040
298.51195816949439
1040
0.0
1040
-399.48587895662689
1040
286.51195816949439
1040
0.0
1040
-391.06765319389609
1040
286.51195816949439
1040
-0.3857783481905961
1040
-386.0916685405283
1040
282.00142392871311
1040
0.3811867364756352
1040
-182.22988681098471
1040
94.213807652609205
1040
0.0
1040
122.21541599794151
1040
83.969442575257546
1040
-0.4040262258351604
1040
127.04091851442909
1040
78.972488440162095
1040
0.0
1040
127.04091851442909
1040
73.800932314197453
1040
0.0
1040
150.04091851442911
1040
73.800932314197453
1040
0.0
1071
        0
1070
     0
1070
     0
1071
        0
1002
}
  0
DIMENSION
  5
77
  8
0
  6
DURCHGEHEND
 62
     7
  2
*D5
 10
344.6813428598432
 20
2.3534637631718658
 30
-0.0000000000000003
 11
258.82498925727191
 21
16.66115607086417
 31
-0.0000000000000017
 70
     1
  1
175
 13
172.96863565470071
 23
40.023194837748783
 33
-0.0000000000000041
 14
344.6813428598432
 24
40.023194837748783
 34
-0.0000000000000041
1001
TCAD
1000
TCW_CUSTOM_DATA
1002
{
1000
#$AUX@_ToolInfo Properties
1070
     8
1000
CMD_PARALLELDIM@
1002
}
1001
ACAD
1000
DSTYLE
1002
{
1002
}
  0
LINE
  5
78
  8
0
 62
     7
 10
210.0488064817358
 20
596.79067172673581
 30
0.0
 11
-179.9511935182642
 21
596.79067172673581
 31
0.0
1001
TCAD
1000
TCW_CUSTOM_DATA
1002
{
1000
#$AUX@_ToolInfo Properties
1070
     8
1000
CMD_FILLETARC@
1002
}
  0
LINE
  5
79
  8
0
 62
     7
 10
350.04880648173571
 20
872.7906717267357
 30
0.0
 11
350.04880648173571
 21
736.79067172673581
 31
0.0
1001
TCAD
1000
TCW_CUSTOM_DATA
1002
{
1000
#$AUX@_ToolInfo Properties
1070
     8
1000
CMD_FILLETARC@
1002
}
  0
ARC
  5
7A
  8
0
 62
     7
 10
210.0488064817358
 20
736.79067172673581
 30
0.0
 40
140.0
 50
-90.0
 51
0.0
1001
TCAD
1000
TCW_CUSTOM_DATA
1002
{
1000
#$AUX@_ToolInfo Properties
1070
     8
1000
CMD_FILLETARC@
1002
}
  0
LINE
  5
7B
  8
0
 62
     7
 10
-179.9511935182642
 20
1012.790671726736
 30
0.0
 11
210.0488064817358
 21
1012.790671726736
 31
0.0
1001
TCAD
1000
TCW_CUSTOM_DATA
1002
{
1000
#$AUX@_ToolInfo Properties
1070
     8
1000
CMD_FILLETARC@
1002
}
  0
ARC
  5
7C
  8
0
 62
     7
 10
210.0488064817358
 20
872.7906717267357
 30
0.0
 40
140.0
 50
0.0
 51
90.0
1001
TCAD
1000
TCW_CUSTOM_DATA
1002
{
1000
#$AUX@_ToolInfo Properties
1070
     8
1000
CMD_FILLETARC@
1002
}
  0
LINE
  5
7D
  8
0
 62
     7
 10
-369.95119351826418
 20
786.79067172673581
 30
0.0
 11
-369.95119351826418
 21
822.7906717267357
 31
0.0
1001
TCAD
1000
TCW_CUSTOM_DATA
1002
{
1000
#$AUX@_ToolInfo Properties
1070
     8
1000
CMD_FILLETARC@
1002
}
  0
ARC
  5
7E
  8
0
 62
     7
 10
-179.9511935182642
 20
822.7906717267357
 30
0.0
 40
190.0
 50
90.0
 51
180.0
1001
TCAD
1000
TCW_CUSTOM_DATA
1002
{
1000
#$AUX@_ToolInfo Properties
1070
     8
1000
CMD_FILLETARC@
1002
}
  0
ARC
  5
7F
  8
0
 62
     7
 10
-179.9511935182642
 20
786.79067172673581
 30
0.0
 40
190.0
 50
180.0
 51
270.0
1001
TCAD
1000
TCW_CUSTOM_DATA
1002
{
1000
#$AUX@_ToolInfo Properties
1070
     8
1000
CMD_FILLETARC@
1002
}
  0
LINE
  5
80
  8
0
 62
     7
 10
376.4628258187534
 20
737.18949769358733
 30
0.0
 11
376.4628258187534
 21
873.18949769358744
 31
0.0
1001
TCAD
1000
TCW_CUSTOM_DATA
1002
{
1000
#$AUX@_ToolInfo Properties
1070
     8
1000
CMD_FILLETARC@
1002
}
  0
LINE
  5
81
  8
0
 62
     7
 10
-178.53717418124651
 20
572.18949769358733
 30
0.0
 11
211.4628258187534
 21
572.18949769358733
 31
0.0
1001
TCAD
1000
TCW_CUSTOM_DATA
1002
{
1000
#$AUX@_ToolInfo Properties
1070
     8
1000
CMD_FILLETARC@
1002
}
  0
LINE
  5
82
  8
0
 62
     7
 10
-393.5371741812466
 20
823.18949769358744
 30
0.0
 11
-393.5371741812466
 21
787.18949769358733
 31
0.0
1001
TCAD
1000
TCW_CUSTOM_DATA
1002
{
1000
#$AUX@_ToolInfo Properties
1070
     8
1000
CMD_FILLETARC@
1002
}
  0
LINE
  5
83
  8
0
 62
     7
 10
211.4628258187534
 20
1038.1894976935871
 30
0.0
 11
-178.5371741812466
 21
1038.1894976935871
 31
0.0
1001
TCAD
1000
TCW_CUSTOM_DATA
1002
{
1000
#$AUX@_ToolInfo Properties
1070
     8
1000
CMD_FILLETARC@
1002
}
  0
ARC
  5
84
  8
0
 62
     7
 10
-178.5371741812466
 20
823.18949769358733
 30
0.0
 40
215.0
 50
90.0
 51
180.0
1001
TCAD
1000
TCW_CUSTOM_DATA
1002
{
1000
#$AUX@_ToolInfo Properties
1070
     8
1000
CMD_FILLETARC@
1002
}
  0
ARC
  5
85
  8
0
 62
     7
 10
-178.5371741812466
 20
787.18949769358733
 30
0.0
 40
215.0
 50
180.0
 51
270.0
1001
TCAD
1000
TCW_CUSTOM_DATA
1002
{
1000
#$AUX@_ToolInfo Properties
1070
     8
1000
CMD_FILLETARC@
1002
}
  0
ARC
  5
86
  8
0
 62
     7
 10
211.4628258187534
 20
737.18949769358733
 30
0.0
 40
165.0
 50
-90.0
 51
0.0
1001
TCAD
1000
TCW_CUSTOM_DATA
1002
{
1000
#$AUX@_ToolInfo Properties
1070
     8
1000
CMD_FILLETARC@
1002
}
  0
ARC
  5
87
  8
0
 62
     7
 10
211.4628258187534
 20
873.18949769358744
 30
0.0
 40
165.0
 50
0.0
 51
90.0
1001
TCAD
1000
TCW_CUSTOM_DATA
1002
{
1000
#$AUX@_ToolInfo Properties
1070
     8
1000
CMD_FILLETARC@
1002
}
  0
CIRCLE
  5
88
  8
0
 62
     7
 10
171.45163063617011
 20
799.41331836742779
 30
0.0
 40
23.0
1001
TCAD
1000
TCW_CUSTOM_DATA
1002
{
1000
#$AUX@_ToolInfo Properties
1070
     8
1000
CMD_CENTERPTCIRCLE@
1002
}
  0
CIRCLE
  5
89
  8
0
 62
     7
 10
171.45163063617011
 20
799.41331836742779
 30
0.0
 40
35.0
1001
TCAD
1000
TCW_CUSTOM_DATA
1002
{
1000
#$AUX@_ToolInfo Properties
1070
     8
1000
CMD_CENTERPTCIRCLE@
1002
}
  0
DIMENSION
  5
96
  8
0
  6
DURCHGEHEND
 62
     7
  2
*D6
 10
484.52190480357558
 20
596.66469951632121
 30
0.0000000000001451
 11
484.52190480357552
 21
804.92436804553381
 31
0.0000000000001451
 70
     1
  1
426
 13
400.88533239433008
 23
1013.184036574746
 33
0.0000000000001451
 14
400.88533239433019
 24
596.66469951632121
 34
0.0000000000001451
1001
TCAD
1000
TCW_CUSTOM_DATA
1002
{
1000
#$AUX@_ToolInfo Properties
1070
     8
1000
CMD_PARALLELDIM@
1002
}
1001
ACAD
1000
DSTYLE
1002
{
1002
}
  0
DIMENSION
  5
A3
  8
0
  6
DURCHGEHEND
 62
     7
  2
*D7
 10
576.02119120971315
 20
1038.006359160192
 30
0.0000000000003113
 11
576.05228453387417
 21
803.64208463031071
 31
0.0000000000003113
 70
     1
  1
476
 13
400.22238095045901
 23
569.25447845999349
 33
0.0000000000003113
 14
400.1601943021368
 24
1037.9830275197569
 34
0.0000000000003113
1001
TCAD
1000
TCW_CUSTOM_DATA
1002
{
1000
#$AUX@_ToolInfo Properties
1070
     8
1000
CMD_PARALLELDIM@
1002
}
1001
ACAD
1000
DSTYLE
1002
{
1002
}
  0
DIMENSION
  5
B0
  8
0
  6
DURCHGEHEND
 62
     7
  2
*D8
 10
347.02489638104271
 20
1130.6166050362069
 30
0.0000000000000893
 11
-11.524226192659791
 21
1130.642608977538
 31
0.0000000000000893
 70
     1
  1
720
 13
-370.0815185173746
 23
1018.021956021798
 33
0.0000000000000893
 14
347.0167266300304
 24
1017.969948139136
 34
0.0000000000000893
1001
TCAD
1000
TCW_CUSTOM_DATA
1002
{
1000
#$AUX@_ToolInfo Properties
1070
     8
1000
CMD_PARALLELDIM@
1002
}
1001
ACAD
1000
DSTYLE
1002
{
1002
}
  0
DIMENSION
  5
BD
  8
0
  6
DURCHGEHEND
 62
     7
  2
*D9
 10
375.5645914669746
 20
1227.715437084948
 30
0.0000000000000737
 11
-8.8922277923557012
 21
1227.864152356625
 31
0.0000000000000737
 70
     1
  1
770
 13
-393.43096602232112
 23
1016.236991940764
 33
0.0000000000000737
 14
375.48267249633949
 24
1015.939561397411
 34
0.0000000000000737
1001
TCAD
1000
TCW_CUSTOM_DATA
1002
{
1000
#$AUX@_ToolInfo Properties
1070
     8
1000
CMD_PARALLELDIM@
1002
}
1001
ACAD
1000
DSTYLE
1002
{
1002
}
  0
DIMENSION
  5
C6
  8
0
  6
DURCHGEHEND
 62
     7
  2
*D10
 10
-179.9511935182642
 20
786.79067172673581
 30
0.0
 11
-270.04895992314761
 21
735.70374441090257
 31
0.0
 70
     4
  1
R190
 15
-350.92639576520122
 25
703.92041037431215
 35
0.0
 40
-40.067110617281998
1001
TCAD
1000
TCW_CUSTOM_DATA
1002
{
1000
#$AUX@_ToolInfo Properties
1070
     8
1000
CMD_RADIALDIM@
1002
}
1001
ACAD
1000
DSTYLE
1002
{
1002
}
  0
INSERT
  5
C7
  8
0
  6
CONTINUOUS
 62
     7
  2
*U50
 10
0.0
 20
0.0
 30
0.0
1001
TCAD
1000
TCW_CUSTOM_DATA
1002
{
1000
#$AUX@_ToolInfo Properties
1070
     8
1000
CMD_STRINGDIM@
1002
}
1001
ACAD
1000
DSTYLE
1002
{
1070
   341
1005
2A
1002
}
  0
TEXT
  5
C8
  8
0
  6
DURCHGEHEND
 62
     7
 10
170.98029085717209
 20
682.58555416566253
 30
0.0
 40
24.61538461538462
  1
R 140
 11
170.98029085717209
 21
707.20093878104717
 31
0.0
 73
     3
1001
TCAD
1000
TCW_CUSTOM_DATA
1002
{
1000
#$AUX@_ToolInfo Properties
1070
     8
1000
CMD_TEXT@
1002
}
1000
TCW40_TEXT
1002
{
1000
Verdana
1070
     0
1070
   257
1002
}
  0
LINE
  5
C9
  8
0
 62
     7
 10
-1516.255728634432
 20
480.06841984178237
 30
-0.0000000000000665
 11
-1450.990965929122
 21
480.06841984178237
 31
-0.0000000000000665
1001
TCAD
1000
TCW_CUSTOM_DATA
1002
{
1000
#$AUX@_ToolInfo Properties
1070
     8
1000
CMD_LINE@
1002
}
  0
LINE
  5
CA
  8
0
 62
     7
 10
-1450.990965929122
 20
480.06841984178237
 30
-0.0000000000000665
 11
-1450.990965929122
 21
480.06841984178237
 31
-0.0000000000000665
1001
TCAD
1000
TCW_CUSTOM_DATA
1002
{
1000
#$AUX@_ToolInfo Properties
1070
     8
1000
CMD_FILLETARC@
1002
}
  0
LINE
  5
CB
  8
0
 62
     7
 10
-1725.978782594578
 20
431.09409248094641
 30
-0.0000000000000498
 11
-1726.4106217790461
 21
431.09409248094641
 31
-0.0000000000000498
1001
TCAD
1000
TCW_CUSTOM_DATA
1002
{
1000
#$AUX@_ToolInfo Properties
1070
     8
1000
CMD_FILLETARC@
1002
}
  0
LINE
  5
CC
  8
0
 62
     7
 10
-1506.6777326526119
 20
457.75229414488427
 30
-0.0000000000000665
 11
-1460.6233472817769
 21
457.75229414488427
 31
-0.0000000000000665
1001
TCAD
1000
TCW_CUSTOM_DATA
1002
{
1000
#$AUX@_ToolInfo Properties
1070
     8
1000
CMD_LINE@
1002
}
  0
LINE
  5
CD
  8
0
 62
     7
 10
-1506.6233472817769
 20
471.98589220141088
 30
-0.0000000000000665
 11
-1460.6233472817769
 21
471.98589220141088
 31
-0.0000000000000665
1001
TCAD
1000
TCW_CUSTOM_DATA
1002
{
1000
#$AUX@_ToolInfo Properties
1070
     8
1000
CMD_LINE@
1002
}
  0
LINE
  5
CE
  8
0
 62
     7
 10
-1668.0141146274709
 20
429.06992167220119
 30
-0.0000000000000498
 11
-1668.1026472439521
 21
429.06992167220119
 31
-0.0000000000000498
1001
TCAD
1000
TCW_CUSTOM_DATA
1002
{
1000
#$AUX@_ToolInfo Properties
1070
     8
1000
CMD_FILLETARC@
1002
}
  0
LINE
  5
CF
  8
0
 62
     7
 10
-1513.6796378399681
 20
480.14824800689581
 30
-0.0000000000000166
 11
-1513.6796378399681
 21
480.14824800689581
 31
-0.0000000000000166
1001
TCAD
1000
TCW_CUSTOM_DATA
1002
{
1000
#$AUX@_ToolInfo Properties
1070
     8
1000
CMD_FILLETARC@
1002
}
  0
LINE
  5
D0
  8
0
 62
     7
 10
-1515.482284505639
 20
479.90734105817029
 30
-0.0000000000000332
 11
-1515.482284505639
 21
479.90734105817029
 31
-0.0000000000000332
1001
TCAD
1000
TCW_CUSTOM_DATA
1002
{
1000
#$AUX@_ToolInfo Properties
1070
     8
1000
CMD_FILLETARC@
1002
}
  0
LINE
  5
D1
  8
0
 62
     7
 10
-1695.9822845056381
 20
689.90734105817046
 30
0.0
 11
-1270.490965929122
 21
690.06841984178243
 31
0.0
1001
TCAD
1000
TCW_CUSTOM_DATA
1002
{
1000
#$AUX@_ToolInfo Properties
1070
     8
1000
CMD_LINE@
1002
}
  0
POLYLINE
  5
D2
  8
0
 62
     7
 66
     1
 10
0.0
 20
0.0
 30
0.0
 70
   128
  0
VERTEX
  5
606
  8
0
 62
     7
 10
-1561.342060630948
 20
482.47533344999778
 30
0.0
  0
VERTEX
  5
607
  8
0
 62
     7
 10
-1515.5779638823301
 20
480.47901646636848
 30
0.0
  0
VERTEX
  5
608
  8
0
 62
     7
 10
-1505.9129262080121
 20
472.37022924783111
 30
0.0
  0
VERTEX
  5
609
  8
0
 62
     7
 10
-1505.9673115788471
 20
458.13663119130439
 30
0.0
  0
VERTEX
  5
60A
  8
0
 62
     7
 10
-1525.1394820792191
 20
457.97555240769242
 30
0.0
  0
VERTEX
  5
60B
  8
0
 62
     7
 10
-1525.135843896983
 20
463.9182359036684
 30
0.0
 42
0.4015862833798901
  0
VERTEX
  5
60C
  8
0
 62
     7
 10
-1529.916333127494
 20
468.91647618252011
 30
0.0
  0
VERTEX
  5
60D
  8
0
 62
     7
 10
-1562.986250921005
 20
470.36971175150069
 30
0.0
 42
-0.4016225502125961
  0
VERTEX
  5
60E
  8
0
 62
     7
 10
-1708.3131107180279
 20
622.33520399490078
 30
0.0
  0
VERTEX
  5
60F
  8
0
 62
     7
 10
-1708.271863431874
 20
678.29167810459046
 30
0.0
  0
VERTEX
  5
610
  8
0
 62
     7
 10
-1720.271863431874
 20
678.29167810459046
 30
0.0
  0
VERTEX
  5
611
  8
0
 62
     7
 10
-1720.271863431874
 20
690.29167810459046
 30
0.0
  0
VERTEX
  5
612
  8
0
 62
     7
 10
-1695.271863431874
 20
690.29167810459046
 30
0.0
  0
VERTEX
  5
613
  8
0
 62
     7
 10
-1695.271863431874
 20
622.19150279404971
 30
0.0
 42
0.401501978676161
  0
VERTEX
  5
614
  8
0
 62
     7
 10
-1561.373127636012
 20
482.32451392565622
 30
0.0
  0
SEQEND
  5
615
  8
0
 62
     7
  0
INSERT
  5
D3
  8
0
  6
CONTINUOUS
 62
     7
  2
*U51
 10
0.0
 20
0.0
 30
0.0
1001
ACAD
1002
{
1000
R14_HATCH_DATA
1000
D3
1011
1.0
1021
0.0
1031
0.0
1021
0.0
1031
0.0
1011
0.0
1021
0.0
1031
0.0
1021
1.0
1031
0.0
1011
0.0
1021
0.0
1031
0.0
1021
0.0
1031
1.0
1040
0.0
1010
0.0
1020
0.0
1030
1.0
1000
SOLID
1070
     1
1070
     0
1071
        1
1071
        3
1070
     0
1070
     1
1071
       57
1040
-1561.342060630948
1040
482.47533344999778
1040
-1515.5779638823301
1040
480.47901646636848
1040
-1505.9129262080121
1040
472.37022924783111
1040
-1505.9673115788471
1040
458.13663119130439
1040
-1525.1394820792191
1040
457.97555240769242
1040
-1525.135843896983
1040
463.9182359036684
1040
-1525.1614351322
1040
464.42653627575157
1040
-1525.2385660436771
1040
464.9296018798974
1040
-1525.3664374805701
1040
465.42222046989031
1040
-1525.5437245711189
1040
465.89928804068569
1040
-1525.768590449597
1040
466.35586171083821
1040
-1526.0387052880139
1040
466.78721093553469
1040
-1526.3512704353959
1040
467.18886651961373
1040
-1526.7030474145081
1040
467.55666692274963
1040
-1527.0903914756129
1040
467.88680137703551
1040
-1527.509289359605
1040
468.17584937022451
1040
-1527.9554008792561
1040
468.4208160855448
1040
-1528.4241038877501
1040
468.61916343089808
1040
-1528.910542168597
1040
468.76883633594809
1040
-1529.409675750733
1040
468.86828404463762
1040
-1529.916333127494
1040
468.91647618252028
1040
-1562.986250921005
1040
470.36971175150069
1040
-1578.3898876038479
1040
471.83493659230112
1040
-1593.564750572064
1040
474.85858352721129
1040
-1608.353587873434
1040
479.4093195297429
1040
-1622.603147808647
1040
485.4399868679331
1040
-1636.165767026622
1040
492.8880917839071
1040
-1648.9009007096749
1040
501.67645209547192
1040
-1660.6765789917449
1040
511.71399700886161
1040
-1671.3707745173001
1040
522.8967108544507
1040
-1680.8726669693899
1040
535.10871096581809
1040
-1689.0837914629631
1040
548.22344853247159
1040
-1695.9190589030291
1040
562.10501998219945
1040
-1701.307637734066
1040
576.60957530364374
1040
-1705.1936879433731
1040
591.58680871512104
1040
-1707.5369397121649
1040
606.88151623240253
1040
-1708.3131107180279
1040
622.33520399490067
1040
-1708.271863431874
1040
678.29167810459046
1040
-1720.271863431874
1040
678.29167810459046
1040
-1720.271863431874
1040
690.29167810459046
1040
-1695.271863431874
1040
690.29167810459046
1040
-1695.271863431874
1040
622.19150279404971
1040
-1694.5468712301049
1040
607.96223005076854
1040
-1692.379403391835
1040
593.88033033285467
1040
-1688.7919084496421
1040
580.09165031861664
1040
-1683.82154220148
1040
566.73899980066869
1040
-1677.5197828869209
1040
553.96067260041752
1040
-1669.951898025399
1040
541.88901425460369
1040
-1661.1962684384639
1040
530.64905130841464
1040
-1651.3435764571459
1040
520.35719641162416
1040
-1640.4958667222011
1040
511.1200426291166
1040
-1628.765489304556
1040
503.03325945316169
1040
-1616.27393609209
1040
496.18060195147291
1040
-1603.1505824943331
1040
490.63304331333768
1040
-1589.5313474972761
1040
486.44803977806328
1040
-1575.5572859461611
1040
483.66893555889902
1040
-1561.373127636012
1040
482.32451392565622
1071
        0
1070
     0
1070
     0
1071
        0
1002
}
  0
POLYLINE
  5
D4
  8
0
 62
     7
 66
     1
 10
0.0
 20
0.0
 30
0.0
 70
   129
  0
VERTEX
  5
6EF
  8
0
 62
     7
 10
-1460.6233472817769
 20
471.98589220141088
 30
0.0
  0
VERTEX
  5
6F0
  8
0
 62
     7
 10
-1460.6233472817769
 20
457.75229414488427
 30
0.0
  0
VERTEX
  5
6F1
  8
0
 62
     7
 10
-1440.6233472817769
 20
457.75229414488427
 30
0.0
  0
VERTEX
  5
6F2
  8
0
 62
     7
 10
-1440.6269854640129
 20
463.69497764086032
 30
0.0
 42
-0.4015862833798931
  0
VERTEX
  5
6F3
  8
0
 62
     7
 10
-1435.846496233502
 20
468.69321791971203
 30
0.0
  0
VERTEX
  5
6F4
  8
0
 62
     7
 10
-1402.776578439991
 20
470.14645348869271
 30
0.0
 42
0.401622550212597
  0
VERTEX
  5
6F5
  8
0
 62
     7
 10
-1257.449718642968
 20
622.11194573209275
 30
0.0
  0
VERTEX
  5
6F6
  8
0
 62
     7
 10
-1257.490965929122
 20
678.06841984178243
 30
0.0
  0
VERTEX
  5
6F7
  8
0
 62
     7
 10
-1245.490965929122
 20
678.06841984178243
 30
0.0
  0
VERTEX
  5
6F8
  8
0
 62
     7
 10
-1245.490965929122
 20
690.06841984178243
 30
0.0
  0
VERTEX
  5
6F9
  8
0
 62
     7
 10
-1270.490965929122
 20
690.06841984178243
 30
0.0
  0
VERTEX
  5
6FA
  8
0
 62
     7
 10
-1270.490965929122
 20
621.96824453124157
 30
0.0
 42
-0.4015019786761607
  0
VERTEX
  5
6FB
  8
0
 62
     7
 10
-1404.389701724984
 20
482.10125566284808
 30
0.0
  0
VERTEX
  5
6FC
  8
0
 62
     7
 10
-1450.990965929122
 20
480.06841984178237
 30
0.0
  0
SEQEND
  5
6FD
  8
0
 62
     7
  0
INSERT
  5
D5
  8
0
  6
CONTINUOUS
 62
     7
  2
*U52
 10
0.0
 20
0.0
 30
0.0
1001
ACAD
1002
{
1000
R14_HATCH_DATA
1000
D5
1011
1.0
1021
0.0
1031
0.0
1021
0.0
1031
0.0
1011
0.0
1021
0.0
1031
0.0
1021
1.0
1031
0.0
1011
0.0
1021
0.0
1031
0.0
1021
0.0
1031
1.0
1040
0.0
1010
0.0
1020
0.0
1030
1.0
1000
SOLID
1070
     1
1070
     0
1071
        1
1071
        3
1070
     0
1070
     1
1071
       56
1040
-1460.6233472817769
1040
471.98589220141088
1040
-1460.6233472817769
1040
457.75229414488427
1040
-1440.6233472817769
1040
457.75229414488427
1040
-1440.6269854640129
1040
463.69497764086032
1040
-1440.6013942287959
1040
464.20327801294349
1040
-1440.5242633173191
1040
464.70634361708937
1040
-1440.3963918804261
1040
465.19896220708222
1040
-1440.2191047898771
1040
465.6760297778776
1040
-1439.9942389114001
1040
466.13260344803012
1040
-1439.724124072982
1040
466.5639526727266
1040
-1439.4115589255989
1040
466.96560825680569
1040
-1439.0597819464881
1040
467.33340865994148
1040
-1438.672437885383
1040
467.66354311422731
1040
-1438.253540001391
1040
467.95259110741642
1040
-1437.8074284817401
1040
468.19755782273671
1040
-1437.3387254732461
1040
468.39590516809
1040
-1436.852287192399
1040
468.54557807314012
1040
-1436.353153610263
1040
468.64502578182959
1040
-1435.846496233502
1040
468.69321791971231
1040
-1402.776578439991
1040
470.14645348869271
1040
-1387.3729417571481
1040
471.61167832949309
1040
-1372.198078788932
1040
474.63532526440321
1040
-1357.409241487562
1040
479.18606126693493
1040
-1343.159681552349
1040
485.21672860512501
1040
-1329.597062334374
1040
492.66483352109913
1040
-1316.861928651321
1040
501.45319383266383
1040
-1305.086250369251
1040
511.49073874605358
1040
-1294.3920548436961
1040
522.67345259164256
1040
-1284.8901623916061
1040
534.88545270301006
1040
-1276.6790378980329
1040
548.00019026966345
1040
-1269.8437704579669
1040
561.88176171939153
1040
-1264.4551916269299
1040
576.38631704083571
1040
-1260.5691414176231
1040
591.36355045231301
1040
-1258.2258896488311
1040
606.65825796959439
1040
-1257.449718642968
1040
622.11194573209275
1040
-1257.490965929122
1040
678.06841984178243
1040
-1245.490965929122
1040
678.06841984178243
1040
-1245.490965929122
1040
690.06841984178243
1040
-1270.490965929122
1040
690.06841984178243
1040
-1270.490965929122
1040
621.96824453124157
1040
-1271.2159581308911
1040
607.73897178796028
1040
-1273.383425969161
1040
593.65707207004652
1040
-1276.9709209113539
1040
579.8683920558085
1040
-1281.9412871595159
1040
566.51574153786055
1040
-1288.2430464740751
1040
553.73741433760938
1040
-1295.8109313355969
1040
541.66575599179555
1040
-1304.5665609225321
1040
530.42579304560638
1040
-1314.4192529038501
1040
520.13393814881601
1040
-1325.2669626387949
1040
510.89678436630862
1040
-1336.9973400564411
1040
502.81000119035372
1040
-1349.4888932689071
1040
495.95734368866488
1040
-1362.612246866664
1040
490.40978505052971
1040
-1376.2314818637201
1040
486.2247815152553
1040
-1390.2055434148349
1040
483.44567729609099
1040
-1404.389701724984
1040
482.10125566284808
1040
-1450.990965929122
1040
480.06841984178237
1071
        0
1070
     0
1070
     0
1071
        0
1002
}
  0
DIMENSION
  5
E2
  8
0
  6
DURCHGEHEND
 62
     7
  2
*D11
 10
-1270.4488129955971
 20
770.27042764280395
 30
0.0
 11
-1482.8392617469719
 21
770.38205677420785
 31
0.0
 70
     1
  1
426
 13
-1695.271863431874
 23
690.29167810459046
 33
0.0
 14
-1270.490965929122
 24
690.06841984178243
 34
0.0
1001
TCAD
1000
TCW_CUSTOM_DATA
1002
{
1000
#$AUX@_ToolInfo Properties
1070
     8
1000
CMD_PARALLELDIM@
1002
}
1001
ACAD
1000
DSTYLE
1002
{
1002
}
  0
DIMENSION
  5
EF
  8
0
  6
DURCHGEHEND
 62
     7
  2
*D12
 10
-1245.4275757708631
 20
824.87389513652488
 30
0.0
 11
-1482.8180245222379
 21
824.98552426792878
 31
0.0
 70
     1
  1
476
 13
-1720.271863431874
 23
690.29167810459046
 33
0.0
 14
-1245.490965929122
 24
690.06841984178243
 34
0.0
1001
TCAD
1000
TCW_CUSTOM_DATA
1002
{
1000
#$AUX@_ToolInfo Properties
1070
     8
1000
CMD_PARALLELDIM@
1002
}
1001
ACAD
1000
DSTYLE
1002
{
1002
}
  0
DIMENSION
  5
FC
  8
0
  6
DURCHGEHEND
 62
     7
  2
*D13
 10
-1123.0241846636641
 20
690.59297868351553
 30
0.0000000000000001
 11
-1123.1203919218119
 21
585.34047055477868
 31
0.0000000000000001
 70
     1
  1
202
 13
-1239.827546662041
 23
480.19455199551408
 33
0.0000000000000001
 14
-1239.635132145745
 24
690.69956825298755
 34
0.0
1001
TCAD
1000
TCW_CUSTOM_DATA
1002
{
1000
#$AUX@_ToolInfo Properties
1070
     8
1000
CMD_PARALLELDIM@
1002
}
1001
ACAD
1000
DSTYLE
1002
{
1002
}
  0
DIMENSION
  5
109
  8
0
  6
DURCHGEHEND
 62
     7
  2
*D14
 10
-989.6051808592423
 20
689.5847880981928
 30
0.0000000000000001
 11
-989.62876752266016
 21
573.65483305206806
 31
0.0000000000000001
 70
     1
  1
224
 13
-1122.717740024957
 23
457.75195097830078
 33
0.0000000000000001
 14
-1122.6705666981211
 24
689.61186107055016
 34
0.0000000000000001
1001
TCAD
1000
TCW_CUSTOM_DATA
1002
{
1000
#$AUX@_ToolInfo Properties
1070
     8
1000
CMD_PARALLELDIM@
1002
}
1001
ACAD
1000
DSTYLE
1002
{
1002
}
  0
DIMENSION
  5
117
  8
0
  6
DURCHGEHEND
 62
     7
  2
*D15
 10
-1460.4750677996281
 20
414.16775887809848
 30
0.0
 11
-1366.326336915314
 21
428.44972944719638
 31
0.0
 70
     1
  1
46
 13
-1505.9673115788471
 23
458.13663119130439
 33
0.0
 14
-1460.4508202253589
 24
458.11151580332199
 34
0.0
1001
TCAD
1000
TCW_CUSTOM_DATA
1002
{
1000
#$AUX@_ToolInfo Properties
1070
     8
1000
CMD_PARALLELDIM@
1002
}
1001
ACAD
1000
DSTYLE
1002
{
1002
}
  0
POLYLINE
  5
3A2
  8
LAYER01
  6
CONTINUOUS
 62
     7
 66
     1
 10
0.0
 20
0.0
 30
0.0
 70
     1
  0
VERTEX
  5
8A8
  8
LAYER01
  6
CONTINUOUS
 62
     7
 10
-1954.5295703932411
 20
-590.48655895458785
 30
0.0
  0
VERTEX
  5
8A9
  8
LAYER01
  6
CONTINUOUS
 62
     7
 10
-1954.5295703932411
 20
1576.6230654454109
 30
0.0
  0
VERTEX
  5
8AA
  8
LAYER01
  6
CONTINUOUS
 62
     7
 10
1521.076872306759
 20
1576.6230654454109
 30
0.0
  0
VERTEX
  5
8AB
  8
LAYER01
  6
CONTINUOUS
 62
     7
 10
1521.076872306759
 20
-590.48655895458785
 30
0.0
  0
SEQEND
  5
8AC
  8
LAYER01
  6
CONTINUOUS
 62
     7
  0
INSERT
  5
3A3
  8
LAYER01
  2
DEFAULT2-G6
 10
-1873.265848693241
 20
-634.6055009545878
 30
0.0
 41
0.7000000000000455
 42
0.7000000000000455
 43
0.7
  0
TEXT
  5
3A4
  8
LAYER01
  6
VERDECKT
 62
     1
 10
1348.7353022067589
 20
-287.6688570545881
 30
0.0
 40
9.7999999999999972
  1
xxx.skd
  7
SIMPLEX
  0
TEXT
  5
3A5
  8
LAYER01
  6
VERDECKT
 62
     1
 10
1031.5364272067591
 20
-350.85760225458807
 30
0.0
 40
24.5
  1
A. Sprenger GmbH
  7
SIMPLEX
  0
TEXT
  5
3A6
  8
LAYER01
  6
CONTINUOUS
 62
     7
 10
1023.5884739067581
 20
-199.13236705458809
 30
0.0
 40
7.3499999999999988
  1
Diese Zeichnung ist geistiges Eigentum der A. Sprenger GmbH
  7
SIMPLEX
  0
TEXT
  5
3A7
  8
LAYER01
  6
CONTINUOUS
 62
     7
 10
1023.5884739067581
 20
-211.732367054588
 30
0.0
 40
7.3499999999999988
  1
und urheberrechtlich geschützt. Ohne unsere Zustimmung darf 
  7
SIMPLEX
  0
TEXT
  5
3A8
  8
LAYER01
  6
CONTINUOUS
 62
     7
 10
1023.5884739067581
 20
-224.3323670545881
 30
0.0
 40
7.3499999999999988
  1
sie in keiner Form verwendet oder Dritten zugänglich gemacht
  7
SIMPLEX
  0
TEXT
  5
3A9
  8
LAYER01
  6
CONTINUOUS
 62
     7
 10
1023.5884739067581
 20
-236.9323670545881
 30
0.0
 40
7.3499999999999988
  1
werden. (§106 Urheberrecht)
  7
SIMPLEX
  0
TEXT
  5
3AA
  8
LAYER01
  6
VERDECKT
 62
     1
 10
804.50368560675929
 20
-407.5847048545877
 30
0.0
 40
9.7999999999999972
  1
2013
  7
SIMPLEX
  0
TEXT
  5
3AB
  8
LAYER01
  6
VERDECKT
 62
     1
 10
1031.5364272067591
 20
-447.0768288545878
 30
0.0
 40
34.299999999999997
  1
USP47
  7
SIMPLEX
  0
INSERT
  5
3AC
  8
LAYER01
  6
CONTINUOUS
 62
     7
  2
WMF0
 10
155.3690658585484
 20
-1217.0589659242489
 30
0.0
 41
0.1749999999999545
 42
0.1749999999999545
 43
0.175
  0
ENDSEC
  0
EOF
