  0
SECTION
  2
HEADER
  9
$ACADVER
  1
AC1009
  9
$INSBASE
 10
0.0
 20
0.0
 30
0.0
  9
$EXTMIN
 10
-1814.0667277898351
 20
-1003.528508191838
 30
-0.0015258207003583
  9
$EXTMAX
 10
4629.7944433420871
 20
1782.885828752643
 30
0.0000000349246037
  9
$LIMMIN
 10
-595.56823699999995
 20
-1106.3111080000001
  9
$LIMMAX
 10
3604.431763
 20
1863.6888919999999
  9
$ORTHOMODE
 70
     0
  9
$REGENMODE
 70
     1
  9
$FILLMODE
 70
     1
  9
$QTEXTMODE
 70
     0
  9
$MIRRTEXT
 70
     0
  9
$DRAGMODE
 70
     2
  9
$LTSCALE
 40
1.0
  9
$OSMODE
 70
    37
  9
$ATTMODE
 70
     1
  9
$TEXTSIZE
 40
0.0
  9
$TRACEWID
 40
0.05
  9
$TEXTSTYLE
  7
STANDARD
  9
$CLAYER
  8
LAYER01
  9
$CELTYPE
  6
CONTINUOUS
  9
$CECOLOR
 62
     7
  9
$DIMSCALE
 40
1.0
  9
$DIMASZ
 40
0.18
  9
$DIMEXO
 40
0.0625
  9
$DIMDLI
 40
0.38
  9
$DIMRND
 40
0.0
  9
$DIMDLE
 40
0.0
  9
$DIMEXE
 40
0.18
  9
$DIMTP
 40
0.0
  9
$DIMTM
 40
0.0
  9
$DIMTXT
 40
0.18
  9
$DIMCEN
 40
0.09
  9
$DIMTSZ
 40
0.0
  9
$DIMTOL
 70
     0
  9
$DIMLIM
 70
     0
  9
$DIMTIH
 70
     1
  9
$DIMTOH
 70
     1
  9
$DIMSE1
 70
     0
  9
$DIMSE2
 70
     0
  9
$DIMTAD
 70
     0
  9
$DIMZIN
 70
     0
  9
$DIMBLK
  1

  9
$DIMASO
 70
     1
  9
$DIMSHO
 70
     1
  9
$DIMPOST
  1

  9
$DIMAPOST
  1

  9
$DIMALT
 70
     0
  9
$DIMALTD
 70
     2
  9
$DIMALTF
 40
25.399999999999999
  9
$DIMLFAC
 40
1.0
  9
$DIMTOFL
 70
     0
  9
$DIMTVP
 40
0.0
  9
$DIMTIX
 70
     0
  9
$DIMSOXD
 70
     0
  9
$DIMSAH
 70
     0
  9
$DIMBLK1
  1

  9
$DIMBLK2
  1

  9
$DIMSTYLE
  2
STANDARD
  9
$DIMCLRD
 70
     0
  9
$DIMCLRE
 70
     0
  9
$DIMCLRT
 70
     0
  9
$DIMTFAC
 40
1.0
  9
$DIMGAP
 40
0.09
  9
$LUNITS
 70
     2
  9
$LUPREC
 70
     4
  9
$SKETCHINC
 40
0.1
  9
$FILLETRAD
 40
5.0
  9
$AUNITS
 70
     0
  9
$AUPREC
 70
     0
  9
$MENU
  1
acad
  9
$ELEVATION
 40
0.0
  9
$PELEVATION
 40
0.0
  9
$THICKNESS
 40
0.0
  9
$LIMCHECK
 70
     0
  9
$BLIPMODE
 70
     0
  9
$CHAMFERA
 40
10.0
  9
$CHAMFERB
 40
10.0
  9
$SKPOLY
 70
     0
  9
$TDCREATE
 40
11487975.91023433
  9
$TDUPDATE
 40
2459353.3889665161
  9
$TDINDWG
 40
0.0007130671
  9
$TDUSRTIMER
 40
0.0007129051
  9
$USRTIMER
 70
     1
  9
$ANGBASE
 50
0.0
  9
$ANGDIR
 70
     0
  9
$PDMODE
 70
     0
  9
$PDSIZE
 40
0.0
  9
$PLINEWID
 40
0.0
  9
$COORDS
 70
     0
  9
$SPLFRAME
 70
     0
  9
$SPLINETYPE
 70
     6
  9
$SPLINESEGS
 70
    10
  9
$ATTDIA
 70
     0
  9
$ATTREQ
 70
     1
  9
$HANDLING
 70
     1
  9
$HANDSEED
  5
B8F
  9
$SURFTAB1
 70
     6
  9
$SURFTAB2
 70
     6
  9
$SURFTYPE
 70
     6
  9
$SURFU
 70
     6
  9
$SURFV
 70
     6
  9
$UCSNAME
  2

  9
$UCSORG
 10
0.0
 20
0.0
 30
0.0
  9
$UCSXDIR
 10
1.0
 20
0.0
 30
0.0
  9
$UCSYDIR
 10
0.0
 20
1.0
 30
0.0
  9
$PUCSNAME
  2

  9
$PUCSORG
 10
0.0
 20
0.0
 30
0.0
  9
$PUCSXDIR
 10
1.0
 20
0.0
 30
0.0
  9
$PUCSYDIR
 10
0.0
 20
1.0
 30
0.0
  9
$USERI1
 70
     0
  9
$USERI2
 70
     0
  9
$USERI3
 70
     0
  9
$USERI4
 70
     0
  9
$USERI5
 70
     0
  9
$USERR1
 40
0.0
  9
$USERR2
 40
0.0
  9
$USERR3
 40
0.0
  9
$USERR4
 40
0.0
  9
$USERR5
 40
0.0
  9
$WORLDVIEW
 70
     1
  9
$SHADEDGE
 70
     3
  9
$SHADEDIF
 70
    70
  9
$TILEMODE
 70
     1
  9
$MAXACTVP
 70
    64
  9
$PLIMCHECK
 70
     0
  9
$PEXTMIN
 10
1.0000000000000000E+020
 20
1.0000000000000000E+020
 30
1.0000000000000000E+020
  9
$PEXTMAX
 10
-1.0000000000000000E+020
 20
-1.0000000000000000E+020
 30
-1.0000000000000000E+020
  9
$PLIMMIN
 10
0.0
 20
0.0
  9
$PLIMMAX
 10
12.0
 20
9.0
  9
$UNITMODE
 70
     0
  9
$VISRETAIN
 70
     1
  9
$PLINEGEN
 70
     0
  9
$PSLTSCALE
 70
     1
  0
ENDSEC
  0
SECTION
  2
TABLES
  0
TABLE
  2
VPORT
 70
     1
  0
VPORT
  2
*ACTIVE
 70
     0
 10
0.0
 20
0.0
 11
1.0
 21
1.0
 12
1407.863857776126
 22
378.68889200000012
 13
0.0
 23
0.0
 14
1.0
 24
1.0
 15
0.0
 25
0.0
 16
0.0
 26
0.0
 36
1.0
 17
0.0
 27
0.0
 37
0.0
 40
3065.8811623634529
 41
2.114406779661016
 42
50.0
 43
0.0
 44
0.0
 50
0.0
 51
0.0
 71
     0
 72
   100
 73
     1
 74
     1
 75
     0
 76
     0
 77
     0
 78
     0
  0
ENDTAB
  0
TABLE
  2
LTYPE
 70
    11
  0
LTYPE
  2
CONTINUOUS
 70
     0
  3
Solid line
 72
    65
 73
     0
 40
0.0
  0
LTYPE
  2
GESTRICHELT
 70
     0
  3
__ __ __ __ __ __ __ __ __ __ __ __ __ __ __
 72
    65
 73
     2
 40
0.75
 49
0.5
 49
-0.25
  0
LTYPE
  2
VERDECKT
 70
     0
  3
_ _ _ _ _ _ _ _ _ _ _ _ _ _ _ _ _ _ _ _ _ _ 
 72
    65
 73
     2
 40
0.25
 49
0.125
 49
-0.125
  0
LTYPE
  2
MITTELLINIE
 70
     0
  3
____ _ ____ _ ____ _ ____ _ ____ _ ____ _ __
 72
    65
 73
     4
 40
2.0
 49
1.25
 49
-0.25
 49
0.25
 49
-0.25
  0
LTYPE
  2
PHANTOM
 70
     0
  3
_____ _ _ _____ _ _ _____ _ _ _____ _ _ ____
 72
    65
 73
     6
 40
2.5
 49
1.25
 49
-0.25
 49
0.25
 49
-0.25
 49
0.25
 49
-0.25
  0
LTYPE
  2
PUNKTIERT
 70
     0
  3
............................................
 72
    65
 73
     2
 40
0.25
 49
0.0
 49
-0.25
  0
LTYPE
  2
STRICHPUNKTIERT
 70
     0
  3
__ . __ . __ . __ . __ . __ . __ . __ . __ .
 72
    65
 73
     4
 40
1.0
 49
0.5
 49
-0.25
 49
0.0
 49
-0.25
  0
LTYPE
  2
RAND
 70
     0
  3
__ __ . __ __ . __ __ . __ __ . __ __ . __ _
 72
    65
 73
     6
 40
1.75
 49
0.5
 49
-0.25
 49
0.5
 49
-0.25
 49
0.0
 49
-0.25
  0
LTYPE
  2
TRENNLINIE
 70
     0
  3
__ . . __ . . __ . . __ . . __ . . __ . . __
 72
    65
 73
     6
 40
1.25
 49
0.5
 49
-0.25
 49
0.0
 49
-0.25
 49
0.0
 49
-0.25
  0
LTYPE
  2
ENG_PUNKTIERT
 70
     0
  3
Schließen                                   
 72
    65
 73
     2
 40
0.1
 49
0.05
 49
-0.05
  0
LTYPE
  2
CLOSE
 70
     0
  3
                                            
 72
    65
 73
     0
 40
0.0
  0
ENDTAB
  0
TABLE
  2
LAYER
 70
   256
  0
LAYER
  2
0
 70
     0
 62
     7
  6
CONTINUOUS
  0
LAYER
  2
LAYER01
 70
     0
 62
     7
  6
CONTINUOUS
  0
LAYER
  2
LAYER02
 70
     0
 62
     7
  6
CONTINUOUS
  0
LAYER
  2
LAYER03
 70
     0
 62
     7
  6
CONTINUOUS
  0
LAYER
  2
LAYER04
 70
     0
 62
     7
  6
CONTINUOUS
  0
LAYER
  2
LAYER05
 70
     0
 62
     7
  6
CONTINUOUS
  0
LAYER
  2
LAYER06
 70
     0
 62
     7
  6
CONTINUOUS
  0
LAYER
  2
LAYER07
 70
     0
 62
     7
  6
CONTINUOUS
  0
LAYER
  2
LAYER08
 70
     0
 62
     7
  6
CONTINUOUS
  0
LAYER
  2
LAYER09
 70
     0
 62
     7
  6
CONTINUOUS
  0
LAYER
  2
LAYER10
 70
     0
 62
     7
  6
CONTINUOUS
  0
LAYER
  2
FORMAT
 70
     0
 62
     7
  6
CONTINUOUS
  0
LAYER
  2
2
 70
     0
 62
     7
  6
CONTINUOUS
  0
LAYER
  2
5
 70
     0
 62
     7
  6
CONTINUOUS
  0
LAYER
  2
RAUMAUFM
 70
     0
 62
     7
  6
CONTINUOUS
  0
LAYER
  2
EINRICHT
 70
     0
 62
     7
  6
CONTINUOUS
  0
LAYER
  2
HILFE
 70
     0
 62
     7
  6
CONTINUOUS
  0
LAYER
  2
SCHNITTE
 70
     0
 62
     7
  6
CONTINUOUS
  0
LAYER
  2
SCHRAFF1
 70
     0
 62
     7
  6
CONTINUOUS
  0
LAYER
  2
SCHRAFF2
 70
     0
 62
     7
  6
CONTINUOUS
  0
LAYER
  2
BEMASS-1
 70
     0
 62
     7
  6
CONTINUOUS
  0
LAYER
  2
BEMASS-2
 70
     0
 62
     7
  6
CONTINUOUS
  0
LAYER
  2
TEXT
 70
     0
 62
     7
  6
CONTINUOUS
  0
LAYER
  2
SYMBOLE
 70
     0
 62
     7
  6
CONTINUOUS
  0
LAYER
  2
RAHMEN
 70
     0
 62
     7
  6
CONTINUOUS
  0
LAYER
  2
SCHRIFTF
 70
     0
 62
     7
  6
CONTINUOUS
  0
LAYER
  2
ACHSEN
 70
     0
 62
     7
  6
CONTINUOUS
  0
LAYER
  2
ZEICHN
 70
     0
 62
     7
  6
CONTINUOUS
  0
LAYER
  2
7
 70
     0
 62
     7
  6
CONTINUOUS
  0
LAYER
  2
1
 70
     0
 62
     7
  6
CONTINUOUS
  0
LAYER
  2
6
 70
     0
 62
     7
  6
CONTINUOUS
  0
LAYER
  2
4
 70
     0
 62
     7
  6
CONTINUOUS
  0
LAYER
  2
GRUNDEBENE
 70
     0
 62
     7
  6
CONTINUOUS
  0
LAYER
  2
GRUNDRISS
 70
     0
 62
     7
  6
CONTINUOUS
  0
LAYER
  2
BEMASSUNGGRUNDRISS
 70
     0
 62
     7
  6
CONTINUOUS
  0
LAYER
  2
WANDELEMENTE
 70
     0
 62
     7
  6
CONTINUOUS
  0
LAYER
  2
KUECHE
 70
     0
 62
     7
  6
CONTINUOUS
  0
LAYER
  2
THEKEBROETCHEN
 70
     0
 62
     7
  6
CONTINUOUS
  0
LAYER
  2
CENTERLINIE
 70
     0
 62
     7
  6
CONTINUOUS
  0
LAYER
  2
UMRISSE
 70
     0
 62
     7
  6
CONTINUOUS
  0
LAYER
  2
MAUER
 70
     0
 62
     7
  6
CONTINUOUS
  0
LAYER
  2
SCHRAFFUR
 70
     0
 62
     7
  6
CONTINUOUS
  0
LAYER
  2
MASSLINIE
 70
     0
 62
     7
  6
CONTINUOUS
  0
LAYER
  2
PV
 70
     0
 62
     7
  6
CONTINUOUS
  0
LAYER
  2
BESCHRIFTUNG
 70
     0
 62
     7
  6
CONTINUOUS
  0
LAYER
  2
AS
 70
     0
 62
     7
  6
CONTINUOUS
  0
LAYER
  2
PL
 70
     0
 62
     7
  6
CONTINUOUS
  0
LAYER
  2
UK
 70
     0
 62
     7
  6
CONTINUOUS
  0
LAYER
  2
TEXT3
 70
     0
 62
     7
  6
CONTINUOUS
  0
LAYER
  2
TEXT7
 70
     0
 62
     7
  6
CONTINUOUS
  0
LAYER
  2
BEPL1
 70
     0
 62
     7
  6
CONTINUOUS
  0
LAYER
  2
BEPL2
 70
     0
 62
     7
  6
CONTINUOUS
  0
LAYER
  2
BEPL2V
 70
     0
 62
     7
  6
CONTINUOUS
  0
LAYER
  2
BEPL4
 70
     0
 62
     7
  6
CONTINUOUS
  0
LAYER
  2
BEPL
 70
     0
 62
     7
  6
CONTINUOUS
  0
LAYER
  2
UK1
 70
     0
 62
     7
  6
CONTINUOUS
  0
LAYER
  2
UK2
 70
     0
 62
     7
  6
CONTINUOUS
  0
LAYER
  2
UK2V
 70
     0
 62
     7
  6
CONTINUOUS
  0
LAYER
  2
UK3
 70
     0
 62
     7
  6
CONTINUOUS
  0
LAYER
  2
TEXT2
 70
     0
 62
     7
  6
CONTINUOUS
  0
LAYER
  2
HILF2S
 70
     0
 62
     7
  6
CONTINUOUS
  0
LAYER
  2
UK1V
 70
     0
 62
     7
  6
CONTINUOUS
  0
LAYER
  2
GAIN_ZRA
 70
     0
 62
     7
  6
CONTINUOUS
  0
LAYER
  2
GAIN_ZSF
 70
     0
 62
     7
  6
CONTINUOUS
  0
LAYER
  2
RAHM4
 70
     0
 62
     7
  6
CONTINUOUS
  0
LAYER
  2
KORPUSBAND
 70
     0
 62
     7
  6
CONTINUOUS
  0
LAYER
  2
E---LGPL--------
 70
     0
 62
     7
  6
CONTINUOUS
  0
LAYER
  2
E---NPFL--------
 70
     0
 62
     7
  6
CONTINUOUS
  0
LAYER
  2
E---PLNKTXT-----
 70
     0
 62
     7
  6
CONTINUOUS
  0
LAYER
  2
E---PLNK--------
 70
     0
 62
     7
  6
CONTINUOUS
  0
LAYER
  2
E---PLNR--------
 70
     0
 62
     7
  6
CONTINUOUS
  0
LAYER
  2
D547_ARCHICAD
 70
     0
 62
     7
  6
CONTINUOUS
  0
LAYER
  2
D547_E---TEXT--------
 70
     0
 62
     7
  6
CONTINUOUS
  0
LAYER
  2
E---LEGD--------
 70
     0
 62
     7
  6
CONTINUOUS
  0
LAYER
  2
D43_ARCHICAD
 70
     0
 62
     7
  6
CONTINUOUS
  0
LAYER
  2
D43_FENSTER_VON_B---FASS--
 70
     0
 62
     7
  6
CONTINUOUS
  0
LAYER
  2
D43_E---SCHN--------
 70
     0
 62
     7
  6
CONTINUOUS
  0
LAYER
  2
D43_B---MW-N--------
 70
     0
 62
     7
  6
CONTINUOUS
  0
LAYER
  2
D43_B---DECK--------
 70
     0
 62
     7
  6
CONTINUOUS
  0
LAYER
  2
D43_B---MW-S--------
 70
     0
 62
     7
  6
CONTINUOUS
  0
LAYER
  2
D43_B---MW----------
 70
     0
 62
     7
  6
CONTINUOUS
  0
LAYER
  2
D43_B---FASS--------
 70
     0
 62
     7
  6
CONTINUOUS
  0
LAYER
  2
D43_E---RASG--------
 70
     0
 62
     7
  6
CONTINUOUS
  0
LAYER
  2
D40_ARCHICAD
 70
     0
 62
     7
  6
CONTINUOUS
  0
LAYER
  2
D40_E---MW--------
 70
     0
 62
     7
  6
CONTINUOUS
  0
LAYER
  2
D40_E---FASSKON-----
 70
     0
 62
     7
  6
CONTINUOUS
  0
LAYER
  2
D40_TÜREN_VON_B---MW-N----
 70
     0
 62
     7
  6
CONTINUOUS
  0
LAYER
  2
D40_E---MW-L------
 70
     0
 62
     7
  6
CONTINUOUS
  0
LAYER
  2
D40_TÜREN_VON_B---MW------
 70
     0
 62
     7
  6
CONTINUOUS
  0
LAYER
  2
D40_E---VERM--------
 70
     0
 62
     7
  6
CONTINUOUS
  0
LAYER
  2
D40_FENSTER_VON_E---MW-L--
 70
     0
 62
     7
  6
CONTINUOUS
  0
LAYER
  2
D40_FENSTER_VON_B---MW-N--
 70
     0
 62
     7
  6
CONTINUOUS
  0
LAYER
  2
D40_E---SCHN--------
 70
     0
 62
     7
  6
CONTINUOUS
  0
LAYER
  2
D40_E---AUFZ--------
 70
     0
 62
     7
  6
CONTINUOUS
  0
LAYER
  2
D40_E---DECK--------
 70
     0
 62
     7
  6
CONTINUOUS
  0
LAYER
  2
D40_E---RAUMINF-----
 70
     0
 62
     7
  6
CONTINUOUS
  0
LAYER
  2
D40_E---TEXT--------
 70
     0
 62
     7
  6
CONTINUOUS
  0
LAYER
  2
D40_B---TEXT--------
 70
     0
 62
     7
  6
CONTINUOUS
  0
LAYER
  2
D40_B---MW-N--------
 70
     0
 62
     7
  6
CONTINUOUS
  0
LAYER
  2
D40_B---DECK--------
 70
     0
 62
     7
  6
CONTINUOUS
  0
LAYER
  2
D40_B---AUFZ--------
 70
     0
 62
     7
  6
CONTINUOUS
  0
LAYER
  2
D40_B---MW-S--------
 70
     0
 62
     7
  6
CONTINUOUS
  0
LAYER
  2
D40_B---MW----------
 70
     0
 62
     7
  6
CONTINUOUS
  0
LAYER
  2
D40_E---MOEB--------
 70
     0
 62
     7
  6
CONTINUOUS
  0
LAYER
  2
D40_B---UMGB--------
 70
     0
 62
     7
  6
CONTINUOUS
  0
LAYER
  2
D40_B---FASS--------
 70
     0
 62
     7
  6
CONTINUOUS
  0
LAYER
  2
D40_E---DACH--------
 70
     0
 62
     7
  6
CONTINUOUS
  0
LAYER
  2
D40_E---BODE--------
 70
     0
 62
     7
  6
CONTINUOUS
  0
LAYER
  2
D40_E---TREP--------
 70
     0
 62
     7
  6
CONTINUOUS
  0
LAYER
  2
D40_E---RASG--------
 70
     0
 62
     7
  6
CONTINUOUS
  0
LAYER
  2
D40_B---MW-K--------
 70
     0
 62
     7
  6
CONTINUOUS
  0
LAYER
  2
D40_E---FASSGLA-----
 70
     0
 62
     7
  6
CONTINUOUS
  0
LAYER
  2
D40_B---VERM--------
 70
     0
 62
     7
  6
CONTINUOUS
  0
LAYER
  2
D40_E---UMGBGSG-----
 70
     0
 62
     7
  6
CONTINUOUS
  0
LAYER
  2
D40_E---RASF--------
 70
     0
 62
     7
  6
CONTINUOUS
  0
LAYER
  2
D40_E---PFLA--------
 70
     0
 62
     7
  6
CONTINUOUS
  0
LAYER
  2
D40_E---KONS-ST-----
 70
     0
 62
     7
  6
CONTINUOUS
  0
LAYER
  2
D40_E---WERB--------
 70
     0
 62
     7
  6
CONTINUOUS
  0
LAYER
  2
D40_E---TUERINF-----
 70
     0
 62
     7
  6
CONTINUOUS
  0
LAYER
  2
D40_E---WOLK--------
 70
     0
 62
     7
  6
CONTINUOUS
  0
LAYER
  2
D40_B---MW-L--------
 70
     0
 62
     7
  6
CONTINUOUS
  0
LAYER
  2
D40_B---SANI--------
 70
     0
 62
     7
  6
CONTINUOUS
  0
LAYER
  2
D40_E---SANI--------
 70
     0
 62
     7
  6
CONTINUOUS
  0
LAYER
  2
D40_E---MW-K------
 70
     0
 62
     7
  6
CONTINUOUS
  0
LAYER
  2
D40_E---OBJE--------
 70
     0
 62
     7
  6
CONTINUOUS
  0
LAYER
  2
D40_E---ASPR--------
 70
     0
 62
     7
  6
CONTINUOUS
  0
LAYER
  2
D40_E---VERMTGA-----
 70
     0
 62
     7
  6
CONTINUOUS
  0
LAYER
  2
D40_E---PARK--------
 70
     0
 62
     7
  6
CONTINUOUS
  0
LAYER
  2
D40_E---ISOL--------
 70
     0
 62
     7
  6
CONTINUOUS
  0
LAYER
  2
D40_E---TUER--------
 70
     0
 62
     7
  6
CONTINUOUS
  0
LAYER
  2
D40_E---MW--BRA---
 70
     0
 62
     7
  6
CONTINUOUS
  0
LAYER
  2
D41_ARCHICAD
 70
     0
 62
     7
  6
CONTINUOUS
  0
LAYER
  2
D41_E---MW--------
 70
     0
 62
     7
  6
CONTINUOUS
  0
LAYER
  2
D41_E---FASSKON-----
 70
     0
 62
     7
  6
CONTINUOUS
  0
LAYER
  2
D41_TÜREN_VON_B---MW-N----
 70
     0
 62
     7
  6
CONTINUOUS
  0
LAYER
  2
D41_E---MW-L------
 70
     0
 62
     7
  6
CONTINUOUS
  0
LAYER
  2
D41_TÜREN_VON_B---MW------
 70
     0
 62
     7
  6
CONTINUOUS
  0
LAYER
  2
D41_E---VERM--------
 70
     0
 62
     7
  6
CONTINUOUS
  0
LAYER
  2
D41_FENSTER_VON_E---MW-L--
 70
     0
 62
     7
  6
CONTINUOUS
  0
LAYER
  2
D41_FENSTER_VON_B---MW-N--
 70
     0
 62
     7
  6
CONTINUOUS
  0
LAYER
  2
D41_E---SCHN--------
 70
     0
 62
     7
  6
CONTINUOUS
  0
LAYER
  2
D41_E---AUFZ--------
 70
     0
 62
     7
  6
CONTINUOUS
  0
LAYER
  2
D41_E---DECK--------
 70
     0
 62
     7
  6
CONTINUOUS
  0
LAYER
  2
D41_E---RAUMINF-----
 70
     0
 62
     7
  6
CONTINUOUS
  0
LAYER
  2
D41_E---TEXT--------
 70
     0
 62
     7
  6
CONTINUOUS
  0
LAYER
  2
D41_B---TEXT--------
 70
     0
 62
     7
  6
CONTINUOUS
  0
LAYER
  2
D41_B---MW-N--------
 70
     0
 62
     7
  6
CONTINUOUS
  0
LAYER
  2
D41_B---DECK--------
 70
     0
 62
     7
  6
CONTINUOUS
  0
LAYER
  2
D41_B---AUFZ--------
 70
     0
 62
     7
  6
CONTINUOUS
  0
LAYER
  2
D41_B---MW-S--------
 70
     0
 62
     7
  6
CONTINUOUS
  0
LAYER
  2
D41_B---MW----------
 70
     0
 62
     7
  6
CONTINUOUS
  0
LAYER
  2
D41_E---MOEB--------
 70
     0
 62
     7
  6
CONTINUOUS
  0
LAYER
  2
D41_B---UMGB--------
 70
     0
 62
     7
  6
CONTINUOUS
  0
LAYER
  2
D41_B---FASS--------
 70
     0
 62
     7
  6
CONTINUOUS
  0
LAYER
  2
D41_E---DACH--------
 70
     0
 62
     7
  6
CONTINUOUS
  0
LAYER
  2
D41_E---BODE--------
 70
     0
 62
     7
  6
CONTINUOUS
  0
LAYER
  2
D41_E---TREP--------
 70
     0
 62
     7
  6
CONTINUOUS
  0
LAYER
  2
D41_E---RASG--------
 70
     0
 62
     7
  6
CONTINUOUS
  0
LAYER
  2
D41_B---MW-K--------
 70
     0
 62
     7
  6
CONTINUOUS
  0
LAYER
  2
D41_E---FASSGLA-----
 70
     0
 62
     7
  6
CONTINUOUS
  0
LAYER
  2
D41_B---VERM--------
 70
     0
 62
     7
  6
CONTINUOUS
  0
LAYER
  2
D41_E---UMGBGSG-----
 70
     0
 62
     7
  6
CONTINUOUS
  0
LAYER
  2
D41_E---RASF--------
 70
     0
 62
     7
  6
CONTINUOUS
  0
LAYER
  2
D41_E---PFLA--------
 70
     0
 62
     7
  6
CONTINUOUS
  0
LAYER
  2
D41_E---KONS-ST-----
 70
     0
 62
     7
  6
CONTINUOUS
  0
LAYER
  2
D41_E---WERB--------
 70
     0
 62
     7
  6
CONTINUOUS
  0
LAYER
  2
D41_E---TUERINF-----
 70
     0
 62
     7
  6
CONTINUOUS
  0
LAYER
  2
D41_E---WOLK--------
 70
     0
 62
     7
  6
CONTINUOUS
  0
LAYER
  2
D41_B---MW-L--------
 70
     0
 62
     7
  6
CONTINUOUS
  0
LAYER
  2
D41_B---SANI--------
 70
     0
 62
     7
  6
CONTINUOUS
  0
LAYER
  2
D41_E---SANI--------
 70
     0
 62
     7
  6
CONTINUOUS
  0
LAYER
  2
D41_E---MW-K------
 70
     0
 62
     7
  6
CONTINUOUS
  0
LAYER
  2
D41_E---OBJE--------
 70
     0
 62
     7
  6
CONTINUOUS
  0
LAYER
  2
D41_E---ASPR--------
 70
     0
 62
     7
  6
CONTINUOUS
  0
LAYER
  2
D41_E---VERMTGA-----
 70
     0
 62
     7
  6
CONTINUOUS
  0
LAYER
  2
D41_E---PARK--------
 70
     0
 62
     7
  6
CONTINUOUS
  0
LAYER
  2
D41_E---ISOL--------
 70
     0
 62
     7
  6
CONTINUOUS
  0
LAYER
  2
D41_E---TUER--------
 70
     0
 62
     7
  6
CONTINUOUS
  0
LAYER
  2
D41_E---MW--BRA---
 70
     0
 62
     7
  6
CONTINUOUS
  0
LAYER
  2
D42_ARCHICAD
 70
     0
 62
     7
  6
CONTINUOUS
  0
LAYER
  2
D42_FENSTER_VON_B---FASS--
 70
     0
 62
     7
  6
CONTINUOUS
  0
LAYER
  2
D42_E---SCHN--------
 70
     0
 62
     7
  6
CONTINUOUS
  0
LAYER
  2
D42_B---MW-N--------
 70
     0
 62
     7
  6
CONTINUOUS
  0
LAYER
  2
D42_B---DECK--------
 70
     0
 62
     7
  6
CONTINUOUS
  0
LAYER
  2
D42_B---MW-S--------
 70
     0
 62
     7
  6
CONTINUOUS
  0
LAYER
  2
D42_B---MW----------
 70
     0
 62
     7
  6
CONTINUOUS
  0
LAYER
  2
D42_B---FASS--------
 70
     0
 62
     7
  6
CONTINUOUS
  0
LAYER
  2
D42_E---RASG--------
 70
     0
 62
     7
  6
CONTINUOUS
  0
LAYER
  2
CONSTRUCTION_CLASS
 70
     0
 62
     7
  6
CONTINUOUS
  0
LAYER
  2
PATTERN_CLASS
 70
     0
 62
     7
  6
CONTINUOUS
  0
LAYER
  2
KONSTRUKTION
 70
     0
 62
     7
  6
CONTINUOUS
  0
LAYER
  2
BEMAßUNG
 70
     0
 62
     7
  6
CONTINUOUS
  0
LAYER
  2
HILFSGEOMETRIE
 70
     0
 62
     7
  6
CONTINUOUS
  0
LAYER
  2
UNSICHTBAR
 70
     0
 62
     7
  6
CONTINUOUS
  0
LAYER
  2
LOGO
 70
     0
 62
     7
  6
CONTINUOUS
  0
LAYER
  2
VERWALTUNG
 70
     0
 62
     7
  6
CONTINUOUS
  0
LAYER
  2
UNSICHTBARE_GEWINDE
 70
     0
 62
     7
  6
CONTINUOUS
  0
LAYER
  2
SICHTBARE_GEWINDE
 70
     0
 62
     7
  6
CONTINUOUS
  0
LAYER
  2
DEFPOINTS
 70
     0
 62
     7
  6
CONTINUOUS
  0
LAYER
  2
THICK
 70
     0
 62
     7
  6
CONTINUOUS
  0
LAYER
  2
HIDDEN
 70
     0
 62
     7
  6
CONTINUOUS
  0
LAYER
  2
SCHRAFFURGRUNDRISS
 70
     0
 62
     7
  6
CONTINUOUS
  0
LAYER
  2
BEMASSUNG_GRUNDRISS
 70
     0
 62
     7
  6
CONTINUOUS
  0
LAYER
  2
STATIK
 70
     0
 62
     7
  6
CONTINUOUS
  0
LAYER
  2
TÜREN
 70
     0
 62
     7
  6
CONTINUOUS
  0
LAYER
  2
SANITÄR
 70
     0
 62
     7
  6
CONTINUOUS
  0
LAYER
  2
BEMASSUNG_GIPSKARTON
 70
     0
 62
     7
  6
CONTINUOUS
  0
LAYER
  2
EINRICHTUNGEN
 70
     0
 62
     7
  6
CONTINUOUS
  0
LAYER
  2
BECKEN
 70
     0
 62
     7
  6
CONTINUOUS
  0
LAYER
  2
BELEUCHTUNG
 70
     0
 62
     7
  6
CONTINUOUS
  0
LAYER
  2
BESCHRIFTUNGEN
 70
     0
 62
     7
  6
CONTINUOUS
  0
LAYER
  2
ELEKTRO_1__DOSEN_SCHALTER
 70
     0
 62
     7
  6
CONTINUOUS
  0
LAYER
  2
DEFAULT_1
 70
     0
 62
     7
  6
CONTINUOUS
  0
LAYER
  2
AM_0
 70
     0
 62
     7
  6
CONTINUOUS
  0
LAYER
  2
FRAME0_7
 70
     0
 62
     7
  6
CONTINUOUS
  0
LAYER
  2
AM_BOR
 70
     0
 62
     7
  6
CONTINUOUS
  0
LAYER
  2
RAHM2
 70
     0
 62
     7
  6
CONTINUOUS
  0
LAYER
  2
RAHM3
 70
     0
 62
     7
  6
CONTINUOUS
  0
LAYER
  2
FRAME0_5
 70
     0
 62
     7
  6
CONTINUOUS
  0
LAYER
  2
8
 70
     0
 62
     7
  6
CONTINUOUS
  0
LAYER
  2
AM_5
 70
     0
 62
     7
  6
CONTINUOUS
  0
LAYER
  2
AM_7
 70
     0
 62
     7
  6
CONTINUOUS
  0
LAYER
  2
HILFSLINIEN
 70
     0
 62
     7
  6
CONTINUOUS
  0
LAYER
  2
DRAWING_TEMPLATE
 70
     0
 62
     7
  6
CONTINUOUS
  0
LAYER
  2
TECHNOBOX_EXTERNALREFSYMBO
 70
     0
 62
     7
  6
CONTINUOUS
  0
LAYER
  2
TECHNOBOX_POLYCLIPSYMBOL_L
 70
     0
 62
     7
  6
CONTINUOUS
  0
LAYER
  2
100
 70
     0
 62
     7
  6
CONTINUOUS
  0
LAYER
  2
101
 70
     0
 62
     7
  6
CONTINUOUS
  0
LAYER
  2
KONTUR
 70
     0
 62
     7
  6
CONTINUOUS
  0
LAYER
  2
MITTELLINIE
 70
     0
 62
     7
  6
CONTINUOUS
  0
LAYER
  2
GESTRICHELT
 70
     0
 62
     7
  6
CONTINUOUS
  0
LAYER
  2
HILFSLINIE
 70
     0
 62
     7
  6
CONTINUOUS
  0
LAYER
  2
TEXT-25
 70
     0
 62
     7
  6
CONTINUOUS
  0
LAYER
  2
TEXT35
 70
     0
 62
     7
  6
CONTINUOUS
  0
LAYER
  2
TEXT-50
 70
     0
 62
     7
  6
CONTINUOUS
  0
LAYER
  2
TEXT-70
 70
     0
 62
     7
  6
CONTINUOUS
  0
LAYER
  2
ANSICHTSFENSTER
 70
     0
 62
     7
  6
CONTINUOUS
  0
LAYER
  2
KERA0
 70
     0
 62
     7
  6
CONTINUOUS
  0
LAYER
  2
KERA1
 70
     0
 62
     7
  6
CONTINUOUS
  0
LAYER
  2
KERA2
 70
     0
 62
     7
  6
CONTINUOUS
  0
LAYER
  2
KERA3
 70
     0
 62
     7
  6
CONTINUOUS
  0
LAYER
  2
KERA4
 70
     0
 62
     7
  6
CONTINUOUS
  0
LAYER
  2
KERA5
 70
     0
 62
     7
  6
CONTINUOUS
  0
LAYER
  2
KERA6
 70
     0
 62
     7
  6
CONTINUOUS
  0
LAYER
  2
KERA7
 70
     0
 62
     7
  6
CONTINUOUS
  0
LAYER
  2
20
 70
     0
 62
     7
  6
CONTINUOUS
  0
LAYER
  2
50
 70
     0
 62
     7
  6
CONTINUOUS
  0
LAYER
  2
BECKEN_FUTURA_EBENE_1
 70
     0
 62
     7
  6
CONTINUOUS
  0
LAYER
  2
EBENE_1
 70
     0
 62
     7
  6
CONTINUOUS
  0
LAYER
  2
EBENE_2
 70
     0
 62
     7
  6
CONTINUOUS
  0
LAYER
  2
EBENE_5
 70
     0
 62
     7
  6
CONTINUOUS
  0
LAYER
  2
3
 70
     0
 62
     7
  6
CONTINUOUS
  0
LAYER
  2
GEB-KONTUR-A
 70
     0
 62
     7
  6
CONTINUOUS
  0
LAYER
  2
GEB-SYMETRIE
 70
     0
 62
     7
  6
CONTINUOUS
  0
LAYER
  2
GEB-ART-NR
 70
     0
 62
     7
  6
CONTINUOUS
  0
LAYER
  2
PROJECTION
 70
     0
 62
     7
  6
CONTINUOUS
  0
ENDTAB
  0
TABLE
  2
STYLE
 70
     3
  0
STYLE
  2
STANDARD
 70
     0
 40
0.0
 41
1.0
 50
0.0
 71
     0
 42
0.0
  3
txt
  4

  0
STYLE
  2
ANNOTATIVE
 70
     0
 40
0.0
 41
1.0
 50
0.0
 71
     0
 42
0.2
  3
txt
  4

  0
STYLE
  2
SIMPLEX
 70
     0
 40
0.0
 41
1.0
 50
0.0
 71
     0
 42
0.0
  3
SIMPLEX
  4

  0
ENDTAB
  0
TABLE
  2
VIEW
 70
     0
  0
ENDTAB
  0
TABLE
  2
UCS
 70
     0
  0
ENDTAB
  0
TABLE
  2
APPID
 70
     3
  0
APPID
  2
ACAD
 70
     0
  0
APPID
  2
ACADANNOTATIVE
 70
     0
  0
APPID
  2
ACAD_MLEADERVER
 70
     0
  0
ENDTAB
  0
TABLE
  2
DIMSTYLE
 70
     2
  0
DIMSTYLE
  2
STANDARD
 70
     0
  3

  4

  5

  6

  7

 40
1.0
 41
0.18
 42
0.0625
 43
0.38
 44
0.18
 45
0.0
 46
0.0
 47
0.0
 48
0.0
140
0.18
141
0.09
142
0.0
143
25.399999999999999
144
1.0
145
0.0
146
1.0
147
0.09
 71
     0
 72
     0
 73
     1
 74
     1
 75
     0
 76
     0
 77
     0
 78
     0
170
     0
171
     2
172
     0
173
     0
174
     0
175
     0
176
     0
177
     0
178
     0
  0
DIMSTYLE
  2
ANNOTATIVE
 70
     0
  3

  4

  5

  6

  7

 40
1.0
 41
0.18
 42
0.0625
 43
0.38
 44
0.18
 45
0.0
 46
0.0
 47
0.0
 48
0.0
140
0.18
141
0.09
142
0.0
143
25.399999999999999
144
1.0
145
0.0
146
1.0
147
0.09
 71
     0
 72
     0
 73
     1
 74
     1
 75
     0
 76
     0
 77
     0
 78
     0
170
     0
171
     2
172
     0
173
     0
174
     0
175
     0
176
     0
177
     0
178
     0
  0
ENDTAB
  0
ENDSEC
  0
SECTION
  2
BLOCKS
  0
BLOCK
  8
0
  2
$MODEL_SPACE
 70
     0
 10
0.0
 20
0.0
 30
0.0
  3
$MODEL_SPACE
  1

  0
ENDBLK
  5
76
  8
0
  0
BLOCK
 67
     1
  8
0
  2
$PAPER_SPACE
 70
     0
 10
0.0
 20
0.0
 30
0.0
  3
$PAPER_SPACE
  1

  0
ENDBLK
  5
72
 67
     1
  8
0
  0
BLOCK
  8
0
  2
*D0
 70
     1
 10
0.0
 20
0.0
 30
0.0
  3
*D0
  1

  0
LINE
  5
187
  8
LAYER01
 62
     7
 10
609.81312299999991
 20
736.64022599999998
 30
0.0
 11
609.81312299999991
 21
426.64022299999999
 31
0.0
  0
LINE
  5
188
  8
LAYER01
 62
     7
 10
665.52236500000004
 20
736.64022599999998
 30
0.0
 11
574.81312300000002
 21
736.64022599999998
 31
0.0
  0
LINE
  5
189
  8
LAYER01
 62
     7
 10
665.52236500000004
 20
426.64022299999999
 30
0.0
 11
574.81312300000002
 21
426.64022299999999
 31
0.0
  0
SOLID
  5
18A
  8
LAYER01
 62
     7
 10
600.48016299999995
 20
680.64022599999987
 30
0.0
 11
609.81312299999991
 21
736.64022599999998
 31
0.0
 12
619.14608299999986
 22
680.64022599999987
 32
0.0
 13
619.14608299999986
 23
680.64022599999987
 33
0.0
  0
SOLID
  5
18B
  8
LAYER01
 62
     7
 10
600.48016299999995
 20
482.64022299999999
 30
0.0
 11
609.81312299999991
 21
426.64022299999999
 31
0.0
 12
619.14608299999986
 22
482.64022299999999
 32
0.0
 13
619.14608299999986
 23
482.64022299999999
 33
0.0
  0
TEXT
  5
18C
  8
LAYER01
  6
CONTINUOUS
 62
     7
 10
574.81312300000002
 20
528.51705099999992
 30
0.0
 40
70.0
  1
310
 50
90.0
  0
POINT
  5
18D
  8
LAYER01
 62
     7
 10
693.52236500000004
 20
736.64022599999998
 30
0.0
  0
POINT
  5
18E
  8
LAYER01
 62
     7
 10
693.52236500000004
 20
426.64022299999999
 30
0.0
  0
POINT
  5
18F
  8
LAYER01
 62
     7
 10
609.81312299999991
 20
426.64022299999999
 30
0.0
  0
ENDBLK
  5
190
  8
0
  0
BLOCK
  8
0
  2
*D1
 70
     1
 10
0.0
 20
0.0
 30
0.0
  3
*D1
  1

  0
LINE
  5
193
  8
LAYER01
 62
     7
 10
468.15132899999992
 20
401.64021700000001
 30
0.0
 11
468.15132899999992
 21
761.64023099999986
 31
0.0
  0
LINE
  5
194
  8
LAYER01
 62
     7
 10
665.52236500000004
 20
401.64021700000001
 30
0.0
 11
433.15132899999998
 21
401.64021700000001
 31
0.0
  0
LINE
  5
195
  8
LAYER01
 62
     7
 10
665.52236500000004
 20
761.64023099999986
 30
0.0
 11
433.15132899999998
 21
761.64023099999986
 31
0.0
  0
SOLID
  5
196
  8
LAYER01
 62
     7
 10
477.48428899999999
 20
457.64021700000001
 30
0.0
 11
468.15132899999992
 21
401.64021700000001
 31
0.0
 12
458.81836900000002
 22
457.64021700000001
 32
0.0
 13
458.81836900000002
 23
457.64021700000001
 33
0.0
  0
SOLID
  5
197
  8
LAYER01
 62
     7
 10
477.48428899999999
 20
705.64023099999997
 30
0.0
 11
468.15132899999992
 21
761.64023099999986
 31
0.0
 12
458.81836900000002
 22
705.64023099999997
 32
0.0
 13
458.81836900000002
 23
705.64023099999997
 33
0.0
  0
TEXT
  5
198
  8
LAYER01
  6
CONTINUOUS
 62
     7
 10
433.15132899999998
 20
528.51705099999992
 30
0.0
 40
70.0
  1
360
 50
90.0
  0
POINT
  5
199
  8
LAYER01
 62
     7
 10
693.52236500000004
 20
401.64021700000001
 30
0.0
  0
POINT
  5
19A
  8
LAYER01
 62
     7
 10
693.52236500000004
 20
761.64023099999986
 30
0.0
  0
POINT
  5
19B
  8
LAYER01
 62
     7
 10
468.15132899999992
 20
761.64023099999986
 30
0.0
  0
ENDBLK
  5
19C
  8
0
  0
BLOCK
  8
0
  2
*D2
 70
     1
 10
0.0
 20
0.0
 30
0.0
  3
*D2
  1

  0
LINE
  5
19F
  8
LAYER01
 62
     7
 10
732.90986799999985
 20
428.33180699999991
 30
0.0
 11
789.22872199999995
 21
502.02125000000001
 31
0.0
  0
LINE
  5
1A0
  8
LAYER01
 62
     7
 10
789.22872199999995
 20
502.02125000000001
 30
0.0
 11
854.80987800000003
 21
502.02125000000001
 31
0.0
  0
SOLID
  5
1A1
  8
LAYER01
 62
     7
 10
774.33017800000005
 20
467.15785599999992
 30
0.0
 11
732.90986799999985
 21
428.33180699999991
 31
0.0
 12
759.49966199999994
 22
478.49241999999998
 32
0.0
 13
759.49966199999994
 23
478.49241999999998
 33
0.0
  0
TEXT
  5
1A2
  8
LAYER01
  6
CONTINUOUS
 62
     7
 10
889.80987799999991
 20
467.0212499999999
 30
0.0
 40
70.0
  1
R5
  0
POINT
  5
1A3
  8
LAYER01
 62
     7
 10
729.87370299999986
 20
424.3591889999999
 30
0.0
  0
POINT
  5
1A4
  8
LAYER01
 62
     7
 10
789.22872199999995
 20
502.02125000000001
 30
0.0
  0
ENDBLK
  5
1A5
  8
0
  0
BLOCK
  8
0
  2
VP317010-G4
 70
     0
 10
0.0
 20
0.0
 30
0.0
  3
VP317010-G4
  1

  0
LINE
  5
1A8
  8
LAYER01
  6
CONTINUOUS
 62
     7
 10
712.53534100000002
 20
98.698723000000001
 30
0.0
 11
724.5353409999999
 21
110.698723
 31
0.0
  0
LINE
  5
1A9
  8
LAYER01
  6
CONTINUOUS
 62
     7
 10
720.96274699999992
 20
84.675488999999999
 30
0.0
 11
732.38081900000009
 21
96.093560999999994
 31
0.0
  0
LINE
  5
1AA
  8
LAYER01
  6
CONTINUOUS
 62
     7
 10
722.08074299999987
 20
63.34284499999999
 30
0.0
 11
733.49881600000003
 21
74.760917000000006
 31
0.0
  0
LINE
  5
1AB
  8
LAYER01
  6
CONTINUOUS
 62
     7
 10
723.19874000000004
 20
42.010201000000002
 30
0.0
 11
734.61681199999987
 21
53.42827299999999
 31
0.0
  0
LINE
  5
1AC
  8
LAYER01
  6
CONTINUOUS
 62
     7
 10
725.96432000000004
 20
22.325140999999999
 30
0.0
 11
735.73480900000004
 21
32.09563
 31
0.0
  0
LINE
  5
1AD
  8
LAYER01
  6
CONTINUOUS
 62
     7
 10
739.58524299999988
 20
13.495423000000001
 30
0.0
 11
750.91906900000004
 21
24.829249000000001
 31
0.0
  0
LINE
  5
1AE
  8
LAYER01
  6
CONTINUOUS
 62
     7
 10
760.77221099999997
 20
12.231750999999999
 30
0.0
 11
772.12784399999998
 21
23.587384
 31
0.0
  0
LINE
  5
1AF
  8
LAYER01
  6
CONTINUOUS
 62
     7
 10
781.98098600000003
 20
10.989886
 30
0.0
 11
793.33661900000004
 21
22.345518999999999
 31
0.0
  0
LINE
  5
1B0
  8
LAYER01
  6
CONTINUOUS
 62
     7
 10
803.18976199999997
 20
9.7480210000000014
 30
0.0
 11
814.54539399999987
 21
21.103653999999999
 31
0.0
  0
LINE
  5
1B1
  8
LAYER01
  6
CONTINUOUS
 62
     7
 10
824.39853700000003
 20
8.5061559999999972
 30
0.0
 11
835.75417000000004
 21
19.861789000000002
 31
0.0
  0
LINE
  5
1B2
  8
LAYER01
  6
CONTINUOUS
 62
     7
 10
845.60731199999987
 20
7.2642910000000001
 30
0.0
 11
856.96294499999976
 21
18.619924000000001
 31
0.0
  0
LINE
  5
1B3
  8
LAYER01
  6
CONTINUOUS
 62
     7
 10
866.81608699999992
 20
6.0224260000000003
 30
0.0
 11
878.17171999999994
 21
17.378059
 31
0.0
  0
LINE
  5
1B4
  8
LAYER01
  6
CONTINUOUS
 62
     7
 10
888.02486199999987
 20
4.7805609999999987
 30
0.0
 11
899.38049499999988
 21
16.136194
 31
0.0
  0
LINE
  5
1B5
  8
LAYER01
  6
CONTINUOUS
 62
     7
 10
909.23363699999993
 20
3.538695999999999
 30
0.0
 11
920.58926999999994
 21
14.894328
 31
0.0
  0
LINE
  5
1B6
  8
LAYER01
  6
CONTINUOUS
 62
     7
 10
930.4424130000001
 20
2.296829999999999
 30
0.0
 11
941.79804499999989
 21
13.652462999999999
 31
0.0
  0
LINE
  5
1B7
  8
LAYER01
  6
CONTINUOUS
 62
     7
 10
951.65118800000005
 20
1.054964999999999
 30
0.0
 11
963.00682100000006
 21
12.410598
 31
0.0
  0
LINE
  5
1B8
  8
LAYER01
  6
CONTINUOUS
 62
     7
 10
972.85996300000011
 20
-0.1869
 30
0.0
 11
984.21559600000012
 21
11.168733
 31
0.0
  0
LINE
  5
1B9
  8
LAYER01
  6
CONTINUOUS
 62
     7
 10
994.06873799999994
 20
-1.4287650000000001
 30
0.0
 11
1005.424371
 21
9.9268679999999971
 31
0.0
  0
LINE
  5
1BA
  8
LAYER01
  6
CONTINUOUS
 62
     7
 10
1015.263253
 20
-2.6848900000000002
 30
0.0
 11
1026.340001
 21
8.3918579999999992
 31
0.0
  0
LINE
  5
1BB
  8
LAYER01
  6
CONTINUOUS
 62
     7
 10
1035.778777
 20
-4.6200060000000001
 30
0.0
 11
1046.3965470000001
 21
5.9977629999999991
 31
0.0
  0
LINE
  5
1BC
  8
LAYER01
  6
CONTINUOUS
 62
     7
 10
1047.5549040000001
 20
-15.29452
 30
0.0
 11
1058.222051
 21
-4.6273730000000004
 31
0.0
  0
ENDBLK
  5
1BD
  8
0
  0
BLOCK
  8
0
  2
*D4
 70
     1
 10
0.0
 20
0.0
 30
0.0
  3
*D4
  1

  0
LINE
  5
1C0
  8
LAYER01
 62
     7
 10
731.61540099999991
 20
176.11977200000001
 30
0.0
 11
1431.6153890000001
 21
176.11977200000001
 31
0.0
  0
LINE
  5
1C1
  8
LAYER01
 62
     7
 10
731.61540099999991
 20
138.698723
 30
0.0
 11
731.61540099999991
 21
211.11977200000001
 31
0.0
  0
LINE
  5
1C2
  8
LAYER01
 62
     7
 10
1431.6153890000001
 20
138.698723
 30
0.0
 11
1431.6153890000001
 21
211.11977200000001
 31
0.0
  0
SOLID
  5
1C3
  8
LAYER01
 62
     7
 10
787.61540100000002
 20
166.786812
 30
0.0
 11
731.61540099999991
 21
176.11977200000001
 31
0.0
 12
787.61540100000002
 22
185.452732
 32
0.0
 13
787.61540100000002
 23
185.452732
 33
0.0
  0
SOLID
  5
1C4
  8
LAYER01
 62
     7
 10
1375.6153890000001
 20
166.786812
 30
0.0
 11
1431.6153890000001
 21
176.11977200000001
 31
0.0
 12
1375.6153890000001
 22
185.452732
 32
0.0
 13
1375.6153890000001
 23
185.452732
 33
0.0
  0
TEXT
  5
1C5
  8
LAYER01
  6
CONTINUOUS
 62
     7
 10
1029.208466
 20
211.11977200000001
 30
0.0
 40
70.0
  1
700
  0
POINT
  5
1C6
  8
LAYER01
 62
     7
 10
731.61540099999991
 20
110.698723
 30
0.0
  0
POINT
  5
1C7
  8
LAYER01
 62
     7
 10
1431.6153890000001
 20
110.698723
 30
0.0
  0
POINT
  5
1C8
  8
LAYER01
 62
     7
 10
1431.6153890000001
 20
176.11977200000001
 30
0.0
  0
ENDBLK
  5
1C9
  8
0
  0
BLOCK
  8
0
  2
VP317010-G6
 70
     0
 10
0.0
 20
0.0
 30
0.0
  3
VP317010-G6
  1

  0
LINE
  5
1CC
  8
LAYER01
  6
CONTINUOUS
 62
     7
 10
1114.9068239999999
 20
-15.29452
 30
0.0
 11
1138.756425
 21
8.5550800000000002
 31
0.0
  0
LINE
  5
1CD
  8
LAYER01
  6
CONTINUOUS
 62
     7
 10
1150.1074940000001
 20
-2.5444909999999989
 30
0.0
 11
1162.8756800000001
 21
10.223694999999999
 31
0.0
  0
LINE
  5
1CE
  8
LAYER01
  6
CONTINUOUS
 62
     7
 10
1173.9544780000001
 20
-1.1481479999999991
 30
0.0
 11
1186.7226639999999
 21
11.620039
 31
0.0
  0
LINE
  5
1CF
  8
LAYER01
  6
CONTINUOUS
 62
     7
 10
1197.8014619999999
 20
0.248196
 30
0.0
 11
1210.5696479999999
 21
13.016382
 31
0.0
  0
LINE
  5
1D0
  8
LAYER01
  6
CONTINUOUS
 62
     7
 10
1221.6484459999999
 20
1.6445389999999991
 30
0.0
 11
1234.4166319999999
 21
14.412725999999999
 31
0.0
  0
LINE
  5
1D1
  8
LAYER01
  6
CONTINUOUS
 62
     7
 10
1245.4954290000001
 20
3.040883
 30
0.0
 11
1258.263616
 21
15.809068999999999
 31
0.0
  0
LINE
  5
1D2
  8
LAYER01
  6
CONTINUOUS
 62
     7
 10
1269.3424130000001
 20
4.437227
 30
0.0
 11
1282.1106
 21
17.205413
 31
0.0
  0
LINE
  5
1D3
  8
LAYER01
  6
CONTINUOUS
 62
     7
 10
1293.1893970000001
 20
5.833569999999999
 30
0.0
 11
1305.957584
 21
18.601756999999999
 31
0.0
  0
LINE
  5
1D4
  8
LAYER01
  6
CONTINUOUS
 62
     7
 10
1317.0363809999999
 20
7.2299139999999991
 30
0.0
 11
1329.804568
 21
19.998100000000001
 31
0.0
  0
LINE
  5
1D5
  8
LAYER01
  6
CONTINUOUS
 62
     7
 10
1340.8833649999999
 20
8.6262570000000007
 30
0.0
 11
1353.6515509999999
 21
21.394444
 31
0.0
  0
LINE
  5
1D6
  8
LAYER01
  6
CONTINUOUS
 62
     7
 10
1430.988198
 20
98.731091000000006
 30
0.0
 11
1442.955831
 21
110.698723
 31
0.0
  0
LINE
  5
1D7
  8
LAYER01
  6
CONTINUOUS
 62
     7
 10
1364.7303489999999
 20
10.022601
 30
0.0
 11
1377.4985349999999
 21
22.790787000000002
 31
0.0
  0
LINE
  5
1D8
  8
LAYER01
  6
CONTINUOUS
 62
     7
 10
1429.746537
 20
75.038789000000008
 30
0.0
 11
1442.4275909999999
 21
87.719843000000012
 31
0.0
  0
LINE
  5
1D9
  8
LAYER01
  6
CONTINUOUS
 62
     7
 10
1453.406471
 20
98.698723000000001
 30
0.0
 11
1456.615395
 21
101.907647
 31
0.0
  0
LINE
  5
1DA
  8
LAYER01
  6
CONTINUOUS
 62
     7
 10
1388.577333
 20
11.418945000000001
 30
0.0
 11
1401.345519
 21
24.187131000000001
 31
0.0
  0
LINE
  5
1DB
  8
LAYER01
  6
CONTINUOUS
 62
     7
 10
1428.504876
 20
51.346488000000001
 30
0.0
 11
1441.1859300000001
 21
64.027542000000011
 31
0.0
  0
LINE
  5
1DC
  8
LAYER01
  6
CONTINUOUS
 62
     7
 10
1412.424317
 20
12.815288000000001
 30
0.0
 11
1439.94427
 21
40.335241000000003
 31
0.0
  0
ENDBLK
  5
1DD
  8
0
  0
BLOCK
  8
0
  2
*D6
 70
     1
 10
0.0
 20
0.0
 30
0.0
  3
*D6
  1

  0
LINE
  5
1E0
  8
LAYER01
 62
     7
 10
1431.6153890000001
 20
824.27698899999984
 30
0.0
 11
731.61540099999991
 21
824.27698899999984
 31
0.0
  0
LINE
  5
1E1
  8
LAYER01
 62
     7
 10
1431.6153890000001
 20
799.153817
 30
0.0
 11
1431.6153890000001
 21
859.27698900000007
 31
0.0
  0
LINE
  5
1E2
  8
LAYER01
 62
     7
 10
731.61540099999991
 20
799.153817
 30
0.0
 11
731.61540099999991
 21
859.27698900000007
 31
0.0
  0
SOLID
  5
1E3
  8
LAYER01
 62
     7
 10
1375.6153890000001
 20
833.60994900000003
 30
0.0
 11
1431.6153890000001
 21
824.27698899999984
 31
0.0
 12
1375.6153890000001
 22
814.94402899999989
 32
0.0
 13
1375.6153890000001
 23
814.94402899999989
 33
0.0
  0
SOLID
  5
1E4
  8
LAYER01
 62
     7
 10
787.61540100000002
 20
833.60994900000003
 30
0.0
 11
731.61540099999991
 21
824.27698899999984
 31
0.0
 12
787.61540100000002
 22
814.94402899999989
 32
0.0
 13
787.61540100000002
 23
814.94402899999989
 33
0.0
  0
TEXT
  5
1E5
  8
LAYER01
  6
CONTINUOUS
 62
     7
 10
1028.4922220000001
 20
859.27698900000007
 30
0.0
 40
70.0
  1
700
  0
POINT
  5
1E6
  8
LAYER01
 62
     7
 10
1431.6153890000001
 20
771.15381699999989
 30
0.0
  0
POINT
  5
1E7
  8
LAYER01
 62
     7
 10
731.61540099999991
 20
771.15381699999989
 30
0.0
  0
POINT
  5
1E8
  8
LAYER01
 62
     7
 10
731.61540099999991
 20
824.27698899999984
 30
0.0
  0
ENDBLK
  5
1E9
  8
0
  0
BLOCK
  8
0
  2
*D7
 70
     1
 10
0.0
 20
0.0
 30
0.0
  3
*D7
  1

  0
LINE
  5
1EC
  8
LAYER01
 62
     7
 10
1456.615395
 20
962.71919700000012
 30
0.0
 11
706.61539500000003
 21
962.71919700000012
 31
0.0
  0
LINE
  5
1ED
  8
LAYER01
 62
     7
 10
1456.615395
 20
799.153817
 30
0.0
 11
1456.615395
 21
997.71919700000012
 31
0.0
  0
LINE
  5
1EE
  8
LAYER01
 62
     7
 10
706.61539500000003
 20
799.153817
 30
0.0
 11
706.61539500000003
 21
997.71919700000012
 31
0.0
  0
SOLID
  5
1EF
  8
LAYER01
 62
     7
 10
1400.615395
 20
972.05215699999997
 30
0.0
 11
1456.615395
 21
962.71919700000012
 31
0.0
 12
1400.615395
 22
953.38623699999994
 32
0.0
 13
1400.615395
 23
953.38623699999994
 33
0.0
  0
SOLID
  5
1F0
  8
LAYER01
 62
     7
 10
762.61539500000003
 20
972.05215699999997
 30
0.0
 11
706.61539500000003
 21
962.71919700000012
 31
0.0
 12
762.61539500000003
 22
953.38623699999994
 32
0.0
 13
762.61539500000003
 23
953.38623699999994
 33
0.0
  0
TEXT
  5
1F1
  8
LAYER01
  6
CONTINUOUS
 62
     7
 10
1028.4922220000001
 20
997.71919700000012
 30
0.0
 40
70.0
  1
750
  0
POINT
  5
1F2
  8
LAYER01
 62
     7
 10
1456.615395
 20
771.15381699999989
 30
0.0
  0
POINT
  5
1F3
  8
LAYER01
 62
     7
 10
706.61539500000003
 20
771.15381699999989
 30
0.0
  0
POINT
  5
1F4
  8
LAYER01
 62
     7
 10
706.61539500000003
 20
962.71919700000012
 30
0.0
  0
ENDBLK
  5
1F5
  8
0
  0
BLOCK
  8
0
  2
VP317010-G9
 70
     0
 10
0.0
 20
0.0
 30
0.0
  3
VP317010-G9
  1

  0
LINE
  5
1F8
  8
LAYER01
  6
CONTINUOUS
 62
   255
 10
1081.615395
 20
581.64022399999999
 30
0.0
 11
1081.615395
 21
584.14022399999988
 31
0.0
  0
LINE
  5
1F9
  8
LAYER01
  6
CONTINUOUS
 62
   255
 10
1081.615395
 20
581.64022399999999
 30
0.0
 11
1079.115395
 21
581.64022399999999
 31
0.0
  0
LINE
  5
1FA
  8
LAYER01
  6
CONTINUOUS
 62
   255
 10
1081.615395
 20
581.64022399999999
 30
0.0
 11
1081.615395
 21
579.14022399999999
 31
0.0
  0
LINE
  5
1FB
  8
LAYER01
  6
CONTINUOUS
 62
   255
 10
1081.615395
 20
581.64022399999999
 30
0.0
 11
1084.115395
 21
581.64022399999999
 31
0.0
  0
LINE
  5
1FC
  8
LAYER01
  6
CONTINUOUS
 62
   255
 10
1081.615395
 20
586.64022399999999
 30
0.0
 11
1081.615395
 21
607.14022399999999
 31
0.0
  0
LINE
  5
1FD
  8
LAYER01
  6
CONTINUOUS
 62
   255
 10
1076.615395
 20
581.64022399999999
 30
0.0
 11
1056.115395
 21
581.64022399999999
 31
0.0
  0
LINE
  5
1FE
  8
LAYER01
  6
CONTINUOUS
 62
   255
 10
1081.615395
 20
576.64022399999988
 30
0.0
 11
1081.615395
 21
556.14022399999988
 31
0.0
  0
LINE
  5
1FF
  8
LAYER01
  6
CONTINUOUS
 62
   255
 10
1086.615395
 20
581.64022399999999
 30
0.0
 11
1107.115395
 21
581.64022399999999
 31
0.0
  0
ENDBLK
  5
200
  8
0
  0
BLOCK
  8
0
  2
*D9
 70
     1
 10
0.0
 20
0.0
 30
0.0
  3
*D9
  1

  0
LINE
  5
203
  8
LAYER01
 62
     7
 10
1880.00279
 20
389.68506600000001
 30
0.0
 11
1992.00279
 21
389.68506600000001
 31
0.0
  0
LINE
  5
204
  8
LAYER01
 62
     7
 10
1834.00279
 20
389.68506600000001
 30
0.0
 11
1722.00279
 21
389.68506600000001
 31
0.0
  0
LINE
  5
205
  8
LAYER01
 62
     7
 10
1880.00279
 20
505.81272199999989
 30
0.0
 11
1880.00279
 21
354.68506600000001
 31
0.0
  0
LINE
  5
206
  8
LAYER01
 62
     7
 10
1834.00279
 20
505.81272199999989
 30
0.0
 11
1834.00279
 21
354.68506600000001
 31
0.0
  0
SOLID
  5
207
  8
LAYER01
 62
     7
 10
1936.00279
 20
399.01802600000002
 30
0.0
 11
1880.00279
 21
389.68506600000001
 31
0.0
 12
1936.00279
 22
380.35210599999999
 32
0.0
 13
1936.00279
 23
380.35210599999999
 33
0.0
  0
SOLID
  5
208
  8
LAYER01
 62
     7
 10
1778.0027899999991
 20
399.01802600000002
 30
0.0
 11
1834.00279
 21
389.68506600000001
 31
0.0
 12
1778.0027899999991
 22
380.35210599999999
 32
0.0
 13
1778.0027899999991
 23
380.35210599999999
 33
0.0
  0
TEXT
  5
209
  8
LAYER01
  6
CONTINUOUS
 62
     7
 10
2027.00279
 20
424.68506599999989
 30
0.0
 40
70.0
  1
46
  0
POINT
  5
20A
  8
LAYER01
 62
     7
 10
1880.00279
 20
533.81272200000001
 30
0.0
  0
POINT
  5
20B
  8
LAYER01
 62
     7
 10
1834.00279
 20
533.81272200000001
 30
0.0
  0
POINT
  5
20C
  8
LAYER01
 62
     7
 10
1834.00279
 20
389.68506600000001
 30
0.0
  0
ENDBLK
  5
20D
  8
0
  0
BLOCK
  8
0
  2
VP317010-G11
 70
     0
 10
0.0
 20
0.0
 30
0.0
  3
VP317010-G11
  1

  0
POLYLINE
  5
210
  8
LAYER01
  6
CONTINUOUS
 62
     7
 66
     1
 10
0.0
 20
0.0
 30
0.0
 70
     1
  0
VERTEX
  5
874
  8
LAYER01
  6
CONTINUOUS
 62
     7
 10
2295.8037859999999
 20
-177.11403799999999
 30
0.0
  0
VERTEX
  5
875
  8
LAYER01
  6
CONTINUOUS
 62
     7
 10
2337.2334729999998
 20
-177.11403799999999
 30
0.0
  0
VERTEX
  5
876
  8
LAYER01
  6
CONTINUOUS
 62
     7
 10
2389.2614520000002
 20
-295.62221099999999
 30
0.0
  0
VERTEX
  5
877
  8
LAYER01
  6
CONTINUOUS
 62
     7
 10
2441.2894300000012
 20
-177.11403799999999
 30
0.0
  0
VERTEX
  5
878
  8
LAYER01
  6
CONTINUOUS
 62
     7
 10
2484.6460790000001
 20
-177.11403799999999
 30
0.0
  0
VERTEX
  5
879
  8
LAYER01
  6
CONTINUOUS
 62
     7
 10
2389.2614520000002
 20
-389.07987700000001
 30
0.0
  0
VERTEX
  5
87A
  8
LAYER01
  6
CONTINUOUS
 62
     7
 10
2295.8037859999999
 20
-177.11403799999999
 30
0.0
  0
VERTEX
  5
87B
  8
LAYER01
  6
CONTINUOUS
 62
     7
 10
2295.8037859999999
 20
-177.11403799999999
 30
0.0
  0
SEQEND
  5
87C
  8
LAYER01
  6
CONTINUOUS
 62
     7
  0
POLYLINE
  5
21A
  8
LAYER01
  6
CONTINUOUS
 62
     7
 66
     1
 10
0.0
 20
0.0
 30
0.0
 70
     1
  0
VERTEX
  5
87D
  8
LAYER01
  6
CONTINUOUS
 62
     7
 10
2437.4355059999998
 20
-321.63620100000003
 30
0.0
  0
VERTEX
  5
87E
  8
LAYER01
  6
CONTINUOUS
 62
     7
 10
2451.8877219999999
 20
-287.91436299999998
 30
0.0
  0
VERTEX
  5
87F
  8
LAYER01
  6
CONTINUOUS
 62
     7
 10
2514.513993
 20
-287.91436299999998
 30
0.0
  0
VERTEX
  5
880
  8
LAYER01
  6
CONTINUOUS
 62
     7
 10
2482.7191170000001
 20
-218.543724
 30
0.0
  0
VERTEX
  5
881
  8
LAYER01
  6
CONTINUOUS
 62
     7
 10
2501.0252580000001
 20
-174.22359399999999
 30
0.0
  0
VERTEX
  5
882
  8
LAYER01
  6
CONTINUOUS
 62
     7
 10
2586.775075
 20
-355.35803900000002
 30
0.0
  0
VERTEX
  5
883
  8
LAYER01
  6
CONTINUOUS
 62
     7
 10
2586.775075
 20
-177.11403799999999
 30
0.0
  0
VERTEX
  5
884
  8
LAYER01
  6
CONTINUOUS
 62
     7
 10
2701.4293240000002
 20
-177.11403799999999
 30
0.0
  0
VERTEX
  5
885
  8
LAYER01
  6
CONTINUOUS
 62
     7
 10
2701.4293240000002
 20
-177.11403799999999
 30
0.0
  0
VERTEX
  5
886
  8
LAYER01
  6
CONTINUOUS
 62
     7
 10
2712.0276159999999
 20
-179.041
 30
0.0
  0
VERTEX
  5
887
  8
LAYER01
  6
CONTINUOUS
 62
     7
 10
2721.6624270000002
 20
-182.894924
 30
0.0
  0
VERTEX
  5
888
  8
LAYER01
  6
CONTINUOUS
 62
     7
 10
2730.3337569999999
 20
-189.63929200000001
 30
0.0
  0
VERTEX
  5
889
  8
LAYER01
  6
CONTINUOUS
 62
     7
 10
2738.0416059999998
 20
-196.38365899999999
 30
0.0
  0
VERTEX
  5
88A
  8
LAYER01
  6
CONTINUOUS
 62
     7
 10
2744.785973
 20
-205.05498900000001
 30
0.0
  0
VERTEX
  5
88B
  8
LAYER01
  6
CONTINUOUS
 62
     7
 10
2749.6033790000001
 20
-214.68979999999999
 30
0.0
  0
VERTEX
  5
88C
  8
LAYER01
  6
CONTINUOUS
 62
     7
 10
2753.4573030000001
 20
-226.25157300000001
 30
0.0
  0
VERTEX
  5
88D
  8
LAYER01
  6
CONTINUOUS
 62
     7
 10
2754.4207839999999
 20
-236.84986499999999
 30
0.0
  0
VERTEX
  5
88E
  8
LAYER01
  6
CONTINUOUS
 62
     7
 10
2754.4207839999999
 20
-236.84986499999999
 30
0.0
  0
VERTEX
  5
88F
  8
LAYER01
  6
CONTINUOUS
 62
     7
 10
2754.4207839999999
 20
-248.41163800000001
 30
0.0
  0
VERTEX
  5
890
  8
LAYER01
  6
CONTINUOUS
 62
     7
 10
2752.4938219999999
 20
-258.046449
 30
0.0
  0
VERTEX
  5
891
  8
LAYER01
  6
CONTINUOUS
 62
     7
 10
2748.639897
 20
-267.68126000000001
 30
0.0
  0
VERTEX
  5
892
  8
LAYER01
  6
CONTINUOUS
 62
     7
 10
2743.8224919999998
 20
-276.35259000000002
 30
0.0
  0
VERTEX
  5
893
  8
LAYER01
  6
CONTINUOUS
 62
     7
 10
2737.0781240000001
 20
-284.06043799999998
 30
0.0
  0
VERTEX
  5
894
  8
LAYER01
  6
CONTINUOUS
 62
     7
 10
2729.3702760000001
 20
-290.80480599999999
 30
0.0
  0
VERTEX
  5
895
  8
LAYER01
  6
CONTINUOUS
 62
     7
 10
2720.698946
 20
-295.62221099999999
 30
0.0
  0
VERTEX
  5
896
  8
LAYER01
  6
CONTINUOUS
 62
     7
 10
2710.1006539999998
 20
-299.476136
 30
0.0
  0
VERTEX
  5
897
  8
LAYER01
  6
CONTINUOUS
 62
     7
 10
2771.7634440000002
 20
-381.372028
 30
0.0
  0
VERTEX
  5
898
  8
LAYER01
  6
CONTINUOUS
 62
     7
 10
2771.7634440000002
 20
-177.11403799999999
 30
0.0
  0
VERTEX
  5
899
  8
LAYER01
  6
CONTINUOUS
 62
     7
 10
2812.2296489999999
 20
-177.11403799999999
 30
0.0
  0
VERTEX
  5
89A
  8
LAYER01
  6
CONTINUOUS
 62
     7
 10
2812.2296489999999
 20
-383.29899
 30
0.0
  0
VERTEX
  5
89B
  8
LAYER01
  6
CONTINUOUS
 62
     7
 10
2725.5163510000002
 20
-383.29899
 30
0.0
  0
VERTEX
  5
89C
  8
LAYER01
  6
CONTINUOUS
 62
     7
 10
2641.6934970000002
 20
-276.35259000000002
 30
0.0
  0
VERTEX
  5
89D
  8
LAYER01
  6
CONTINUOUS
 62
     7
 10
2684.0866649999998
 20
-276.35259000000002
 30
0.0
  0
VERTEX
  5
89E
  8
LAYER01
  6
CONTINUOUS
 62
     7
 10
2684.0866649999998
 20
-276.35259000000002
 30
0.0
  0
VERTEX
  5
89F
  8
LAYER01
  6
CONTINUOUS
 62
     7
 10
2689.8675510000012
 20
-275.38910900000002
 30
0.0
  0
VERTEX
  5
8A0
  8
LAYER01
  6
CONTINUOUS
 62
     7
 10
2695.6484380000002
 20
-273.46214600000002
 30
0.0
  0
VERTEX
  5
8A1
  8
LAYER01
  6
CONTINUOUS
 62
     7
 10
2700.4658429999999
 20
-270.57170300000001
 30
0.0
  0
VERTEX
  5
8A2
  8
LAYER01
  6
CONTINUOUS
 62
     7
 10
2705.2832490000001
 20
-266.71777900000001
 30
0.0
  0
VERTEX
  5
8A3
  8
LAYER01
  6
CONTINUOUS
 62
     7
 10
2708.1736920000012
 20
-261.900373
 30
0.0
  0
VERTEX
  5
8A4
  8
LAYER01
  6
CONTINUOUS
 62
     7
 10
2711.0641350000001
 20
-256.11948699999999
 30
0.0
  0
VERTEX
  5
8A5
  8
LAYER01
  6
CONTINUOUS
 62
     7
 10
2712.9910970000001
 20
-250.33860000000001
 30
0.0
  0
VERTEX
  5
8A6
  8
LAYER01
  6
CONTINUOUS
 62
     7
 10
2712.9910970000001
 20
-243.594233
 30
0.0
  0
VERTEX
  5
8A7
  8
LAYER01
  6
CONTINUOUS
 62
     7
 10
2712.9910970000001
 20
-243.594233
 30
0.0
  0
VERTEX
  5
8A8
  8
LAYER01
  6
CONTINUOUS
 62
     7
 10
2712.9910970000001
 20
-237.813346
 30
0.0
  0
VERTEX
  5
8A9
  8
LAYER01
  6
CONTINUOUS
 62
     7
 10
2711.0641350000001
 20
-232.03245999999999
 30
0.0
  0
VERTEX
  5
8AA
  8
LAYER01
  6
CONTINUOUS
 62
     7
 10
2709.1371730000001
 20
-226.25157300000001
 30
0.0
  0
VERTEX
  5
8AB
  8
LAYER01
  6
CONTINUOUS
 62
     7
 10
2705.2832490000001
 20
-221.434168
 30
0.0
  0
VERTEX
  5
8AC
  8
LAYER01
  6
CONTINUOUS
 62
     7
 10
2701.4293240000002
 20
-217.580243
 30
0.0
  0
VERTEX
  5
8AD
  8
LAYER01
  6
CONTINUOUS
 62
     7
 10
2695.6484380000002
 20
-214.68979999999999
 30
0.0
  0
VERTEX
  5
8AE
  8
LAYER01
  6
CONTINUOUS
 62
     7
 10
2689.8675510000012
 20
-212.76283799999999
 30
0.0
  0
VERTEX
  5
8AF
  8
LAYER01
  6
CONTINUOUS
 62
     7
 10
2684.0866649999998
 20
-211.79935699999999
 30
0.0
  0
VERTEX
  5
8B0
  8
LAYER01
  6
CONTINUOUS
 62
     7
 10
2630.1317239999998
 20
-211.79935699999999
 30
0.0
  0
VERTEX
  5
8B1
  8
LAYER01
  6
CONTINUOUS
 62
     7
 10
2630.1317239999998
 20
-383.29899
 30
0.0
  0
VERTEX
  5
8B2
  8
LAYER01
  6
CONTINUOUS
 62
     7
 10
2560.7610850000001
 20
-383.29899
 30
0.0
  0
VERTEX
  5
8B3
  8
LAYER01
  6
CONTINUOUS
 62
     7
 10
2531.8566529999998
 20
-321.63620100000003
 30
0.0
  0
VERTEX
  5
8B4
  8
LAYER01
  6
CONTINUOUS
 62
     7
 10
2437.4355059999998
 20
-321.63620100000003
 30
0.0
  0
VERTEX
  5
8B5
  8
LAYER01
  6
CONTINUOUS
 62
     7
 10
2437.4355059999998
 20
-321.63620100000003
 30
0.0
  0
SEQEND
  5
8B6
  8
LAYER01
  6
CONTINUOUS
 62
     7
  0
POLYLINE
  5
255
  8
LAYER01
  6
CONTINUOUS
 62
     7
 66
     1
 10
0.0
 20
0.0
 30
0.0
 70
     1
  0
VERTEX
  5
8B7
  8
LAYER01
  6
CONTINUOUS
 62
     7
 10
2999.14498
 20
-190.60277300000001
 30
0.0
  0
VERTEX
  5
8B8
  8
LAYER01
  6
CONTINUOUS
 62
     7
 10
2973.130991
 20
-223.36113
 30
0.0
  0
VERTEX
  5
8B9
  8
LAYER01
  6
CONTINUOUS
 62
     7
 10
2973.130991
 20
-223.36113
 30
0.0
  0
VERTEX
  5
8BA
  8
LAYER01
  6
CONTINUOUS
 62
     7
 10
2964.4596609999999
 20
-217.580243
 30
0.0
  0
VERTEX
  5
8BB
  8
LAYER01
  6
CONTINUOUS
 62
     7
 10
2955.7883310000002
 20
-212.76283799999999
 30
0.0
  0
VERTEX
  5
8BC
  8
LAYER01
  6
CONTINUOUS
 62
     7
 10
2946.1535210000002
 20
-209.87239500000001
 30
0.0
  0
VERTEX
  5
8BD
  8
LAYER01
  6
CONTINUOUS
 62
     7
 10
2935.5552290000001
 20
-209.87239500000001
 30
0.0
  0
VERTEX
  5
8BE
  8
LAYER01
  6
CONTINUOUS
 62
     7
 10
2935.5552290000001
 20
-209.87239500000001
 30
0.0
  0
VERTEX
  5
8BF
  8
LAYER01
  6
CONTINUOUS
 62
     7
 10
2928.8108609999999
 20
-209.87239500000001
 30
0.0
  0
VERTEX
  5
8C0
  8
LAYER01
  6
CONTINUOUS
 62
     7
 10
2922.0664929999998
 20
-210.83587600000001
 30
0.0
  0
VERTEX
  5
8C1
  8
LAYER01
  6
CONTINUOUS
 62
     7
 10
2915.322126
 20
-212.76283799999999
 30
0.0
  0
VERTEX
  5
8C2
  8
LAYER01
  6
CONTINUOUS
 62
     7
 10
2908.5777579999999
 20
-215.65328099999999
 30
0.0
  0
VERTEX
  5
8C3
  8
LAYER01
  6
CONTINUOUS
 62
     7
 10
2902.7968719999999
 20
-218.543724
 30
0.0
  0
VERTEX
  5
8C4
  8
LAYER01
  6
CONTINUOUS
 62
     7
 10
2897.9794660000011
 20
-222.397649
 30
0.0
  0
VERTEX
  5
8C5
  8
LAYER01
  6
CONTINUOUS
 62
     7
 10
2892.1985800000002
 20
-226.25157300000001
 30
0.0
  0
VERTEX
  5
8C6
  8
LAYER01
  6
CONTINUOUS
 62
     7
 10
2888.3446549999999
 20
-231.06897900000001
 30
0.0
  0
VERTEX
  5
8C7
  8
LAYER01
  6
CONTINUOUS
 62
     7
 10
2883.5272500000001
 20
-236.84986499999999
 30
0.0
  0
VERTEX
  5
8C8
  8
LAYER01
  6
CONTINUOUS
 62
     7
 10
2880.6368069999999
 20
-242.630752
 30
0.0
  0
VERTEX
  5
8C9
  8
LAYER01
  6
CONTINUOUS
 62
     7
 10
2876.782882
 20
-248.41163800000001
 30
0.0
  0
VERTEX
  5
8CA
  8
LAYER01
  6
CONTINUOUS
 62
     7
 10
2873.8924390000002
 20
-254.19252499999999
 30
0.0
  0
VERTEX
  5
8CB
  8
LAYER01
  6
CONTINUOUS
 62
     7
 10
2871.9654770000002
 20
-260.936892
 30
0.0
  0
VERTEX
  5
8CC
  8
LAYER01
  6
CONTINUOUS
 62
     7
 10
2871.001996
 20
-267.68126000000001
 30
0.0
  0
VERTEX
  5
8CD
  8
LAYER01
  6
CONTINUOUS
 62
     7
 10
2870.0385150000002
 20
-274.42562700000002
 30
0.0
  0
VERTEX
  5
8CE
  8
LAYER01
  6
CONTINUOUS
 62
     7
 10
2869.0750330000001
 20
-282.13347599999997
 30
0.0
  0
VERTEX
  5
8CF
  8
LAYER01
  6
CONTINUOUS
 62
     7
 10
2869.0750330000001
 20
-282.13347599999997
 30
0.0
  0
VERTEX
  5
8D0
  8
LAYER01
  6
CONTINUOUS
 62
     7
 10
2870.0385150000002
 20
-288.87784399999998
 30
0.0
  0
VERTEX
  5
8D1
  8
LAYER01
  6
CONTINUOUS
 62
     7
 10
2871.001996
 20
-295.62221099999999
 30
0.0
  0
VERTEX
  5
8D2
  8
LAYER01
  6
CONTINUOUS
 62
     7
 10
2871.9654770000002
 20
-302.366579
 30
0.0
  0
VERTEX
  5
8D3
  8
LAYER01
  6
CONTINUOUS
 62
     7
 10
2874.85592
 20
-308.14746600000001
 30
0.0
  0
VERTEX
  5
8D4
  8
LAYER01
  6
CONTINUOUS
 62
     7
 10
2876.782882
 20
-313.92835200000002
 30
0.0
  0
VERTEX
  5
8D5
  8
LAYER01
  6
CONTINUOUS
 62
     7
 10
2880.6368069999999
 20
-319.70923900000003
 30
0.0
  0
VERTEX
  5
8D6
  8
LAYER01
  6
CONTINUOUS
 62
     7
 10
2884.4907309999999
 20
-325.49012499999998
 30
0.0
  0
VERTEX
  5
8D7
  8
LAYER01
  6
CONTINUOUS
 62
     7
 10
2888.3446549999999
 20
-330.30753099999998
 30
0.0
  0
VERTEX
  5
8D8
  8
LAYER01
  6
CONTINUOUS
 62
     7
 10
2893.162061
 20
-335.12493599999999
 30
0.0
  0
VERTEX
  5
8D9
  8
LAYER01
  6
CONTINUOUS
 62
     7
 10
2897.9794660000011
 20
-338.97886
 30
0.0
  0
VERTEX
  5
8DA
  8
LAYER01
  6
CONTINUOUS
 62
     7
 10
2903.7603530000001
 20
-341.869304
 30
0.0
  0
VERTEX
  5
8DB
  8
LAYER01
  6
CONTINUOUS
 62
     7
 10
2909.541239000001
 20
-344.759747
 30
0.0
  0
VERTEX
  5
8DC
  8
LAYER01
  6
CONTINUOUS
 62
     7
 10
2916.2856070000012
 20
-347.65019000000001
 30
0.0
  0
VERTEX
  5
8DD
  8
LAYER01
  6
CONTINUOUS
 62
     7
 10
2922.0664929999998
 20
-349.57715200000001
 30
0.0
  0
VERTEX
  5
8DE
  8
LAYER01
  6
CONTINUOUS
 62
     7
 10
2928.8108609999999
 20
-350.54063300000001
 30
0.0
  0
VERTEX
  5
8DF
  8
LAYER01
  6
CONTINUOUS
 62
     7
 10
2936.5187100000012
 20
-350.54063300000001
 30
0.0
  0
VERTEX
  5
8E0
  8
LAYER01
  6
CONTINUOUS
 62
     7
 10
2936.5187100000012
 20
-350.54063300000001
 30
0.0
  0
VERTEX
  5
8E1
  8
LAYER01
  6
CONTINUOUS
 62
     7
 10
2947.117002
 20
-349.57715200000001
 30
0.0
  0
VERTEX
  5
8E2
  8
LAYER01
  6
CONTINUOUS
 62
     7
 10
2955.7883310000002
 20
-347.65019000000001
 30
0.0
  0
VERTEX
  5
8E3
  8
LAYER01
  6
CONTINUOUS
 62
     7
 10
2964.4596609999999
 20
-342.832785
 30
0.0
  0
VERTEX
  5
8E4
  8
LAYER01
  6
CONTINUOUS
 62
     7
 10
2973.130991
 20
-337.05189799999999
 30
0.0
  0
VERTEX
  5
8E5
  8
LAYER01
  6
CONTINUOUS
 62
     7
 10
2998.1814989999998
 20
-370.77373599999999
 30
0.0
  0
VERTEX
  5
8E6
  8
LAYER01
  6
CONTINUOUS
 62
     7
 10
2998.1814989999998
 20
-370.77373599999999
 30
0.0
  0
VERTEX
  5
8E7
  8
LAYER01
  6
CONTINUOUS
 62
     7
 10
2983.7292830000001
 20
-379.445066
 30
0.0
  0
VERTEX
  5
8E8
  8
LAYER01
  6
CONTINUOUS
 62
     7
 10
2976.0214340000002
 20
-382.335509
 30
0.0
  0
VERTEX
  5
8E9
  8
LAYER01
  6
CONTINUOUS
 62
     7
 10
2969.277067
 20
-385.225953
 30
0.0
  0
VERTEX
  5
8EA
  8
LAYER01
  6
CONTINUOUS
 62
     7
 10
2961.5692180000001
 20
-387.15291500000001
 30
0.0
  0
VERTEX
  5
8EB
  8
LAYER01
  6
CONTINUOUS
 62
     7
 10
2953.8613690000002
 20
-388.11639600000001
 30
0.0
  0
VERTEX
  5
8EC
  8
LAYER01
  6
CONTINUOUS
 62
     7
 10
2936.5187100000012
 20
-389.07987700000001
 30
0.0
  0
VERTEX
  5
8ED
  8
LAYER01
  6
CONTINUOUS
 62
     7
 10
2936.5187100000012
 20
-389.07987700000001
 30
0.0
  0
VERTEX
  5
8EE
  8
LAYER01
  6
CONTINUOUS
 62
     7
 10
2924.9569369999999
 20
-388.11639600000001
 30
0.0
  0
VERTEX
  5
8EF
  8
LAYER01
  6
CONTINUOUS
 62
     7
 10
2914.3586449999998
 20
-386.18943400000001
 30
0.0
  0
VERTEX
  5
8F0
  8
LAYER01
  6
CONTINUOUS
 62
     7
 10
2903.7603530000001
 20
-384.262472
 30
0.0
  0
VERTEX
  5
8F1
  8
LAYER01
  6
CONTINUOUS
 62
     7
 10
2894.1255420000011
 20
-380.408547
 30
0.0
  0
VERTEX
  5
8F2
  8
LAYER01
  6
CONTINUOUS
 62
     7
 10
2884.4907309999999
 20
-375.59114199999999
 30
0.0
  0
VERTEX
  5
8F3
  8
LAYER01
  6
CONTINUOUS
 62
     7
 10
2875.8194010000011
 20
-370.77373599999999
 30
0.0
  0
VERTEX
  5
8F4
  8
LAYER01
  6
CONTINUOUS
 62
     7
 10
2867.1480710000001
 20
-364.02936899999997
 30
0.0
  0
VERTEX
  5
8F5
  8
LAYER01
  6
CONTINUOUS
 62
     7
 10
2859.4402230000001
 20
-357.28500100000002
 30
0.0
  0
VERTEX
  5
8F6
  8
LAYER01
  6
CONTINUOUS
 62
     7
 10
2851.7323740000002
 20
-349.57715200000001
 30
0.0
  0
VERTEX
  5
8F7
  8
LAYER01
  6
CONTINUOUS
 62
     7
 10
2845.9514870000012
 20
-340.905823
 30
0.0
  0
VERTEX
  5
8F8
  8
LAYER01
  6
CONTINUOUS
 62
     7
 10
2840.1706009999998
 20
-332.23449299999999
 30
0.0
  0
VERTEX
  5
8F9
  8
LAYER01
  6
CONTINUOUS
 62
     7
 10
2835.3531950000001
 20
-322.59968199999997
 30
0.0
  0
VERTEX
  5
8FA
  8
LAYER01
  6
CONTINUOUS
 62
     7
 10
2832.4627519999999
 20
-312.96487100000002
 30
0.0
  0
VERTEX
  5
8FB
  8
LAYER01
  6
CONTINUOUS
 62
     7
 10
2829.5723090000001
 20
-302.366579
 30
0.0
  0
VERTEX
  5
8FC
  8
LAYER01
  6
CONTINUOUS
 62
     7
 10
2827.6453470000001
 20
-291.76828699999999
 30
0.0
  0
VERTEX
  5
8FD
  8
LAYER01
  6
CONTINUOUS
 62
     7
 10
2826.6818659999999
 20
-280.20651400000003
 30
0.0
  0
VERTEX
  5
8FE
  8
LAYER01
  6
CONTINUOUS
 62
     7
 10
2826.6818659999999
 20
-280.20651400000003
 30
0.0
  0
VERTEX
  5
8FF
  8
LAYER01
  6
CONTINUOUS
 62
     7
 10
2827.6453470000001
 20
-269.60822200000001
 30
0.0
  0
VERTEX
  5
900
  8
LAYER01
  6
CONTINUOUS
 62
     7
 10
2829.5723090000001
 20
-258.046449
 30
0.0
  0
VERTEX
  5
901
  8
LAYER01
  6
CONTINUOUS
 62
     7
 10
2831.4992710000001
 20
-248.41163800000001
 30
0.0
  0
VERTEX
  5
902
  8
LAYER01
  6
CONTINUOUS
 62
     7
 10
2835.3531950000001
 20
-237.813346
 30
0.0
  0
VERTEX
  5
903
  8
LAYER01
  6
CONTINUOUS
 62
     7
 10
2840.1706009999998
 20
-228.17853500000001
 30
0.0
  0
VERTEX
  5
904
  8
LAYER01
  6
CONTINUOUS
 62
     7
 10
2844.988006
 20
-219.507205
 30
0.0
  0
VERTEX
  5
905
  8
LAYER01
  6
CONTINUOUS
 62
     7
 10
2851.7323740000002
 20
-210.83587600000001
 30
0.0
  0
VERTEX
  5
906
  8
LAYER01
  6
CONTINUOUS
 62
     7
 10
2858.4767419999998
 20
-203.128027
 30
0.0
  0
VERTEX
  5
907
  8
LAYER01
  6
CONTINUOUS
 62
     7
 10
2866.1845899999998
 20
-196.38365899999999
 30
0.0
  0
VERTEX
  5
908
  8
LAYER01
  6
CONTINUOUS
 62
     7
 10
2874.85592
 20
-189.63929200000001
 30
0.0
  0
VERTEX
  5
909
  8
LAYER01
  6
CONTINUOUS
 62
     7
 10
2883.5272500000001
 20
-184.82188600000001
 30
0.0
  0
VERTEX
  5
90A
  8
LAYER01
  6
CONTINUOUS
 62
     7
 10
2893.162061
 20
-180.004481
 30
0.0
  0
VERTEX
  5
90B
  8
LAYER01
  6
CONTINUOUS
 62
     7
 10
2902.7968719999999
 20
-176.15055699999999
 30
0.0
  0
VERTEX
  5
90C
  8
LAYER01
  6
CONTINUOUS
 62
     7
 10
2913.395164
 20
-173.26011299999999
 30
0.0
  0
VERTEX
  5
90D
  8
LAYER01
  6
CONTINUOUS
 62
     7
 10
2924.9569369999999
 20
-172.29663199999999
 30
0.0
  0
VERTEX
  5
90E
  8
LAYER01
  6
CONTINUOUS
 62
     7
 10
2935.5552290000001
 20
-171.33315099999999
 30
0.0
  0
VERTEX
  5
90F
  8
LAYER01
  6
CONTINUOUS
 62
     7
 10
2935.5552290000001
 20
-171.33315099999999
 30
0.0
  0
VERTEX
  5
910
  8
LAYER01
  6
CONTINUOUS
 62
     7
 10
2952.897888
 20
-172.29663199999999
 30
0.0
  0
VERTEX
  5
911
  8
LAYER01
  6
CONTINUOUS
 62
     7
 10
2961.5692180000001
 20
-173.26011299999999
 30
0.0
  0
VERTEX
  5
912
  8
LAYER01
  6
CONTINUOUS
 62
     7
 10
2969.277067
 20
-175.18707499999999
 30
0.0
  0
VERTEX
  5
913
  8
LAYER01
  6
CONTINUOUS
 62
     7
 10
2976.0214340000002
 20
-178.077519
 30
0.0
  0
VERTEX
  5
914
  8
LAYER01
  6
CONTINUOUS
 62
     7
 10
2983.7292830000001
 20
-180.967962
 30
0.0
  0
VERTEX
  5
915
  8
LAYER01
  6
CONTINUOUS
 62
     7
 10
2991.437132
 20
-185.78536700000001
 30
0.0
  0
VERTEX
  5
916
  8
LAYER01
  6
CONTINUOUS
 62
     7
 10
2999.14498
 20
-190.60277300000001
 30
0.0
  0
VERTEX
  5
917
  8
LAYER01
  6
CONTINUOUS
 62
     7
 10
2999.14498
 20
-190.60277300000001
 30
0.0
  0
SEQEND
  5
918
  8
LAYER01
  6
CONTINUOUS
 62
     7
  0
POLYLINE
  5
2B8
  8
LAYER01
  6
CONTINUOUS
 62
     7
 66
     1
 10
0.0
 20
0.0
 30
0.0
 70
     1
  0
VERTEX
  5
919
  8
LAYER01
  6
CONTINUOUS
 62
     7
 10
3092.6026459999998
 20
-172.29663199999999
 30
0.0
  0
VERTEX
  5
91A
  8
LAYER01
  6
CONTINUOUS
 62
     7
 10
3092.6026459999998
 20
-172.29663199999999
 30
0.0
  0
VERTEX
  5
91B
  8
LAYER01
  6
CONTINUOUS
 62
     7
 10
3082.0043540000001
 20
-173.26011299999999
 30
0.0
  0
VERTEX
  5
91C
  8
LAYER01
  6
CONTINUOUS
 62
     7
 10
3070.4425809999998
 20
-174.22359399999999
 30
0.0
  0
VERTEX
  5
91D
  8
LAYER01
  6
CONTINUOUS
 62
     7
 10
3060.8077699999999
 20
-177.11403799999999
 30
0.0
  0
VERTEX
  5
91E
  8
LAYER01
  6
CONTINUOUS
 62
     7
 10
3050.2094780000011
 20
-180.967962
 30
0.0
  0
VERTEX
  5
91F
  8
LAYER01
  6
CONTINUOUS
 62
     7
 10
3040.5746669999999
 20
-184.82188600000001
 30
0.0
  0
VERTEX
  5
920
  8
LAYER01
  6
CONTINUOUS
 62
     7
 10
3031.9033370000011
 20
-190.60277300000001
 30
0.0
  0
VERTEX
  5
921
  8
LAYER01
  6
CONTINUOUS
 62
     7
 10
3023.232008
 20
-196.38365899999999
 30
0.0
  0
VERTEX
  5
922
  8
LAYER01
  6
CONTINUOUS
 62
     7
 10
3015.5241590000001
 20
-204.091508
 30
0.0
  0
VERTEX
  5
923
  8
LAYER01
  6
CONTINUOUS
 62
     7
 10
3008.7797909999999
 20
-211.79935699999999
 30
0.0
  0
VERTEX
  5
924
  8
LAYER01
  6
CONTINUOUS
 62
     7
 10
3002.0354240000001
 20
-219.507205
 30
0.0
  0
VERTEX
  5
925
  8
LAYER01
  6
CONTINUOUS
 62
     7
 10
2996.2545369999998
 20
-228.17853500000001
 30
0.0
  0
VERTEX
  5
926
  8
LAYER01
  6
CONTINUOUS
 62
     7
 10
2991.437132
 20
-237.813346
 30
0.0
  0
VERTEX
  5
927
  8
LAYER01
  6
CONTINUOUS
 62
     7
 10
2988.5466879999999
 20
-248.41163800000001
 30
0.0
  0
VERTEX
  5
928
  8
LAYER01
  6
CONTINUOUS
 62
     7
 10
2985.6562450000001
 20
-258.046449
 30
0.0
  0
VERTEX
  5
929
  8
LAYER01
  6
CONTINUOUS
 62
     7
 10
2983.7292830000001
 20
-269.60822200000001
 30
0.0
  0
VERTEX
  5
92A
  8
LAYER01
  6
CONTINUOUS
 62
     7
 10
2982.7658019999999
 20
-280.20651400000003
 30
0.0
  0
VERTEX
  5
92B
  8
LAYER01
  6
CONTINUOUS
 62
     7
 10
2982.7658019999999
 20
-280.20651400000003
 30
0.0
  0
VERTEX
  5
92C
  8
LAYER01
  6
CONTINUOUS
 62
     7
 10
2983.7292830000001
 20
-291.76828699999999
 30
0.0
  0
VERTEX
  5
92D
  8
LAYER01
  6
CONTINUOUS
 62
     7
 10
2984.6927639999999
 20
-302.366579
 30
0.0
  0
VERTEX
  5
92E
  8
LAYER01
  6
CONTINUOUS
 62
     7
 10
2987.5832070000001
 20
-312.96487100000002
 30
0.0
  0
VERTEX
  5
92F
  8
LAYER01
  6
CONTINUOUS
 62
     7
 10
2991.437132
 20
-322.59968199999997
 30
0.0
  0
VERTEX
  5
930
  8
LAYER01
  6
CONTINUOUS
 62
     7
 10
2995.291056
 20
-332.23449299999999
 30
0.0
  0
VERTEX
  5
931
  8
LAYER01
  6
CONTINUOUS
 62
     7
 10
3001.0719429999999
 20
-340.905823
 30
0.0
  0
VERTEX
  5
932
  8
LAYER01
  6
CONTINUOUS
 62
     7
 10
3006.8528289999999
 20
-349.57715200000001
 30
0.0
  0
VERTEX
  5
933
  8
LAYER01
  6
CONTINUOUS
 62
     7
 10
3013.5971970000001
 20
-357.28500100000002
 30
0.0
  0
VERTEX
  5
934
  8
LAYER01
  6
CONTINUOUS
 62
     7
 10
3021.3050450000001
 20
-364.99284999999998
 30
0.0
  0
VERTEX
  5
935
  8
LAYER01
  6
CONTINUOUS
 62
     7
 10
3029.9763750000002
 20
-370.77373599999999
 30
0.0
  0
VERTEX
  5
936
  8
LAYER01
  6
CONTINUOUS
 62
     7
 10
3038.6477049999999
 20
-376.55462299999999
 30
0.0
  0
VERTEX
  5
937
  8
LAYER01
  6
CONTINUOUS
 62
     7
 10
3048.2825160000002
 20
-381.372028
 30
0.0
  0
VERTEX
  5
938
  8
LAYER01
  6
CONTINUOUS
 62
     7
 10
3057.9173270000001
 20
-385.225953
 30
0.0
  0
VERTEX
  5
939
  8
LAYER01
  6
CONTINUOUS
 62
     7
 10
3068.5156190000012
 20
-387.15291500000001
 30
0.0
  0
VERTEX
  5
93A
  8
LAYER01
  6
CONTINUOUS
 62
     7
 10
3079.1139109999999
 20
-389.07987700000001
 30
0.0
  0
VERTEX
  5
93B
  8
LAYER01
  6
CONTINUOUS
 62
     7
 10
3089.712203
 20
-390.04335800000001
 30
0.0
  0
VERTEX
  5
93C
  8
LAYER01
  6
CONTINUOUS
 62
     7
 10
3089.712203
 20
-390.04335800000001
 30
0.0
  0
VERTEX
  5
93D
  8
LAYER01
  6
CONTINUOUS
 62
     7
 10
3101.2739759999999
 20
-389.07987700000001
 30
0.0
  0
VERTEX
  5
93E
  8
LAYER01
  6
CONTINUOUS
 62
     7
 10
3111.8722680000001
 20
-387.15291500000001
 30
0.0
  0
VERTEX
  5
93F
  8
LAYER01
  6
CONTINUOUS
 62
     7
 10
3122.4705600000002
 20
-384.262472
 30
0.0
  0
VERTEX
  5
940
  8
LAYER01
  6
CONTINUOUS
 62
     7
 10
3132.1053710000001
 20
-380.408547
 30
0.0
  0
VERTEX
  5
941
  8
LAYER01
  6
CONTINUOUS
 62
     7
 10
3141.7401810000001
 20
-375.59114199999999
 30
0.0
  0
VERTEX
  5
942
  8
LAYER01
  6
CONTINUOUS
 62
     7
 10
3150.4115109999998
 20
-369.81025499999998
 30
0.0
  0
VERTEX
  5
943
  8
LAYER01
  6
CONTINUOUS
 62
     7
 10
3159.0828409999999
 20
-364.02936899999997
 30
0.0
  0
VERTEX
  5
944
  8
LAYER01
  6
CONTINUOUS
 62
     7
 10
3166.7906899999998
 20
-356.32152000000002
 30
0.0
  0
VERTEX
  5
945
  8
LAYER01
  6
CONTINUOUS
 62
     7
 10
3173.5350570000001
 20
-348.61367100000001
 30
0.0
  0
VERTEX
  5
946
  8
LAYER01
  6
CONTINUOUS
 62
     7
 10
3179.3159439999999
 20
-339.942341
 30
0.0
  0
VERTEX
  5
947
  8
LAYER01
  6
CONTINUOUS
 62
     7
 10
3184.1333490000002
 20
-331.27101199999998
 30
0.0
  0
VERTEX
  5
948
  8
LAYER01
  6
CONTINUOUS
 62
     7
 10
3188.9507549999998
 20
-321.63620100000003
 30
0.0
  0
VERTEX
  5
949
  8
LAYER01
  6
CONTINUOUS
 62
     7
 10
3192.8046789999999
 20
-311.03790900000001
 30
0.0
  0
VERTEX
  5
94A
  8
LAYER01
  6
CONTINUOUS
 62
     7
 10
3194.7316409999999
 20
-300.439617
 30
0.0
  0
VERTEX
  5
94B
  8
LAYER01
  6
CONTINUOUS
 62
     7
 10
3195.6951220000001
 20
-289.84132499999998
 30
0.0
  0
VERTEX
  5
94C
  8
LAYER01
  6
CONTINUOUS
 62
     7
 10
3196.6586030000012
 20
-278.27955200000002
 30
0.0
  0
VERTEX
  5
94D
  8
LAYER01
  6
CONTINUOUS
 62
     7
 10
3196.6586030000012
 20
-278.27955200000002
 30
0.0
  0
VERTEX
  5
94E
  8
LAYER01
  6
CONTINUOUS
 62
     7
 10
3195.6951220000001
 20
-267.68126000000001
 30
0.0
  0
VERTEX
  5
94F
  8
LAYER01
  6
CONTINUOUS
 62
     7
 10
3193.7681600000001
 20
-257.08296799999999
 30
0.0
  0
VERTEX
  5
950
  8
LAYER01
  6
CONTINUOUS
 62
     7
 10
3190.8777170000012
 20
-247.44815700000001
 30
0.0
  0
VERTEX
  5
951
  8
LAYER01
  6
CONTINUOUS
 62
     7
 10
3187.9872740000001
 20
-237.813346
 30
0.0
  0
VERTEX
  5
952
  8
LAYER01
  6
CONTINUOUS
 62
     7
 10
3183.169868
 20
-229.14201600000001
 30
0.0
  0
VERTEX
  5
953
  8
LAYER01
  6
CONTINUOUS
 62
     7
 10
3178.3524630000002
 20
-220.470687
 30
0.0
  0
VERTEX
  5
954
  8
LAYER01
  6
CONTINUOUS
 62
     7
 10
3172.5715760000012
 20
-211.79935699999999
 30
0.0
  0
VERTEX
  5
955
  8
LAYER01
  6
CONTINUOUS
 62
     7
 10
3165.827209
 20
-205.05498900000001
 30
0.0
  0
VERTEX
  5
956
  8
LAYER01
  6
CONTINUOUS
 62
     7
 10
3158.1193600000011
 20
-198.310622
 30
0.0
  0
VERTEX
  5
957
  8
LAYER01
  6
CONTINUOUS
 62
     7
 10
3150.4115109999998
 20
-191.56625399999999
 30
0.0
  0
VERTEX
  5
958
  8
LAYER01
  6
CONTINUOUS
 62
     7
 10
3141.7401810000001
 20
-186.74884800000001
 30
0.0
  0
VERTEX
  5
959
  8
LAYER01
  6
CONTINUOUS
 62
     7
 10
3133.0688519999999
 20
-181.931443
 30
0.0
  0
VERTEX
  5
95A
  8
LAYER01
  6
CONTINUOUS
 62
     7
 10
3123.434041
 20
-178.077519
 30
0.0
  0
VERTEX
  5
95B
  8
LAYER01
  6
CONTINUOUS
 62
     7
 10
3113.7992300000001
 20
-175.18707499999999
 30
0.0
  0
VERTEX
  5
95C
  8
LAYER01
  6
CONTINUOUS
 62
     7
 10
3103.200938
 20
-173.26011299999999
 30
0.0
  0
VERTEX
  5
95D
  8
LAYER01
  6
CONTINUOUS
 62
     7
 10
3092.6026459999998
 20
-172.29663199999999
 30
0.0
  0
VERTEX
  5
95E
  8
LAYER01
  6
CONTINUOUS
 62
     7
 10
3092.6026459999998
 20
-172.29663199999999
 30
0.0
  0
SEQEND
  5
95F
  8
LAYER01
  6
CONTINUOUS
 62
     7
  0
POLYLINE
  5
300
  8
LAYER01
  6
CONTINUOUS
 62
     7
 66
     1
 10
0.0
 20
0.0
 30
0.0
 70
     1
  0
VERTEX
  5
960
  8
LAYER01
  6
CONTINUOUS
 62
     7
 10
3089.712203
 20
-350.54063300000001
 30
0.0
  0
VERTEX
  5
961
  8
LAYER01
  6
CONTINUOUS
 62
     7
 10
3089.712203
 20
-350.54063300000001
 30
0.0
  0
VERTEX
  5
962
  8
LAYER01
  6
CONTINUOUS
 62
     7
 10
3082.9678349999999
 20
-349.57715200000001
 30
0.0
  0
VERTEX
  5
963
  8
LAYER01
  6
CONTINUOUS
 62
     7
 10
3076.2234669999998
 20
-348.61367100000001
 30
0.0
  0
VERTEX
  5
964
  8
LAYER01
  6
CONTINUOUS
 62
     7
 10
3069.4791000000009
 20
-347.65019000000001
 30
0.0
  0
VERTEX
  5
965
  8
LAYER01
  6
CONTINUOUS
 62
     7
 10
3062.7347319999999
 20
-344.759747
 30
0.0
  0
VERTEX
  5
966
  8
LAYER01
  6
CONTINUOUS
 62
     7
 10
3056.9538459999999
 20
-341.869304
 30
0.0
  0
VERTEX
  5
967
  8
LAYER01
  6
CONTINUOUS
 62
     7
 10
3051.172959
 20
-338.015379
 30
0.0
  0
VERTEX
  5
968
  8
LAYER01
  6
CONTINUOUS
 62
     7
 10
3046.3555540000002
 20
-334.16145499999999
 30
0.0
  0
VERTEX
  5
969
  8
LAYER01
  6
CONTINUOUS
 62
     7
 10
3041.5381480000001
 20
-329.34404999999998
 30
0.0
  0
VERTEX
  5
96A
  8
LAYER01
  6
CONTINUOUS
 62
     7
 10
3036.7207429999999
 20
-324.52664399999998
 30
0.0
  0
VERTEX
  5
96B
  8
LAYER01
  6
CONTINUOUS
 62
     7
 10
3032.866818
 20
-319.70923900000003
 30
0.0
  0
VERTEX
  5
96C
  8
LAYER01
  6
CONTINUOUS
 62
     7
 10
3029.9763750000002
 20
-313.92835200000002
 30
0.0
  0
VERTEX
  5
96D
  8
LAYER01
  6
CONTINUOUS
 62
     7
 10
3027.085932
 20
-307.18398400000001
 30
0.0
  0
VERTEX
  5
96E
  8
LAYER01
  6
CONTINUOUS
 62
     7
 10
3024.1954890000002
 20
-301.403098
 30
0.0
  0
VERTEX
  5
96F
  8
LAYER01
  6
CONTINUOUS
 62
     7
 10
3023.232008
 20
-294.65872999999999
 30
0.0
  0
VERTEX
  5
970
  8
LAYER01
  6
CONTINUOUS
 62
     7
 10
3021.3050450000001
 20
-287.91436299999998
 30
0.0
  0
VERTEX
  5
971
  8
LAYER01
  6
CONTINUOUS
 62
     7
 10
3021.3050450000001
 20
-280.20651400000003
 30
0.0
  0
VERTEX
  5
972
  8
LAYER01
  6
CONTINUOUS
 62
     7
 10
3021.3050450000001
 20
-280.20651400000003
 30
0.0
  0
VERTEX
  5
973
  8
LAYER01
  6
CONTINUOUS
 62
     7
 10
3022.2685270000002
 20
-273.46214600000002
 30
0.0
  0
VERTEX
  5
974
  8
LAYER01
  6
CONTINUOUS
 62
     7
 10
3023.232008
 20
-266.71777900000001
 30
0.0
  0
VERTEX
  5
975
  8
LAYER01
  6
CONTINUOUS
 62
     7
 10
3025.15897
 20
-259.973411
 30
0.0
  0
VERTEX
  5
976
  8
LAYER01
  6
CONTINUOUS
 62
     7
 10
3027.085932
 20
-253.22904399999999
 30
0.0
  0
VERTEX
  5
977
  8
LAYER01
  6
CONTINUOUS
 62
     7
 10
3029.9763750000002
 20
-247.44815700000001
 30
0.0
  0
VERTEX
  5
978
  8
LAYER01
  6
CONTINUOUS
 62
     7
 10
3033.8303000000001
 20
-241.66727
 30
0.0
  0
VERTEX
  5
979
  8
LAYER01
  6
CONTINUOUS
 62
     7
 10
3037.6842240000001
 20
-236.84986499999999
 30
0.0
  0
VERTEX
  5
97A
  8
LAYER01
  6
CONTINUOUS
 62
     7
 10
3042.5016289999999
 20
-232.03245999999999
 30
0.0
  0
VERTEX
  5
97B
  8
LAYER01
  6
CONTINUOUS
 62
     7
 10
3047.319035
 20
-227.21505400000001
 30
0.0
  0
VERTEX
  5
97C
  8
LAYER01
  6
CONTINUOUS
 62
     7
 10
3052.1364400000002
 20
-223.36113
 30
0.0
  0
VERTEX
  5
97D
  8
LAYER01
  6
CONTINUOUS
 62
     7
 10
3057.9173270000001
 20
-219.507205
 30
0.0
  0
VERTEX
  5
97E
  8
LAYER01
  6
CONTINUOUS
 62
     7
 10
3064.6616940000008
 20
-216.61676199999999
 30
0.0
  0
VERTEX
  5
97F
  8
LAYER01
  6
CONTINUOUS
 62
     7
 10
3070.4425809999998
 20
-214.68979999999999
 30
0.0
  0
VERTEX
  5
980
  8
LAYER01
  6
CONTINUOUS
 62
     7
 10
3077.1869489999999
 20
-212.76283799999999
 30
0.0
  0
VERTEX
  5
981
  8
LAYER01
  6
CONTINUOUS
 62
     7
 10
3083.9313160000011
 20
-211.79935699999999
 30
0.0
  0
VERTEX
  5
982
  8
LAYER01
  6
CONTINUOUS
 62
     7
 10
3091.639165
 20
-211.79935699999999
 30
0.0
  0
VERTEX
  5
983
  8
LAYER01
  6
CONTINUOUS
 62
     7
 10
3091.639165
 20
-211.79935699999999
 30
0.0
  0
VERTEX
  5
984
  8
LAYER01
  6
CONTINUOUS
 62
     7
 10
3098.3835319999998
 20
-212.76283799999999
 30
0.0
  0
VERTEX
  5
985
  8
LAYER01
  6
CONTINUOUS
 62
     7
 10
3105.1279
 20
-213.72631899999999
 30
0.0
  0
VERTEX
  5
986
  8
LAYER01
  6
CONTINUOUS
 62
     7
 10
3110.9087869999998
 20
-215.65328099999999
 30
0.0
  0
VERTEX
  5
987
  8
LAYER01
  6
CONTINUOUS
 62
     7
 10
3117.6531540000001
 20
-217.580243
 30
0.0
  0
VERTEX
  5
988
  8
LAYER01
  6
CONTINUOUS
 62
     7
 10
3122.4705600000002
 20
-220.470687
 30
0.0
  0
VERTEX
  5
989
  8
LAYER01
  6
CONTINUOUS
 62
     7
 10
3128.2514460000002
 20
-224.324611
 30
0.0
  0
VERTEX
  5
98A
  8
LAYER01
  6
CONTINUOUS
 62
     7
 10
3133.0688519999999
 20
-228.17853500000001
 30
0.0
  0
VERTEX
  5
98B
  8
LAYER01
  6
CONTINUOUS
 62
     7
 10
3137.8862570000001
 20
-232.03245999999999
 30
0.0
  0
VERTEX
  5
98C
  8
LAYER01
  6
CONTINUOUS
 62
     7
 10
3141.7401810000001
 20
-236.84986499999999
 30
0.0
  0
VERTEX
  5
98D
  8
LAYER01
  6
CONTINUOUS
 62
     7
 10
3145.594106
 20
-242.630752
 30
0.0
  0
VERTEX
  5
98E
  8
LAYER01
  6
CONTINUOUS
 62
     7
 10
3149.44803
 20
-247.44815700000001
 30
0.0
  0
VERTEX
  5
98F
  8
LAYER01
  6
CONTINUOUS
 62
     7
 10
3152.3384729999998
 20
-253.22904399999999
 30
0.0
  0
VERTEX
  5
990
  8
LAYER01
  6
CONTINUOUS
 62
     7
 10
3154.265436000001
 20
-259.973411
 30
0.0
  0
VERTEX
  5
991
  8
LAYER01
  6
CONTINUOUS
 62
     7
 10
3156.1923980000001
 20
-265.75429800000001
 30
0.0
  0
VERTEX
  5
992
  8
LAYER01
  6
CONTINUOUS
 62
     7
 10
3157.1558789999999
 20
-272.49866500000002
 30
0.0
  0
VERTEX
  5
993
  8
LAYER01
  6
CONTINUOUS
 62
     7
 10
3157.1558789999999
 20
-279.24303300000003
 30
0.0
  0
VERTEX
  5
994
  8
LAYER01
  6
CONTINUOUS
 62
     7
 10
3157.1558789999999
 20
-279.24303300000003
 30
0.0
  0
VERTEX
  5
995
  8
LAYER01
  6
CONTINUOUS
 62
     7
 10
3157.1558789999999
 20
-286.95088199999998
 30
0.0
  0
VERTEX
  5
996
  8
LAYER01
  6
CONTINUOUS
 62
     7
 10
3156.1923980000001
 20
-293.69524899999999
 30
0.0
  0
VERTEX
  5
997
  8
LAYER01
  6
CONTINUOUS
 62
     7
 10
3155.2289169999999
 20
-300.439617
 30
0.0
  0
VERTEX
  5
998
  8
LAYER01
  6
CONTINUOUS
 62
     7
 10
3152.3384729999998
 20
-306.22050300000001
 30
0.0
  0
VERTEX
  5
999
  8
LAYER01
  6
CONTINUOUS
 62
     7
 10
3150.4115109999998
 20
-312.96487100000002
 30
0.0
  0
VERTEX
  5
99A
  8
LAYER01
  6
CONTINUOUS
 62
     7
 10
3146.5575869999998
 20
-318.74575800000002
 30
0.0
  0
VERTEX
  5
99B
  8
LAYER01
  6
CONTINUOUS
 62
     7
 10
3142.7036629999998
 20
-324.52664399999998
 30
0.0
  0
VERTEX
  5
99C
  8
LAYER01
  6
CONTINUOUS
 62
     7
 10
3137.8862570000001
 20
-329.34404999999998
 30
0.0
  0
VERTEX
  5
99D
  8
LAYER01
  6
CONTINUOUS
 62
     7
 10
3133.0688519999999
 20
-334.16145499999999
 30
0.0
  0
VERTEX
  5
99E
  8
LAYER01
  6
CONTINUOUS
 62
     7
 10
3128.2514460000002
 20
-338.015379
 30
0.0
  0
VERTEX
  5
99F
  8
LAYER01
  6
CONTINUOUS
 62
     7
 10
3122.4705600000002
 20
-341.869304
 30
0.0
  0
VERTEX
  5
9A0
  8
LAYER01
  6
CONTINUOUS
 62
     7
 10
3116.6896729999999
 20
-344.759747
 30
0.0
  0
VERTEX
  5
9A1
  8
LAYER01
  6
CONTINUOUS
 62
     7
 10
3109.9453060000001
 20
-346.68670900000001
 30
0.0
  0
VERTEX
  5
9A2
  8
LAYER01
  6
CONTINUOUS
 62
     7
 10
3103.200938
 20
-348.61367100000001
 30
0.0
  0
VERTEX
  5
9A3
  8
LAYER01
  6
CONTINUOUS
 62
     7
 10
3096.4565699999998
 20
-349.57715200000001
 30
0.0
  0
VERTEX
  5
9A4
  8
LAYER01
  6
CONTINUOUS
 62
     7
 10
3089.712203
 20
-350.54063300000001
 30
0.0
  0
VERTEX
  5
9A5
  8
LAYER01
  6
CONTINUOUS
 62
     7
 10
3089.712203
 20
-350.54063300000001
 30
0.0
  0
SEQEND
  5
9A6
  8
LAYER01
  6
CONTINUOUS
 62
     7
  0
POLYLINE
  5
348
  8
LAYER01
  6
CONTINUOUS
 62
     7
 66
     1
 10
0.0
 20
0.0
 30
0.0
 70
     1
  0
VERTEX
  5
9A7
  8
LAYER01
  6
CONTINUOUS
 62
     7
 10
3166.7906899999998
 20
-177.11403799999999
 30
0.0
  0
VERTEX
  5
9A8
  8
LAYER01
  6
CONTINUOUS
 62
     7
 10
3268.9196849999998
 20
-177.11403799999999
 30
0.0
  0
VERTEX
  5
9A9
  8
LAYER01
  6
CONTINUOUS
 62
     7
 10
3268.9196849999998
 20
-177.11403799999999
 30
0.0
  0
VERTEX
  5
9AA
  8
LAYER01
  6
CONTINUOUS
 62
     7
 10
3280.4814580000002
 20
-179.041
 30
0.0
  0
VERTEX
  5
9AB
  8
LAYER01
  6
CONTINUOUS
 62
     7
 10
3291.0797499999999
 20
-183.858405
 30
0.0
  0
VERTEX
  5
9AC
  8
LAYER01
  6
CONTINUOUS
 62
     7
 10
3299.75108
 20
-189.63929200000001
 30
0.0
  0
VERTEX
  5
9AD
  8
LAYER01
  6
CONTINUOUS
 62
     7
 10
3307.4589289999999
 20
-197.34714
 30
0.0
  0
VERTEX
  5
9AE
  8
LAYER01
  6
CONTINUOUS
 62
     7
 10
3314.2032960000001
 20
-205.05498900000001
 30
0.0
  0
VERTEX
  5
9AF
  8
LAYER01
  6
CONTINUOUS
 62
     7
 10
3319.0207019999989
 20
-214.68979999999999
 30
0.0
  0
VERTEX
  5
9B0
  8
LAYER01
  6
CONTINUOUS
 62
     7
 10
3321.911145
 20
-226.25157300000001
 30
0.0
  0
VERTEX
  5
9B1
  8
LAYER01
  6
CONTINUOUS
 62
     7
 10
3322.8746259999998
 20
-236.84986499999999
 30
0.0
  0
VERTEX
  5
9B2
  8
LAYER01
  6
CONTINUOUS
 62
     7
 10
3322.8746259999998
 20
-236.84986499999999
 30
0.0
  0
VERTEX
  5
9B3
  8
LAYER01
  6
CONTINUOUS
 62
     7
 10
3321.911145
 20
-248.41163800000001
 30
0.0
  0
VERTEX
  5
9B4
  8
LAYER01
  6
CONTINUOUS
 62
     7
 10
3319.9841830000009
 20
-258.046449
 30
0.0
  0
VERTEX
  5
9B5
  8
LAYER01
  6
CONTINUOUS
 62
     7
 10
3316.1302580000001
 20
-267.68126000000001
 30
0.0
  0
VERTEX
  5
9B6
  8
LAYER01
  6
CONTINUOUS
 62
     7
 10
3311.3128529999999
 20
-276.35259000000002
 30
0.0
  0
VERTEX
  5
9B7
  8
LAYER01
  6
CONTINUOUS
 62
     7
 10
3304.5684849999998
 20
-284.06043799999998
 30
0.0
  0
VERTEX
  5
9B8
  8
LAYER01
  6
CONTINUOUS
 62
     7
 10
3297.824118
 20
-289.84132499999998
 30
0.0
  0
VERTEX
  5
9B9
  8
LAYER01
  6
CONTINUOUS
 62
     7
 10
3288.189307000001
 20
-295.62221099999999
 30
0.0
  0
VERTEX
  5
9BA
  8
LAYER01
  6
CONTINUOUS
 62
     7
 10
3278.5544960000002
 20
-299.476136
 30
0.0
  0
VERTEX
  5
9BB
  8
LAYER01
  6
CONTINUOUS
 62
     7
 10
3341.1807669999998
 20
-383.29899
 30
0.0
  0
VERTEX
  5
9BC
  8
LAYER01
  6
CONTINUOUS
 62
     7
 10
3293.0067119999999
 20
-383.29899
 30
0.0
  0
VERTEX
  5
9BD
  8
LAYER01
  6
CONTINUOUS
 62
     7
 10
3209.1838579999999
 20
-276.35259000000002
 30
0.0
  0
VERTEX
  5
9BE
  8
LAYER01
  6
CONTINUOUS
 62
     7
 10
3256.3944310000002
 20
-276.35259000000002
 30
0.0
  0
VERTEX
  5
9BF
  8
LAYER01
  6
CONTINUOUS
 62
     7
 10
3256.3944310000002
 20
-276.35259000000002
 30
0.0
  0
VERTEX
  5
9C0
  8
LAYER01
  6
CONTINUOUS
 62
     7
 10
3262.1753170000002
 20
-274.42562700000002
 30
0.0
  0
VERTEX
  5
9C1
  8
LAYER01
  6
CONTINUOUS
 62
     7
 10
3266.9927229999998
 20
-272.49866500000002
 30
0.0
  0
VERTEX
  5
9C2
  8
LAYER01
  6
CONTINUOUS
 62
     7
 10
3270.8466469999998
 20
-268.64474100000001
 30
0.0
  0
VERTEX
  5
9C3
  8
LAYER01
  6
CONTINUOUS
 62
     7
 10
3274.7005720000002
 20
-264.790817
 30
0.0
  0
VERTEX
  5
9C4
  8
LAYER01
  6
CONTINUOUS
 62
     7
 10
3277.591015
 20
-259.973411
 30
0.0
  0
VERTEX
  5
9C5
  8
LAYER01
  6
CONTINUOUS
 62
     7
 10
3280.4814580000002
 20
-255.15600599999999
 30
0.0
  0
VERTEX
  5
9C6
  8
LAYER01
  6
CONTINUOUS
 62
     7
 10
3281.444939
 20
-249.37511900000001
 30
0.0
  0
VERTEX
  5
9C7
  8
LAYER01
  6
CONTINUOUS
 62
     7
 10
3281.444939
 20
-243.594233
 30
0.0
  0
VERTEX
  5
9C8
  8
LAYER01
  6
CONTINUOUS
 62
     7
 10
3281.444939
 20
-243.594233
 30
0.0
  0
VERTEX
  5
9C9
  8
LAYER01
  6
CONTINUOUS
 62
     7
 10
3281.444939
 20
-237.813346
 30
0.0
  0
VERTEX
  5
9CA
  8
LAYER01
  6
CONTINUOUS
 62
     7
 10
3279.517977
 20
-232.99594099999999
 30
0.0
  0
VERTEX
  5
9CB
  8
LAYER01
  6
CONTINUOUS
 62
     7
 10
3277.591015
 20
-228.17853500000001
 30
0.0
  0
VERTEX
  5
9CC
  8
LAYER01
  6
CONTINUOUS
 62
     7
 10
3274.7005720000002
 20
-223.36113
 30
0.0
  0
VERTEX
  5
9CD
  8
LAYER01
  6
CONTINUOUS
 62
     7
 10
3270.8466469999998
 20
-219.507205
 30
0.0
  0
VERTEX
  5
9CE
  8
LAYER01
  6
CONTINUOUS
 62
     7
 10
3266.9927229999998
 20
-216.61676199999999
 30
0.0
  0
VERTEX
  5
9CF
  8
LAYER01
  6
CONTINUOUS
 62
     7
 10
3261.2118359999999
 20
-213.72631899999999
 30
0.0
  0
VERTEX
  5
9D0
  8
LAYER01
  6
CONTINUOUS
 62
     7
 10
3256.3944310000002
 20
-211.79935699999999
 30
0.0
  0
VERTEX
  5
9D1
  8
LAYER01
  6
CONTINUOUS
 62
     7
 10
3201.476009
 20
-211.79935699999999
 30
0.0
  0
VERTEX
  5
9D2
  8
LAYER01
  6
CONTINUOUS
 62
     7
 10
3166.7906899999998
 20
-177.11403799999999
 30
0.0
  0
VERTEX
  5
9D3
  8
LAYER01
  6
CONTINUOUS
 62
     7
 10
3166.7906899999998
 20
-177.11403799999999
 30
0.0
  0
SEQEND
  5
9D4
  8
LAYER01
  6
CONTINUOUS
 62
     7
  0
POLYLINE
  5
377
  8
LAYER01
  6
CONTINUOUS
 62
     7
 66
     1
 10
0.0
 20
0.0
 30
0.0
 70
     1
  0
VERTEX
  5
9D5
  8
LAYER01
  6
CONTINUOUS
 62
     7
 10
3367.1947560000008
 20
-228.17853500000001
 30
0.0
  0
VERTEX
  5
9D6
  8
LAYER01
  6
CONTINUOUS
 62
     7
 10
3367.1947560000008
 20
-228.17853500000001
 30
0.0
  0
VERTEX
  5
9D7
  8
LAYER01
  6
CONTINUOUS
 62
     7
 10
3372.0121610000001
 20
-227.21505400000001
 30
0.0
  0
VERTEX
  5
9D8
  8
LAYER01
  6
CONTINUOUS
 62
     7
 10
3376.8295670000002
 20
-226.25157300000001
 30
0.0
  0
VERTEX
  5
9D9
  8
LAYER01
  6
CONTINUOUS
 62
     7
 10
3381.646972
 20
-223.36113
 30
0.0
  0
VERTEX
  5
9DA
  8
LAYER01
  6
CONTINUOUS
 62
     7
 10
3385.5008969999999
 20
-220.470687
 30
0.0
  0
VERTEX
  5
9DB
  8
LAYER01
  6
CONTINUOUS
 62
     7
 10
3388.3913400000001
 20
-216.61676199999999
 30
0.0
  0
VERTEX
  5
9DC
  8
LAYER01
  6
CONTINUOUS
 62
     7
 10
3390.3183020000001
 20
-212.76283799999999
 30
0.0
  0
VERTEX
  5
9DD
  8
LAYER01
  6
CONTINUOUS
 62
     7
 10
3392.2452640000001
 20
-207.94543200000001
 30
0.0
  0
VERTEX
  5
9DE
  8
LAYER01
  6
CONTINUOUS
 62
     7
 10
3392.2452640000001
 20
-202.164546
 30
0.0
  0
VERTEX
  5
9DF
  8
LAYER01
  6
CONTINUOUS
 62
     7
 10
3392.2452640000001
 20
-202.164546
 30
0.0
  0
VERTEX
  5
9E0
  8
LAYER01
  6
CONTINUOUS
 62
     7
 10
3392.2452640000001
 20
-197.34714
 30
0.0
  0
VERTEX
  5
9E1
  8
LAYER01
  6
CONTINUOUS
 62
     7
 10
3390.3183020000001
 20
-192.52973499999999
 30
0.0
  0
VERTEX
  5
9E2
  8
LAYER01
  6
CONTINUOUS
 62
     7
 10
3388.3913400000001
 20
-188.67581100000001
 30
0.0
  0
VERTEX
  5
9E3
  8
LAYER01
  6
CONTINUOUS
 62
     7
 10
3385.5008969999999
 20
-184.82188600000001
 30
0.0
  0
VERTEX
  5
9E4
  8
LAYER01
  6
CONTINUOUS
 62
     7
 10
3381.646972
 20
-181.931443
 30
0.0
  0
VERTEX
  5
9E5
  8
LAYER01
  6
CONTINUOUS
 62
     7
 10
3376.8295670000002
 20
-179.041
 30
0.0
  0
VERTEX
  5
9E6
  8
LAYER01
  6
CONTINUOUS
 62
     7
 10
3372.0121610000001
 20
-178.077519
 30
0.0
  0
VERTEX
  5
9E7
  8
LAYER01
  6
CONTINUOUS
 62
     7
 10
3367.1947560000008
 20
-177.11403799999999
 30
0.0
  0
VERTEX
  5
9E8
  8
LAYER01
  6
CONTINUOUS
 62
     7
 10
3367.1947560000008
 20
-177.11403799999999
 30
0.0
  0
VERTEX
  5
9E9
  8
LAYER01
  6
CONTINUOUS
 62
     7
 10
3362.3773510000001
 20
-178.077519
 30
0.0
  0
VERTEX
  5
9EA
  8
LAYER01
  6
CONTINUOUS
 62
     7
 10
3357.5599450000009
 20
-179.041
 30
0.0
  0
VERTEX
  5
9EB
  8
LAYER01
  6
CONTINUOUS
 62
     7
 10
3352.7425400000002
 20
-181.931443
 30
0.0
  0
VERTEX
  5
9EC
  8
LAYER01
  6
CONTINUOUS
 62
     7
 10
3348.8886149999998
 20
-184.82188600000001
 30
0.0
  0
VERTEX
  5
9ED
  8
LAYER01
  6
CONTINUOUS
 62
     7
 10
3345.9981720000001
 20
-188.67581100000001
 30
0.0
  0
VERTEX
  5
9EE
  8
LAYER01
  6
CONTINUOUS
 62
     7
 10
3344.0712100000001
 20
-192.52973499999999
 30
0.0
  0
VERTEX
  5
9EF
  8
LAYER01
  6
CONTINUOUS
 62
     7
 10
3342.1442480000001
 20
-197.34714
 30
0.0
  0
VERTEX
  5
9F0
  8
LAYER01
  6
CONTINUOUS
 62
     7
 10
3342.1442480000001
 20
-202.164546
 30
0.0
  0
VERTEX
  5
9F1
  8
LAYER01
  6
CONTINUOUS
 62
     7
 10
3342.1442480000001
 20
-202.164546
 30
0.0
  0
VERTEX
  5
9F2
  8
LAYER01
  6
CONTINUOUS
 62
     7
 10
3342.1442480000001
 20
-207.94543200000001
 30
0.0
  0
VERTEX
  5
9F3
  8
LAYER01
  6
CONTINUOUS
 62
     7
 10
3344.0712100000001
 20
-212.76283799999999
 30
0.0
  0
VERTEX
  5
9F4
  8
LAYER01
  6
CONTINUOUS
 62
     7
 10
3345.9981720000001
 20
-216.61676199999999
 30
0.0
  0
VERTEX
  5
9F5
  8
LAYER01
  6
CONTINUOUS
 62
     7
 10
3348.8886149999998
 20
-220.470687
 30
0.0
  0
VERTEX
  5
9F6
  8
LAYER01
  6
CONTINUOUS
 62
     7
 10
3352.7425400000002
 20
-223.36113
 30
0.0
  0
VERTEX
  5
9F7
  8
LAYER01
  6
CONTINUOUS
 62
     7
 10
3357.5599450000009
 20
-226.25157300000001
 30
0.0
  0
VERTEX
  5
9F8
  8
LAYER01
  6
CONTINUOUS
 62
     7
 10
3362.3773510000001
 20
-227.21505400000001
 30
0.0
  0
VERTEX
  5
9F9
  8
LAYER01
  6
CONTINUOUS
 62
     7
 10
3367.1947560000008
 20
-228.17853500000001
 30
0.0
  0
VERTEX
  5
9FA
  8
LAYER01
  6
CONTINUOUS
 62
     7
 10
3367.1947560000008
 20
-228.17853500000001
 30
0.0
  0
SEQEND
  5
9FB
  8
LAYER01
  6
CONTINUOUS
 62
     7
  0
POLYLINE
  5
39F
  8
LAYER01
  6
CONTINUOUS
 62
     7
 66
     1
 10
0.0
 20
0.0
 30
0.0
 70
     1
  0
VERTEX
  5
9FC
  8
LAYER01
  6
CONTINUOUS
 62
     7
 10
3367.1947560000008
 20
-180.967962
 30
0.0
  0
VERTEX
  5
9FD
  8
LAYER01
  6
CONTINUOUS
 62
     7
 10
3367.1947560000008
 20
-180.967962
 30
0.0
  0
VERTEX
  5
9FE
  8
LAYER01
  6
CONTINUOUS
 62
     7
 10
3371.0486799999999
 20
-181.931443
 30
0.0
  0
VERTEX
  5
9FF
  8
LAYER01
  6
CONTINUOUS
 62
     7
 10
3374.9026050000002
 20
-182.894924
 30
0.0
  0
VERTEX
  5
A00
  8
LAYER01
  6
CONTINUOUS
 62
     7
 10
3378.7565289999998
 20
-184.82188600000001
 30
0.0
  0
VERTEX
  5
A01
  8
LAYER01
  6
CONTINUOUS
 62
     7
 10
3381.646972
 20
-187.71233000000001
 30
0.0
  0
VERTEX
  5
A02
  8
LAYER01
  6
CONTINUOUS
 62
     7
 10
3384.5374160000001
 20
-190.60277300000001
 30
0.0
  0
VERTEX
  5
A03
  8
LAYER01
  6
CONTINUOUS
 62
     7
 10
3386.4643780000001
 20
-194.45669699999999
 30
0.0
  0
VERTEX
  5
A04
  8
LAYER01
  6
CONTINUOUS
 62
     7
 10
3388.3913400000001
 20
-198.310622
 30
0.0
  0
VERTEX
  5
A05
  8
LAYER01
  6
CONTINUOUS
 62
     7
 10
3388.3913400000001
 20
-202.164546
 30
0.0
  0
VERTEX
  5
A06
  8
LAYER01
  6
CONTINUOUS
 62
     7
 10
3388.3913400000001
 20
-202.164546
 30
0.0
  0
VERTEX
  5
A07
  8
LAYER01
  6
CONTINUOUS
 62
     7
 10
3388.3913400000001
 20
-206.98195100000001
 30
0.0
  0
VERTEX
  5
A08
  8
LAYER01
  6
CONTINUOUS
 62
     7
 10
3386.4643780000001
 20
-210.83587600000001
 30
0.0
  0
VERTEX
  5
A09
  8
LAYER01
  6
CONTINUOUS
 62
     7
 10
3384.5374160000001
 20
-214.68979999999999
 30
0.0
  0
VERTEX
  5
A0A
  8
LAYER01
  6
CONTINUOUS
 62
     7
 10
3381.646972
 20
-217.580243
 30
0.0
  0
VERTEX
  5
A0B
  8
LAYER01
  6
CONTINUOUS
 62
     7
 10
3378.7565289999998
 20
-220.470687
 30
0.0
  0
VERTEX
  5
A0C
  8
LAYER01
  6
CONTINUOUS
 62
     7
 10
3374.9026050000002
 20
-222.397649
 30
0.0
  0
VERTEX
  5
A0D
  8
LAYER01
  6
CONTINUOUS
 62
     7
 10
3371.0486799999999
 20
-223.36113
 30
0.0
  0
VERTEX
  5
A0E
  8
LAYER01
  6
CONTINUOUS
 62
     7
 10
3367.1947560000008
 20
-223.36113
 30
0.0
  0
VERTEX
  5
A0F
  8
LAYER01
  6
CONTINUOUS
 62
     7
 10
3367.1947560000008
 20
-223.36113
 30
0.0
  0
VERTEX
  5
A10
  8
LAYER01
  6
CONTINUOUS
 62
     7
 10
3363.3408319999999
 20
-223.36113
 30
0.0
  0
VERTEX
  5
A11
  8
LAYER01
  6
CONTINUOUS
 62
     7
 10
3358.5234260000002
 20
-222.397649
 30
0.0
  0
VERTEX
  5
A12
  8
LAYER01
  6
CONTINUOUS
 62
     7
 10
3355.632983
 20
-220.470687
 30
0.0
  0
VERTEX
  5
A13
  8
LAYER01
  6
CONTINUOUS
 62
     7
 10
3351.779059
 20
-217.580243
 30
0.0
  0
VERTEX
  5
A14
  8
LAYER01
  6
CONTINUOUS
 62
     7
 10
3349.8520960000001
 20
-214.68979999999999
 30
0.0
  0
VERTEX
  5
A15
  8
LAYER01
  6
CONTINUOUS
 62
     7
 10
3347.9251340000001
 20
-210.83587600000001
 30
0.0
  0
VERTEX
  5
A16
  8
LAYER01
  6
CONTINUOUS
 62
     7
 10
3345.9981720000001
 20
-206.98195100000001
 30
0.0
  0
VERTEX
  5
A17
  8
LAYER01
  6
CONTINUOUS
 62
     7
 10
3345.9981720000001
 20
-202.164546
 30
0.0
  0
VERTEX
  5
A18
  8
LAYER01
  6
CONTINUOUS
 62
     7
 10
3345.9981720000001
 20
-202.164546
 30
0.0
  0
VERTEX
  5
A19
  8
LAYER01
  6
CONTINUOUS
 62
     7
 10
3345.9981720000001
 20
-198.310622
 30
0.0
  0
VERTEX
  5
A1A
  8
LAYER01
  6
CONTINUOUS
 62
     7
 10
3347.9251340000001
 20
-194.45669699999999
 30
0.0
  0
VERTEX
  5
A1B
  8
LAYER01
  6
CONTINUOUS
 62
     7
 10
3349.8520960000001
 20
-190.60277300000001
 30
0.0
  0
VERTEX
  5
A1C
  8
LAYER01
  6
CONTINUOUS
 62
     7
 10
3351.779059
 20
-187.71233000000001
 30
0.0
  0
VERTEX
  5
A1D
  8
LAYER01
  6
CONTINUOUS
 62
     7
 10
3355.632983
 20
-184.82188600000001
 30
0.0
  0
VERTEX
  5
A1E
  8
LAYER01
  6
CONTINUOUS
 62
     7
 10
3358.5234260000002
 20
-182.894924
 30
0.0
  0
VERTEX
  5
A1F
  8
LAYER01
  6
CONTINUOUS
 62
     7
 10
3363.3408319999999
 20
-181.931443
 30
0.0
  0
VERTEX
  5
A20
  8
LAYER01
  6
CONTINUOUS
 62
     7
 10
3367.1947560000008
 20
-180.967962
 30
0.0
  0
VERTEX
  5
A21
  8
LAYER01
  6
CONTINUOUS
 62
     7
 10
3367.1947560000008
 20
-180.967962
 30
0.0
  0
SEQEND
  5
A22
  8
LAYER01
  6
CONTINUOUS
 62
     7
  0
POLYLINE
  5
3C7
  8
LAYER01
  6
CONTINUOUS
 62
     7
 66
     1
 10
0.0
 20
0.0
 30
0.0
 70
     1
  0
VERTEX
  5
A23
  8
LAYER01
  6
CONTINUOUS
 62
     7
 10
3371.0486799999999
 20
-204.091508
 30
0.0
  0
VERTEX
  5
A24
  8
LAYER01
  6
CONTINUOUS
 62
     7
 10
3371.0486799999999
 20
-204.091508
 30
0.0
  0
VERTEX
  5
A25
  8
LAYER01
  6
CONTINUOUS
 62
     7
 10
3373.939124
 20
-203.128027
 30
0.0
  0
VERTEX
  5
A26
  8
LAYER01
  6
CONTINUOUS
 62
     7
 10
3376.8295670000002
 20
-202.164546
 30
0.0
  0
VERTEX
  5
A27
  8
LAYER01
  6
CONTINUOUS
 62
     7
 10
3378.7565289999998
 20
-199.274103
 30
0.0
  0
VERTEX
  5
A28
  8
LAYER01
  6
CONTINUOUS
 62
     7
 10
3378.7565289999998
 20
-196.38365899999999
 30
0.0
  0
VERTEX
  5
A29
  8
LAYER01
  6
CONTINUOUS
 62
     7
 10
3378.7565289999998
 20
-196.38365899999999
 30
0.0
  0
VERTEX
  5
A2A
  8
LAYER01
  6
CONTINUOUS
 62
     7
 10
3378.7565289999998
 20
-192.52973499999999
 30
0.0
  0
VERTEX
  5
A2B
  8
LAYER01
  6
CONTINUOUS
 62
     7
 10
3375.866086
 20
-189.63929200000001
 30
0.0
  0
VERTEX
  5
A2C
  8
LAYER01
  6
CONTINUOUS
 62
     7
 10
3372.9756430000002
 20
-188.67581100000001
 30
0.0
  0
VERTEX
  5
A2D
  8
LAYER01
  6
CONTINUOUS
 62
     7
 10
3369.1217180000008
 20
-188.67581100000001
 30
0.0
  0
VERTEX
  5
A2E
  8
LAYER01
  6
CONTINUOUS
 62
     7
 10
3357.5599450000009
 20
-188.67581100000001
 30
0.0
  0
VERTEX
  5
A2F
  8
LAYER01
  6
CONTINUOUS
 62
     7
 10
3357.5599450000009
 20
-216.61676199999999
 30
0.0
  0
VERTEX
  5
A30
  8
LAYER01
  6
CONTINUOUS
 62
     7
 10
3361.4138700000012
 20
-216.61676199999999
 30
0.0
  0
VERTEX
  5
A31
  8
LAYER01
  6
CONTINUOUS
 62
     7
 10
3361.4138700000012
 20
-204.091508
 30
0.0
  0
VERTEX
  5
A32
  8
LAYER01
  6
CONTINUOUS
 62
     7
 10
3367.1947560000008
 20
-204.091508
 30
0.0
  0
VERTEX
  5
A33
  8
LAYER01
  6
CONTINUOUS
 62
     7
 10
3373.939124
 20
-216.61676199999999
 30
0.0
  0
VERTEX
  5
A34
  8
LAYER01
  6
CONTINUOUS
 62
     7
 10
3378.7565289999998
 20
-216.61676199999999
 30
0.0
  0
VERTEX
  5
A35
  8
LAYER01
  6
CONTINUOUS
 62
     7
 10
3371.0486799999999
 20
-204.091508
 30
0.0
  0
VERTEX
  5
A36
  8
LAYER01
  6
CONTINUOUS
 62
     7
 10
3371.0486799999999
 20
-204.091508
 30
0.0
  0
SEQEND
  5
A37
  8
LAYER01
  6
CONTINUOUS
 62
     7
  0
POLYLINE
  5
3DD
  8
LAYER01
  6
CONTINUOUS
 62
     7
 66
     1
 10
0.0
 20
0.0
 30
0.0
 70
     1
  0
VERTEX
  5
A38
  8
LAYER01
  6
CONTINUOUS
 62
     7
 10
3368.1582369999992
 20
-192.52973499999999
 30
0.0
  0
VERTEX
  5
A39
  8
LAYER01
  6
CONTINUOUS
 62
     7
 10
3368.1582369999992
 20
-192.52973499999999
 30
0.0
  0
VERTEX
  5
A3A
  8
LAYER01
  6
CONTINUOUS
 62
     7
 10
3372.9756430000002
 20
-193.49321599999999
 30
0.0
  0
VERTEX
  5
A3B
  8
LAYER01
  6
CONTINUOUS
 62
     7
 10
3374.9026050000002
 20
-194.45669699999999
 30
0.0
  0
VERTEX
  5
A3C
  8
LAYER01
  6
CONTINUOUS
 62
     7
 10
3374.9026050000002
 20
-196.38365899999999
 30
0.0
  0
VERTEX
  5
A3D
  8
LAYER01
  6
CONTINUOUS
 62
     7
 10
3374.9026050000002
 20
-196.38365899999999
 30
0.0
  0
VERTEX
  5
A3E
  8
LAYER01
  6
CONTINUOUS
 62
     7
 10
3373.939124
 20
-198.310622
 30
0.0
  0
VERTEX
  5
A3F
  8
LAYER01
  6
CONTINUOUS
 62
     7
 10
3372.0121610000001
 20
-199.274103
 30
0.0
  0
VERTEX
  5
A40
  8
LAYER01
  6
CONTINUOUS
 62
     7
 10
3366.2312750000001
 20
-200.237584
 30
0.0
  0
VERTEX
  5
A41
  8
LAYER01
  6
CONTINUOUS
 62
     7
 10
3361.4138700000012
 20
-200.237584
 30
0.0
  0
VERTEX
  5
A42
  8
LAYER01
  6
CONTINUOUS
 62
     7
 10
3361.4138700000012
 20
-192.52973499999999
 30
0.0
  0
VERTEX
  5
A43
  8
LAYER01
  6
CONTINUOUS
 62
     7
 10
3368.1582369999992
 20
-192.52973499999999
 30
0.0
  0
VERTEX
  5
A44
  8
LAYER01
  6
CONTINUOUS
 62
     7
 10
3368.1582369999992
 20
-192.52973499999999
 30
0.0
  0
SEQEND
  5
A45
  8
LAYER01
  6
CONTINUOUS
 62
     7
  0
ENDBLK
  5
3EC
  8
0
  0
BLOCK
  8
0
  2
VP317010-G13
 70
     0
 10
0.0
 20
0.0
 30
0.0
  3
VP317010-G13
  1

  0
TEXT
  5
3EF
  8
LAYER01
  6
VERDECKT
 62
     1
 10
2376.7908929999999
 20
-683.31338899999992
 30
0.0
 40
10.0
  1
A. Sprenger GmbH
  7
SIMPLEX
  0
TEXT
  5
3F0
  8
LAYER01
  6
VERDECKT
 62
     1
 10
2376.7908929999999
 20
-700.45624699999985
 30
0.0
 40
10.0
  1
Berner Str. 10
  7
SIMPLEX
  0
TEXT
  5
3F1
  8
LAYER01
  6
VERDECKT
 62
     1
 10
2376.7908929999999
 20
-717.59910400000001
 30
0.0
 40
10.0
  1
60437 Frankfurt
  7
SIMPLEX
  0
TEXT
  5
3F2
  8
LAYER01
  6
VERDECKT
 62
     1
 10
2376.7908929999999
 20
-734.74196100000006
 30
0.0
 40
10.0
  1
Tel.: 069 - 507 27 41
  7
SIMPLEX
  0
TEXT
  5
3F3
  8
LAYER01
  6
VERDECKT
 62
     1
 10
2376.7908929999999
 20
-751.88481799999988
 30
0.0
 40
10.0
  1
Fax: 069 - 507 72 91
  7
SIMPLEX
  0
TEXT
  5
3F4
  8
LAYER01
  6
VERDECKT
 62
     1
 10
2376.7908929999999
 20
-769.02767500000004
 30
0.0
 40
10.0
  1
info@varicor.org
  7
SIMPLEX
  0
ENDBLK
  5
3F5
  8
0
  0
BLOCK
  8
0
  2
VP317010-G12
 70
     0
 10
0.0
 20
0.0
 30
0.0
  3
VP317010-G12
  1

  0
TEXT
  5
3F8
  8
LAYER01
  6
CONTINUOUS
 62
     1
 10
3427.609347999999
 20
-918.39357699999994
 30
0.0
 40
10.0
  1
Blatt
  7
SIMPLEX
  0
LINE
  5
3F9
  8
LAYER01
  6
CONTINUOUS
 62
     1
 10
2362.609348
 20
-848.39357699999982
 30
0.0
 11
2962.609348
 21
-848.39357699999982
 31
0.0
  0
LINE
  5
3FA
  8
LAYER01
  6
CONTINUOUS
 62
     1
 10
2362.609348
 20
-873.39357700000005
 30
0.0
 11
2962.609348
 21
-873.39357700000005
 31
0.0
  0
LINE
  5
3FB
  8
LAYER01
  6
CONTINUOUS
 62
     1
 10
2362.609348
 20
-898.39357700000005
 30
0.0
 11
3492.609348
 21
-898.39357700000005
 31
0.0
  0
LINE
  5
3FC
  8
LAYER01
  6
CONTINUOUS
 62
     1
 10
2362.609348
 20
-973.39357700000005
 30
0.0
 11
3492.609348
 21
-973.39357700000005
 31
0.0
  0
LINE
  5
3FD
  8
LAYER01
  6
CONTINUOUS
 62
     1
 10
2362.609348
 20
-773.39357699999994
 30
0.0
 11
3492.609348
 21
-773.39357699999994
 31
0.0
  0
POLYLINE
  5
3FE
  8
LAYER01
  6
CONTINUOUS
 62
     1
 66
     1
 10
0.0
 20
0.0
 30
0.0
 70
     1
  0
VERTEX
  5
A46
  8
LAYER01
  6
CONTINUOUS
 62
     1
 10
2362.609348
 20
-1003.3935770000001
 30
0.0
  0
VERTEX
  5
A47
  8
LAYER01
  6
CONTINUOUS
 62
     1
 10
2362.609348
 20
-668.39357699999994
 30
0.0
  0
VERTEX
  5
A48
  8
LAYER01
  6
CONTINUOUS
 62
     1
 10
3492.609348
 20
-668.39357699999994
 30
0.0
  0
VERTEX
  5
A49
  8
LAYER01
  6
CONTINUOUS
 62
     1
 10
3492.609348
 20
-1003.3935770000001
 30
0.0
  0
SEQEND
  5
A4A
  8
LAYER01
  6
CONTINUOUS
 62
     1
  0
LINE
  5
404
  8
LAYER01
  6
CONTINUOUS
 62
     1
 10
2362.609348
 20
-798.39357699999994
 30
0.0
 11
2962.609348
 21
-798.39357699999994
 31
0.0
  0
LINE
  5
405
  8
LAYER01
  6
CONTINUOUS
 62
     1
 10
2362.609348
 20
-823.39357699999982
 30
0.0
 11
2962.609348
 21
-823.39357699999982
 31
0.0
  0
LINE
  5
406
  8
LAYER01
  6
CONTINUOUS
 62
     1
 10
2687.609348
 20
-668.39357699999994
 30
0.0
 11
2687.609348
 21
-1003.3935770000001
 31
0.0
  0
INSERT
  5
407
  8
LAYER01
  2
VP317010-G13
 10
0.0
 20
0.0
 30
0.0
  0
LINE
  5
408
  8
LAYER01
  6
CONTINUOUS
 62
     1
 10
2362.609348
 20
-948.39357700000005
 30
0.0
 11
2687.609348
 21
-948.39357700000005
 31
0.0
  0
LINE
  5
409
  8
LAYER01
  6
CONTINUOUS
 62
     1
 10
2362.609348
 20
-923.39357700000005
 30
0.0
 11
2687.609348
 21
-923.39357700000005
 31
0.0
  0
LINE
  5
40A
  8
LAYER01
  6
CONTINUOUS
 62
     1
 10
2407.609348
 20
-773.39357699999994
 30
0.0
 11
2407.609348
 21
-1003.3935770000001
 31
0.0
  0
TEXT
  5
40B
  8
LAYER01
  6
CONTINUOUS
 62
     1
 10
2371.008613
 20
-993.39357699999994
 30
0.0
 40
9.5
  1
Zust
  7
SIMPLEX
  0
LINE
  5
40C
  8
LAYER01
  6
CONTINUOUS
 62
     1
 10
2565.393963
 20
-1003.3935770000001
 30
0.0
 11
2565.393963
 21
-773.39357699999994
 31
0.0
  0
LINE
  5
40D
  8
LAYER01
  6
CONTINUOUS
 62
     1
 10
2642.609348
 20
-773.39357699999994
 30
0.0
 11
2642.609348
 21
-1003.3935770000001
 31
0.0
  0
TEXT
  5
40E
  8
LAYER01
  6
CONTINUOUS
 62
     1
 10
2451.7378899999999
 20
-993.39357699999994
 30
0.0
 40
9.5
  1
Änderung
  7
SIMPLEX
  0
TEXT
  5
40F
  8
LAYER01
  6
CONTINUOUS
 62
     1
 10
2579.4634919999999
 20
-993.39357699999994
 30
0.0
 40
9.5
  1
Datum
  7
SIMPLEX
  0
TEXT
  5
410
  8
LAYER01
  6
CONTINUOUS
 62
     1
 10
2646.373251
 20
-993.39357699999994
 30
0.0
 40
9.5
  1
Name
  7
SIMPLEX
  0
LINE
  5
411
  8
LAYER01
  6
CONTINUOUS
 62
     1
 10
3492.609348
 20
-708.39357699999994
 30
0.0
 11
2962.609348
 21
-708.39357699999994
 31
0.0
  0
LINE
  5
412
  8
LAYER01
  6
CONTINUOUS
 62
     1
 10
2752.609348
 20
-873.39357700000005
 30
0.0
 11
2752.609348
 21
-773.39357699999994
 31
0.0
  0
TEXT
  5
413
  8
LAYER01
  6
CONTINUOUS
 62
     1
 10
2697.609348
 20
-818.39357699999994
 30
0.0
 40
10.0
  1
Bearb.
  7
SIMPLEX
  0
TEXT
  5
414
  8
LAYER01
  6
CONTINUOUS
 62
     1
 10
2697.609348
 20
-868.39357699999994
 30
0.0
 40
10.0
  1
Norm
  7
SIMPLEX
  0
TEXT
  5
415
  8
LAYER01
  6
CONTINUOUS
 62
     1
 10
2697.609348
 20
-843.39357699999994
 30
0.0
 40
10.0
  1
Gepr.
  7
SIMPLEX
  0
TEXT
  5
416
  8
LAYER01
  6
CONTINUOUS
 62
     1
 10
2777.609348
 20
-793.39357699999994
 30
0.0
 40
10.0
  1
Datum
  7
SIMPLEX
  0
TEXT
  5
417
  8
LAYER01
  6
CONTINUOUS
 62
     1
 10
2877.609348
 20
-793.39357699999994
 30
0.0
 40
10.0
  1
Name
  7
SIMPLEX
  0
TEXT
  5
418
  8
LAYER01
  6
CONTINUOUS
 62
     1
 10
3467.609348
 20
-968.39357699999994
 30
0.0
 40
10.0
  1
Bl.
  7
SIMPLEX
  0
LINE
  5
419
  8
LAYER01
  6
CONTINUOUS
 62
     1
 10
2962.609348
 20
-1003.3935770000001
 30
0.0
 11
2962.609348
 21
-668.39357699999994
 31
0.0
  0
LINE
  5
41A
  8
LAYER01
  6
CONTINUOUS
 62
     1
 10
2847.609348
 20
-898.39357700000005
 30
0.0
 11
2847.609348
 21
-668.39357699999994
 31
0.0
  0
LINE
  5
41B
  8
LAYER01
  6
CONTINUOUS
 62
     1
 10
3277.609348
 20
-668.39357699999994
 30
0.0
 11
3277.609348
 21
-708.39357699999994
 31
0.0
  0
TEXT
  5
41C
  8
LAYER01
  6
CONTINUOUS
 62
     1
 10
2973.5033469999998
 20
-693.92357900000002
 30
0.0
 40
10.0
  1
Maßstab
  7
SIMPLEX
  0
LINE
  5
41D
  8
LAYER01
  6
CONTINUOUS
 62
     1
 10
3417.609348
 20
-898.39357700000005
 30
0.0
 11
3417.609348
 21
-973.39357700000005
 31
0.0
  0
LINE
  5
41E
  8
LAYER01
  6
CONTINUOUS
 62
     1
 10
3417.609348
 20
-948.39357700000005
 30
0.0
 11
3492.609348
 21
-948.39357700000005
 31
0.0
  0
ENDBLK
  5
41F
  8
0
  0
BLOCK
  8
0
  2
*D13
 70
     1
 10
0.0
 20
0.0
 30
0.0
  3
*D13
  1

  0
LINE
  5
422
  8
LAYER01
 62
     7
 10
2346.5813389999998
 20
659.80595900000003
 30
0.0
 11
2346.5813389999998
 21
533.81272200000001
 31
0.0
  0
LINE
  5
423
  8
LAYER01
 62
     7
 10
2065.0027970000001
 20
659.80595900000003
 30
0.0
 11
2381.5813389999998
 21
659.80595900000003
 31
0.0
  0
LINE
  5
424
  8
LAYER01
 62
     7
 10
2065.0027970000001
 20
533.81272200000001
 30
0.0
 11
2381.5813389999998
 21
533.81272200000001
 31
0.0
  0
SOLID
  5
425
  8
LAYER01
 62
     7
 10
2337.2483790000001
 20
603.80595900000003
 30
0.0
 11
2346.5813389999998
 21
659.80595900000003
 31
0.0
 12
2355.914299
 22
603.80595900000003
 32
0.0
 13
2355.914299
 23
603.80595900000003
 33
0.0
  0
SOLID
  5
426
  8
LAYER01
 62
     7
 10
2337.2483790000001
 20
589.81272200000001
 30
0.0
 11
2346.5813389999998
 21
533.81272200000001
 31
0.0
 12
2355.914299
 22
589.81272200000001
 32
0.0
 13
2355.914299
 23
589.81272200000001
 33
0.0
  0
TEXT
  5
427
  8
LAYER01
  6
CONTINUOUS
 62
     7
 10
2311.5813389999998
 20
543.81802300000004
 30
0.0
 40
70.0
  1
126
 50
90.0
  0
POINT
  5
428
  8
LAYER01
 62
     7
 10
2037.0027970000001
 20
659.80595900000003
 30
0.0
  0
POINT
  5
429
  8
LAYER01
 62
     7
 10
2037.0027970000001
 20
533.81272200000001
 30
0.0
  0
POINT
  5
42A
  8
LAYER01
 62
     7
 10
2346.5813389999998
 20
533.81272200000001
 30
0.0
  0
ENDBLK
  5
42B
  8
0
  0
BLOCK
  8
0
  2
*D14
 70
     1
 10
0.0
 20
0.0
 30
0.0
  3
*D14
  1

  0
LINE
  5
42E
  8
LAYER01
 62
     7
 10
2188.0279540000001
 20
554.79936799999984
 30
0.0
 11
2188.0279540000001
 21
442.7993679999999
 31
0.0
  0
LINE
  5
42F
  8
LAYER01
 62
     7
 10
2188.0279540000001
 20
659.80595900000003
 30
0.0
 11
2188.0279540000001
 21
771.80595900000003
 31
0.0
  0
LINE
  5
430
  8
LAYER01
 62
     7
 10
2065.0027970000001
 20
554.79936799999984
 30
0.0
 11
2223.0279540000001
 21
554.79936799999984
 31
0.0
  0
LINE
  5
431
  8
LAYER01
 62
     7
 10
2065.0027970000001
 20
659.80595900000003
 30
0.0
 11
2223.0279540000001
 21
659.80595900000003
 31
0.0
  0
SOLID
  5
432
  8
LAYER01
 62
     7
 10
2197.3609139999999
 20
498.7993679999999
 30
0.0
 11
2188.0279540000001
 21
554.79936799999984
 31
0.0
 12
2178.694994
 22
498.7993679999999
 32
0.0
 13
2178.694994
 23
498.7993679999999
 33
0.0
  0
SOLID
  5
433
  8
LAYER01
 62
     7
 10
2197.3609139999999
 20
715.80595900000003
 30
0.0
 11
2188.0279540000001
 21
659.80595900000003
 31
0.0
 12
2178.694994
 22
715.80595900000003
 32
0.0
 13
2178.694994
 23
715.80595900000003
 33
0.0
  0
TEXT
  5
434
  8
LAYER01
  6
CONTINUOUS
 62
     7
 10
2153.0279540000001
 20
552.78409099999999
 30
0.0
 40
70.0
  1
105
 50
90.0
  0
POINT
  5
435
  8
LAYER01
 62
     7
 10
2037.0027970000001
 20
554.79936799999984
 30
0.0
  0
POINT
  5
436
  8
LAYER01
 62
     7
 10
2037.0027970000001
 20
659.80595900000003
 30
0.0
  0
POINT
  5
437
  8
LAYER01
 62
     7
 10
2188.0279540000001
 20
659.80595900000003
 30
0.0
  0
ENDBLK
  5
438
  8
0
  0
BLOCK
  8
0
  2
*D15
 70
     1
 10
0.0
 20
0.0
 30
0.0
  3
*D15
  1

  0
LINE
  5
43B
  8
LAYER01
 62
     7
 10
1677.3784459999999
 20
830.14757999999995
 30
0.0
 11
2037.0027970000001
 21
830.14757999999995
 31
0.0
  0
LINE
  5
43C
  8
LAYER01
 62
     7
 10
1677.3784459999999
 20
687.43030299999998
 30
0.0
 11
1677.3784459999999
 21
865.14757999999995
 31
0.0
  0
LINE
  5
43D
  8
LAYER01
 62
     7
 10
2037.0027970000001
 20
687.43030299999998
 30
0.0
 11
2037.0027970000001
 21
865.14757999999995
 31
0.0
  0
SOLID
  5
43E
  8
LAYER01
 62
     7
 10
1733.3784459999999
 20
820.81461999999988
 30
0.0
 11
1677.3784459999999
 21
830.14757999999995
 31
0.0
 12
1733.3784459999999
 22
839.48054000000002
 32
0.0
 13
1733.3784459999999
 23
839.48054000000002
 33
0.0
  0
SOLID
  5
43F
  8
LAYER01
 62
     7
 10
1981.0027970000001
 20
820.81461999999988
 30
0.0
 11
2037.0027970000001
 21
830.14757999999995
 31
0.0
 12
1981.0027970000001
 22
839.48054000000002
 32
0.0
 13
1981.0027970000001
 23
839.48054000000002
 33
0.0
  0
TEXT
  5
440
  8
LAYER01
  6
CONTINUOUS
 62
     7
 10
1804.757083
 20
865.14757999999995
 30
0.0
 40
70.0
  1
360
  0
POINT
  5
441
  8
LAYER01
 62
     7
 10
1677.3784459999999
 20
659.43030299999987
 30
0.0
  0
POINT
  5
442
  8
LAYER01
 62
     7
 10
2037.0027970000001
 20
659.43030299999987
 30
0.0
  0
POINT
  5
443
  8
LAYER01
 62
     7
 10
2037.0027970000001
 20
830.14757999999995
 30
0.0
  0
ENDBLK
  5
444
  8
0
  0
BLOCK
  8
0
  2
*D16
 70
     1
 10
0.0
 20
0.0
 30
0.0
  3
*D16
  1

  0
LINE
  5
447
  8
LAYER01
 62
     7
 10
1702.0027889999999
 20
707.35791099999994
 30
0.0
 11
2012.0027909999999
 21
707.35791099999994
 31
0.0
  0
LINE
  5
448
  8
LAYER01
 62
     7
 10
1702.0027889999999
 20
687.80595900000003
 30
0.0
 11
1702.0027889999999
 21
742.35791099999994
 31
0.0
  0
LINE
  5
449
  8
LAYER01
 62
     7
 10
2012.0027909999999
 20
687.80595900000003
 30
0.0
 11
2012.0027909999999
 21
742.35791099999994
 31
0.0
  0
SOLID
  5
44A
  8
LAYER01
 62
     7
 10
1758.0027889999999
 20
698.02495099999999
 30
0.0
 11
1702.0027889999999
 21
707.35791099999994
 31
0.0
 12
1758.0027889999999
 22
716.69087100000002
 32
0.0
 13
1758.0027889999999
 23
716.69087100000002
 33
0.0
  0
SOLID
  5
44B
  8
LAYER01
 62
     7
 10
1956.0027909999999
 20
698.02495099999999
 30
0.0
 11
2012.0027909999999
 21
707.35791099999994
 31
0.0
 12
1956.0027909999999
 22
716.69087100000002
 32
0.0
 13
1956.0027909999999
 23
716.69087100000002
 33
0.0
  0
TEXT
  5
44C
  8
LAYER01
  6
CONTINUOUS
 62
     7
 10
1804.3412490000001
 20
742.35791099999994
 30
0.0
 40
70.0
  1
310
  0
POINT
  5
44D
  8
LAYER01
 62
     7
 10
1702.0027889999999
 20
659.80595900000003
 30
0.0
  0
POINT
  5
44E
  8
LAYER01
 62
     7
 10
2012.0027909999999
 20
659.80595900000003
 30
0.0
  0
POINT
  5
44F
  8
LAYER01
 62
     7
 10
2012.0027909999999
 20
707.35791099999994
 30
0.0
  0
ENDBLK
  5
450
  8
0
  0
BLOCK
  8
0
  2
VP317010-G18
 70
     0
 10
0.0
 20
0.0
 30
0.0
  3
VP317010-G18
  1

  0
LINE
  5
453
  8
LAYER01
  6
CONTINUOUS
 62
     7
 10
1677.00279
 20
659.05464699999993
 30
0.0
 11
1677.754101999999
 21
659.80595900000003
 31
0.0
  0
LINE
  5
454
  8
LAYER01
  6
CONTINUOUS
 62
     7
 10
1687.0762259999999
 20
646.67744200000004
 30
0.0
 11
1700.2047419999999
 21
659.80595900000003
 31
0.0
  0
LINE
  5
455
  8
LAYER01
  6
CONTINUOUS
 62
     7
 10
1691.613175
 20
628.76375099999996
 30
0.0
 11
1703.031248
 21
640.18182399999989
 31
0.0
  0
LINE
  5
456
  8
LAYER01
  6
CONTINUOUS
 62
     7
 10
1692.731172
 20
607.431107
 30
0.0
 11
1704.149244
 21
618.84917999999993
 31
0.0
  0
LINE
  5
457
  8
LAYER01
  6
CONTINUOUS
 62
     7
 10
1693.849168
 20
586.09846399999981
 30
0.0
 11
1705.267241
 21
597.51653599999997
 31
0.0
  0
LINE
  5
458
  8
LAYER01
  6
CONTINUOUS
 62
     7
 10
1698.2722100000001
 20
568.07086500000003
 30
0.0
 11
1706.8327059999999
 21
576.63136099999997
 31
0.0
  0
LINE
  5
459
  8
LAYER01
  6
CONTINUOUS
 62
     7
 10
1713.787012
 20
561.13502699999992
 30
0.0
 11
1723.9933100000001
 21
571.34132499999998
 31
0.0
  0
LINE
  5
45A
  8
LAYER01
  6
CONTINUOUS
 62
     7
 10
1732.6009100000001
 20
557.49828500000001
 30
0.0
 11
1742.8435440000001
 21
567.74091899999996
 31
0.0
  0
LINE
  5
45B
  8
LAYER01
  6
CONTINUOUS
 62
     7
 10
1751.414808
 20
553.86154299999998
 30
0.0
 11
1761.7058509999999
 21
564.15258499999993
 31
0.0
  0
LINE
  5
45C
  8
LAYER01
  6
CONTINUOUS
 62
     7
 10
1770.228707
 20
550.22479999999985
 30
0.0
 11
1780.5308669999999
 21
560.52696100000003
 31
0.0
  0
LINE
  5
45D
  8
LAYER01
  6
CONTINUOUS
 62
     7
 10
1789.0426050000001
 20
546.58805800000005
 30
0.0
 11
1800.0963389999999
 21
557.64179299999989
 31
0.0
  0
LINE
  5
45E
  8
LAYER01
  6
CONTINUOUS
 62
     7
 10
1809.664074
 20
544.75888699999985
 30
0.0
 11
1820.5963670000001
 21
555.69118099999992
 31
0.0
  0
LINE
  5
45F
  8
LAYER01
  6
CONTINUOUS
 62
     7
 10
1821.1685419999999
 20
533.81271500000003
 30
0.0
 11
1832.9605309999999
 21
545.60470399999986
 31
0.0
  0
ENDBLK
  5
460
  8
0
  0
BLOCK
  8
0
  2
VP317010-G19
 70
     0
 10
0.0
 20
0.0
 30
0.0
  3
VP317010-G19
  1

  0
LINE
  5
463
  8
LAYER01
  6
CONTINUOUS
 62
     7
 10
1888.5204630000001
 20
533.81271500000003
 30
0.0
 11
1912.1999619999999
 21
557.49221399999988
 31
0.0
  0
LINE
  5
464
  8
LAYER01
  6
CONTINUOUS
 62
     7
 10
2011.8639209999999
 20
657.15617299999997
 30
0.0
 11
2014.5137070000001
 21
659.80595900000003
 31
0.0
  0
LINE
  5
465
  8
LAYER01
  6
CONTINUOUS
 62
     7
 10
1923.6023829999999
 20
546.44399499999997
 30
0.0
 11
1938.7036780000001
 21
561.54528899999991
 31
0.0
  0
LINE
  5
466
  8
LAYER01
  6
CONTINUOUS
 62
     7
 10
2010.6222600000001
 20
633.46387199999992
 30
0.0
 11
2036.9643470000001
 21
659.80595900000003
 31
0.0
  0
LINE
  5
467
  8
LAYER01
  6
CONTINUOUS
 62
     7
 10
1951.2855770000001
 20
551.67654800000003
 30
0.0
 11
1966.45633
 21
566.84730100000002
 31
0.0
  0
LINE
  5
468
  8
LAYER01
  6
CONTINUOUS
 62
     7
 10
2009.3805990000001
 20
609.77157
 30
0.0
 11
2022.061653
 21
622.45262500000001
 31
0.0
  0
LINE
  5
469
  8
LAYER01
  6
CONTINUOUS
 62
     7
 10
1979.1156329999999
 20
557.0559639999999
 30
0.0
 11
1994.214514
 21
572.15484500000002
 31
0.0
  0
LINE
  5
46A
  8
LAYER01
  6
CONTINUOUS
 62
     7
 10
2008.1389380000001
 20
586.07926900000007
 30
0.0
 11
2020.819992
 21
598.76032300000008
 31
0.0
  0
LINE
  5
46B
  8
LAYER01
  6
CONTINUOUS
 62
     7
 10
2007.0757630000001
 20
562.56545400000005
 30
0.0
 11
2019.199053
 21
574.68874400000004
 31
0.0
  0
ENDBLK
  5
46C
  8
0
  0
ENDSEC
  0
SECTION
  2
ENTITIES
  0
POLYLINE
  5
46D
  8
LAYER01
  6
CONTINUOUS
 62
     7
 66
     1
 10
0.0
 20
0.0
 30
0.0
 70
     1
  0
VERTEX
  5
A4B
  8
LAYER01
  6
CONTINUOUS
 62
     7
 10
-499.56538799999993
 20
-1003.3935770000001
 30
0.0
  0
VERTEX
  5
A4C
  8
LAYER01
  6
CONTINUOUS
 62
     7
 10
-499.56538799999993
 20
1782.752127
 30
0.0
  0
VERTEX
  5
A4D
  8
LAYER01
  6
CONTINUOUS
 62
     7
 10
3492.609348
 20
1782.752127
 30
0.0
  0
VERTEX
  5
A4E
  8
LAYER01
  6
CONTINUOUS
 62
     7
 10
3492.609348
 20
-1003.3935770000001
 30
0.0
  0
SEQEND
  5
A4F
  8
LAYER01
  6
CONTINUOUS
 62
     7
  0
LINE
  5
473
  8
LAYER01
  6
CONTINUOUS
 62
     7
 10
-1813.901386
 20
596.89022399999999
 30
0.0
 11
-1813.901386
 21
1535.811817
 31
0.0
  0
ARC
  5
474
  8
LAYER01
  6
CONTINUOUS
 62
     7
 10
736.61539500000003
 20
431.64022399999999
 30
0.0
 40
30.0
 50
180.0
 51
270.0
  0
POLYLINE
  5
475
  8
LAYER01
  6
CONTINUOUS
 62
     7
 66
     1
 10
0.0
 20
0.0
 30
0.0
  0
VERTEX
  5
A50
  8
LAYER01
  6
CONTINUOUS
 62
     7
 10
1426.6222479999999
 20
426.64022399999999
 30
0.0
  0
VERTEX
  5
A51
  8
LAYER01
  6
CONTINUOUS
 62
     7
 10
1427.59709
 20
426.73609599999992
 30
0.0
  0
VERTEX
  5
A52
  8
LAYER01
  6
CONTINUOUS
 62
     7
 10
1428.534075
 20
427.020038
 30
0.0
  0
VERTEX
  5
A53
  8
LAYER01
  6
CONTINUOUS
 62
     7
 10
1429.39732
 20
427.481178
 30
0.0
  0
VERTEX
  5
A54
  8
LAYER01
  6
CONTINUOUS
 62
     7
 10
1430.153765
 20
428.10185499999989
 30
0.0
  0
VERTEX
  5
A55
  8
LAYER01
  6
CONTINUOUS
 62
     7
 10
1430.7744419999999
 20
428.85829999999999
 30
0.0
  0
VERTEX
  5
A56
  8
LAYER01
  6
CONTINUOUS
 62
     7
 10
1431.235582
 20
429.72154399999999
 30
0.0
  0
VERTEX
  5
A57
  8
LAYER01
  6
CONTINUOUS
 62
     7
 10
1431.519524
 20
430.65852899999999
 30
0.0
  0
VERTEX
  5
A58
  8
LAYER01
  6
CONTINUOUS
 62
     7
 10
1431.615395
 20
431.63337199999989
 30
0.0
  0
SEQEND
  5
A59
  8
LAYER01
  6
CONTINUOUS
 62
     7
  0
ARC
  5
480
  8
LAYER01
  6
CONTINUOUS
 62
     7
 10
1426.615395
 20
431.64022399999999
 30
0.0
 40
30.0
 50
270.0
 51
0.0
  0
DIMENSION
  5
481
  8
LAYER01
 62
     7
  2
*D0
 10
609.81312299999991
 20
426.64022299999999
 30
0.0
 11
539.81312300000002
 21
581.48644699999988
 31
0.0
 53
90.0
 13
693.52236500000004
 23
736.64022599999998
 33
0.0
 14
693.52236500000004
 24
426.64022299999999
 34
0.0
 50
90.0
  0
DIMENSION
  5
482
  8
LAYER01
 62
     7
  2
*D1
 10
468.15132899999992
 20
761.64023099999986
 30
0.0
 11
398.15132899999998
 21
581.48644699999988
 31
0.0
 53
90.0
 13
693.52236500000004
 23
401.64021700000001
 33
0.0
 14
693.52236500000004
 24
761.64023099999986
 34
0.0
 50
90.0
  0
ARC
  5
483
  8
LAYER01
  6
CONTINUOUS
 62
     7
 10
736.61540100000002
 20
431.64022299999999
 30
0.0
 40
5.0
 50
180.0
 51
270.0
  0
DIMENSION
  5
484
  8
LAYER01
 62
     7
  2
*D2
 10
729.87370299999986
 20
424.3591889999999
 30
0.0
 11
930.74077399999999
 21
502.02125000000001
 31
0.0
 70
     4
 15
732.90986799999985
 25
428.33180699999991
 35
0.0
 40
92.746683000000004
  0
TEXT
  5
485
  8
LAYER01
  6
CONTINUOUS
 62
     7
 10
185.68185600000001
 20
-458.1554559999999
 30
0.0
 40
35.0
  1
Unterbauwaschtisch VP-31-70-10
  7
SIMPLEX
  0
LINE
  5
486
  8
LAYER01
  6
CONTINUOUS
 62
     7
 10
1426.622249
 20
110.698723
 30
0.0
 11
736.60854199999994
 21
110.698723
 31
0.0
  0
INSERT
  5
487
  8
LAYER01
  2
VP317010-G4
 10
0.0
 20
0.0
 30
0.0
  0
LINE
  5
488
  8
LAYER01
  6
CONTINUOUS
 62
     7
 10
1034.3126420000001
 20
-4.351496
 30
0.0
 11
1014.741554
 21
-2.6392479999999989
 31
0.0
  0
LINE
  5
489
  8
LAYER01
  6
CONTINUOUS
 62
     7
 10
736.61539600000003
 20
401.64021700000001
 30
0.0
 11
1426.6153939999999
 21
401.64021700000001
 31
0.0
  0
DIMENSION
  5
48A
  8
LAYER01
 62
     7
  2
*D4
 10
1431.6153890000001
 20
176.11977200000001
 30
0.0
 11
1082.177862
 21
246.11977200000001
 31
0.0
 13
731.61540099999991
 23
110.698723
 33
0.0
 14
1431.6153890000001
 24
110.698723
 34
0.0
  0
LINE
  5
48B
  8
LAYER01
  6
CONTINUOUS
 62
     7
 10
1044.0449000000001
 20
6.8428820000000004
 30
0.0
 11
1015.084348
 21
9.3765999999999998
 31
0.0
  0
LINE
  5
48C
  8
LAYER01
  6
CONTINUOUS
 62
     7
 10
1426.622249
 20
426.64022299999999
 30
0.0
 11
736.61540100000002
 21
426.64022299999999
 31
0.0
  0
LINE
  5
48D
  8
LAYER01
  6
CONTINUOUS
 62
     7
 10
720.62513899999999
 20
91.117411000000004
 30
0.0
 11
723.85234300000002
 21
29.53891500000001
 31
0.0
  0
LINE
  5
48E
  8
LAYER01
  6
CONTINUOUS
 62
     7
 10
731.61540099999991
 20
110.698723
 30
0.0
 11
735.83588699999984
 21
30.166947
 31
0.0
  0
POLYLINE
  5
48F
  8
LAYER01
  6
CONTINUOUS
 62
     7
 66
     1
 10
0.0
 20
0.0
 30
0.0
  0
VERTEX
  5
A5A
  8
LAYER01
  6
CONTINUOUS
 62
     7
 10
1014.741554
 20
-2.6392479999999989
 30
0.0
  0
VERTEX
  5
A5B
  8
LAYER01
  6
CONTINUOUS
 62
     7
 10
935.08663000000013
 20
2.0248900000000001
 30
0.0
  0
VERTEX
  5
A5C
  8
LAYER01
  6
CONTINUOUS
 62
     7
 10
855.25930600000015
 20
6.6991229999999993
 30
0.0
  0
VERTEX
  5
A5D
  8
LAYER01
  6
CONTINUOUS
 62
     7
 10
739.83529900000008
 20
13.457694
 30
0.0
  0
SEQEND
  5
A5E
  8
LAYER01
  6
CONTINUOUS
 62
     7
  0
ARC
  5
495
  8
LAYER01
  6
CONTINUOUS
 62
     7
 10
740.82903399999987
 20
30.428629000000001
 30
0.0
 40
17.0
 50
183.0
 51
266.648912
  0
ARC
  5
496
  8
LAYER01
  6
CONTINUOUS
 62
     7
 10
740.84348799999987
 20
25.085108000000002
 30
0.0
 40
0.466944
 50
130.20554100000001
 51
131.06328600000001
  0
POLYLINE
  5
497
  8
LAYER01
  6
CONTINUOUS
 62
     7
 66
     1
 10
0.0
 20
0.0
 30
0.0
  0
VERTEX
  5
A5F
  8
LAYER01
  6
CONTINUOUS
 62
     7
 10
747.03565900000001
 20
25.069013999999999
 30
0.0
  0
VERTEX
  5
A60
  8
LAYER01
  6
CONTINUOUS
 62
     7
 10
747.03560000000004
 20
25.069013999999999
 30
0.0
  0
VERTEX
  5
A61
  8
LAYER01
  6
CONTINUOUS
 62
     7
 10
740.54206099999999
 20
25.441728999999999
 30
0.0
  0
SEQEND
  5
A62
  8
LAYER01
  6
CONTINUOUS
 62
     7
  0
ARC
  5
49C
  8
LAYER01
  6
CONTINUOUS
 62
     7
 10
740.82877900000005
 20
30.433503999999999
 30
0.0
 40
5.0
 50
183.0
 51
266.71258999999998
  0
LINE
  5
49D
  8
LAYER01
  6
CONTINUOUS
 62
     7
 10
747.03565900000001
 20
25.069013999999999
 30
0.0
 11
995.13884900000005
 21
10.821471000000001
 31
0.0
  0
LINE
  5
49E
  8
LAYER01
  6
CONTINUOUS
 62
     7
 10
995.13884900000005
 20
10.821471000000001
 30
0.0
 11
1015.084348
 21
9.3765999999999998
 31
0.0
  0
ARC
  5
49F
  8
LAYER01
  6
CONTINUOUS
 62
     7
 10
712.63610400000005
 20
90.698723000000001
 30
0.0
 40
8.0
 50
3.0
 51
90.0
  0
LINE
  5
4A0
  8
LAYER01
  6
CONTINUOUS
 62
     7
 10
712.63608999999997
 20
98.698723000000001
 30
0.0
 11
706.61539500000003
 21
98.698723000000001
 31
0.0
  0
LINE
  5
4A1
  8
LAYER01
  6
CONTINUOUS
 62
     7
 10
706.61539500000003
 20
98.698723000000001
 30
0.0
 11
706.61539500000003
 21
110.698723
 31
0.0
  0
LINE
  5
4A2
  8
LAYER01
  6
CONTINUOUS
 62
     7
 10
731.61540099999991
 20
110.698723
 30
0.0
 11
706.61539500000003
 21
110.698723
 31
0.0
  0
LINE
  5
4A3
  8
LAYER01
  6
CONTINUOUS
 62
     7
 10
731.61540099999991
 20
110.698723
 30
0.0
 11
736.60854199999994
 21
110.698723
 31
0.0
  0
INSERT
  5
4A4
  8
LAYER01
  2
VP317010-G6
 10
0.0
 20
0.0
 30
0.0
  0
LINE
  5
4A5
  8
LAYER01
  6
CONTINUOUS
 62
     7
 10
1431.6153890000001
 20
110.698723
 30
0.0
 11
1427.394904
 21
30.166947
 31
0.0
  0
LINE
  5
4A6
  8
LAYER01
  6
CONTINUOUS
 62
     7
 10
1442.6056510000001
 20
91.117411000000004
 30
0.0
 11
1439.3784470000001
 21
29.53891500000001
 31
0.0
  0
POLYLINE
  5
4A7
  8
LAYER01
  6
CONTINUOUS
 62
     7
 66
     1
 10
0.0
 20
0.0
 30
0.0
  0
VERTEX
  5
A63
  8
LAYER01
  6
CONTINUOUS
 62
     7
 10
1422.6940340000001
 20
25.437176999999998
 30
0.0
  0
VERTEX
  5
A64
  8
LAYER01
  6
CONTINUOUS
 62
     7
 10
1349.229223
 20
21.135494999999999
 30
0.0
  0
VERTEX
  5
A65
  8
LAYER01
  6
CONTINUOUS
 62
     7
 10
1274.0356839999999
 20
16.732589000000001
 30
0.0
  0
VERTEX
  5
A66
  8
LAYER01
  6
CONTINUOUS
 62
     7
 10
1147.615395
 20
9.3301389999999991
 30
0.0
  0
SEQEND
  5
A67
  8
LAYER01
  6
CONTINUOUS
 62
     7
  0
POLYLINE
  5
4AD
  8
LAYER01
  6
CONTINUOUS
 62
     7
 66
     1
 10
0.0
 20
0.0
 30
0.0
  0
VERTEX
  5
A68
  8
LAYER01
  6
CONTINUOUS
 62
     7
 10
1423.3954920000001
 20
13.457694
 30
0.0
  0
VERTEX
  5
A69
  8
LAYER01
  6
CONTINUOUS
 62
     7
 10
1345.2958229999999
 20
8.8846240000000005
 30
0.0
  0
VERTEX
  5
A6A
  8
LAYER01
  6
CONTINUOUS
 62
     7
 10
1265.468515
 20
4.2103910000000004
 30
0.0
  0
VERTEX
  5
A6B
  8
LAYER01
  6
CONTINUOUS
 62
     7
 10
1148.4892359999999
 20
-2.6392479999999989
 30
0.0
  0
SEQEND
  5
A6C
  8
LAYER01
  6
CONTINUOUS
 62
     7
  0
LINE
  5
4B3
  8
LAYER01
  6
CONTINUOUS
 62
     7
 10
1050.115395
 20
2.9295309999999999
 30
0.0
 11
1113.115395
 21
2.9295309999999999
 31
0.0
  0
LINE
  5
4B4
  8
LAYER01
  6
CONTINUOUS
 62
     7
 10
1058.615395
 20
-15.294513999999999
 30
0.0
 11
1041.6153959999999
 21
-15.294513999999999
 31
0.0
  0
LINE
  5
4B5
  8
LAYER01
  6
CONTINUOUS
 62
     7
 10
1056.8293329999999
 20
-2.7041349999999991
 30
0.0
 11
1046.8230610000001
 21
5.6921330000000001
 31
0.0
  0
LINE
  5
4B6
  8
LAYER01
  6
CONTINUOUS
 62
     7
 10
1113.51199
 20
5.6921330000000001
 30
0.0
 11
1049.7188000000001
 21
5.6921330000000001
 31
0.0
  0
LINE
  5
4B7
  8
LAYER01
  6
CONTINUOUS
 62
     7
 10
1041.6153959999999
 20
-15.294513999999999
 30
0.0
 11
1041.6153959999999
 21
-12.321054
 31
0.0
  0
ARC
  5
4B8
  8
LAYER01
  6
CONTINUOUS
 62
     7
 10
1033.615395
 20
-12.321052999999999
 30
0.0
 40
8.0
 50
0.0
 51
85.0
  0
ARC
  5
4B9
  8
LAYER01
  6
CONTINUOUS
 62
     7
 10
1043.6091220000001
 20
1.861907
 30
0.0
 40
5.0
 50
50.0
 51
85.0
  0
LINE
  5
4BA
  8
LAYER01
  6
CONTINUOUS
 62
     7
 10
1049.7188000000001
 20
5.6921330000000001
 30
0.0
 11
1046.8230610000001
 21
5.6921330000000001
 31
0.0
  0
LINE
  5
4BB
  8
LAYER01
  6
CONTINUOUS
 62
     7
 10
1058.615395
 20
-15.294513999999999
 30
0.0
 11
1058.615395
 21
-6.5343519999999993
 31
0.0
  0
ARC
  5
4BC
  8
LAYER01
  6
CONTINUOUS
 62
     7
 10
1053.615395
 20
-6.5343540000000004
 30
0.0
 40
5.0
 50
0.0
 51
50.0
  0
LINE
  5
4BD
  8
LAYER01
  6
CONTINUOUS
 62
     7
 10
1104.615395
 20
-6.5343519999999993
 30
0.0
 11
1104.615395
 21
-15.294513999999999
 31
0.0
  0
LINE
  5
4BE
  8
LAYER01
  6
CONTINUOUS
 62
     7
 10
1058.615395
 20
-15.294513999999999
 30
0.0
 11
1060.529667
 21
-15.294513999999999
 31
0.0
  0
LINE
  5
4BF
  8
LAYER01
  6
CONTINUOUS
 62
     7
 10
1060.529667
 20
-15.294513999999999
 30
0.0
 11
1102.7011230000001
 21
-15.294513999999999
 31
0.0
  0
LINE
  5
4C0
  8
LAYER01
  6
CONTINUOUS
 62
     7
 10
1102.7011230000001
 20
-15.294513999999999
 30
0.0
 11
1104.615395
 21
-15.294513999999999
 31
0.0
  0
LINE
  5
4C1
  8
LAYER01
  6
CONTINUOUS
 62
     7
 10
1116.407729
 20
5.6921330000000001
 30
0.0
 11
1106.401458
 21
-2.7041349999999991
 31
0.0
  0
ARC
  5
4C2
  8
LAYER01
  6
CONTINUOUS
 62
     7
 10
1119.6216690000001
 20
1.861907
 30
0.0
 40
5.0
 50
95.0
 51
130.0
  0
LINE
  5
4C3
  8
LAYER01
  6
CONTINUOUS
 62
     7
 10
1147.615395
 20
9.3301389999999991
 30
0.0
 11
1119.18589
 21
6.8428820000000004
 31
0.0
  0
LINE
  5
4C4
  8
LAYER01
  6
CONTINUOUS
 62
     7
 10
1148.4892359999999
 20
-2.6392479999999989
 30
0.0
 11
1128.918148
 21
-4.351496
 31
0.0
  0
ARC
  5
4C5
  8
LAYER01
  6
CONTINUOUS
 62
     7
 10
1129.615395
 20
-12.321052999999999
 30
0.0
 40
8.0
 50
95.0
 51
180.0
  0
LINE
  5
4C6
  8
LAYER01
  6
CONTINUOUS
 62
     7
 10
1121.6153939999999
 20
-12.321054
 30
0.0
 11
1121.6153939999999
 21
-15.294513999999999
 31
0.0
  0
ARC
  5
4C7
  8
LAYER01
  6
CONTINUOUS
 62
     7
 10
1109.615395
 20
-6.5343540000000004
 30
0.0
 40
5.0
 50
130.0
 51
180.0
  0
LINE
  5
4C8
  8
LAYER01
  6
CONTINUOUS
 62
     7
 10
1121.6153939999999
 20
-15.294513999999999
 30
0.0
 11
1104.615395
 21
-15.294513999999999
 31
0.0
  0
LINE
  5
4C9
  8
LAYER01
  6
CONTINUOUS
 62
     7
 10
1104.338532
 20
-2.7041349999999991
 30
0.0
 11
1106.401458
 21
-2.7041349999999991
 31
0.0
  0
LINE
  5
4CA
  8
LAYER01
  6
CONTINUOUS
 62
     7
 10
1058.892259
 20
-2.7041349999999991
 30
0.0
 11
1104.338532
 21
-2.7041349999999991
 31
0.0
  0
LINE
  5
4CB
  8
LAYER01
  6
CONTINUOUS
 62
     7
 10
1056.8293329999999
 20
-2.7041349999999991
 30
0.0
 11
1058.892259
 21
-2.7041349999999991
 31
0.0
  0
LINE
  5
4CC
  8
LAYER01
  6
CONTINUOUS
 62
     7
 10
1116.407729
 20
5.6921330000000001
 30
0.0
 11
1113.51199
 21
5.6921330000000001
 31
0.0
  0
ARC
  5
4CD
  8
LAYER01
  6
CONTINUOUS
 62
     7
 10
1422.401756
 20
30.428629000000001
 30
0.0
 40
5.0
 50
273.351088
 51
357.0
  0
ARC
  5
4CE
  8
LAYER01
  6
CONTINUOUS
 62
     7
 10
1422.401756
 20
30.428629000000001
 30
0.0
 40
17.0
 50
273.351088
 51
357.0
  0
POLYLINE
  5
4CF
  8
LAYER01
  6
CONTINUOUS
 62
     7
 66
     1
 10
0.0
 20
0.0
 30
0.0
  0
VERTEX
  5
A6D
  8
LAYER01
  6
CONTINUOUS
 62
     7
 10
1422.6940340000001
 20
25.437176999999998
 30
0.0
  0
VERTEX
  5
A6E
  8
LAYER01
  6
CONTINUOUS
 62
     7
 10
1422.6929319999999
 20
25.438108
 30
0.0
  0
VERTEX
  5
A6F
  8
LAYER01
  6
CONTINUOUS
 62
     7
 10
1422.688729
 20
25.441728999999999
 30
0.0
  0
SEQEND
  5
A70
  8
LAYER01
  6
CONTINUOUS
 62
     7
  0
ARC
  5
4D4
  8
LAYER01
  6
CONTINUOUS
 62
     7
 10
1422.402012
 20
30.433503999999999
 30
0.0
 40
5.0
 50
273.28740900000003
 51
357.0
  0
LINE
  5
4D5
  8
LAYER01
  6
CONTINUOUS
 62
     7
 10
1456.615395
 20
110.698723
 30
0.0
 11
1431.6153890000001
 21
110.698723
 31
0.0
  0
LINE
  5
4D6
  8
LAYER01
  6
CONTINUOUS
 62
     7
 10
1456.615395
 20
110.698723
 30
0.0
 11
1456.615395
 21
98.698723000000001
 31
0.0
  0
LINE
  5
4D7
  8
LAYER01
  6
CONTINUOUS
 62
     7
 10
1456.615395
 20
98.698723000000001
 30
0.0
 11
1450.5947000000001
 21
98.698723000000001
 31
0.0
  0
ARC
  5
4D8
  8
LAYER01
  6
CONTINUOUS
 62
     7
 10
1450.594687
 20
90.698723000000001
 30
0.0
 40
8.0
 50
90.0
 51
177.0
  0
LINE
  5
4D9
  8
LAYER01
  6
CONTINUOUS
 62
     7
 10
1426.622249
 20
110.698723
 30
0.0
 11
1431.6153890000001
 21
110.698723
 31
0.0
  0
LINE
  5
4DA
  8
LAYER01
  6
CONTINUOUS
 62
     7
 10
1426.622249
 20
736.64022599999998
 30
0.0
 11
736.60854199999994
 21
736.64022599999998
 31
0.0
  0
LINE
  5
4DB
  8
LAYER01
  6
CONTINUOUS
 62
     7
 10
1426.6153939999999
 20
761.64023099999986
 30
0.0
 11
736.61539600000003
 21
761.64023099999986
 31
0.0
  0
DIMENSION
  5
4DC
  8
LAYER01
 62
     7
  2
*D6
 10
731.61540099999991
 20
824.27698899999984
 30
0.0
 11
1081.461618
 21
894.27698899999996
 31
0.0
 13
1431.6153890000001
 23
771.15381699999989
 33
0.0
 14
731.61540099999991
 24
771.15381699999989
 34
0.0
  0
DIMENSION
  5
4DD
  8
LAYER01
 62
     7
  2
*D7
 10
706.61539500000003
 20
962.71919700000012
 30
0.0
 11
1081.461618
 21
1032.7191969999999
 31
0.0
 13
1456.615395
 23
771.15381699999989
 33
0.0
 14
706.61539500000003
 24
771.15381699999989
 34
0.0
  0
LINE
  5
4DE
  8
LAYER01
  6
CONTINUOUS
 62
     7
 10
706.61539500000003
 20
731.64022999999997
 30
0.0
 11
706.61539500000003
 21
431.64021799999989
 31
0.0
  0
POLYLINE
  5
4DF
  8
LAYER01
  6
CONTINUOUS
 62
     7
 66
     1
 10
0.0
 20
0.0
 30
0.0
  0
VERTEX
  5
A71
  8
LAYER01
  6
CONTINUOUS
 62
     7
 10
736.60854299999994
 20
736.64022399999999
 30
0.0
  0
VERTEX
  5
A72
  8
LAYER01
  6
CONTINUOUS
 62
     7
 10
735.63369999999986
 20
736.544353
 30
0.0
  0
VERTEX
  5
A73
  8
LAYER01
  6
CONTINUOUS
 62
     7
 10
734.69671500000004
 20
736.26041100000009
 30
0.0
  0
VERTEX
  5
A74
  8
LAYER01
  6
CONTINUOUS
 62
     7
 10
733.83347100000003
 20
735.79927099999986
 30
0.0
  0
VERTEX
  5
A75
  8
LAYER01
  6
CONTINUOUS
 62
     7
 10
733.07702599999993
 20
735.17859399999998
 30
0.0
  0
VERTEX
  5
A76
  8
LAYER01
  6
CONTINUOUS
 62
     7
 10
732.45634900000005
 20
734.42214899999988
 30
0.0
  0
VERTEX
  5
A77
  8
LAYER01
  6
CONTINUOUS
 62
     7
 10
731.99520899999993
 20
733.55890399999998
 30
0.0
  0
VERTEX
  5
A78
  8
LAYER01
  6
CONTINUOUS
 62
     7
 10
731.71126700000002
 20
732.62191900000005
 30
0.0
  0
VERTEX
  5
A79
  8
LAYER01
  6
CONTINUOUS
 62
     7
 10
731.61539500000003
 20
731.64707699999985
 30
0.0
  0
SEQEND
  5
A7A
  8
LAYER01
  6
CONTINUOUS
 62
     7
  0
ARC
  5
4EA
  8
LAYER01
  6
CONTINUOUS
 62
     7
 10
736.61539500000003
 20
731.64022399999999
 30
0.0
 40
30.0
 50
90.0
 51
180.0
  0
LINE
  5
4EB
  8
LAYER01
  6
CONTINUOUS
 62
     7
 10
731.61540099999991
 20
731.64706999999987
 30
0.0
 11
731.61540099999991
 21
431.64022299999999
 31
0.0
  0
LINE
  5
4EC
  8
LAYER01
  6
CONTINUOUS
 62
     7
 10
1431.6153890000001
 20
731.64706999999987
 30
0.0
 11
1431.6153890000001
 21
431.63337899999988
 31
0.0
  0
LINE
  5
4ED
  8
LAYER01
  6
CONTINUOUS
 62
     7
 10
1456.615395
 20
431.64021799999989
 30
0.0
 11
1456.615395
 21
731.64022999999997
 31
0.0
  0
ARC
  5
4EE
  8
LAYER01
  6
CONTINUOUS
 62
     7
 10
1081.615395
 20
581.64022399999999
 30
0.0
 40
37.570495000000001
 50
203.54153500000001
 51
336.45846499999999
  0
ARC
  5
4EF
  8
LAYER01
  6
CONTINUOUS
 62
     7
 10
1081.615395
 20
581.64022399999999
 30
0.0
 40
37.570495000000001
 50
23.541535
 51
156.45846499999999
  0
ARC
  5
4F0
  8
LAYER01
  6
CONTINUOUS
 62
     7
 10
1081.615395
 20
581.64022399999999
 30
0.0
 40
37.570495000000001
 50
156.45846499999999
 51
203.54153500000001
  0
ARC
  5
4F1
  8
LAYER01
  6
CONTINUOUS
 62
     7
 10
1081.615395
 20
581.64022399999999
 30
0.0
 40
23.0
 50
156.45846499999999
 51
203.54153500000001
  0
ARC
  5
4F2
  8
LAYER01
  6
CONTINUOUS
 62
     7
 10
1081.615395
 20
581.64022399999999
 30
0.0
 40
23.0
 50
336.45846499999999
 51
23.541535
  0
ARC
  5
4F3
  8
LAYER01
  6
CONTINUOUS
 62
     7
 10
1081.615395
 20
581.64022399999999
 30
0.0
 40
37.570495000000001
 50
336.45846499999999
 51
23.541535
  0
INSERT
  5
4F4
  8
LAYER01
  2
VP317010-G9
 10
0.0
 20
0.0
 30
0.0
  0
ARC
  5
4F5
  8
LAYER01
  6
CONTINUOUS
 62
     7
 10
1081.615395
 20
581.64022399999999
 30
0.0
 40
23.0
 50
203.54153500000001
 51
336.45846499999999
  0
ARC
  5
4F6
  8
LAYER01
  6
CONTINUOUS
 62
     7
 10
1081.615395
 20
581.64022399999999
 30
0.0
 40
23.0
 50
23.541535
 51
156.45846499999999
  0
POLYLINE
  5
4F7
  8
LAYER01
  6
CONTINUOUS
 62
     7
 66
     1
 10
0.0
 20
0.0
 30
0.0
  0
VERTEX
  5
A7B
  8
LAYER01
  6
CONTINUOUS
 62
     7
 10
1431.615395
 20
731.64707699999985
 30
0.0
  0
VERTEX
  5
A7C
  8
LAYER01
  6
CONTINUOUS
 62
     7
 10
1431.519524
 20
732.62191900000005
 30
0.0
  0
VERTEX
  5
A7D
  8
LAYER01
  6
CONTINUOUS
 62
     7
 10
1431.235582
 20
733.55890399999998
 30
0.0
  0
VERTEX
  5
A7E
  8
LAYER01
  6
CONTINUOUS
 62
     7
 10
1430.7744419999999
 20
734.42214899999988
 30
0.0
  0
VERTEX
  5
A7F
  8
LAYER01
  6
CONTINUOUS
 62
     7
 10
1430.153765
 20
735.17859399999998
 30
0.0
  0
VERTEX
  5
A80
  8
LAYER01
  6
CONTINUOUS
 62
     7
 10
1429.39732
 20
735.79927099999986
 30
0.0
  0
VERTEX
  5
A81
  8
LAYER01
  6
CONTINUOUS
 62
     7
 10
1428.534075
 20
736.26041100000009
 30
0.0
  0
VERTEX
  5
A82
  8
LAYER01
  6
CONTINUOUS
 62
     7
 10
1427.59709
 20
736.544353
 30
0.0
  0
VERTEX
  5
A83
  8
LAYER01
  6
CONTINUOUS
 62
     7
 10
1426.6222479999999
 20
736.64022399999999
 30
0.0
  0
SEQEND
  5
A84
  8
LAYER01
  6
CONTINUOUS
 62
     7
  0
ARC
  5
502
  8
LAYER01
  6
CONTINUOUS
 62
     7
 10
1426.615395
 20
731.64022399999999
 30
0.0
 40
30.0
 50
0.0
 51
90.0
  0
DIMENSION
  5
503
  8
LAYER01
 62
     7
  2
*D9
 10
1834.00279
 20
389.68506600000001
 30
0.0
 11
2062.3157209999999
 21
459.68506600000001
 31
0.0
 13
1880.00279
 23
533.81272200000001
 33
0.0
 14
1834.00279
 24
533.81272200000001
 34
0.0
  0
INSERT
  5
504
  8
LAYER01
  2
VP317010-G11
 10
0.0
 20
0.0
 30
0.0
  0
INSERT
  5
505
  8
LAYER01
  2
VP317010-G12
 10
0.0
 20
0.0
 30
0.0
  0
TEXT
  5
506
  8
LAYER01
  6
STRICHPUNKTIERT
 62
     7
 10
2312.637194290859
 20
-511.97024797260542
 30
0.0
 40
39.285955799999989
  1
http://www.mineralwerkstoff.de
  0
TEXT
  5
507
  8
LAYER01
  6
VERDECKT
 62
     1
 10
2993.0782810000001
 20
-758.874233
 30
0.0
 40
25.0
  1
A. Sprenger GmbH
  7
SIMPLEX
  0
TEXT
  5
508
  8
LAYER01
  6
CONTINUOUS
 62
     7
 10
2984.9681249999999
 20
-604.05256399999985
 30
0.0
 40
7.5
  1
Diese Zeichnung ist geistiges Eigentum der A. Sprenger GmbH
  7
SIMPLEX
  0
TEXT
  5
509
  8
LAYER01
  6
CONTINUOUS
 62
     7
 10
2984.9681249999999
 20
-616.90970700000003
 30
0.0
 40
7.5
  1
und urheberrechtlich geschützt. Ohne unsere Zustimmung darf 
  7
SIMPLEX
  0
TEXT
  5
50A
  8
LAYER01
  6
CONTINUOUS
 62
     7
 10
2984.9681249999999
 20
-629.76684999999998
 30
0.0
 40
7.5
  1
sie in keiner Form verwendet oder Dritten zugänglich gemacht
  7
SIMPLEX
  0
TEXT
  5
50B
  8
LAYER01
  6
CONTINUOUS
 62
     7
 10
2984.9681249999999
 20
-642.62399299999993
 30
0.0
 40
7.5
  1
werden. (§106 Urheberrecht)
  7
SIMPLEX
  0
TEXT
  5
50C
  8
LAYER01
  6
VERDECKT
 62
     1
 10
3059.0220089999998
 20
-694.39592100000004
 30
0.0
 40
10.0
  1
1 : 10 (DIN A3)
  7
SIMPLEX
  0
TEXT
  5
50D
  8
LAYER01
  6
VERDECKT
 62
     1
 10
2993.0782810000001
 20
-857.05711699999995
 30
0.0
 40
35.0
  1
VP-31-70-10
  7
SIMPLEX
  0
TEXT
  5
50E
  8
LAYER01
  6
VERDECKT
 62
     1
 10
2857.5693740000002
 20
-816.795568
 30
0.0
 40
10.0
  1
b.s.
  7
SIMPLEX
  0
TEXT
  5
50F
  8
LAYER01
  6
VERDECKT
 62
     1
 10
2761.4122179999999
 20
-816.75903099999994
 30
0.0
 40
10.0
  1
15.4.2021
  7
SIMPLEX
  0
TEXT
  5
510
  8
LAYER01
  6
VERDECKT
 62
     1
 10
3316.750603
 20
-694.39592100000004
 30
0.0
 40
10.0
  1
xxx.skd
  7
SIMPLEX
  0
DIMENSION
  5
511
  8
LAYER01
 62
     7
  2
*D13
 10
2346.5813389999998
 20
533.81272200000001
 30
0.0
 11
2276.5813389999998
 21
596.78741899999989
 31
0.0
 53
90.0
 13
2037.0027970000001
 23
659.80595900000003
 33
0.0
 14
2037.0027970000001
 24
533.81272200000001
 34
0.0
 50
90.0
  0
DIMENSION
  5
512
  8
LAYER01
 62
     7
  2
*D14
 10
2188.0279540000001
 20
659.80595900000003
 30
0.0
 11
2118.0279540000001
 21
605.75348599999995
 31
0.0
 53
90.0
 13
2037.0027970000001
 23
554.79936799999984
 33
0.0
 14
2037.0027970000001
 24
659.80595900000003
 34
0.0
 50
90.0
  0
DIMENSION
  5
513
  8
LAYER01
 62
     7
  2
*D15
 10
2037.0027970000001
 20
830.14757999999995
 30
0.0
 11
1857.726478
 21
900.14758000000006
 31
0.0
 13
1677.3784459999999
 23
659.43030299999987
 33
0.0
 14
2037.0027970000001
 24
659.43030299999987
 34
0.0
  0
DIMENSION
  5
514
  8
LAYER01
 62
     7
  2
*D16
 10
2012.0027909999999
 20
707.35791099999994
 30
0.0
 11
1857.310645
 21
777.35791099999994
 31
0.0
 13
1702.0027889999999
 23
659.80595900000003
 33
0.0
 14
2012.0027909999999
 24
659.80595900000003
 34
0.0
  0
LINE
  5
515
  8
LAYER01
  6
CONTINUOUS
 62
     7
 10
1834.00279
 20
533.81272200000001
 30
0.0
 11
1834.00279
 21
542.57288300000005
 31
0.0
  0
LINE
  5
516
  8
LAYER01
  6
CONTINUOUS
 62
     7
 10
1847.816274
 20
533.81272200000001
 30
0.0
 11
1866.1893070000001
 21
533.81272200000001
 31
0.0
  0
LINE
  5
517
  8
LAYER01
  6
CONTINUOUS
 62
     7
 10
1834.00279
 20
533.81272200000001
 30
0.0
 11
1847.816274
 21
533.81272200000001
 31
0.0
  0
LINE
  5
518
  8
LAYER01
  6
CONTINUOUS
 62
     7
 10
1847.102895
 20
546.40309999999999
 30
0.0
 11
1866.902685
 21
546.40309999999999
 31
0.0
  0
LINE
  5
519
  8
LAYER01
  6
CONTINUOUS
 62
     7
 10
1870.899328
 20
554.79936799999984
 30
0.0
 11
1843.106252
 21
554.79936799999984
 31
0.0
  0
LINE
  5
51A
  8
LAYER01
  6
CONTINUOUS
 62
     7
 10
2007.009636
 20
659.80595900000003
 30
0.0
 11
2012.0027909999999
 21
659.80595900000003
 31
0.0
  0
LINE
  5
51B
  8
LAYER01
  6
CONTINUOUS
 62
     7
 10
2019.734631
 20
578.05045499999994
 30
0.0
 11
2022.993039
 21
640.22464600000001
 31
0.0
  0
ARC
  5
51C
  8
LAYER01
  6
CONTINUOUS
 62
     7
 10
2030.982082
 20
639.80595900000003
 30
0.0
 40
8.0
 50
90.0
 51
177.0
  0
LINE
  5
51D
  8
LAYER01
  6
CONTINUOUS
 62
     7
 10
2037.0027970000001
 20
647.80595900000003
 30
0.0
 11
2030.9820870000001
 21
647.80595900000003
 31
0.0
  0
LINE
  5
51E
  8
LAYER01
  6
CONTINUOUS
 62
     7
 10
2037.0027970000001
 20
659.80595900000003
 30
0.0
 11
2037.0027970000001
 21
647.80595900000003
 31
0.0
  0
LINE
  5
51F
  8
LAYER01
  6
CONTINUOUS
 62
     7
 10
2037.0027970000001
 20
659.80595900000003
 30
0.0
 11
2012.0027909999999
 21
659.80595900000003
 31
0.0
  0
LINE
  5
520
  8
LAYER01
  6
CONTINUOUS
 62
     7
 10
2007.7510729999999
 20
578.67848600000002
 30
0.0
 11
2012.0027909999999
 21
659.80595900000003
 31
0.0
  0
ARC
  5
521
  8
LAYER01
  6
CONTINUOUS
 62
     7
 10
2002.757932
 20
578.94016599999998
 30
0.0
 40
5.0
 50
281.33669400000002
 51
357.0
  0
ARC
  5
522
  8
LAYER01
  6
CONTINUOUS
 62
     7
 10
2002.757932
 20
578.94016599999998
 30
0.0
 40
17.0
 50
281.33669400000002
 51
357.0
  0
LINE
  5
523
  8
LAYER01
  6
CONTINUOUS
 62
     7
 10
1891.7951239999991
 20
554.79936799999984
 30
0.0
 11
1870.899328
 21
554.79936799999984
 31
0.0
  0
LINE
  5
524
  8
LAYER01
  6
CONTINUOUS
 62
     7
 10
1843.106252
 20
554.79936799999984
 30
0.0
 11
1822.210456
 21
554.79936799999984
 31
0.0
  0
LINE
  5
525
  8
LAYER01
  6
CONTINUOUS
 62
     7
 10
1832.2167280000001
 20
546.40309999999999
 30
0.0
 11
1847.102895
 21
546.40309999999999
 31
0.0
  0
LINE
  5
526
  8
LAYER01
  6
CONTINUOUS
 62
     7
 10
1866.902685
 20
546.40309999999999
 30
0.0
 11
1881.788853
 21
546.40309999999999
 31
0.0
  0
LINE
  5
527
  8
LAYER01
  6
CONTINUOUS
 62
     7
 10
1866.1893070000001
 20
533.81272200000001
 30
0.0
 11
1880.00279
 21
533.81272200000001
 31
0.0
  0
ARC
  5
528
  8
LAYER01
  6
CONTINUOUS
 62
     7
 10
1885.0027899999991
 20
542.57288200000005
 30
0.0
 40
5.0
 50
130.0
 51
180.0
  0
LINE
  5
529
  8
LAYER01
  6
CONTINUOUS
 62
     7
 10
1880.00279
 20
542.57288300000005
 30
0.0
 11
1880.00279
 21
533.81272200000001
 31
0.0
  0
LINE
  5
52A
  8
LAYER01
  6
CONTINUOUS
 62
     7
 10
1897.0027889999999
 20
533.81272200000001
 30
0.0
 11
1880.00279
 21
533.81272200000001
 31
0.0
  0
LINE
  5
52B
  8
LAYER01
  6
CONTINUOUS
 62
     7
 10
1897.0027889999999
 20
536.78618099999994
 30
0.0
 11
1897.0027889999999
 21
533.81272200000001
 31
0.0
  0
ARC
  5
52C
  8
LAYER01
  6
CONTINUOUS
 62
     7
 10
1905.00279
 20
536.78618200000005
 30
0.0
 40
8.0
 50
95.0
 51
180.0
  0
LINE
  5
52D
  8
LAYER01
  6
CONTINUOUS
 62
     7
 10
1923.00279
 20
558.43737499999997
 30
0.0
 11
1894.5732849999999
 21
555.95011799999986
 31
0.0
  0
ARC
  5
52E
  8
LAYER01
  6
CONTINUOUS
 62
     7
 10
1895.0090640000001
 20
550.96914200000003
 30
0.0
 40
5.0
 50
95.0
 51
130.0
  0
LINE
  5
52F
  8
LAYER01
  6
CONTINUOUS
 62
     7
 10
1891.7951239999991
 20
554.79936799999984
 30
0.0
 11
1881.788853
 21
546.40309999999999
 31
0.0
  0
LINE
  5
530
  8
LAYER01
  6
CONTINUOUS
 62
     7
 10
1924.7221159999999
 20
546.54195700000002
 30
0.0
 11
1904.3055429999999
 21
544.75573999999995
 31
0.0
  0
ARC
  5
531
  8
LAYER01
  6
CONTINUOUS
 62
     7
 10
1829.00279
 20
542.57288200000005
 30
0.0
 40
5.0
 50
0.0
 51
50.0
  0
LINE
  5
532
  8
LAYER01
  6
CONTINUOUS
 62
     7
 10
1832.2167280000001
 20
546.40309999999999
 30
0.0
 11
1822.210456
 21
554.79936799999984
 31
0.0
  0
ARC
  5
533
  8
LAYER01
  6
CONTINUOUS
 62
     7
 10
1818.996517
 20
550.96914200000003
 30
0.0
 40
5.0
 50
50.0
 51
85.0
  0
LINE
  5
534
  8
LAYER01
  6
CONTINUOUS
 62
     7
 10
1819.4322950000001
 20
555.95011799999986
 30
0.0
 11
1791.0027909999999
 21
558.43737499999997
 31
0.0
  0
LINE
  5
535
  8
LAYER01
  6
CONTINUOUS
 62
     7
 10
1809.7000370000001
 20
544.75573999999995
 30
0.0
 11
1789.283465
 21
546.54195700000002
 31
0.0
  0
ARC
  5
536
  8
LAYER01
  6
CONTINUOUS
 62
     7
 10
1809.00279
 20
536.78618200000005
 30
0.0
 40
8.0
 50
0.0
 51
85.0
  0
LINE
  5
537
  8
LAYER01
  6
CONTINUOUS
 62
     7
 10
1817.0027909999999
 20
533.81272200000001
 30
0.0
 11
1817.0027909999999
 21
536.78618099999994
 31
0.0
  0
LINE
  5
538
  8
LAYER01
  6
CONTINUOUS
 62
     7
 10
1834.00279
 20
533.81272200000001
 30
0.0
 11
1817.0027909999999
 21
533.81272200000001
 31
0.0
  0
POLYLINE
  5
539
  8
LAYER01
  6
CONTINUOUS
 62
     7
 66
     1
 10
0.0
 20
0.0
 30
0.0
  0
VERTEX
  5
A85
  8
LAYER01
  6
CONTINUOUS
 62
     7
 10
1786.953229
 20
547.01374999999985
 30
0.0
  0
VERTEX
  5
A86
  8
LAYER01
  6
CONTINUOUS
 62
     7
 10
1787.0234889999999
 20
546.99974799999995
 30
0.0
  0
VERTEX
  5
A87
  8
LAYER01
  6
CONTINUOUS
 62
     7
 10
1787.093811
 20
546.98574000000008
 30
0.0
  0
VERTEX
  5
A88
  8
LAYER01
  6
CONTINUOUS
 62
     7
 10
1787.1642569999999
 20
546.97171899999989
 30
0.0
  0
VERTEX
  5
A89
  8
LAYER01
  6
CONTINUOUS
 62
     7
 10
1787.234886
 20
546.95767999999987
 30
0.0
  0
VERTEX
  5
A8A
  8
LAYER01
  6
CONTINUOUS
 62
     7
 10
1787.3057610000001
 20
546.94361499999991
 30
0.0
  0
VERTEX
  5
A8B
  8
LAYER01
  6
CONTINUOUS
 62
     7
 10
1787.3769440000001
 20
546.92951900000003
 30
0.0
  0
VERTEX
  5
A8C
  8
LAYER01
  6
CONTINUOUS
 62
     7
 10
1787.4484950000001
 20
546.91538500000001
 30
0.0
  0
VERTEX
  5
A8D
  8
LAYER01
  6
CONTINUOUS
 62
     7
 10
1787.5204759999999
 20
546.90120699999989
 30
0.0
  0
VERTEX
  5
A8E
  8
LAYER01
  6
CONTINUOUS
 62
     7
 10
1787.5929490000001
 20
546.886979
 30
0.0
  0
VERTEX
  5
A8F
  8
LAYER01
  6
CONTINUOUS
 62
     7
 10
1787.6659749999999
 20
546.87269400000002
 30
0.0
  0
VERTEX
  5
A90
  8
LAYER01
  6
CONTINUOUS
 62
     7
 10
1787.739615
 20
546.85834699999987
 30
0.0
  0
VERTEX
  5
A91
  8
LAYER01
  6
CONTINUOUS
 62
     7
 10
1787.8139309999999
 20
546.84393
 30
0.0
  0
VERTEX
  5
A92
  8
LAYER01
  6
CONTINUOUS
 62
     7
 10
1787.888985
 20
546.82943799999987
 30
0.0
  0
VERTEX
  5
A93
  8
LAYER01
  6
CONTINUOUS
 62
     7
 10
1787.964837
 20
546.81486399999994
 30
0.0
  0
VERTEX
  5
A94
  8
LAYER01
  6
CONTINUOUS
 62
     7
 10
1788.0415499999999
 20
546.8002019999999
 30
0.0
  0
VERTEX
  5
A95
  8
LAYER01
  6
CONTINUOUS
 62
     7
 10
1788.119185
 20
546.78544599999987
 30
0.0
  0
VERTEX
  5
A96
  8
LAYER01
  6
CONTINUOUS
 62
     7
 10
1788.1978019999999
 20
546.77058899999986
 30
0.0
  0
VERTEX
  5
A97
  8
LAYER01
  6
CONTINUOUS
 62
     7
 10
1788.277462
 20
546.75562600000001
 30
0.0
  0
VERTEX
  5
A98
  8
LAYER01
  6
CONTINUOUS
 62
     7
 10
1788.35816
 20
546.74055599999986
 30
0.0
  0
VERTEX
  5
A99
  8
LAYER01
  6
CONTINUOUS
 62
     7
 10
1788.439826
 20
546.72538799999995
 30
0.0
  0
VERTEX
  5
A9A
  8
LAYER01
  6
CONTINUOUS
 62
     7
 10
1788.522385
 20
546.71012800000005
 30
0.0
  0
VERTEX
  5
A9B
  8
LAYER01
  6
CONTINUOUS
 62
     7
 10
1788.6057619999999
 20
546.69478400000003
 30
0.0
  0
VERTEX
  5
A9C
  8
LAYER01
  6
CONTINUOUS
 62
     7
 10
1788.689883
 20
546.67936499999996
 30
0.0
  0
VERTEX
  5
A9D
  8
LAYER01
  6
CONTINUOUS
 62
     7
 10
1788.774674
 20
546.66387599999985
 30
0.0
  0
VERTEX
  5
A9E
  8
LAYER01
  6
CONTINUOUS
 62
     7
 10
1788.86006
 20
546.64832699999999
 30
0.0
  0
VERTEX
  5
A9F
  8
LAYER01
  6
CONTINUOUS
 62
     7
 10
1788.9459670000001
 20
546.63272500000005
 30
0.0
  0
VERTEX
  5
AA0
  8
LAYER01
  6
CONTINUOUS
 62
     7
 10
1789.03232
 20
546.61707699999988
 30
0.0
  0
VERTEX
  5
AA1
  8
LAYER01
  6
CONTINUOUS
 62
     7
 10
1789.1190449999999
 20
546.60139100000004
 30
0.0
  0
VERTEX
  5
AA2
  8
LAYER01
  6
CONTINUOUS
 62
     7
 10
1789.2060690000001
 20
546.58567400000004
 30
0.0
  0
VERTEX
  5
AA3
  8
LAYER01
  6
CONTINUOUS
 62
     7
 10
1789.2933149999999
 20
546.56993499999999
 30
0.0
  0
VERTEX
  5
AA4
  8
LAYER01
  6
CONTINUOUS
 62
     7
 10
1789.3807099999999
 20
546.55417999999986
 30
0.0
  0
VERTEX
  5
AA5
  8
LAYER01
  6
CONTINUOUS
 62
     7
 10
1789.4681800000001
 20
546.53841799999998
 30
0.0
  0
SEQEND
  5
AA6
  8
LAYER01
  6
CONTINUOUS
 62
     7
  0
LINE
  5
55C
  8
LAYER01
  6
CONTINUOUS
 62
     7
 10
1702.0027889999999
 20
659.80595900000003
 30
0.0
 11
1706.9959449999999
 21
659.80595900000003
 31
0.0
  0
ARC
  5
55D
  8
LAYER01
  6
CONTINUOUS
 62
     7
 10
1711.2476489999999
 20
578.94016599999998
 30
0.0
 40
5.0
 50
183.0
 51
258.66330599999998
  0
LINE
  5
55E
  8
LAYER01
  6
CONTINUOUS
 62
     7
 10
1706.254508
 20
578.67848600000002
 30
0.0
 11
1702.0027889999999
 21
659.80595900000003
 31
0.0
  0
LINE
  5
55F
  8
LAYER01
  6
CONTINUOUS
 62
     7
 10
1702.0027889999999
 20
659.80595900000003
 30
0.0
 11
1677.0027829999999
 21
659.80595900000003
 31
0.0
  0
LINE
  5
560
  8
LAYER01
  6
CONTINUOUS
 62
     7
 10
1677.0027829999999
 20
647.80595900000003
 30
0.0
 11
1677.0027829999999
 21
659.80595900000003
 31
0.0
  0
LINE
  5
561
  8
LAYER01
  6
CONTINUOUS
 62
     7
 10
1683.0234929999999
 20
647.80595900000003
 30
0.0
 11
1677.0027829999999
 21
647.80595900000003
 31
0.0
  0
ARC
  5
562
  8
LAYER01
  6
CONTINUOUS
 62
     7
 10
1683.0234989999999
 20
639.80595900000003
 30
0.0
 40
8.0
 50
3.0
 51
90.0
  0
LINE
  5
563
  8
LAYER01
  6
CONTINUOUS
 62
     7
 10
1694.270949
 20
578.05045499999994
 30
0.0
 11
1691.0125419999999
 21
640.22464600000001
 31
0.0
  0
ARC
  5
564
  8
LAYER01
  6
CONTINUOUS
 62
     7
 10
1711.2476489999999
 20
578.94016599999998
 30
0.0
 40
17.0
 50
183.0
 51
258.66330599999998
  0
INSERT
  5
565
  8
LAYER01
  2
VP317010-G18
 10
0.0
 20
0.0
 30
0.0
  0
POLYLINE
  5
566
  8
LAYER01
  6
CONTINUOUS
 62
     7
 66
     1
 10
0.0
 20
0.0
 30
0.0
  0
VERTEX
  5
AA7
  8
LAYER01
  6
CONTINUOUS
 62
     7
 10
1791.0021240000001
 20
558.43737499999997
 30
0.0
  0
VERTEX
  5
AA8
  8
LAYER01
  6
CONTINUOUS
 62
     7
 10
1787.7839180000001
 20
559.08739000000003
 30
0.0
  0
VERTEX
  5
AA9
  8
LAYER01
  6
CONTINUOUS
 62
     7
 10
1784.5311839999999
 20
559.73740399999997
 30
0.0
  0
VERTEX
  5
AAA
  8
LAYER01
  6
CONTINUOUS
 62
     7
 10
1781.246903
 20
560.38741800000003
 30
0.0
  0
VERTEX
  5
AAB
  8
LAYER01
  6
CONTINUOUS
 62
     7
 10
1777.9340520000001
 20
561.03743299999985
 30
0.0
  0
VERTEX
  5
AAC
  8
LAYER01
  6
CONTINUOUS
 62
     7
 10
1774.595609
 20
561.68744699999991
 30
0.0
  0
VERTEX
  5
AAD
  8
LAYER01
  6
CONTINUOUS
 62
     7
 10
1771.234555
 20
562.33746199999985
 30
0.0
  0
VERTEX
  5
AAE
  8
LAYER01
  6
CONTINUOUS
 62
     7
 10
1767.8538679999999
 20
562.9874759999999
 30
0.0
  0
VERTEX
  5
AAF
  8
LAYER01
  6
CONTINUOUS
 62
     7
 10
1764.4565259999999
 20
563.63748999999996
 30
0.0
  0
VERTEX
  5
AB0
  8
LAYER01
  6
CONTINUOUS
 62
     7
 10
1761.045509
 20
564.2875049999999
 30
0.0
  0
VERTEX
  5
AB1
  8
LAYER01
  6
CONTINUOUS
 62
     7
 10
1757.623795
 20
564.93751899999995
 30
0.0
  0
VERTEX
  5
AB2
  8
LAYER01
  6
CONTINUOUS
 62
     7
 10
1754.1943630000001
 20
565.58753400000001
 30
0.0
  0
VERTEX
  5
AB3
  8
LAYER01
  6
CONTINUOUS
 62
     7
 10
1750.760192
 20
566.23754799999995
 30
0.0
  0
VERTEX
  5
AB4
  8
LAYER01
  6
CONTINUOUS
 62
     7
 10
1747.324261
 20
566.887562
 30
0.0
  0
VERTEX
  5
AB5
  8
LAYER01
  6
CONTINUOUS
 62
     7
 10
1743.8895480000001
 20
567.53757699999994
 30
0.0
  0
VERTEX
  5
AB6
  8
LAYER01
  6
CONTINUOUS
 62
     7
 10
1740.4590330000001
 20
568.187591
 30
0.0
  0
VERTEX
  5
AB7
  8
LAYER01
  6
CONTINUOUS
 62
     7
 10
1737.035693
 20
568.83760599999994
 30
0.0
  0
VERTEX
  5
AB8
  8
LAYER01
  6
CONTINUOUS
 62
     7
 10
1733.622509
 20
569.48761999999999
 30
0.0
  0
VERTEX
  5
AB9
  8
LAYER01
  6
CONTINUOUS
 62
     7
 10
1730.222458
 20
570.13763399999993
 30
0.0
  0
VERTEX
  5
ABA
  8
LAYER01
  6
CONTINUOUS
 62
     7
 10
1726.8385209999999
 20
570.78764899999999
 30
0.0
  0
VERTEX
  5
ABB
  8
LAYER01
  6
CONTINUOUS
 62
     7
 10
1723.4736740000001
 20
571.43766300000004
 30
0.0
  0
VERTEX
  5
ABC
  8
LAYER01
  6
CONTINUOUS
 62
     7
 10
1720.1308979999999
 20
572.08767799999998
 30
0.0
  0
VERTEX
  5
ABD
  8
LAYER01
  6
CONTINUOUS
 62
     7
 10
1716.8131699999999
 20
572.73769200000004
 30
0.0
  0
VERTEX
  5
ABE
  8
LAYER01
  6
CONTINUOUS
 62
     7
 10
1713.523471
 20
573.38770599999998
 30
0.0
  0
VERTEX
  5
ABF
  8
LAYER01
  6
CONTINUOUS
 62
     7
 10
1710.264778
 20
574.03772100000003
 30
0.0
  0
SEQEND
  5
AC0
  8
LAYER01
  6
CONTINUOUS
 62
     7
  0
POLYLINE
  5
581
  8
LAYER01
  6
CONTINUOUS
 62
     7
 66
     1
 10
0.0
 20
0.0
 30
0.0
  0
VERTEX
  5
AC1
  8
LAYER01
  6
CONTINUOUS
 62
     7
 10
1789.274964
 20
546.54314299999987
 30
0.0
  0
VERTEX
  5
AC2
  8
LAYER01
  6
CONTINUOUS
 62
     7
 10
1788.3519670000001
 20
546.73038899999995
 30
0.0
  0
VERTEX
  5
AC3
  8
LAYER01
  6
CONTINUOUS
 62
     7
 10
1787.4288790000001
 20
546.91716199999996
 30
0.0
  0
VERTEX
  5
AC4
  8
LAYER01
  6
CONTINUOUS
 62
     7
 10
1786.5056979999999
 20
547.10345800000005
 30
0.0
  0
VERTEX
  5
AC5
  8
LAYER01
  6
CONTINUOUS
 62
     7
 10
1785.5824239999999
 20
547.28927699999986
 30
0.0
  0
VERTEX
  5
AC6
  8
LAYER01
  6
CONTINUOUS
 62
     7
 10
1784.6590570000001
 20
547.47461399999986
 30
0.0
  0
VERTEX
  5
AC7
  8
LAYER01
  6
CONTINUOUS
 62
     7
 10
1783.7355970000001
 20
547.65946699999995
 30
0.0
  0
VERTEX
  5
AC8
  8
LAYER01
  6
CONTINUOUS
 62
     7
 10
1782.812042
 20
547.84383400000002
 30
0.0
  0
VERTEX
  5
AC9
  8
LAYER01
  6
CONTINUOUS
 62
     7
 10
1781.8883920000001
 20
548.02771200000007
 30
0.0
  0
VERTEX
  5
ACA
  8
LAYER01
  6
CONTINUOUS
 62
     7
 10
1780.9646459999999
 20
548.21109699999988
 30
0.0
  0
VERTEX
  5
ACB
  8
LAYER01
  6
CONTINUOUS
 62
     7
 10
1780.0408050000001
 20
548.39398899999992
 30
0.0
  0
VERTEX
  5
ACC
  8
LAYER01
  6
CONTINUOUS
 62
     7
 10
1779.1168680000001
 20
548.57638299999985
 30
0.0
  0
VERTEX
  5
ACD
  8
LAYER01
  6
CONTINUOUS
 62
     7
 10
1778.1928399999999
 20
548.75831500000004
 30
0.0
  0
VERTEX
  5
ACE
  8
LAYER01
  6
CONTINUOUS
 62
     7
 10
1777.2687330000001
 20
548.93983400000002
 30
0.0
  0
VERTEX
  5
ACF
  8
LAYER01
  6
CONTINUOUS
 62
     7
 10
1776.344548
 20
549.12095299999987
 30
0.0
  0
VERTEX
  5
AD0
  8
LAYER01
  6
CONTINUOUS
 62
     7
 10
1775.420288
 20
549.30168499999991
 30
0.0
  0
VERTEX
  5
AD1
  8
LAYER01
  6
CONTINUOUS
 62
     7
 10
1774.495956
 20
549.48204599999985
 30
0.0
  0
VERTEX
  5
AD2
  8
LAYER01
  6
CONTINUOUS
 62
     7
 10
1773.571555
 20
549.66205000000002
 30
0.0
  0
VERTEX
  5
AD3
  8
LAYER01
  6
CONTINUOUS
 62
     7
 10
1772.6470870000001
 20
549.84170999999992
 30
0.0
  0
VERTEX
  5
AD4
  8
LAYER01
  6
CONTINUOUS
 62
     7
 10
1771.7225550000001
 20
550.02104000000008
 30
0.0
  0
VERTEX
  5
AD5
  8
LAYER01
  6
CONTINUOUS
 62
     7
 10
1770.797963
 20
550.2000559999999
 30
0.0
  0
VERTEX
  5
AD6
  8
LAYER01
  6
CONTINUOUS
 62
     7
 10
1769.8733110000001
 20
550.37877000000003
 30
0.0
  0
VERTEX
  5
AD7
  8
LAYER01
  6
CONTINUOUS
 62
     7
 10
1768.9486039999999
 20
550.55719699999997
 30
0.0
  0
VERTEX
  5
AD8
  8
LAYER01
  6
CONTINUOUS
 62
     7
 10
1768.0238449999999
 20
550.73535199999992
 30
0.0
  0
VERTEX
  5
AD9
  8
LAYER01
  6
CONTINUOUS
 62
     7
 10
1767.099035
 20
550.91324699999996
 30
0.0
  0
VERTEX
  5
ADA
  8
LAYER01
  6
CONTINUOUS
 62
     7
 10
1766.174176
 20
551.09089500000005
 30
0.0
  0
VERTEX
  5
ADB
  8
LAYER01
  6
CONTINUOUS
 62
     7
 10
1765.249272
 20
551.26830599999994
 30
0.0
  0
VERTEX
  5
ADC
  8
LAYER01
  6
CONTINUOUS
 62
     7
 10
1764.324325
 20
551.44549099999995
 30
0.0
  0
VERTEX
  5
ADD
  8
LAYER01
  6
CONTINUOUS
 62
     7
 10
1763.3993359999999
 20
551.62246300000004
 30
0.0
  0
VERTEX
  5
ADE
  8
LAYER01
  6
CONTINUOUS
 62
     7
 10
1762.474307
 20
551.79923200000007
 30
0.0
  0
VERTEX
  5
ADF
  8
LAYER01
  6
CONTINUOUS
 62
     7
 10
1761.5492409999999
 20
551.9758099999998
 30
0.0
  0
VERTEX
  5
AE0
  8
LAYER01
  6
CONTINUOUS
 62
     7
 10
1760.624141
 20
552.15220799999986
 30
0.0
  0
VERTEX
  5
AE1
  8
LAYER01
  6
CONTINUOUS
 62
     7
 10
1759.699008
 20
552.32843799999989
 30
0.0
  0
VERTEX
  5
AE2
  8
LAYER01
  6
CONTINUOUS
 62
     7
 10
1758.7738440000001
 20
552.50450999999987
 30
0.0
  0
VERTEX
  5
AE3
  8
LAYER01
  6
CONTINUOUS
 62
     7
 10
1757.8486519999999
 20
552.68043699999987
 30
0.0
  0
VERTEX
  5
AE4
  8
LAYER01
  6
CONTINUOUS
 62
     7
 10
1756.9234349999999
 20
552.85622899999987
 30
0.0
  0
VERTEX
  5
AE5
  8
LAYER01
  6
CONTINUOUS
 62
     7
 10
1755.9981929999999
 20
553.03189799999996
 30
0.0
  0
VERTEX
  5
AE6
  8
LAYER01
  6
CONTINUOUS
 62
     7
 10
1755.0729289999999
 20
553.20745599999987
 30
0.0
  0
VERTEX
  5
AE7
  8
LAYER01
  6
CONTINUOUS
 62
     7
 10
1754.1476459999999
 20
553.38291299999992
 30
0.0
  0
VERTEX
  5
AE8
  8
LAYER01
  6
CONTINUOUS
 62
     7
 10
1753.222346
 20
553.55828099999997
 30
0.0
  0
VERTEX
  5
AE9
  8
LAYER01
  6
CONTINUOUS
 62
     7
 10
1752.2970310000001
 20
553.73357199999987
 30
0.0
  0
VERTEX
  5
AEA
  8
LAYER01
  6
CONTINUOUS
 62
     7
 10
1751.371703
 20
553.90879600000005
 30
0.0
  0
VERTEX
  5
AEB
  8
LAYER01
  6
CONTINUOUS
 62
     7
 10
1750.4463639999999
 20
554.08396500000003
 30
0.0
  0
VERTEX
  5
AEC
  8
LAYER01
  6
CONTINUOUS
 62
     7
 10
1749.521017
 20
554.25909100000001
 30
0.0
  0
VERTEX
  5
AED
  8
LAYER01
  6
CONTINUOUS
 62
     7
 10
1748.5956639999999
 20
554.43418499999996
 30
0.0
  0
VERTEX
  5
AEE
  8
LAYER01
  6
CONTINUOUS
 62
     7
 10
1747.670306
 20
554.60925599999985
 30
0.0
  0
VERTEX
  5
AEF
  8
LAYER01
  6
CONTINUOUS
 62
     7
 10
1746.7449449999999
 20
554.784311
 30
0.0
  0
VERTEX
  5
AF0
  8
LAYER01
  6
CONTINUOUS
 62
     7
 10
1745.8195840000001
 20
554.95936299999994
 30
0.0
  0
VERTEX
  5
AF1
  8
LAYER01
  6
CONTINUOUS
 62
     7
 10
1744.8942239999999
 20
555.13442199999986
 30
0.0
  0
VERTEX
  5
AF2
  8
LAYER01
  6
CONTINUOUS
 62
     7
 10
1743.968867
 20
555.30949899999996
 30
0.0
  0
VERTEX
  5
AF3
  8
LAYER01
  6
CONTINUOUS
 62
     7
 10
1743.043516
 20
555.48460499999999
 30
0.0
  0
VERTEX
  5
AF4
  8
LAYER01
  6
CONTINUOUS
 62
     7
 10
1742.1181730000001
 20
555.65975100000003
 30
0.0
  0
VERTEX
  5
AF5
  8
LAYER01
  6
CONTINUOUS
 62
     7
 10
1741.192839
 20
555.83494699999994
 30
0.0
  0
VERTEX
  5
AF6
  8
LAYER01
  6
CONTINUOUS
 62
     7
 10
1740.267517
 20
556.01020499999993
 30
0.0
  0
VERTEX
  5
AF7
  8
LAYER01
  6
CONTINUOUS
 62
     7
 10
1739.34221
 20
556.18553599999996
 30
0.0
  0
VERTEX
  5
AF8
  8
LAYER01
  6
CONTINUOUS
 62
     7
 10
1738.4169179999999
 20
556.36095
 30
0.0
  0
VERTEX
  5
AF9
  8
LAYER01
  6
CONTINUOUS
 62
     7
 10
1737.4916449999989
 20
556.53645900000004
 30
0.0
  0
VERTEX
  5
AFA
  8
LAYER01
  6
CONTINUOUS
 62
     7
 10
1736.566392
 20
556.71207199999992
 30
0.0
  0
VERTEX
  5
AFB
  8
LAYER01
  6
CONTINUOUS
 62
     7
 10
1735.641161
 20
556.88780199999985
 30
0.0
  0
VERTEX
  5
AFC
  8
LAYER01
  6
CONTINUOUS
 62
     7
 10
1734.7159549999999
 20
557.06365900000003
 30
0.0
  0
VERTEX
  5
AFD
  8
LAYER01
  6
CONTINUOUS
 62
     7
 10
1733.7907749999999
 20
557.23965399999986
 30
0.0
  0
VERTEX
  5
AFE
  8
LAYER01
  6
CONTINUOUS
 62
     7
 10
1732.8656249999999
 20
557.41579799999988
 30
0.0
  0
VERTEX
  5
AFF
  8
LAYER01
  6
CONTINUOUS
 62
     7
 10
1731.940505
 20
557.59210199999995
 30
0.0
  0
VERTEX
  5
B00
  8
LAYER01
  6
CONTINUOUS
 62
     7
 10
1731.015418
 20
557.76857599999994
 30
0.0
  0
VERTEX
  5
B01
  8
LAYER01
  6
CONTINUOUS
 62
     7
 10
1730.0903659999999
 20
557.94523200000003
 30
0.0
  0
VERTEX
  5
B02
  8
LAYER01
  6
CONTINUOUS
 62
     7
 10
1729.1653510000001
 20
558.12207999999987
 30
0.0
  0
VERTEX
  5
B03
  8
LAYER01
  6
CONTINUOUS
 62
     7
 10
1728.240376
 20
558.29913199999987
 30
0.0
  0
VERTEX
  5
B04
  8
LAYER01
  6
CONTINUOUS
 62
     7
 10
1727.315441
 20
558.47639600000002
 30
0.0
  0
VERTEX
  5
B05
  8
LAYER01
  6
CONTINUOUS
 62
     7
 10
1726.390549
 20
558.65388199999995
 30
0.0
  0
VERTEX
  5
B06
  8
LAYER01
  6
CONTINUOUS
 62
     7
 10
1725.4657030000001
 20
558.83160299999986
 30
0.0
  0
VERTEX
  5
B07
  8
LAYER01
  6
CONTINUOUS
 62
     7
 10
1724.5409050000001
 20
559.00957500000004
 30
0.0
  0
VERTEX
  5
B08
  8
LAYER01
  6
CONTINUOUS
 62
     7
 10
1723.616158
 20
559.18781100000001
 30
0.0
  0
VERTEX
  5
B09
  8
LAYER01
  6
CONTINUOUS
 62
     7
 10
1722.6914650000001
 20
559.36632599999984
 30
0.0
  0
VERTEX
  5
B0A
  8
LAYER01
  6
CONTINUOUS
 62
     7
 10
1721.766828
 20
559.54513200000008
 30
0.0
  0
VERTEX
  5
B0B
  8
LAYER01
  6
CONTINUOUS
 62
     7
 10
1720.842251
 20
559.724245
 30
0.0
  0
VERTEX
  5
B0C
  8
LAYER01
  6
CONTINUOUS
 62
     7
 10
1719.917735
 20
559.90367900000001
 30
0.0
  0
VERTEX
  5
B0D
  8
LAYER01
  6
CONTINUOUS
 62
     7
 10
1718.9932839999999
 20
560.08344699999986
 30
0.0
  0
VERTEX
  5
B0E
  8
LAYER01
  6
CONTINUOUS
 62
     7
 10
1718.0688990000001
 20
560.26356299999986
 30
0.0
  0
VERTEX
  5
B0F
  8
LAYER01
  6
CONTINUOUS
 62
     7
 10
1717.144585
 20
560.44404099999986
 30
0.0
  0
VERTEX
  5
B10
  8
LAYER01
  6
CONTINUOUS
 62
     7
 10
1716.2203440000001
 20
560.62489600000004
 30
0.0
  0
VERTEX
  5
B11
  8
LAYER01
  6
CONTINUOUS
 62
     7
 10
1715.2961780000001
 20
560.80614200000002
 30
0.0
  0
VERTEX
  5
B12
  8
LAYER01
  6
CONTINUOUS
 62
     7
 10
1714.3720900000001
 20
560.98779300000001
 30
0.0
  0
VERTEX
  5
B13
  8
LAYER01
  6
CONTINUOUS
 62
     7
 10
1713.448083
 20
561.16986100000008
 30
0.0
  0
VERTEX
  5
B14
  8
LAYER01
  6
CONTINUOUS
 62
     7
 10
1712.5241590000001
 20
561.35236299999985
 30
0.0
  0
VERTEX
  5
B15
  8
LAYER01
  6
CONTINUOUS
 62
     7
 10
1711.600322
 20
561.53531199999986
 30
0.0
  0
VERTEX
  5
B16
  8
LAYER01
  6
CONTINUOUS
 62
     7
 10
1710.676573
 20
561.71872099999985
 30
0.0
  0
VERTEX
  5
B17
  8
LAYER01
  6
CONTINUOUS
 62
     7
 10
1709.7529159999999
 20
561.90260499999999
 30
0.0
  0
VERTEX
  5
B18
  8
LAYER01
  6
CONTINUOUS
 62
     7
 10
1708.829354
 20
562.08697699999993
 30
0.0
  0
VERTEX
  5
B19
  8
LAYER01
  6
CONTINUOUS
 62
     7
 10
1707.905888
 20
562.27185300000008
 30
0.0
  0
SEQEND
  5
B1A
  8
LAYER01
  6
CONTINUOUS
 62
     7
  0
POLYLINE
  5
5DC
  8
LAYER01
  6
CONTINUOUS
 62
     7
 66
     1
 10
0.0
 20
0.0
 30
0.0
  0
VERTEX
  5
B1B
  8
LAYER01
  6
CONTINUOUS
 62
     7
 10
2006.0996920000009
 20
562.27185300000008
 30
0.0
  0
VERTEX
  5
B1C
  8
LAYER01
  6
CONTINUOUS
 62
     7
 10
2005.176226000001
 20
562.08697699999993
 30
0.0
  0
VERTEX
  5
B1D
  8
LAYER01
  6
CONTINUOUS
 62
     7
 10
2004.2526640000001
 20
561.90260499999999
 30
0.0
  0
VERTEX
  5
B1E
  8
LAYER01
  6
CONTINUOUS
 62
     7
 10
2003.329007
 20
561.71872099999985
 30
0.0
  0
VERTEX
  5
B1F
  8
LAYER01
  6
CONTINUOUS
 62
     7
 10
2002.4052589999999
 20
561.53531199999986
 30
0.0
  0
VERTEX
  5
B20
  8
LAYER01
  6
CONTINUOUS
 62
     7
 10
2001.481421
 20
561.35236299999985
 30
0.0
  0
VERTEX
  5
B21
  8
LAYER01
  6
CONTINUOUS
 62
     7
 10
2000.5574979999999
 20
561.16986100000008
 30
0.0
  0
VERTEX
  5
B22
  8
LAYER01
  6
CONTINUOUS
 62
     7
 10
1999.6334899999999
 20
560.98779300000001
 30
0.0
  0
VERTEX
  5
B23
  8
LAYER01
  6
CONTINUOUS
 62
     7
 10
1998.709402
 20
560.80614200000002
 30
0.0
  0
VERTEX
  5
B24
  8
LAYER01
  6
CONTINUOUS
 62
     7
 10
1997.7852359999999
 20
560.62489600000004
 30
0.0
  0
VERTEX
  5
B25
  8
LAYER01
  6
CONTINUOUS
 62
     7
 10
1996.860995
 20
560.44404099999986
 30
0.0
  0
VERTEX
  5
B26
  8
LAYER01
  6
CONTINUOUS
 62
     7
 10
1995.9366809999999
 20
560.26356299999986
 30
0.0
  0
VERTEX
  5
B27
  8
LAYER01
  6
CONTINUOUS
 62
     7
 10
1995.012297
 20
560.08344699999986
 30
0.0
  0
VERTEX
  5
B28
  8
LAYER01
  6
CONTINUOUS
 62
     7
 10
1994.0878459999999
 20
559.90367900000001
 30
0.0
  0
VERTEX
  5
B29
  8
LAYER01
  6
CONTINUOUS
 62
     7
 10
1993.1633300000001
 20
559.724245
 30
0.0
  0
VERTEX
  5
B2A
  8
LAYER01
  6
CONTINUOUS
 62
     7
 10
1992.238752
 20
559.54513200000008
 30
0.0
  0
VERTEX
  5
B2B
  8
LAYER01
  6
CONTINUOUS
 62
     7
 10
1991.314114999999
 20
559.36632599999984
 30
0.0
  0
VERTEX
  5
B2C
  8
LAYER01
  6
CONTINUOUS
 62
     7
 10
1990.389422
 20
559.18781100000001
 30
0.0
  0
VERTEX
  5
B2D
  8
LAYER01
  6
CONTINUOUS
 62
     7
 10
1989.4646749999999
 20
559.00957500000004
 30
0.0
  0
VERTEX
  5
B2E
  8
LAYER01
  6
CONTINUOUS
 62
     7
 10
1988.5398769999999
 20
558.83160299999986
 30
0.0
  0
VERTEX
  5
B2F
  8
LAYER01
  6
CONTINUOUS
 62
     7
 10
1987.615031
 20
558.65388199999995
 30
0.0
  0
VERTEX
  5
B30
  8
LAYER01
  6
CONTINUOUS
 62
     7
 10
1986.690139
 20
558.47639600000002
 30
0.0
  0
VERTEX
  5
B31
  8
LAYER01
  6
CONTINUOUS
 62
     7
 10
1985.7652049999999
 20
558.29913199999987
 30
0.0
  0
VERTEX
  5
B32
  8
LAYER01
  6
CONTINUOUS
 62
     7
 10
1984.8402289999999
 20
558.12207999999987
 30
0.0
  0
VERTEX
  5
B33
  8
LAYER01
  6
CONTINUOUS
 62
     7
 10
1983.9152140000001
 20
557.94523200000003
 30
0.0
  0
VERTEX
  5
B34
  8
LAYER01
  6
CONTINUOUS
 62
     7
 10
1982.9901629999999
 20
557.76857599999994
 30
0.0
  0
VERTEX
  5
B35
  8
LAYER01
  6
CONTINUOUS
 62
     7
 10
1982.0650760000001
 20
557.59210199999995
 30
0.0
  0
VERTEX
  5
B36
  8
LAYER01
  6
CONTINUOUS
 62
     7
 10
1981.1399559999991
 20
557.41579799999988
 30
0.0
  0
VERTEX
  5
B37
  8
LAYER01
  6
CONTINUOUS
 62
     7
 10
1980.2148050000001
 20
557.23965399999986
 30
0.0
  0
VERTEX
  5
B38
  8
LAYER01
  6
CONTINUOUS
 62
     7
 10
1979.289626
 20
557.06365900000003
 30
0.0
  0
VERTEX
  5
B39
  8
LAYER01
  6
CONTINUOUS
 62
     7
 10
1978.364419
 20
556.88780199999985
 30
0.0
  0
VERTEX
  5
B3A
  8
LAYER01
  6
CONTINUOUS
 62
     7
 10
1977.4391889999999
 20
556.71207199999992
 30
0.0
  0
VERTEX
  5
B3B
  8
LAYER01
  6
CONTINUOUS
 62
     7
 10
1976.5139360000001
 20
556.53645900000004
 30
0.0
  0
VERTEX
  5
B3C
  8
LAYER01
  6
CONTINUOUS
 62
     7
 10
1975.5886620000001
 20
556.36095
 30
0.0
  0
VERTEX
  5
B3D
  8
LAYER01
  6
CONTINUOUS
 62
     7
 10
1974.6633710000001
 20
556.18553599999996
 30
0.0
  0
VERTEX
  5
B3E
  8
LAYER01
  6
CONTINUOUS
 62
     7
 10
1973.738063
 20
556.01020499999993
 30
0.0
  0
VERTEX
  5
B3F
  8
LAYER01
  6
CONTINUOUS
 62
     7
 10
1972.812741
 20
555.83494699999994
 30
0.0
  0
VERTEX
  5
B40
  8
LAYER01
  6
CONTINUOUS
 62
     7
 10
1971.8874080000001
 20
555.65975100000003
 30
0.0
  0
VERTEX
  5
B41
  8
LAYER01
  6
CONTINUOUS
 62
     7
 10
1970.9620640000001
 20
555.48460499999999
 30
0.0
  0
VERTEX
  5
B42
  8
LAYER01
  6
CONTINUOUS
 62
     7
 10
1970.036713
 20
555.30949899999996
 30
0.0
  0
VERTEX
  5
B43
  8
LAYER01
  6
CONTINUOUS
 62
     7
 10
1969.111357
 20
555.13442199999986
 30
0.0
  0
VERTEX
  5
B44
  8
LAYER01
  6
CONTINUOUS
 62
     7
 10
1968.185997
 20
554.95936299999994
 30
0.0
  0
VERTEX
  5
B45
  8
LAYER01
  6
CONTINUOUS
 62
     7
 10
1967.2606350000001
 20
554.784311
 30
0.0
  0
VERTEX
  5
B46
  8
LAYER01
  6
CONTINUOUS
 62
     7
 10
1966.335274
 20
554.60925599999985
 30
0.0
  0
VERTEX
  5
B47
  8
LAYER01
  6
CONTINUOUS
 62
     7
 10
1965.409917
 20
554.43418499999996
 30
0.0
  0
VERTEX
  5
B48
  8
LAYER01
  6
CONTINUOUS
 62
     7
 10
1964.484563
 20
554.25909100000001
 30
0.0
  0
VERTEX
  5
B49
  8
LAYER01
  6
CONTINUOUS
 62
     7
 10
1963.5592160000001
 20
554.08396500000003
 30
0.0
  0
VERTEX
  5
B4A
  8
LAYER01
  6
CONTINUOUS
 62
     7
 10
1962.633877
 20
553.90879600000005
 30
0.0
  0
VERTEX
  5
B4B
  8
LAYER01
  6
CONTINUOUS
 62
     7
 10
1961.7085489999999
 20
553.73357199999987
 30
0.0
  0
VERTEX
  5
B4C
  8
LAYER01
  6
CONTINUOUS
 62
     7
 10
1960.783234
 20
553.55828099999997
 30
0.0
  0
VERTEX
  5
B4D
  8
LAYER01
  6
CONTINUOUS
 62
     7
 10
1959.8579339999999
 20
553.38291299999992
 30
0.0
  0
VERTEX
  5
B4E
  8
LAYER01
  6
CONTINUOUS
 62
     7
 10
1958.9326510000001
 20
553.20745599999987
 30
0.0
  0
VERTEX
  5
B4F
  8
LAYER01
  6
CONTINUOUS
 62
     7
 10
1958.007388
 20
553.03189799999996
 30
0.0
  0
VERTEX
  5
B50
  8
LAYER01
  6
CONTINUOUS
 62
     7
 10
1957.082146
 20
552.85622899999987
 30
0.0
  0
VERTEX
  5
B51
  8
LAYER01
  6
CONTINUOUS
 62
     7
 10
1956.1569280000001
 20
552.68043699999987
 30
0.0
  0
VERTEX
  5
B52
  8
LAYER01
  6
CONTINUOUS
 62
     7
 10
1955.231736
 20
552.50450999999987
 30
0.0
  0
VERTEX
  5
B53
  8
LAYER01
  6
CONTINUOUS
 62
     7
 10
1954.306572
 20
552.32843799999989
 30
0.0
  0
VERTEX
  5
B54
  8
LAYER01
  6
CONTINUOUS
 62
     7
 10
1953.381439
 20
552.15220799999986
 30
0.0
  0
VERTEX
  5
B55
  8
LAYER01
  6
CONTINUOUS
 62
     7
 10
1952.4563390000001
 20
551.9758099999998
 30
0.0
  0
VERTEX
  5
B56
  8
LAYER01
  6
CONTINUOUS
 62
     7
 10
1951.5312730000001
 20
551.79923200000007
 30
0.0
  0
VERTEX
  5
B57
  8
LAYER01
  6
CONTINUOUS
 62
     7
 10
1950.6062449999999
 20
551.62246300000004
 30
0.0
  0
VERTEX
  5
B58
  8
LAYER01
  6
CONTINUOUS
 62
     7
 10
1949.6812560000001
 20
551.44549099999995
 30
0.0
  0
VERTEX
  5
B59
  8
LAYER01
  6
CONTINUOUS
 62
     7
 10
1948.756308
 20
551.26830599999994
 30
0.0
  0
VERTEX
  5
B5A
  8
LAYER01
  6
CONTINUOUS
 62
     7
 10
1947.831404
 20
551.09089500000005
 30
0.0
  0
VERTEX
  5
B5B
  8
LAYER01
  6
CONTINUOUS
 62
     7
 10
1946.9065459999999
 20
550.91324699999996
 30
0.0
  0
VERTEX
  5
B5C
  8
LAYER01
  6
CONTINUOUS
 62
     7
 10
1945.981736
 20
550.73535199999992
 30
0.0
  0
VERTEX
  5
B5D
  8
LAYER01
  6
CONTINUOUS
 62
     7
 10
1945.0569760000001
 20
550.55719699999997
 30
0.0
  0
VERTEX
  5
B5E
  8
LAYER01
  6
CONTINUOUS
 62
     7
 10
1944.132269
 20
550.37877000000003
 30
0.0
  0
VERTEX
  5
B5F
  8
LAYER01
  6
CONTINUOUS
 62
     7
 10
1943.2076179999999
 20
550.2000559999999
 30
0.0
  0
VERTEX
  5
B60
  8
LAYER01
  6
CONTINUOUS
 62
     7
 10
1942.283025
 20
550.02104000000008
 30
0.0
  0
VERTEX
  5
B61
  8
LAYER01
  6
CONTINUOUS
 62
     7
 10
1941.358493
 20
549.84170999999992
 30
0.0
  0
VERTEX
  5
B62
  8
LAYER01
  6
CONTINUOUS
 62
     7
 10
1940.434025
 20
549.66205000000002
 30
0.0
  0
VERTEX
  5
B63
  8
LAYER01
  6
CONTINUOUS
 62
     7
 10
1939.509624
 20
549.48204599999985
 30
0.0
  0
VERTEX
  5
B64
  8
LAYER01
  6
CONTINUOUS
 62
     7
 10
1938.585292
 20
549.30168499999991
 30
0.0
  0
VERTEX
  5
B65
  8
LAYER01
  6
CONTINUOUS
 62
     7
 10
1937.661032
 20
549.12095299999987
 30
0.0
  0
VERTEX
  5
B66
  8
LAYER01
  6
CONTINUOUS
 62
     7
 10
1936.7368469999999
 20
548.93983400000002
 30
0.0
  0
VERTEX
  5
B67
  8
LAYER01
  6
CONTINUOUS
 62
     7
 10
1935.8127400000001
 20
548.75831500000004
 30
0.0
  0
VERTEX
  5
B68
  8
LAYER01
  6
CONTINUOUS
 62
     7
 10
1934.8887130000001
 20
548.57638299999985
 30
0.0
  0
VERTEX
  5
B69
  8
LAYER01
  6
CONTINUOUS
 62
     7
 10
1933.9647749999999
 20
548.39398899999992
 30
0.0
  0
VERTEX
  5
B6A
  8
LAYER01
  6
CONTINUOUS
 62
     7
 10
1933.0409340000001
 20
548.21109699999988
 30
0.0
  0
VERTEX
  5
B6B
  8
LAYER01
  6
CONTINUOUS
 62
     7
 10
1932.1171890000001
 20
548.02771200000007
 30
0.0
  0
VERTEX
  5
B6C
  8
LAYER01
  6
CONTINUOUS
 62
     7
 10
1931.1935390000001
 20
547.84383400000002
 30
0.0
  0
VERTEX
  5
B6D
  8
LAYER01
  6
CONTINUOUS
 62
     7
 10
1930.269984
 20
547.65946699999995
 30
0.0
  0
VERTEX
  5
B6E
  8
LAYER01
  6
CONTINUOUS
 62
     7
 10
1929.3465229999999
 20
547.47461399999986
 30
0.0
  0
VERTEX
  5
B6F
  8
LAYER01
  6
CONTINUOUS
 62
     7
 10
1928.4231560000001
 20
547.28927699999986
 30
0.0
  0
VERTEX
  5
B70
  8
LAYER01
  6
CONTINUOUS
 62
     7
 10
1927.4998820000001
 20
547.10345800000005
 30
0.0
  0
VERTEX
  5
B71
  8
LAYER01
  6
CONTINUOUS
 62
     7
 10
1926.5767020000001
 20
546.91716199999996
 30
0.0
  0
VERTEX
  5
B72
  8
LAYER01
  6
CONTINUOUS
 62
     7
 10
1925.653613
 20
546.73038899999995
 30
0.0
  0
VERTEX
  5
B73
  8
LAYER01
  6
CONTINUOUS
 62
     7
 10
1924.7306160000001
 20
546.54314299999987
 30
0.0
  0
SEQEND
  5
B74
  8
LAYER01
  6
CONTINUOUS
 62
     7
  0
INSERT
  5
637
  8
LAYER01
  2
VP317010-G19
 10
0.0
 20
0.0
 30
0.0
  0
POLYLINE
  5
638
  8
LAYER01
  6
CONTINUOUS
 62
     7
 66
     1
 10
0.0
 20
0.0
 30
0.0
  0
VERTEX
  5
B75
  8
LAYER01
  6
CONTINUOUS
 62
     7
 10
2003.740802
 20
574.03772100000003
 30
0.0
  0
VERTEX
  5
B76
  8
LAYER01
  6
CONTINUOUS
 62
     7
 10
2000.4821099999999
 20
573.38770599999998
 30
0.0
  0
VERTEX
  5
B77
  8
LAYER01
  6
CONTINUOUS
 62
     7
 10
1997.1924100000001
 20
572.73769200000004
 30
0.0
  0
VERTEX
  5
B78
  8
LAYER01
  6
CONTINUOUS
 62
     7
 10
1993.874683
 20
572.08767799999998
 30
0.0
  0
VERTEX
  5
B79
  8
LAYER01
  6
CONTINUOUS
 62
     7
 10
1990.5319059999999
 20
571.43766300000004
 30
0.0
  0
VERTEX
  5
B7A
  8
LAYER01
  6
CONTINUOUS
 62
     7
 10
1987.16706
 20
570.78764899999999
 30
0.0
  0
VERTEX
  5
B7B
  8
LAYER01
  6
CONTINUOUS
 62
     7
 10
1983.783122
 20
570.13763399999993
 30
0.0
  0
VERTEX
  5
B7C
  8
LAYER01
  6
CONTINUOUS
 62
     7
 10
1980.383071
 20
569.48761999999999
 30
0.0
  0
VERTEX
  5
B7D
  8
LAYER01
  6
CONTINUOUS
 62
     7
 10
1976.969887
 20
568.83760599999994
 30
0.0
  0
VERTEX
  5
B7E
  8
LAYER01
  6
CONTINUOUS
 62
     7
 10
1973.546548
 20
568.187591
 30
0.0
  0
VERTEX
  5
B7F
  8
LAYER01
  6
CONTINUOUS
 62
     7
 10
1970.1160319999999
 20
567.53757699999994
 30
0.0
  0
VERTEX
  5
B80
  8
LAYER01
  6
CONTINUOUS
 62
     7
 10
1966.681319
 20
566.887562
 30
0.0
  0
VERTEX
  5
B81
  8
LAYER01
  6
CONTINUOUS
 62
     7
 10
1963.245388
 20
566.23754799999995
 30
0.0
  0
VERTEX
  5
B82
  8
LAYER01
  6
CONTINUOUS
 62
     7
 10
1959.8112169999999
 20
565.58753400000001
 30
0.0
  0
VERTEX
  5
B83
  8
LAYER01
  6
CONTINUOUS
 62
     7
 10
1956.381785
 20
564.93751899999995
 30
0.0
  0
VERTEX
  5
B84
  8
LAYER01
  6
CONTINUOUS
 62
     7
 10
1952.960071
 20
564.2875049999999
 30
0.0
  0
VERTEX
  5
B85
  8
LAYER01
  6
CONTINUOUS
 62
     7
 10
1949.5490540000001
 20
563.63748999999996
 30
0.0
  0
VERTEX
  5
B86
  8
LAYER01
  6
CONTINUOUS
 62
     7
 10
1946.1517120000001
 20
562.9874759999999
 30
0.0
  0
VERTEX
  5
B87
  8
LAYER01
  6
CONTINUOUS
 62
     7
 10
1942.771025
 20
562.33746199999985
 30
0.0
  0
VERTEX
  5
B88
  8
LAYER01
  6
CONTINUOUS
 62
     7
 10
1939.409971
 20
561.68744699999991
 30
0.0
  0
VERTEX
  5
B89
  8
LAYER01
  6
CONTINUOUS
 62
     7
 10
1936.0715290000001
 20
561.03743299999985
 30
0.0
  0
VERTEX
  5
B8A
  8
LAYER01
  6
CONTINUOUS
 62
     7
 10
1932.7586779999999
 20
560.38741800000003
 30
0.0
  0
VERTEX
  5
B8B
  8
LAYER01
  6
CONTINUOUS
 62
     7
 10
1929.4743960000001
 20
559.73740399999997
 30
0.0
  0
VERTEX
  5
B8C
  8
LAYER01
  6
CONTINUOUS
 62
     7
 10
1926.2216629999989
 20
559.08739000000003
 30
0.0
  0
VERTEX
  5
B8D
  8
LAYER01
  6
CONTINUOUS
 62
     7
 10
1923.003457
 20
558.43737499999997
 30
0.0
  0
SEQEND
  5
B8E
  8
LAYER01
  6
CONTINUOUS
 62
     7
  0
LINE
  5
653
  8
LAYER01
  6
CONTINUOUS
 62
     7
 10
2007.009636
 20
659.80595900000003
 30
0.0
 11
1706.9959449999999
 21
659.80595900000003
 31
0.0
  0
ENDSEC
  0
EOF
