  0
SECTION
  2
HEADER
  9
$ACADVER
  1
AC1009
  9
$INSBASE
 10
0.0
 20
0.0
 30
0.0
  9
$EXTMIN
 10
-806.33334189667585
 20
-952.49693249173924
 30
-0.0015258207003583
  9
$EXTMAX
 10
4322.8628261772374
 20
1833.9174044527419
 30
0.0000000349246037
  9
$LIMMIN
 10
-863.56296599999985
 20
-1000.670615
  9
$LIMMAX
 10
3336.437034
 20
1969.329385
  9
$ORTHOMODE
 70
     1
  9
$REGENMODE
 70
     1
  9
$FILLMODE
 70
     1
  9
$QTEXTMODE
 70
     0
  9
$MIRRTEXT
 70
     0
  9
$DRAGMODE
 70
     2
  9
$LTSCALE
 40
1.0
  9
$OSMODE
 70
    37
  9
$ATTMODE
 70
     1
  9
$TEXTSIZE
 40
0.0
  9
$TRACEWID
 40
0.05
  9
$TEXTSTYLE
  7
STANDARD
  9
$CLAYER
  8
LAYER01
  9
$CELTYPE
  6
CONTINUOUS
  9
$CECOLOR
 62
     7
  9
$DIMSCALE
 40
1.0
  9
$DIMASZ
 40
0.18
  9
$DIMEXO
 40
0.0625
  9
$DIMDLI
 40
0.38
  9
$DIMRND
 40
0.0
  9
$DIMDLE
 40
0.0
  9
$DIMEXE
 40
0.18
  9
$DIMTP
 40
0.0
  9
$DIMTM
 40
0.0
  9
$DIMTXT
 40
0.18
  9
$DIMCEN
 40
0.09
  9
$DIMTSZ
 40
0.0
  9
$DIMTOL
 70
     0
  9
$DIMLIM
 70
     0
  9
$DIMTIH
 70
     1
  9
$DIMTOH
 70
     1
  9
$DIMSE1
 70
     0
  9
$DIMSE2
 70
     0
  9
$DIMTAD
 70
     0
  9
$DIMZIN
 70
     0
  9
$DIMBLK
  1

  9
$DIMASO
 70
     1
  9
$DIMSHO
 70
     1
  9
$DIMPOST
  1

  9
$DIMAPOST
  1

  9
$DIMALT
 70
     0
  9
$DIMALTD
 70
     2
  9
$DIMALTF
 40
25.399999999999999
  9
$DIMLFAC
 40
1.0
  9
$DIMTOFL
 70
     0
  9
$DIMTVP
 40
0.0
  9
$DIMTIX
 70
     0
  9
$DIMSOXD
 70
     0
  9
$DIMSAH
 70
     0
  9
$DIMBLK1
  1

  9
$DIMBLK2
  1

  9
$DIMSTYLE
  2
STANDARD
  9
$DIMCLRD
 70
     0
  9
$DIMCLRE
 70
     0
  9
$DIMCLRT
 70
     0
  9
$DIMTFAC
 40
1.0
  9
$DIMGAP
 40
0.09
  9
$LUNITS
 70
     2
  9
$LUPREC
 70
     4
  9
$SKETCHINC
 40
0.1
  9
$FILLETRAD
 40
10.0
  9
$AUNITS
 70
     0
  9
$AUPREC
 70
     0
  9
$MENU
  1
acad
  9
$ELEVATION
 40
0.0
  9
$PELEVATION
 40
0.0
  9
$THICKNESS
 40
0.0
  9
$LIMCHECK
 70
     0
  9
$BLIPMODE
 70
     0
  9
$CHAMFERA
 40
0.0
  9
$CHAMFERB
 40
0.0
  9
$SKPOLY
 70
     0
  9
$TDCREATE
 40
11404575.91668947
  9
$TDUPDATE
 40
2459366.3813587269
  9
$TDINDWG
 40
0.0007017824
  9
$TDUSRTIMER
 40
0.0007012847
  9
$USRTIMER
 70
     1
  9
$ANGBASE
 50
0.0
  9
$ANGDIR
 70
     0
  9
$PDMODE
 70
     0
  9
$PDSIZE
 40
0.0
  9
$PLINEWID
 40
0.0
  9
$COORDS
 70
     0
  9
$SPLFRAME
 70
     0
  9
$SPLINETYPE
 70
     6
  9
$SPLINESEGS
 70
    10
  9
$ATTDIA
 70
     0
  9
$ATTREQ
 70
     1
  9
$HANDLING
 70
     1
  9
$HANDSEED
  5
C98
  9
$SURFTAB1
 70
     6
  9
$SURFTAB2
 70
     6
  9
$SURFTYPE
 70
     6
  9
$SURFU
 70
     6
  9
$SURFV
 70
     6
  9
$UCSNAME
  2

  9
$UCSORG
 10
0.0
 20
0.0
 30
0.0
  9
$UCSXDIR
 10
1.0
 20
0.0
 30
0.0
  9
$UCSYDIR
 10
0.0
 20
1.0
 30
0.0
  9
$PUCSNAME
  2

  9
$PUCSORG
 10
0.0
 20
0.0
 30
0.0
  9
$PUCSXDIR
 10
1.0
 20
0.0
 30
0.0
  9
$PUCSYDIR
 10
0.0
 20
1.0
 30
0.0
  9
$USERI1
 70
     0
  9
$USERI2
 70
     0
  9
$USERI3
 70
     0
  9
$USERI4
 70
     0
  9
$USERI5
 70
     0
  9
$USERR1
 40
0.0
  9
$USERR2
 40
0.0
  9
$USERR3
 40
0.0
  9
$USERR4
 40
0.0
  9
$USERR5
 40
0.0
  9
$WORLDVIEW
 70
     1
  9
$SHADEDGE
 70
     3
  9
$SHADEDIF
 70
    70
  9
$TILEMODE
 70
     1
  9
$MAXACTVP
 70
    64
  9
$PLIMCHECK
 70
     0
  9
$PEXTMIN
 10
1.0000000000000000E+020
 20
1.0000000000000000E+020
 30
1.0000000000000000E+020
  9
$PEXTMAX
 10
-1.0000000000000000E+020
 20
-1.0000000000000000E+020
 30
-1.0000000000000000E+020
  9
$PLIMMIN
 10
0.0
 20
0.0
  9
$PLIMMAX
 10
12.0
 20
9.0
  9
$UNITMODE
 70
     0
  9
$VISRETAIN
 70
     1
  9
$PLINEGEN
 70
     0
  9
$PSLTSCALE
 70
     1
  0
ENDSEC
  0
SECTION
  2
TABLES
  0
TABLE
  2
VPORT
 70
     1
  0
VPORT
  2
*ACTIVE
 70
     0
 10
0.0
 20
0.0
 11
1.0
 21
1.0
 12
1729.649930088618
 22
484.32938500000017
 13
0.0
 23
0.0
 14
1.0
 24
1.0
 15
0.0
 25
0.0
 16
0.0
 26
0.0
 36
1.0
 17
0.0
 27
0.0
 37
0.0
 40
3007.6744186046521
 41
2.114406779661016
 42
50.0
 43
0.0
 44
0.0
 50
0.0
 51
0.0
 71
     0
 72
   100
 73
     1
 74
     1
 75
     0
 76
     0
 77
     0
 78
     0
  0
ENDTAB
  0
TABLE
  2
LTYPE
 70
    11
  0
LTYPE
  2
CONTINUOUS
 70
     0
  3
Solid line
 72
    65
 73
     0
 40
0.0
  0
LTYPE
  2
GESTRICHELT
 70
     0
  3
__ __ __ __ __ __ __ __ __ __ __ __ __ __ __
 72
    65
 73
     2
 40
0.75
 49
0.5
 49
-0.25
  0
LTYPE
  2
VERDECKT
 70
     0
  3
_ _ _ _ _ _ _ _ _ _ _ _ _ _ _ _ _ _ _ _ _ _ 
 72
    65
 73
     2
 40
0.25
 49
0.125
 49
-0.125
  0
LTYPE
  2
MITTELLINIE
 70
     0
  3
____ _ ____ _ ____ _ ____ _ ____ _ ____ _ __
 72
    65
 73
     4
 40
2.0
 49
1.25
 49
-0.25
 49
0.25
 49
-0.25
  0
LTYPE
  2
PHANTOM
 70
     0
  3
_____ _ _ _____ _ _ _____ _ _ _____ _ _ ____
 72
    65
 73
     6
 40
2.5
 49
1.25
 49
-0.25
 49
0.25
 49
-0.25
 49
0.25
 49
-0.25
  0
LTYPE
  2
PUNKTIERT
 70
     0
  3
............................................
 72
    65
 73
     2
 40
0.25
 49
0.0
 49
-0.25
  0
LTYPE
  2
STRICHPUNKTIERT
 70
     0
  3
__ . __ . __ . __ . __ . __ . __ . __ . __ .
 72
    65
 73
     4
 40
1.0
 49
0.5
 49
-0.25
 49
0.0
 49
-0.25
  0
LTYPE
  2
RAND
 70
     0
  3
__ __ . __ __ . __ __ . __ __ . __ __ . __ _
 72
    65
 73
     6
 40
1.75
 49
0.5
 49
-0.25
 49
0.5
 49
-0.25
 49
0.0
 49
-0.25
  0
LTYPE
  2
TRENNLINIE
 70
     0
  3
__ . . __ . . __ . . __ . . __ . . __ . . __
 72
    65
 73
     6
 40
1.25
 49
0.5
 49
-0.25
 49
0.0
 49
-0.25
 49
0.0
 49
-0.25
  0
LTYPE
  2
ENG_PUNKTIERT
 70
     0
  3
Schließen                                   
 72
    65
 73
     2
 40
0.1
 49
0.05
 49
-0.05
  0
LTYPE
  2
CLOSE
 70
     0
  3
                                            
 72
    65
 73
     0
 40
0.0
  0
ENDTAB
  0
TABLE
  2
LAYER
 70
   256
  0
LAYER
  2
0
 70
     0
 62
     7
  6
CONTINUOUS
  0
LAYER
  2
LAYER01
 70
     0
 62
     7
  6
CONTINUOUS
  0
LAYER
  2
LAYER02
 70
     0
 62
     7
  6
CONTINUOUS
  0
LAYER
  2
LAYER03
 70
     0
 62
     7
  6
CONTINUOUS
  0
LAYER
  2
LAYER04
 70
     0
 62
     7
  6
CONTINUOUS
  0
LAYER
  2
LAYER05
 70
     0
 62
     7
  6
CONTINUOUS
  0
LAYER
  2
LAYER06
 70
     0
 62
     7
  6
CONTINUOUS
  0
LAYER
  2
LAYER07
 70
     0
 62
     7
  6
CONTINUOUS
  0
LAYER
  2
LAYER08
 70
     0
 62
     7
  6
CONTINUOUS
  0
LAYER
  2
LAYER09
 70
     0
 62
     7
  6
CONTINUOUS
  0
LAYER
  2
LAYER10
 70
     0
 62
     7
  6
CONTINUOUS
  0
LAYER
  2
FORMAT
 70
     0
 62
     7
  6
CONTINUOUS
  0
LAYER
  2
2
 70
     0
 62
     7
  6
CONTINUOUS
  0
LAYER
  2
5
 70
     0
 62
     7
  6
CONTINUOUS
  0
LAYER
  2
RAUMAUFM
 70
     0
 62
     7
  6
CONTINUOUS
  0
LAYER
  2
EINRICHT
 70
     0
 62
     7
  6
CONTINUOUS
  0
LAYER
  2
HILFE
 70
     0
 62
     7
  6
CONTINUOUS
  0
LAYER
  2
SCHNITTE
 70
     0
 62
     7
  6
CONTINUOUS
  0
LAYER
  2
SCHRAFF1
 70
     0
 62
     7
  6
CONTINUOUS
  0
LAYER
  2
SCHRAFF2
 70
     0
 62
     7
  6
CONTINUOUS
  0
LAYER
  2
BEMASS-1
 70
     0
 62
     7
  6
CONTINUOUS
  0
LAYER
  2
BEMASS-2
 70
     0
 62
     7
  6
CONTINUOUS
  0
LAYER
  2
TEXT
 70
     0
 62
     7
  6
CONTINUOUS
  0
LAYER
  2
SYMBOLE
 70
     0
 62
     7
  6
CONTINUOUS
  0
LAYER
  2
RAHMEN
 70
     0
 62
     7
  6
CONTINUOUS
  0
LAYER
  2
SCHRIFTF
 70
     0
 62
     7
  6
CONTINUOUS
  0
LAYER
  2
ACHSEN
 70
     0
 62
     7
  6
CONTINUOUS
  0
LAYER
  2
ZEICHN
 70
     0
 62
     7
  6
CONTINUOUS
  0
LAYER
  2
7
 70
     0
 62
     7
  6
CONTINUOUS
  0
LAYER
  2
1
 70
     0
 62
     7
  6
CONTINUOUS
  0
LAYER
  2
6
 70
     0
 62
     7
  6
CONTINUOUS
  0
LAYER
  2
4
 70
     0
 62
     7
  6
CONTINUOUS
  0
LAYER
  2
GRUNDEBENE
 70
     0
 62
     7
  6
CONTINUOUS
  0
LAYER
  2
GRUNDRISS
 70
     0
 62
     7
  6
CONTINUOUS
  0
LAYER
  2
BEMASSUNGGRUNDRISS
 70
     0
 62
     7
  6
CONTINUOUS
  0
LAYER
  2
WANDELEMENTE
 70
     0
 62
     7
  6
CONTINUOUS
  0
LAYER
  2
KUECHE
 70
     0
 62
     7
  6
CONTINUOUS
  0
LAYER
  2
THEKEBROETCHEN
 70
     0
 62
     7
  6
CONTINUOUS
  0
LAYER
  2
CENTERLINIE
 70
     0
 62
     7
  6
CONTINUOUS
  0
LAYER
  2
UMRISSE
 70
     0
 62
     7
  6
CONTINUOUS
  0
LAYER
  2
MAUER
 70
     0
 62
     7
  6
CONTINUOUS
  0
LAYER
  2
SCHRAFFUR
 70
     0
 62
     7
  6
CONTINUOUS
  0
LAYER
  2
MASSLINIE
 70
     0
 62
     7
  6
CONTINUOUS
  0
LAYER
  2
PV
 70
     0
 62
     7
  6
CONTINUOUS
  0
LAYER
  2
BESCHRIFTUNG
 70
     0
 62
     7
  6
CONTINUOUS
  0
LAYER
  2
AS
 70
     0
 62
     7
  6
CONTINUOUS
  0
LAYER
  2
PL
 70
     0
 62
     7
  6
CONTINUOUS
  0
LAYER
  2
UK
 70
     0
 62
     7
  6
CONTINUOUS
  0
LAYER
  2
TEXT3
 70
     0
 62
     7
  6
CONTINUOUS
  0
LAYER
  2
TEXT7
 70
     0
 62
     7
  6
CONTINUOUS
  0
LAYER
  2
BEPL1
 70
     0
 62
     7
  6
CONTINUOUS
  0
LAYER
  2
BEPL2
 70
     0
 62
     7
  6
CONTINUOUS
  0
LAYER
  2
BEPL2V
 70
     0
 62
     7
  6
CONTINUOUS
  0
LAYER
  2
BEPL4
 70
     0
 62
     7
  6
CONTINUOUS
  0
LAYER
  2
BEPL
 70
     0
 62
     7
  6
CONTINUOUS
  0
LAYER
  2
UK1
 70
     0
 62
     7
  6
CONTINUOUS
  0
LAYER
  2
UK2
 70
     0
 62
     7
  6
CONTINUOUS
  0
LAYER
  2
UK2V
 70
     0
 62
     7
  6
CONTINUOUS
  0
LAYER
  2
UK3
 70
     0
 62
     7
  6
CONTINUOUS
  0
LAYER
  2
TEXT2
 70
     0
 62
     7
  6
CONTINUOUS
  0
LAYER
  2
HILF2S
 70
     0
 62
     7
  6
CONTINUOUS
  0
LAYER
  2
UK1V
 70
     0
 62
     7
  6
CONTINUOUS
  0
LAYER
  2
GAIN_ZRA
 70
     0
 62
     7
  6
CONTINUOUS
  0
LAYER
  2
GAIN_ZSF
 70
     0
 62
     7
  6
CONTINUOUS
  0
LAYER
  2
RAHM4
 70
     0
 62
     7
  6
CONTINUOUS
  0
LAYER
  2
KORPUSBAND
 70
     0
 62
     7
  6
CONTINUOUS
  0
LAYER
  2
E---LGPL--------
 70
     0
 62
     7
  6
CONTINUOUS
  0
LAYER
  2
E---NPFL--------
 70
     0
 62
     7
  6
CONTINUOUS
  0
LAYER
  2
E---PLNKTXT-----
 70
     0
 62
     7
  6
CONTINUOUS
  0
LAYER
  2
E---PLNK--------
 70
     0
 62
     7
  6
CONTINUOUS
  0
LAYER
  2
E---PLNR--------
 70
     0
 62
     7
  6
CONTINUOUS
  0
LAYER
  2
D547_ARCHICAD
 70
     0
 62
     7
  6
CONTINUOUS
  0
LAYER
  2
D547_E---TEXT--------
 70
     0
 62
     7
  6
CONTINUOUS
  0
LAYER
  2
E---LEGD--------
 70
     0
 62
     7
  6
CONTINUOUS
  0
LAYER
  2
D43_ARCHICAD
 70
     0
 62
     7
  6
CONTINUOUS
  0
LAYER
  2
D43_FENSTER_VON_B---FASS--
 70
     0
 62
     7
  6
CONTINUOUS
  0
LAYER
  2
D43_E---SCHN--------
 70
     0
 62
     7
  6
CONTINUOUS
  0
LAYER
  2
D43_B---MW-N--------
 70
     0
 62
     7
  6
CONTINUOUS
  0
LAYER
  2
D43_B---DECK--------
 70
     0
 62
     7
  6
CONTINUOUS
  0
LAYER
  2
D43_B---MW-S--------
 70
     0
 62
     7
  6
CONTINUOUS
  0
LAYER
  2
D43_B---MW----------
 70
     0
 62
     7
  6
CONTINUOUS
  0
LAYER
  2
D43_B---FASS--------
 70
     0
 62
     7
  6
CONTINUOUS
  0
LAYER
  2
D43_E---RASG--------
 70
     0
 62
     7
  6
CONTINUOUS
  0
LAYER
  2
D40_ARCHICAD
 70
     0
 62
     7
  6
CONTINUOUS
  0
LAYER
  2
D40_E---MW--------
 70
     0
 62
     7
  6
CONTINUOUS
  0
LAYER
  2
D40_E---FASSKON-----
 70
     0
 62
     7
  6
CONTINUOUS
  0
LAYER
  2
D40_TÜREN_VON_B---MW-N----
 70
     0
 62
     7
  6
CONTINUOUS
  0
LAYER
  2
D40_E---MW-L------
 70
     0
 62
     7
  6
CONTINUOUS
  0
LAYER
  2
D40_TÜREN_VON_B---MW------
 70
     0
 62
     7
  6
CONTINUOUS
  0
LAYER
  2
D40_E---VERM--------
 70
     0
 62
     7
  6
CONTINUOUS
  0
LAYER
  2
D40_FENSTER_VON_E---MW-L--
 70
     0
 62
     7
  6
CONTINUOUS
  0
LAYER
  2
D40_FENSTER_VON_B---MW-N--
 70
     0
 62
     7
  6
CONTINUOUS
  0
LAYER
  2
D40_E---SCHN--------
 70
     0
 62
     7
  6
CONTINUOUS
  0
LAYER
  2
D40_E---AUFZ--------
 70
     0
 62
     7
  6
CONTINUOUS
  0
LAYER
  2
D40_E---DECK--------
 70
     0
 62
     7
  6
CONTINUOUS
  0
LAYER
  2
D40_E---RAUMINF-----
 70
     0
 62
     7
  6
CONTINUOUS
  0
LAYER
  2
D40_E---TEXT--------
 70
     0
 62
     7
  6
CONTINUOUS
  0
LAYER
  2
D40_B---TEXT--------
 70
     0
 62
     7
  6
CONTINUOUS
  0
LAYER
  2
D40_B---MW-N--------
 70
     0
 62
     7
  6
CONTINUOUS
  0
LAYER
  2
D40_B---DECK--------
 70
     0
 62
     7
  6
CONTINUOUS
  0
LAYER
  2
D40_B---AUFZ--------
 70
     0
 62
     7
  6
CONTINUOUS
  0
LAYER
  2
D40_B---MW-S--------
 70
     0
 62
     7
  6
CONTINUOUS
  0
LAYER
  2
D40_B---MW----------
 70
     0
 62
     7
  6
CONTINUOUS
  0
LAYER
  2
D40_E---MOEB--------
 70
     0
 62
     7
  6
CONTINUOUS
  0
LAYER
  2
D40_B---UMGB--------
 70
     0
 62
     7
  6
CONTINUOUS
  0
LAYER
  2
D40_B---FASS--------
 70
     0
 62
     7
  6
CONTINUOUS
  0
LAYER
  2
D40_E---DACH--------
 70
     0
 62
     7
  6
CONTINUOUS
  0
LAYER
  2
D40_E---BODE--------
 70
     0
 62
     7
  6
CONTINUOUS
  0
LAYER
  2
D40_E---TREP--------
 70
     0
 62
     7
  6
CONTINUOUS
  0
LAYER
  2
D40_E---RASG--------
 70
     0
 62
     7
  6
CONTINUOUS
  0
LAYER
  2
D40_B---MW-K--------
 70
     0
 62
     7
  6
CONTINUOUS
  0
LAYER
  2
D40_E---FASSGLA-----
 70
     0
 62
     7
  6
CONTINUOUS
  0
LAYER
  2
D40_B---VERM--------
 70
     0
 62
     7
  6
CONTINUOUS
  0
LAYER
  2
D40_E---UMGBGSG-----
 70
     0
 62
     7
  6
CONTINUOUS
  0
LAYER
  2
D40_E---RASF--------
 70
     0
 62
     7
  6
CONTINUOUS
  0
LAYER
  2
D40_E---PFLA--------
 70
     0
 62
     7
  6
CONTINUOUS
  0
LAYER
  2
D40_E---KONS-ST-----
 70
     0
 62
     7
  6
CONTINUOUS
  0
LAYER
  2
D40_E---WERB--------
 70
     0
 62
     7
  6
CONTINUOUS
  0
LAYER
  2
D40_E---TUERINF-----
 70
     0
 62
     7
  6
CONTINUOUS
  0
LAYER
  2
D40_E---WOLK--------
 70
     0
 62
     7
  6
CONTINUOUS
  0
LAYER
  2
D40_B---MW-L--------
 70
     0
 62
     7
  6
CONTINUOUS
  0
LAYER
  2
D40_B---SANI--------
 70
     0
 62
     7
  6
CONTINUOUS
  0
LAYER
  2
D40_E---SANI--------
 70
     0
 62
     7
  6
CONTINUOUS
  0
LAYER
  2
D40_E---MW-K------
 70
     0
 62
     7
  6
CONTINUOUS
  0
LAYER
  2
D40_E---OBJE--------
 70
     0
 62
     7
  6
CONTINUOUS
  0
LAYER
  2
D40_E---ASPR--------
 70
     0
 62
     7
  6
CONTINUOUS
  0
LAYER
  2
D40_E---VERMTGA-----
 70
     0
 62
     7
  6
CONTINUOUS
  0
LAYER
  2
D40_E---PARK--------
 70
     0
 62
     7
  6
CONTINUOUS
  0
LAYER
  2
D40_E---ISOL--------
 70
     0
 62
     7
  6
CONTINUOUS
  0
LAYER
  2
D40_E---TUER--------
 70
     0
 62
     7
  6
CONTINUOUS
  0
LAYER
  2
D40_E---MW--BRA---
 70
     0
 62
     7
  6
CONTINUOUS
  0
LAYER
  2
D41_ARCHICAD
 70
     0
 62
     7
  6
CONTINUOUS
  0
LAYER
  2
D41_E---MW--------
 70
     0
 62
     7
  6
CONTINUOUS
  0
LAYER
  2
D41_E---FASSKON-----
 70
     0
 62
     7
  6
CONTINUOUS
  0
LAYER
  2
D41_TÜREN_VON_B---MW-N----
 70
     0
 62
     7
  6
CONTINUOUS
  0
LAYER
  2
D41_E---MW-L------
 70
     0
 62
     7
  6
CONTINUOUS
  0
LAYER
  2
D41_TÜREN_VON_B---MW------
 70
     0
 62
     7
  6
CONTINUOUS
  0
LAYER
  2
D41_E---VERM--------
 70
     0
 62
     7
  6
CONTINUOUS
  0
LAYER
  2
D41_FENSTER_VON_E---MW-L--
 70
     0
 62
     7
  6
CONTINUOUS
  0
LAYER
  2
D41_FENSTER_VON_B---MW-N--
 70
     0
 62
     7
  6
CONTINUOUS
  0
LAYER
  2
D41_E---SCHN--------
 70
     0
 62
     7
  6
CONTINUOUS
  0
LAYER
  2
D41_E---AUFZ--------
 70
     0
 62
     7
  6
CONTINUOUS
  0
LAYER
  2
D41_E---DECK--------
 70
     0
 62
     7
  6
CONTINUOUS
  0
LAYER
  2
D41_E---RAUMINF-----
 70
     0
 62
     7
  6
CONTINUOUS
  0
LAYER
  2
D41_E---TEXT--------
 70
     0
 62
     7
  6
CONTINUOUS
  0
LAYER
  2
D41_B---TEXT--------
 70
     0
 62
     7
  6
CONTINUOUS
  0
LAYER
  2
D41_B---MW-N--------
 70
     0
 62
     7
  6
CONTINUOUS
  0
LAYER
  2
D41_B---DECK--------
 70
     0
 62
     7
  6
CONTINUOUS
  0
LAYER
  2
D41_B---AUFZ--------
 70
     0
 62
     7
  6
CONTINUOUS
  0
LAYER
  2
D41_B---MW-S--------
 70
     0
 62
     7
  6
CONTINUOUS
  0
LAYER
  2
D41_B---MW----------
 70
     0
 62
     7
  6
CONTINUOUS
  0
LAYER
  2
D41_E---MOEB--------
 70
     0
 62
     7
  6
CONTINUOUS
  0
LAYER
  2
D41_B---UMGB--------
 70
     0
 62
     7
  6
CONTINUOUS
  0
LAYER
  2
D41_B---FASS--------
 70
     0
 62
     7
  6
CONTINUOUS
  0
LAYER
  2
D41_E---DACH--------
 70
     0
 62
     7
  6
CONTINUOUS
  0
LAYER
  2
D41_E---BODE--------
 70
     0
 62
     7
  6
CONTINUOUS
  0
LAYER
  2
D41_E---TREP--------
 70
     0
 62
     7
  6
CONTINUOUS
  0
LAYER
  2
D41_E---RASG--------
 70
     0
 62
     7
  6
CONTINUOUS
  0
LAYER
  2
D41_B---MW-K--------
 70
     0
 62
     7
  6
CONTINUOUS
  0
LAYER
  2
D41_E---FASSGLA-----
 70
     0
 62
     7
  6
CONTINUOUS
  0
LAYER
  2
D41_B---VERM--------
 70
     0
 62
     7
  6
CONTINUOUS
  0
LAYER
  2
D41_E---UMGBGSG-----
 70
     0
 62
     7
  6
CONTINUOUS
  0
LAYER
  2
D41_E---RASF--------
 70
     0
 62
     7
  6
CONTINUOUS
  0
LAYER
  2
D41_E---PFLA--------
 70
     0
 62
     7
  6
CONTINUOUS
  0
LAYER
  2
D41_E---KONS-ST-----
 70
     0
 62
     7
  6
CONTINUOUS
  0
LAYER
  2
D41_E---WERB--------
 70
     0
 62
     7
  6
CONTINUOUS
  0
LAYER
  2
D41_E---TUERINF-----
 70
     0
 62
     7
  6
CONTINUOUS
  0
LAYER
  2
D41_E---WOLK--------
 70
     0
 62
     7
  6
CONTINUOUS
  0
LAYER
  2
D41_B---MW-L--------
 70
     0
 62
     7
  6
CONTINUOUS
  0
LAYER
  2
D41_B---SANI--------
 70
     0
 62
     7
  6
CONTINUOUS
  0
LAYER
  2
D41_E---SANI--------
 70
     0
 62
     7
  6
CONTINUOUS
  0
LAYER
  2
D41_E---MW-K------
 70
     0
 62
     7
  6
CONTINUOUS
  0
LAYER
  2
D41_E---OBJE--------
 70
     0
 62
     7
  6
CONTINUOUS
  0
LAYER
  2
D41_E---ASPR--------
 70
     0
 62
     7
  6
CONTINUOUS
  0
LAYER
  2
D41_E---VERMTGA-----
 70
     0
 62
     7
  6
CONTINUOUS
  0
LAYER
  2
D41_E---PARK--------
 70
     0
 62
     7
  6
CONTINUOUS
  0
LAYER
  2
D41_E---ISOL--------
 70
     0
 62
     7
  6
CONTINUOUS
  0
LAYER
  2
D41_E---TUER--------
 70
     0
 62
     7
  6
CONTINUOUS
  0
LAYER
  2
D41_E---MW--BRA---
 70
     0
 62
     7
  6
CONTINUOUS
  0
LAYER
  2
D42_ARCHICAD
 70
     0
 62
     7
  6
CONTINUOUS
  0
LAYER
  2
D42_FENSTER_VON_B---FASS--
 70
     0
 62
     7
  6
CONTINUOUS
  0
LAYER
  2
D42_E---SCHN--------
 70
     0
 62
     7
  6
CONTINUOUS
  0
LAYER
  2
D42_B---MW-N--------
 70
     0
 62
     7
  6
CONTINUOUS
  0
LAYER
  2
D42_B---DECK--------
 70
     0
 62
     7
  6
CONTINUOUS
  0
LAYER
  2
D42_B---MW-S--------
 70
     0
 62
     7
  6
CONTINUOUS
  0
LAYER
  2
D42_B---MW----------
 70
     0
 62
     7
  6
CONTINUOUS
  0
LAYER
  2
D42_B---FASS--------
 70
     0
 62
     7
  6
CONTINUOUS
  0
LAYER
  2
D42_E---RASG--------
 70
     0
 62
     7
  6
CONTINUOUS
  0
LAYER
  2
CONSTRUCTION_CLASS
 70
     0
 62
     7
  6
CONTINUOUS
  0
LAYER
  2
PATTERN_CLASS
 70
     0
 62
     7
  6
CONTINUOUS
  0
LAYER
  2
KONSTRUKTION
 70
     0
 62
     7
  6
CONTINUOUS
  0
LAYER
  2
BEMAßUNG
 70
     0
 62
     7
  6
CONTINUOUS
  0
LAYER
  2
HILFSGEOMETRIE
 70
     0
 62
     7
  6
CONTINUOUS
  0
LAYER
  2
UNSICHTBAR
 70
     0
 62
     7
  6
CONTINUOUS
  0
LAYER
  2
LOGO
 70
     0
 62
     7
  6
CONTINUOUS
  0
LAYER
  2
VERWALTUNG
 70
     0
 62
     7
  6
CONTINUOUS
  0
LAYER
  2
UNSICHTBARE_GEWINDE
 70
     0
 62
     7
  6
CONTINUOUS
  0
LAYER
  2
SICHTBARE_GEWINDE
 70
     0
 62
     7
  6
CONTINUOUS
  0
LAYER
  2
DEFPOINTS
 70
     0
 62
     7
  6
CONTINUOUS
  0
LAYER
  2
THICK
 70
     0
 62
     7
  6
CONTINUOUS
  0
LAYER
  2
HIDDEN
 70
     0
 62
     7
  6
CONTINUOUS
  0
LAYER
  2
SCHRAFFURGRUNDRISS
 70
     0
 62
     7
  6
CONTINUOUS
  0
LAYER
  2
BEMASSUNG_GRUNDRISS
 70
     0
 62
     7
  6
CONTINUOUS
  0
LAYER
  2
STATIK
 70
     0
 62
     7
  6
CONTINUOUS
  0
LAYER
  2
TÜREN
 70
     0
 62
     7
  6
CONTINUOUS
  0
LAYER
  2
SANITÄR
 70
     0
 62
     7
  6
CONTINUOUS
  0
LAYER
  2
BEMASSUNG_GIPSKARTON
 70
     0
 62
     7
  6
CONTINUOUS
  0
LAYER
  2
EINRICHTUNGEN
 70
     0
 62
     7
  6
CONTINUOUS
  0
LAYER
  2
BECKEN
 70
     0
 62
     7
  6
CONTINUOUS
  0
LAYER
  2
BELEUCHTUNG
 70
     0
 62
     7
  6
CONTINUOUS
  0
LAYER
  2
BESCHRIFTUNGEN
 70
     0
 62
     7
  6
CONTINUOUS
  0
LAYER
  2
ELEKTRO_1__DOSEN_SCHALTER
 70
     0
 62
     7
  6
CONTINUOUS
  0
LAYER
  2
DEFAULT_1
 70
     0
 62
     7
  6
CONTINUOUS
  0
LAYER
  2
AM_0
 70
     0
 62
     7
  6
CONTINUOUS
  0
LAYER
  2
FRAME0_7
 70
     0
 62
     7
  6
CONTINUOUS
  0
LAYER
  2
AM_BOR
 70
     0
 62
     7
  6
CONTINUOUS
  0
LAYER
  2
RAHM2
 70
     0
 62
     7
  6
CONTINUOUS
  0
LAYER
  2
RAHM3
 70
     0
 62
     7
  6
CONTINUOUS
  0
LAYER
  2
FRAME0_5
 70
     0
 62
     7
  6
CONTINUOUS
  0
LAYER
  2
8
 70
     0
 62
     7
  6
CONTINUOUS
  0
LAYER
  2
AM_5
 70
     0
 62
     7
  6
CONTINUOUS
  0
LAYER
  2
AM_7
 70
     0
 62
     7
  6
CONTINUOUS
  0
LAYER
  2
HILFSLINIEN
 70
     0
 62
     7
  6
CONTINUOUS
  0
LAYER
  2
DRAWING_TEMPLATE
 70
     0
 62
     7
  6
CONTINUOUS
  0
LAYER
  2
TECHNOBOX_EXTERNALREFSYMBO
 70
     0
 62
     7
  6
CONTINUOUS
  0
LAYER
  2
TECHNOBOX_POLYCLIPSYMBOL_L
 70
     0
 62
     7
  6
CONTINUOUS
  0
LAYER
  2
100
 70
     0
 62
     7
  6
CONTINUOUS
  0
LAYER
  2
101
 70
     0
 62
     7
  6
CONTINUOUS
  0
LAYER
  2
KONTUR
 70
     0
 62
     7
  6
CONTINUOUS
  0
LAYER
  2
MITTELLINIE
 70
     0
 62
     7
  6
CONTINUOUS
  0
LAYER
  2
GESTRICHELT
 70
     0
 62
     7
  6
CONTINUOUS
  0
LAYER
  2
HILFSLINIE
 70
     0
 62
     7
  6
CONTINUOUS
  0
LAYER
  2
TEXT-25
 70
     0
 62
     7
  6
CONTINUOUS
  0
LAYER
  2
TEXT35
 70
     0
 62
     7
  6
CONTINUOUS
  0
LAYER
  2
TEXT-50
 70
     0
 62
     7
  6
CONTINUOUS
  0
LAYER
  2
TEXT-70
 70
     0
 62
     7
  6
CONTINUOUS
  0
LAYER
  2
ANSICHTSFENSTER
 70
     0
 62
     7
  6
CONTINUOUS
  0
LAYER
  2
KERA0
 70
     0
 62
     7
  6
CONTINUOUS
  0
LAYER
  2
KERA1
 70
     0
 62
     7
  6
CONTINUOUS
  0
LAYER
  2
KERA2
 70
     0
 62
     7
  6
CONTINUOUS
  0
LAYER
  2
KERA3
 70
     0
 62
     7
  6
CONTINUOUS
  0
LAYER
  2
KERA4
 70
     0
 62
     7
  6
CONTINUOUS
  0
LAYER
  2
KERA5
 70
     0
 62
     7
  6
CONTINUOUS
  0
LAYER
  2
KERA6
 70
     0
 62
     7
  6
CONTINUOUS
  0
LAYER
  2
KERA7
 70
     0
 62
     7
  6
CONTINUOUS
  0
LAYER
  2
20
 70
     0
 62
     7
  6
CONTINUOUS
  0
LAYER
  2
50
 70
     0
 62
     7
  6
CONTINUOUS
  0
LAYER
  2
BECKEN_FUTURA_EBENE_1
 70
     0
 62
     7
  6
CONTINUOUS
  0
LAYER
  2
EBENE_1
 70
     0
 62
     7
  6
CONTINUOUS
  0
LAYER
  2
EBENE_2
 70
     0
 62
     7
  6
CONTINUOUS
  0
LAYER
  2
EBENE_5
 70
     0
 62
     7
  6
CONTINUOUS
  0
LAYER
  2
3
 70
     0
 62
     7
  6
CONTINUOUS
  0
LAYER
  2
GEB-KONTUR-A
 70
     0
 62
     7
  6
CONTINUOUS
  0
LAYER
  2
GEB-SYMETRIE
 70
     0
 62
     7
  6
CONTINUOUS
  0
LAYER
  2
GEB-ART-NR
 70
     0
 62
     7
  6
CONTINUOUS
  0
LAYER
  2
PROJECTION
 70
     0
 62
     7
  6
CONTINUOUS
  0
ENDTAB
  0
TABLE
  2
STYLE
 70
     3
  0
STYLE
  2
STANDARD
 70
     0
 40
0.0
 41
1.0
 50
0.0
 71
     0
 42
0.0
  3
txt
  4

  0
STYLE
  2
ANNOTATIVE
 70
     0
 40
0.0
 41
1.0
 50
0.0
 71
     0
 42
0.2
  3
txt
  4

  0
STYLE
  2
SIMPLEX
 70
     0
 40
0.0
 41
1.0
 50
0.0
 71
     0
 42
0.0
  3
SIMPLEX
  4

  0
ENDTAB
  0
TABLE
  2
VIEW
 70
     0
  0
ENDTAB
  0
TABLE
  2
UCS
 70
     0
  0
ENDTAB
  0
TABLE
  2
APPID
 70
     3
  0
APPID
  2
ACAD
 70
     0
  0
APPID
  2
ACADANNOTATIVE
 70
     0
  0
APPID
  2
ACAD_MLEADERVER
 70
     0
  0
ENDTAB
  0
TABLE
  2
DIMSTYLE
 70
     2
  0
DIMSTYLE
  2
STANDARD
 70
     0
  3

  4

  5

  6

  7

 40
1.0
 41
0.18
 42
0.0625
 43
0.38
 44
0.18
 45
0.0
 46
0.0
 47
0.0
 48
0.0
140
0.18
141
0.09
142
0.0
143
25.399999999999999
144
1.0
145
0.0
146
1.0
147
0.09
 71
     0
 72
     0
 73
     1
 74
     1
 75
     0
 76
     0
 77
     0
 78
     0
170
     0
171
     2
172
     0
173
     0
174
     0
175
     0
176
     0
177
     0
178
     0
  0
DIMSTYLE
  2
ANNOTATIVE
 70
     0
  3

  4

  5

  6

  7

 40
1.0
 41
0.18
 42
0.0625
 43
0.38
 44
0.18
 45
0.0
 46
0.0
 47
0.0
 48
0.0
140
0.18
141
0.09
142
0.0
143
25.399999999999999
144
1.0
145
0.0
146
1.0
147
0.09
 71
     0
 72
     0
 73
     1
 74
     1
 75
     0
 76
     0
 77
     0
 78
     0
170
     0
171
     2
172
     0
173
     0
174
     0
175
     0
176
     0
177
     0
178
     0
  0
ENDTAB
  0
ENDSEC
  0
SECTION
  2
BLOCKS
  0
BLOCK
  8
0
  2
$MODEL_SPACE
 70
     0
 10
0.0
 20
0.0
 30
0.0
  3
$MODEL_SPACE
  1

  0
ENDBLK
  5
76
  8
0
  0
BLOCK
 67
     1
  8
0
  2
$PAPER_SPACE
 70
     0
 10
0.0
 20
0.0
 30
0.0
  3
$PAPER_SPACE
  1

  0
ENDBLK
  5
72
 67
     1
  8
0
  0
BLOCK
  8
0
  2
*D0
 70
     1
 10
0.0
 20
0.0
 30
0.0
  3
*D0
  1

  0
LINE
  5
187
  8
LAYER01
 62
     7
 10
1222.3917939999999
 20
242.04893000000001
 30
0.0
 11
324.88838800000002
 21
242.04893000000001
 31
0.0
  0
LINE
  5
188
  8
LAYER01
 62
     7
 10
1222.3917939999999
 20
190.92629199999999
 30
0.0
 11
1222.3917939999999
 21
277.04892999999998
 31
0.0
  0
LINE
  5
189
  8
LAYER01
 62
     7
 10
324.88838800000002
 20
190.92629199999999
 30
0.0
 11
324.88838800000002
 21
277.04892999999998
 31
0.0
  0
SOLID
  5
18A
  8
LAYER01
 62
     7
 10
1166.3917939999999
 20
251.38189
 30
0.0
 11
1222.3917939999999
 21
242.04893000000001
 31
0.0
 12
1166.3917939999999
 22
232.71597
 32
0.0
 13
1166.3917939999999
 23
232.71597
 33
0.0
  0
SOLID
  5
18B
  8
LAYER01
 62
     7
 10
380.88838800000002
 20
251.38189
 30
0.0
 11
324.88838800000002
 21
242.04893000000001
 31
0.0
 12
380.88838800000002
 22
232.71597
 32
0.0
 13
380.88838800000002
 23
232.71597
 33
0.0
  0
TEXT
  5
18C
  8
LAYER01
  6
CONTINUOUS
 62
     7
 10
720.70217000000002
 20
277.04892999999998
 30
0.0
 40
70.0
  1
900
  0
POINT
  5
18D
  8
LAYER01
 62
     7
 10
1222.3917939999999
 20
162.92629199999999
 30
0.0
  0
POINT
  5
18E
  8
LAYER01
 62
     7
 10
324.88838800000002
 20
162.92629199999999
 30
0.0
  0
POINT
  5
18F
  8
LAYER01
 62
     7
 10
324.88838800000002
 20
242.04893000000001
 30
0.0
  0
ENDBLK
  5
190
  8
0
  0
BLOCK
  8
0
  2
*D1
 70
     1
 10
0.0
 20
0.0
 30
0.0
  3
*D1
  1

  0
LINE
  5
193
  8
LAYER01
 62
     7
 10
1224.8883639999999
 20
953.22272599999985
 30
0.0
 11
324.88838800000002
 21
953.22272599999985
 31
0.0
  0
LINE
  5
194
  8
LAYER01
 62
     7
 10
1224.8883639999999
 20
867.49049100000002
 30
0.0
 11
1224.8883639999999
 21
988.22272599999997
 31
0.0
  0
LINE
  5
195
  8
LAYER01
 62
     7
 10
324.88838800000002
 20
867.49049100000002
 30
0.0
 11
324.88838800000002
 21
988.22272599999997
 31
0.0
  0
SOLID
  5
196
  8
LAYER01
 62
     7
 10
1168.8883639999999
 20
962.55568599999992
 30
0.0
 11
1224.8883639999999
 21
953.22272599999985
 31
0.0
 12
1168.8883639999999
 22
943.88976600000001
 32
0.0
 13
1168.8883639999999
 23
943.88976600000001
 33
0.0
  0
SOLID
  5
197
  8
LAYER01
 62
     7
 10
380.88838800000002
 20
962.55568599999992
 30
0.0
 11
324.88838800000002
 21
953.22272599999985
 31
0.0
 12
380.88838800000002
 22
943.88976600000001
 32
0.0
 13
380.88838800000002
 23
943.88976600000001
 33
0.0
  0
TEXT
  5
198
  8
LAYER01
  6
CONTINUOUS
 62
     7
 10
721.943039
 20
988.22272599999997
 30
0.0
 40
70.0
  1
900
  0
POINT
  5
199
  8
LAYER01
 62
     7
 10
1224.8883639999999
 20
839.49049100000013
 30
0.0
  0
POINT
  5
19A
  8
LAYER01
 62
     7
 10
324.88838800000002
 20
839.49049100000013
 30
0.0
  0
POINT
  5
19B
  8
LAYER01
 62
     7
 10
324.88838800000002
 20
953.22272599999985
 30
0.0
  0
ENDBLK
  5
19C
  8
0
  0
BLOCK
  8
0
  2
*D2
 70
     1
 10
0.0
 20
0.0
 30
0.0
  3
*D2
  1

  0
LINE
  5
19F
  8
LAYER01
 62
     7
 10
299.88838199999998
 20
1106.175923
 30
0.0
 11
1249.8883699999999
 21
1106.175923
 31
0.0
  0
LINE
  5
1A0
  8
LAYER01
 62
     7
 10
299.88838199999998
 20
867.49049100000002
 30
0.0
 11
299.88838199999998
 21
1141.175923
 31
0.0
  0
LINE
  5
1A1
  8
LAYER01
 62
     7
 10
1249.8883699999999
 20
867.49049100000002
 30
0.0
 11
1249.8883699999999
 21
1141.175923
 31
0.0
  0
SOLID
  5
1A2
  8
LAYER01
 62
     7
 10
355.88838199999998
 20
1096.8429630000001
 30
0.0
 11
299.88838199999998
 21
1106.175923
 31
0.0
 12
355.88838199999998
 22
1115.508883
 32
0.0
 13
355.88838199999998
 23
1115.508883
 33
0.0
  0
SOLID
  5
1A3
  8
LAYER01
 62
     7
 10
1193.8883699999999
 20
1096.8429630000001
 30
0.0
 11
1249.8883699999999
 21
1106.175923
 31
0.0
 12
1193.8883699999999
 22
1115.508883
 32
0.0
 13
1193.8883699999999
 23
1115.508883
 33
0.0
  0
TEXT
  5
1A4
  8
LAYER01
  6
CONTINUOUS
 62
     7
 10
721.943039
 20
1141.175923
 30
0.0
 40
70.0
  1
950
  0
POINT
  5
1A5
  8
LAYER01
 62
     7
 10
299.88838199999998
 20
839.49049100000013
 30
0.0
  0
POINT
  5
1A6
  8
LAYER01
 62
     7
 10
1249.8883699999999
 20
839.49049100000013
 30
0.0
  0
POINT
  5
1A7
  8
LAYER01
 62
     7
 10
1249.8883699999999
 20
1106.175923
 30
0.0
  0
ENDBLK
  5
1A8
  8
0
  0
BLOCK
  8
0
  2
VP359013-G4
 70
     0
 10
0.0
 20
0.0
 30
0.0
  3
VP359013-G4
  1

  0
LINE
  5
1AB
  8
LAYER01
  6
CONTINUOUS
 62
     7
 10
797.88837599999999
 20
12.235761
 30
0.0
 11
820.21331999999995
 21
34.560704000000001
 31
0.0
  0
LINE
  5
1AC
  8
LAYER01
  6
CONTINUOUS
 62
     7
 10
831.61570200000006
 20
23.512445
 30
0.0
 11
844.68926799999986
 21
36.586011999999997
 31
0.0
  0
LINE
  5
1AD
  8
LAYER01
  6
CONTINUOUS
 62
     7
 10
855.75043400000015
 20
25.196538
 30
0.0
 11
868.49577299999999
 21
37.941876000000001
 31
0.0
  0
LINE
  5
1AE
  8
LAYER01
  6
CONTINUOUS
 62
     7
 10
879.55693900000006
 20
26.552403000000002
 30
0.0
 11
892.30227799999977
 21
39.297740999999988
 31
0.0
  0
LINE
  5
1AF
  8
LAYER01
  6
CONTINUOUS
 62
     7
 10
903.36344399999996
 20
27.908266999999999
 30
0.0
 11
916.1087829999999
 21
40.653605999999989
 31
0.0
  0
LINE
  5
1B0
  8
LAYER01
  6
CONTINUOUS
 62
     7
 10
927.16994899999986
 20
29.264132
 30
0.0
 11
939.91528800000003
 21
42.009470999999998
 31
0.0
  0
LINE
  5
1B1
  8
LAYER01
  6
CONTINUOUS
 62
     7
 10
950.97645399999988
 20
30.619997000000001
 30
0.0
 11
963.72179300000005
 21
43.365334999999988
 31
0.0
  0
LINE
  5
1B2
  8
LAYER01
  6
CONTINUOUS
 62
     7
 10
974.78295900000001
 20
31.975860999999998
 30
0.0
 11
987.52829800000006
 21
44.721200000000003
 31
0.0
  0
LINE
  5
1B3
  8
LAYER01
  6
CONTINUOUS
 62
     7
 10
998.58946399999991
 20
33.33172600000001
 30
0.0
 11
1011.334803
 21
46.077064999999997
 31
0.0
  0
LINE
  5
1B4
  8
LAYER01
  6
CONTINUOUS
 62
     7
 10
1022.395969
 20
34.687590999999998
 30
0.0
 11
1035.141308
 21
47.432929999999999
 31
0.0
  0
LINE
  5
1B5
  8
LAYER01
  6
CONTINUOUS
 62
     7
 10
1046.202475
 20
36.043455999999999
 30
0.0
 11
1058.947813
 21
48.788794000000003
 31
0.0
  0
LINE
  5
1B6
  8
LAYER01
  6
CONTINUOUS
 62
     7
 10
1070.0089800000001
 20
37.399320000000003
 30
0.0
 11
1082.754318
 21
50.144659000000011
 31
0.0
  0
LINE
  5
1B7
  8
LAYER01
  6
CONTINUOUS
 62
     7
 10
1093.8154850000001
 20
38.755184999999997
 30
0.0
 11
1106.560823
 21
51.500523999999992
 31
0.0
  0
LINE
  5
1B8
  8
LAYER01
  6
CONTINUOUS
 62
     7
 10
1117.6219900000001
 20
40.111049999999992
 30
0.0
 11
1130.367328
 21
52.856389
 31
0.0
  0
LINE
  5
1B9
  8
LAYER01
  6
CONTINUOUS
 62
     7
 10
1224.028427
 20
146.51748799999999
 30
0.0
 11
1240.437232
 21
162.92629199999999
 31
0.0
  0
LINE
  5
1BA
  8
LAYER01
  6
CONTINUOUS
 62
     7
 10
1141.4284950000001
 20
41.466915
 30
0.0
 11
1154.1738330000001
 21
54.212252999999997
 31
0.0
  0
LINE
  5
1BB
  8
LAYER01
  6
CONTINUOUS
 62
     7
 10
1165.2349999999999
 20
42.82277899999999
 30
0.0
 11
1177.9803380000001
 21
55.568118000000013
 31
0.0
  0
LINE
  5
1BC
  8
LAYER01
  6
CONTINUOUS
 62
     7
 10
1189.0415049999999
 20
44.178643999999998
 30
0.0
 11
1201.7868430000001
 21
56.923982999999993
 31
0.0
  0
LINE
  5
1BD
  8
LAYER01
  6
CONTINUOUS
 62
     7
 10
1222.7867659999999
 20
122.825186
 30
0.0
 11
1235.4678200000001
 21
135.50623999999999
 31
0.0
  0
LINE
  5
1BE
  8
LAYER01
  6
CONTINUOUS
 62
     7
 10
1221.5451049999999
 20
99.132885000000002
 30
0.0
 11
1234.2261599999999
 21
111.813939
 31
0.0
  0
LINE
  5
1BF
  8
LAYER01
  6
CONTINUOUS
 62
     7
 10
1220.303445
 20
75.440584000000001
 30
0.0
 11
1232.9844989999999
 21
88.121638000000004
 31
0.0
  0
LINE
  5
1C0
  8
LAYER01
  6
CONTINUOUS
 62
     7
 10
1212.8480099999999
 20
45.534509
 30
0.0
 11
1231.7428379999999
 21
64.429337000000004
 31
0.0
  0
ENDBLK
  5
1C1
  8
0
  0
BLOCK
  8
0
  2
*D4
 70
     1
 10
0.0
 20
0.0
 30
0.0
  3
*D4
  1

  0
LINE
  5
1C4
  8
LAYER01
 62
     7
 10
30.894048000000002
 20
832.5923949999999
 30
0.0
 11
30.894048000000002
 21
432.59238899999991
 31
0.0
  0
LINE
  5
1C5
  8
LAYER01
 62
     7
 10
257.09713199999999
 20
832.5923949999999
 30
0.0
 11
-4.1059519999999994
 21
832.5923949999999
 31
0.0
  0
LINE
  5
1C6
  8
LAYER01
 62
     7
 10
257.09713199999999
 20
432.59238899999991
 30
0.0
 11
-4.1059519999999994
 21
432.59238899999991
 31
0.0
  0
SOLID
  5
1C7
  8
LAYER01
 62
     7
 10
21.561088000000002
 20
776.59239500000001
 30
0.0
 11
30.894048000000002
 21
832.5923949999999
 31
0.0
 12
40.227007999999998
 22
776.59239500000001
 32
0.0
 13
40.227007999999998
 23
776.59239500000001
 33
0.0
  0
SOLID
  5
1C8
  8
LAYER01
 62
     7
 10
21.561088000000002
 20
488.59238899999991
 30
0.0
 11
30.894048000000002
 21
432.59238899999991
 31
0.0
 12
40.227007999999998
 22
488.59238899999991
 32
0.0
 13
40.227007999999998
 23
488.59238899999991
 33
0.0
  0
TEXT
  5
1C9
  8
LAYER01
  6
CONTINUOUS
 62
     7
 10
-4.1059519999999994
 20
579.37526100000002
 30
0.0
 40
70.0
  1
400
 50
90.0
  0
POINT
  5
1CA
  8
LAYER01
 62
     7
 10
285.09713199999999
 20
832.5923949999999
 30
0.0
  0
POINT
  5
1CB
  8
LAYER01
 62
     7
 10
285.09713199999999
 20
432.59238899999991
 30
0.0
  0
POINT
  5
1CC
  8
LAYER01
 62
     7
 10
30.894048000000002
 20
432.59238899999991
 30
0.0
  0
ENDBLK
  5
1CD
  8
0
  0
BLOCK
  8
0
  2
VP359013-G6
 70
     0
 10
0.0
 20
0.0
 30
0.0
  3
VP359013-G6
  1

  0
LINE
  5
1D0
  8
LAYER01
  6
CONTINUOUS
 62
     7
 10
307.72699999999998
 20
150.69231300000001
 30
0.0
 11
319.96097900000001
 21
162.92629199999999
 31
0.0
  0
LINE
  5
1D1
  8
LAYER01
  6
CONTINUOUS
 62
     7
 10
314.34292599999998
 20
134.857598
 30
0.0
 11
325.76099799999997
 21
146.27567099999999
 31
0.0
  0
LINE
  5
1D2
  8
LAYER01
  6
CONTINUOUS
 62
     7
 10
315.46092299999998
 20
113.52495500000001
 30
0.0
 11
326.87899499999997
 21
124.943027
 31
0.0
  0
LINE
  5
1D3
  8
LAYER01
  6
CONTINUOUS
 62
     7
 10
316.57891899999998
 20
92.192311000000004
 30
0.0
 11
327.99699100000009
 21
103.610383
 31
0.0
  0
LINE
  5
1D4
  8
LAYER01
  6
CONTINUOUS
 62
     7
 10
317.69691499999999
 20
70.859667000000002
 30
0.0
 11
329.11498799999998
 21
82.277738999999997
 31
0.0
  0
LINE
  5
1D5
  8
LAYER01
  6
CONTINUOUS
 62
     7
 10
321.67733800000002
 20
52.389448999999992
 30
0.0
 11
330.41361000000001
 21
61.125720999999999
 31
0.0
  0
LINE
  5
1D6
  8
LAYER01
  6
CONTINUOUS
 62
     7
 10
337.25448599999999
 20
45.515957
 30
0.0
 11
348.62626899999998
 21
56.887740000000001
 31
0.0
  0
LINE
  5
1D7
  8
LAYER01
  6
CONTINUOUS
 62
     7
 10
358.49538200000001
 20
44.306212000000002
 30
0.0
 11
369.867165
 21
55.677995999999993
 31
0.0
  0
LINE
  5
1D8
  8
LAYER01
  6
CONTINUOUS
 62
     7
 10
379.73627800000003
 20
43.096468000000002
 30
0.0
 11
391.10806099999991
 21
54.468251000000002
 31
0.0
  0
LINE
  5
1D9
  8
LAYER01
  6
CONTINUOUS
 62
     7
 10
400.97717399999999
 20
41.886724000000001
 30
0.0
 11
412.34895699999998
 21
53.258507000000002
 31
0.0
  0
LINE
  5
1DA
  8
LAYER01
  6
CONTINUOUS
 62
     7
 10
422.21807000000001
 20
40.67698
 30
0.0
 11
433.58985300000001
 21
52.048763000000001
 31
0.0
  0
LINE
  5
1DB
  8
LAYER01
  6
CONTINUOUS
 62
     7
 10
443.45896599999998
 20
39.467236
 30
0.0
 11
454.83074900000003
 21
50.839019
 31
0.0
  0
LINE
  5
1DC
  8
LAYER01
  6
CONTINUOUS
 62
     7
 10
464.69986199999988
 20
38.257490999999987
 30
0.0
 11
476.07164499999999
 21
49.629275
 31
0.0
  0
LINE
  5
1DD
  8
LAYER01
  6
CONTINUOUS
 62
     7
 10
485.94075800000002
 20
37.047747000000001
 30
0.0
 11
497.31254200000001
 21
48.419530000000002
 31
0.0
  0
LINE
  5
1DE
  8
LAYER01
  6
CONTINUOUS
 62
     7
 10
507.18165399999992
 20
35.838003
 30
0.0
 11
518.55343799999991
 21
47.209786000000001
 31
0.0
  0
LINE
  5
1DF
  8
LAYER01
  6
CONTINUOUS
 62
     7
 10
528.42254999999989
 20
34.628259
 30
0.0
 11
539.79433399999994
 21
46.000041999999993
 31
0.0
  0
LINE
  5
1E0
  8
LAYER01
  6
CONTINUOUS
 62
     7
 10
549.66344700000002
 20
33.418514000000002
 30
0.0
 11
561.03522999999996
 21
44.790298
 31
0.0
  0
LINE
  5
1E1
  8
LAYER01
  6
CONTINUOUS
 62
     7
 10
570.90434299999993
 20
32.208770000000001
 30
0.0
 11
582.27612599999998
 21
43.580553000000002
 31
0.0
  0
LINE
  5
1E2
  8
LAYER01
  6
CONTINUOUS
 62
     7
 10
592.14523899999995
 20
30.999026000000001
 30
0.0
 11
603.517022
 21
42.370809000000001
 31
0.0
  0
LINE
  5
1E3
  8
LAYER01
  6
CONTINUOUS
 62
     7
 10
613.38613499999997
 20
29.789282
 30
0.0
 11
624.75791800000002
 21
41.161064999999986
 31
0.0
  0
LINE
  5
1E4
  8
LAYER01
  6
CONTINUOUS
 62
     7
 10
634.62703099999999
 20
28.579536999999998
 30
0.0
 11
645.99881399999992
 21
39.951321
 31
0.0
  0
LINE
  5
1E5
  8
LAYER01
  6
CONTINUOUS
 62
     7
 10
655.8679269999999
 20
27.369793000000001
 30
0.0
 11
667.23970999999995
 21
38.741576000000002
 31
0.0
  0
LINE
  5
1E6
  8
LAYER01
  6
CONTINUOUS
 62
     7
 10
677.10882300000003
 20
26.160049000000001
 30
0.0
 11
688.48060599999985
 21
37.531832000000001
 31
0.0
  0
LINE
  5
1E7
  8
LAYER01
  6
CONTINUOUS
 62
     7
 10
698.34971900000005
 20
24.950305
 30
0.0
 11
709.69810899999993
 21
36.298695000000002
 31
0.0
  0
LINE
  5
1E8
  8
LAYER01
  6
CONTINUOUS
 62
     7
 10
719.26584300000002
 20
23.415789
 30
0.0
 11
730.34259099999986
 21
34.492536999999999
 31
0.0
  0
LINE
  5
1E9
  8
LAYER01
  6
CONTINUOUS
 62
     7
 10
734.69409800000005
 20
16.393402999999999
 30
0.0
 11
746.04252699999995
 21
27.741831999999999
 31
0.0
  0
ENDBLK
  5
1EA
  8
0
  0
BLOCK
  8
0
  2
*D6
 70
     1
 10
0.0
 20
0.0
 30
0.0
  3
*D6
  1

  0
LINE
  5
1ED
  8
LAYER01
 62
     7
 10
180.17963700000001
 20
807.5923889999998
 30
0.0
 11
180.17963700000001
 21
457.5923949999999
 31
0.0
  0
LINE
  5
1EE
  8
LAYER01
 62
     7
 10
257.09713199999999
 20
807.5923889999998
 30
0.0
 11
145.17963700000001
 21
807.5923889999998
 31
0.0
  0
LINE
  5
1EF
  8
LAYER01
 62
     7
 10
257.09713199999999
 20
457.5923949999999
 30
0.0
 11
145.17963700000001
 21
457.5923949999999
 31
0.0
  0
SOLID
  5
1F0
  8
LAYER01
 62
     7
 10
170.846677
 20
751.5923889999998
 30
0.0
 11
180.17963700000001
 21
807.5923889999998
 31
0.0
 12
189.512597
 22
751.5923889999998
 32
0.0
 13
189.512597
 23
751.5923889999998
 33
0.0
  0
SOLID
  5
1F1
  8
LAYER01
 62
     7
 10
170.846677
 20
513.59239500000001
 30
0.0
 11
180.17963700000001
 21
457.5923949999999
 31
0.0
 12
189.512597
 22
513.59239500000001
 32
0.0
 13
189.512597
 23
513.59239500000001
 33
0.0
  0
TEXT
  5
1F2
  8
LAYER01
  6
CONTINUOUS
 62
     7
 10
145.17963700000001
 20
579.37526100000002
 30
0.0
 40
70.0
  1
350
 50
90.0
  0
POINT
  5
1F3
  8
LAYER01
 62
     7
 10
285.09713199999999
 20
807.5923889999998
 30
0.0
  0
POINT
  5
1F4
  8
LAYER01
 62
     7
 10
285.09713199999999
 20
457.5923949999999
 30
0.0
  0
POINT
  5
1F5
  8
LAYER01
 62
     7
 10
180.17963700000001
 20
457.5923949999999
 30
0.0
  0
ENDBLK
  5
1F6
  8
0
  0
BLOCK
  8
0
  2
VP359013-G8
 70
     0
 10
0.0
 20
0.0
 30
0.0
  3
VP359013-G8
  1

  0
LINE
  5
1F9
  8
LAYER01
  6
CONTINUOUS
 62
     7
 10
774.88837599999999
 20
632.59239200000002
 30
0.0
 11
774.88837599999999
 21
635.09239200000002
 31
0.0
  0
LINE
  5
1FA
  8
LAYER01
  6
CONTINUOUS
 62
     7
 10
774.88837599999999
 20
632.59239200000002
 30
0.0
 11
772.38837599999999
 21
632.59239200000002
 31
0.0
  0
LINE
  5
1FB
  8
LAYER01
  6
CONTINUOUS
 62
     7
 10
774.88837599999999
 20
632.59239200000002
 30
0.0
 11
774.88837599999999
 21
630.09239200000002
 31
0.0
  0
LINE
  5
1FC
  8
LAYER01
  6
CONTINUOUS
 62
     7
 10
774.88837599999999
 20
632.59239200000002
 30
0.0
 11
777.38837599999999
 21
632.59239200000002
 31
0.0
  0
LINE
  5
1FD
  8
LAYER01
  6
CONTINUOUS
 62
     7
 10
774.88837599999999
 20
637.5923919999999
 30
0.0
 11
774.88837599999999
 21
659.87845400000003
 31
0.0
  0
LINE
  5
1FE
  8
LAYER01
  6
CONTINUOUS
 62
     7
 10
769.88837599999999
 20
632.59239200000002
 30
0.0
 11
747.60231399999986
 21
632.59239200000002
 31
0.0
  0
LINE
  5
1FF
  8
LAYER01
  6
CONTINUOUS
 62
     7
 10
774.88837599999999
 20
627.59239200000002
 30
0.0
 11
774.88837599999999
 21
605.30632999999989
 31
0.0
  0
LINE
  5
200
  8
LAYER01
  6
CONTINUOUS
 62
     7
 10
779.88837599999988
 20
632.59239200000002
 30
0.0
 11
802.1744379999999
 21
632.59239200000002
 31
0.0
  0
ENDBLK
  5
201
  8
0
  0
BLOCK
  8
0
  2
VP359013-G10
 70
     0
 10
0.0
 20
0.0
 30
0.0
  3
VP359013-G10
  1

  0
TEXT
  5
204
  8
LAYER01
  6
VERDECKT
 62
     1
 10
2070.0638739999999
 20
-632.361222
 30
0.0
 40
10.0
  1
A. Sprenger GmbH
  7
SIMPLEX
  0
TEXT
  5
205
  8
LAYER01
  6
VERDECKT
 62
     1
 10
2070.0638739999999
 20
-649.50407900000005
 30
0.0
 40
10.0
  1
Berner Str. 10
  7
SIMPLEX
  0
TEXT
  5
206
  8
LAYER01
  6
VERDECKT
 62
     1
 10
2070.0638739999999
 20
-666.64693599999987
 30
0.0
 40
10.0
  1
60437 Frankfurt
  7
SIMPLEX
  0
TEXT
  5
207
  8
LAYER01
  6
VERDECKT
 62
     1
 10
2070.0638739999999
 20
-683.78979299999992
 30
0.0
 40
10.0
  1
Tel.: 069 - 507 27 41
  7
SIMPLEX
  0
TEXT
  5
208
  8
LAYER01
  6
VERDECKT
 62
     1
 10
2070.0638739999999
 20
-700.93264999999997
 30
0.0
 40
10.0
  1
Fax: 069 - 507 72 91
  7
SIMPLEX
  0
TEXT
  5
209
  8
LAYER01
  6
VERDECKT
 62
     1
 10
2070.0638739999999
 20
-718.07550700000002
 30
0.0
 40
10.0
  1
info@varicor.org
  7
SIMPLEX
  0
ENDBLK
  5
20A
  8
0
  0
BLOCK
  8
0
  2
VP359013-G9
 70
     0
 10
0.0
 20
0.0
 30
0.0
  3
VP359013-G9
  1

  0
TEXT
  5
20D
  8
LAYER01
  6
CONTINUOUS
 62
     1
 10
3120.882329
 20
-867.44140900000002
 30
0.0
 40
10.0
  1
Blatt
  7
SIMPLEX
  0
LINE
  5
20E
  8
LAYER01
  6
CONTINUOUS
 62
     1
 10
2055.882329
 20
-797.44140900000002
 30
0.0
 11
2655.882329
 21
-797.44140900000002
 31
0.0
  0
LINE
  5
20F
  8
LAYER01
  6
CONTINUOUS
 62
     1
 10
2055.882329
 20
-822.44140899999991
 30
0.0
 11
2655.882329
 21
-822.44140899999991
 31
0.0
  0
LINE
  5
210
  8
LAYER01
  6
CONTINUOUS
 62
     1
 10
2055.882329
 20
-847.44140899999991
 30
0.0
 11
3185.882329
 21
-847.44140899999991
 31
0.0
  0
LINE
  5
211
  8
LAYER01
  6
CONTINUOUS
 62
     1
 10
2055.882329
 20
-922.44140899999991
 30
0.0
 11
3185.882329
 21
-922.44140899999991
 31
0.0
  0
LINE
  5
212
  8
LAYER01
  6
CONTINUOUS
 62
     1
 10
2055.882329
 20
-722.44140900000002
 30
0.0
 11
3185.882329
 21
-722.44140900000002
 31
0.0
  0
POLYLINE
  5
213
  8
LAYER01
  6
CONTINUOUS
 62
     1
 66
     1
 10
0.0
 20
0.0
 30
0.0
 70
     1
  0
VERTEX
  5
8E7
  8
LAYER01
  6
CONTINUOUS
 62
     1
 10
2055.882329
 20
-952.44140900000002
 30
0.0
  0
VERTEX
  5
8E8
  8
LAYER01
  6
CONTINUOUS
 62
     1
 10
2055.882329
 20
-617.44140899999991
 30
0.0
  0
VERTEX
  5
8E9
  8
LAYER01
  6
CONTINUOUS
 62
     1
 10
3185.882329
 20
-617.44140899999991
 30
0.0
  0
VERTEX
  5
8EA
  8
LAYER01
  6
CONTINUOUS
 62
     1
 10
3185.882329
 20
-952.44140900000002
 30
0.0
  0
SEQEND
  5
8EB
  8
LAYER01
  6
CONTINUOUS
 62
     1
  0
LINE
  5
219
  8
LAYER01
  6
CONTINUOUS
 62
     1
 10
2055.882329
 20
-747.44140900000002
 30
0.0
 11
2655.882329
 21
-747.44140900000002
 31
0.0
  0
LINE
  5
21A
  8
LAYER01
  6
CONTINUOUS
 62
     1
 10
2055.882329
 20
-772.44140900000002
 30
0.0
 11
2655.882329
 21
-772.44140900000002
 31
0.0
  0
LINE
  5
21B
  8
LAYER01
  6
CONTINUOUS
 62
     1
 10
2380.882329
 20
-617.44140899999991
 30
0.0
 11
2380.882329
 21
-952.44140900000002
 31
0.0
  0
INSERT
  5
21C
  8
LAYER01
  2
VP359013-G10
 10
0.0
 20
0.0
 30
0.0
  0
LINE
  5
21D
  8
LAYER01
  6
CONTINUOUS
 62
     1
 10
2055.882329
 20
-897.44140899999991
 30
0.0
 11
2380.882329
 21
-897.44140899999991
 31
0.0
  0
LINE
  5
21E
  8
LAYER01
  6
CONTINUOUS
 62
     1
 10
2055.882329
 20
-872.44140899999991
 30
0.0
 11
2380.882329
 21
-872.44140899999991
 31
0.0
  0
LINE
  5
21F
  8
LAYER01
  6
CONTINUOUS
 62
     1
 10
2100.882329
 20
-722.44140900000002
 30
0.0
 11
2100.882329
 21
-952.44140900000002
 31
0.0
  0
TEXT
  5
220
  8
LAYER01
  6
CONTINUOUS
 62
     1
 10
2064.281594
 20
-942.44140900000002
 30
0.0
 40
9.5
  1
Zust
  7
SIMPLEX
  0
LINE
  5
221
  8
LAYER01
  6
CONTINUOUS
 62
     1
 10
2258.6669440000001
 20
-952.44140900000002
 30
0.0
 11
2258.6669440000001
 21
-722.44140900000002
 31
0.0
  0
LINE
  5
222
  8
LAYER01
  6
CONTINUOUS
 62
     1
 10
2335.882329
 20
-722.44140900000002
 30
0.0
 11
2335.882329
 21
-952.44140900000002
 31
0.0
  0
TEXT
  5
223
  8
LAYER01
  6
CONTINUOUS
 62
     1
 10
2145.010871
 20
-942.44140900000002
 30
0.0
 40
9.5
  1
Änderung
  7
SIMPLEX
  0
TEXT
  5
224
  8
LAYER01
  6
CONTINUOUS
 62
     1
 10
2272.7364729999999
 20
-942.44140900000002
 30
0.0
 40
9.5
  1
Datum
  7
SIMPLEX
  0
TEXT
  5
225
  8
LAYER01
  6
CONTINUOUS
 62
     1
 10
2339.6462320000001
 20
-942.44140900000002
 30
0.0
 40
9.5
  1
Name
  7
SIMPLEX
  0
LINE
  5
226
  8
LAYER01
  6
CONTINUOUS
 62
     1
 10
3185.882329
 20
-657.44140900000002
 30
0.0
 11
2655.882329
 21
-657.44140900000002
 31
0.0
  0
LINE
  5
227
  8
LAYER01
  6
CONTINUOUS
 62
     1
 10
2445.882329
 20
-822.44140899999991
 30
0.0
 11
2445.882329
 21
-722.44140900000002
 31
0.0
  0
TEXT
  5
228
  8
LAYER01
  6
CONTINUOUS
 62
     1
 10
2390.882329
 20
-767.44140899999991
 30
0.0
 40
10.0
  1
Bearb.
  7
SIMPLEX
  0
TEXT
  5
229
  8
LAYER01
  6
CONTINUOUS
 62
     1
 10
2390.882329
 20
-817.44140900000002
 30
0.0
 40
10.0
  1
Norm
  7
SIMPLEX
  0
TEXT
  5
22A
  8
LAYER01
  6
CONTINUOUS
 62
     1
 10
2390.882329
 20
-792.44140899999991
 30
0.0
 40
10.0
  1
Gepr.
  7
SIMPLEX
  0
TEXT
  5
22B
  8
LAYER01
  6
CONTINUOUS
 62
     1
 10
2470.882329
 20
-742.44140899999991
 30
0.0
 40
10.0
  1
Datum
  7
SIMPLEX
  0
TEXT
  5
22C
  8
LAYER01
  6
CONTINUOUS
 62
     1
 10
2570.882329
 20
-742.44140899999991
 30
0.0
 40
10.0
  1
Name
  7
SIMPLEX
  0
TEXT
  5
22D
  8
LAYER01
  6
CONTINUOUS
 62
     1
 10
3160.882329
 20
-917.44140900000002
 30
0.0
 40
10.0
  1
Bl.
  7
SIMPLEX
  0
LINE
  5
22E
  8
LAYER01
  6
CONTINUOUS
 62
     1
 10
2655.882329
 20
-952.44140900000002
 30
0.0
 11
2655.882329
 21
-617.44140899999991
 31
0.0
  0
LINE
  5
22F
  8
LAYER01
  6
CONTINUOUS
 62
     1
 10
2540.882329
 20
-847.44140899999991
 30
0.0
 11
2540.882329
 21
-617.44140899999991
 31
0.0
  0
LINE
  5
230
  8
LAYER01
  6
CONTINUOUS
 62
     1
 10
2970.882329
 20
-617.44140899999991
 30
0.0
 11
2970.882329
 21
-657.44140900000002
 31
0.0
  0
TEXT
  5
231
  8
LAYER01
  6
CONTINUOUS
 62
     1
 10
2666.7763279999999
 20
-642.97141099999988
 30
0.0
 40
10.0
  1
Maßstab
  7
SIMPLEX
  0
LINE
  5
232
  8
LAYER01
  6
CONTINUOUS
 62
     1
 10
3110.882329
 20
-847.44140899999991
 30
0.0
 11
3110.882329
 21
-922.44140899999991
 31
0.0
  0
LINE
  5
233
  8
LAYER01
  6
CONTINUOUS
 62
     1
 10
3110.882329
 20
-897.44140899999991
 30
0.0
 11
3185.882329
 21
-897.44140899999991
 31
0.0
  0
ENDBLK
  5
234
  8
0
  0
BLOCK
  8
0
  2
VP359013-G11
 70
     0
 10
0.0
 20
0.0
 30
0.0
  3
VP359013-G11
  1

  0
POLYLINE
  5
237
  8
LAYER01
  6
CONTINUOUS
 62
     7
 66
     1
 10
0.0
 20
0.0
 30
0.0
 70
     1
  0
VERTEX
  5
8EC
  8
LAYER01
  6
CONTINUOUS
 62
     7
 10
1989.076767
 20
-126.16186999999999
 30
0.0
  0
VERTEX
  5
8ED
  8
LAYER01
  6
CONTINUOUS
 62
     7
 10
2030.5064540000001
 20
-126.16186999999999
 30
0.0
  0
VERTEX
  5
8EE
  8
LAYER01
  6
CONTINUOUS
 62
     7
 10
2082.5344329999998
 20
-244.67004399999999
 30
0.0
  0
VERTEX
  5
8EF
  8
LAYER01
  6
CONTINUOUS
 62
     7
 10
2134.5624109999999
 20
-126.16186999999999
 30
0.0
  0
VERTEX
  5
8F0
  8
LAYER01
  6
CONTINUOUS
 62
     7
 10
2177.9190600000002
 20
-126.16186999999999
 30
0.0
  0
VERTEX
  5
8F1
  8
LAYER01
  6
CONTINUOUS
 62
     7
 10
2082.5344329999998
 20
-338.12770899999998
 30
0.0
  0
VERTEX
  5
8F2
  8
LAYER01
  6
CONTINUOUS
 62
     7
 10
1989.076767
 20
-126.16186999999999
 30
0.0
  0
VERTEX
  5
8F3
  8
LAYER01
  6
CONTINUOUS
 62
     7
 10
1989.076767
 20
-126.16186999999999
 30
0.0
  0
SEQEND
  5
8F4
  8
LAYER01
  6
CONTINUOUS
 62
     7
  0
POLYLINE
  5
241
  8
LAYER01
  6
CONTINUOUS
 62
     7
 66
     1
 10
0.0
 20
0.0
 30
0.0
 70
     1
  0
VERTEX
  5
8F5
  8
LAYER01
  6
CONTINUOUS
 62
     7
 10
2130.7084869999999
 20
-270.684033
 30
0.0
  0
VERTEX
  5
8F6
  8
LAYER01
  6
CONTINUOUS
 62
     7
 10
2145.160703
 20
-236.96219500000001
 30
0.0
  0
VERTEX
  5
8F7
  8
LAYER01
  6
CONTINUOUS
 62
     7
 10
2207.7869740000001
 20
-236.96219500000001
 30
0.0
  0
VERTEX
  5
8F8
  8
LAYER01
  6
CONTINUOUS
 62
     7
 10
2175.9920980000002
 20
-167.59155699999999
 30
0.0
  0
VERTEX
  5
8F9
  8
LAYER01
  6
CONTINUOUS
 62
     7
 10
2194.2982390000002
 20
-123.27142600000001
 30
0.0
  0
VERTEX
  5
8FA
  8
LAYER01
  6
CONTINUOUS
 62
     7
 10
2280.0480560000001
 20
-304.40587099999999
 30
0.0
  0
VERTEX
  5
8FB
  8
LAYER01
  6
CONTINUOUS
 62
     7
 10
2280.0480560000001
 20
-126.16186999999999
 30
0.0
  0
VERTEX
  5
8FC
  8
LAYER01
  6
CONTINUOUS
 62
     7
 10
2394.7023049999998
 20
-126.16186999999999
 30
0.0
  0
VERTEX
  5
8FD
  8
LAYER01
  6
CONTINUOUS
 62
     7
 10
2394.7023049999998
 20
-126.16186999999999
 30
0.0
  0
VERTEX
  5
8FE
  8
LAYER01
  6
CONTINUOUS
 62
     7
 10
2405.3005969999999
 20
-128.088832
 30
0.0
  0
VERTEX
  5
8FF
  8
LAYER01
  6
CONTINUOUS
 62
     7
 10
2414.9354079999998
 20
-131.942756
 30
0.0
  0
VERTEX
  5
900
  8
LAYER01
  6
CONTINUOUS
 62
     7
 10
2423.606738
 20
-138.68712400000001
 30
0.0
  0
VERTEX
  5
901
  8
LAYER01
  6
CONTINUOUS
 62
     7
 10
2431.3145870000012
 20
-145.43149099999999
 30
0.0
  0
VERTEX
  5
902
  8
LAYER01
  6
CONTINUOUS
 62
     7
 10
2438.058954000001
 20
-154.10282100000001
 30
0.0
  0
VERTEX
  5
903
  8
LAYER01
  6
CONTINUOUS
 62
     7
 10
2442.8763600000002
 20
-163.73763199999999
 30
0.0
  0
VERTEX
  5
904
  8
LAYER01
  6
CONTINUOUS
 62
     7
 10
2446.7302840000002
 20
-175.29940500000001
 30
0.0
  0
VERTEX
  5
905
  8
LAYER01
  6
CONTINUOUS
 62
     7
 10
2447.693765
 20
-185.89769699999999
 30
0.0
  0
VERTEX
  5
906
  8
LAYER01
  6
CONTINUOUS
 62
     7
 10
2447.693765
 20
-185.89769699999999
 30
0.0
  0
VERTEX
  5
907
  8
LAYER01
  6
CONTINUOUS
 62
     7
 10
2447.693765
 20
-197.45947000000001
 30
0.0
  0
VERTEX
  5
908
  8
LAYER01
  6
CONTINUOUS
 62
     7
 10
2445.766803
 20
-207.094281
 30
0.0
  0
VERTEX
  5
909
  8
LAYER01
  6
CONTINUOUS
 62
     7
 10
2441.912879
 20
-216.72909200000001
 30
0.0
  0
VERTEX
  5
90A
  8
LAYER01
  6
CONTINUOUS
 62
     7
 10
2437.0954729999999
 20
-225.40042199999999
 30
0.0
  0
VERTEX
  5
90B
  8
LAYER01
  6
CONTINUOUS
 62
     7
 10
2430.3511050000002
 20
-233.10827
 30
0.0
  0
VERTEX
  5
90C
  8
LAYER01
  6
CONTINUOUS
 62
     7
 10
2422.6432570000011
 20
-239.85263800000001
 30
0.0
  0
VERTEX
  5
90D
  8
LAYER01
  6
CONTINUOUS
 62
     7
 10
2413.9719270000001
 20
-244.67004399999999
 30
0.0
  0
VERTEX
  5
90E
  8
LAYER01
  6
CONTINUOUS
 62
     7
 10
2403.3736349999999
 20
-248.523968
 30
0.0
  0
VERTEX
  5
90F
  8
LAYER01
  6
CONTINUOUS
 62
     7
 10
2465.0364249999998
 20
-330.41986000000003
 30
0.0
  0
VERTEX
  5
910
  8
LAYER01
  6
CONTINUOUS
 62
     7
 10
2465.0364249999998
 20
-126.16186999999999
 30
0.0
  0
VERTEX
  5
911
  8
LAYER01
  6
CONTINUOUS
 62
     7
 10
2505.50263
 20
-126.16186999999999
 30
0.0
  0
VERTEX
  5
912
  8
LAYER01
  6
CONTINUOUS
 62
     7
 10
2505.50263
 20
-332.34682299999997
 30
0.0
  0
VERTEX
  5
913
  8
LAYER01
  6
CONTINUOUS
 62
     7
 10
2418.7893319999998
 20
-332.34682299999997
 30
0.0
  0
VERTEX
  5
914
  8
LAYER01
  6
CONTINUOUS
 62
     7
 10
2334.9664780000012
 20
-225.40042199999999
 30
0.0
  0
VERTEX
  5
915
  8
LAYER01
  6
CONTINUOUS
 62
     7
 10
2377.3596459999999
 20
-225.40042199999999
 30
0.0
  0
VERTEX
  5
916
  8
LAYER01
  6
CONTINUOUS
 62
     7
 10
2377.3596459999999
 20
-225.40042199999999
 30
0.0
  0
VERTEX
  5
917
  8
LAYER01
  6
CONTINUOUS
 62
     7
 10
2383.1405319999999
 20
-224.43694099999999
 30
0.0
  0
VERTEX
  5
918
  8
LAYER01
  6
CONTINUOUS
 62
     7
 10
2388.9214189999998
 20
-222.50997899999999
 30
0.0
  0
VERTEX
  5
919
  8
LAYER01
  6
CONTINUOUS
 62
     7
 10
2393.738824
 20
-219.61953500000001
 30
0.0
  0
VERTEX
  5
91A
  8
LAYER01
  6
CONTINUOUS
 62
     7
 10
2398.5562300000001
 20
-215.76561100000001
 30
0.0
  0
VERTEX
  5
91B
  8
LAYER01
  6
CONTINUOUS
 62
     7
 10
2401.4466729999999
 20
-210.94820499999989
 30
0.0
  0
VERTEX
  5
91C
  8
LAYER01
  6
CONTINUOUS
 62
     7
 10
2404.3371160000011
 20
-205.16731899999999
 30
0.0
  0
VERTEX
  5
91D
  8
LAYER01
  6
CONTINUOUS
 62
     7
 10
2406.2640780000002
 20
-199.38643200000001
 30
0.0
  0
VERTEX
  5
91E
  8
LAYER01
  6
CONTINUOUS
 62
     7
 10
2406.2640780000002
 20
-192.642065
 30
0.0
  0
VERTEX
  5
91F
  8
LAYER01
  6
CONTINUOUS
 62
     7
 10
2406.2640780000002
 20
-192.642065
 30
0.0
  0
VERTEX
  5
920
  8
LAYER01
  6
CONTINUOUS
 62
     7
 10
2406.2640780000002
 20
-186.861178
 30
0.0
  0
VERTEX
  5
921
  8
LAYER01
  6
CONTINUOUS
 62
     7
 10
2404.3371160000011
 20
-181.08029199999999
 30
0.0
  0
VERTEX
  5
922
  8
LAYER01
  6
CONTINUOUS
 62
     7
 10
2402.4101540000001
 20
-175.29940500000001
 30
0.0
  0
VERTEX
  5
923
  8
LAYER01
  6
CONTINUOUS
 62
     7
 10
2398.5562300000001
 20
-170.482
 30
0.0
  0
VERTEX
  5
924
  8
LAYER01
  6
CONTINUOUS
 62
     7
 10
2394.7023049999998
 20
-166.628075
 30
0.0
  0
VERTEX
  5
925
  8
LAYER01
  6
CONTINUOUS
 62
     7
 10
2388.9214189999998
 20
-163.73763199999999
 30
0.0
  0
VERTEX
  5
926
  8
LAYER01
  6
CONTINUOUS
 62
     7
 10
2383.1405319999999
 20
-161.81066999999999
 30
0.0
  0
VERTEX
  5
927
  8
LAYER01
  6
CONTINUOUS
 62
     7
 10
2377.3596459999999
 20
-160.84718899999999
 30
0.0
  0
VERTEX
  5
928
  8
LAYER01
  6
CONTINUOUS
 62
     7
 10
2323.4047049999999
 20
-160.84718899999999
 30
0.0
  0
VERTEX
  5
929
  8
LAYER01
  6
CONTINUOUS
 62
     7
 10
2323.4047049999999
 20
-332.34682299999997
 30
0.0
  0
VERTEX
  5
92A
  8
LAYER01
  6
CONTINUOUS
 62
     7
 10
2254.0340660000002
 20
-332.34682299999997
 30
0.0
  0
VERTEX
  5
92B
  8
LAYER01
  6
CONTINUOUS
 62
     7
 10
2225.1296339999999
 20
-270.684033
 30
0.0
  0
VERTEX
  5
92C
  8
LAYER01
  6
CONTINUOUS
 62
     7
 10
2130.7084869999999
 20
-270.684033
 30
0.0
  0
VERTEX
  5
92D
  8
LAYER01
  6
CONTINUOUS
 62
     7
 10
2130.7084869999999
 20
-270.684033
 30
0.0
  0
SEQEND
  5
92E
  8
LAYER01
  6
CONTINUOUS
 62
     7
  0
POLYLINE
  5
27C
  8
LAYER01
  6
CONTINUOUS
 62
     7
 66
     1
 10
0.0
 20
0.0
 30
0.0
 70
     1
  0
VERTEX
  5
92F
  8
LAYER01
  6
CONTINUOUS
 62
     7
 10
2692.4179610000001
 20
-139.65060500000001
 30
0.0
  0
VERTEX
  5
930
  8
LAYER01
  6
CONTINUOUS
 62
     7
 10
2666.4039720000001
 20
-172.408962
 30
0.0
  0
VERTEX
  5
931
  8
LAYER01
  6
CONTINUOUS
 62
     7
 10
2666.4039720000001
 20
-172.408962
 30
0.0
  0
VERTEX
  5
932
  8
LAYER01
  6
CONTINUOUS
 62
     7
 10
2657.7326420000009
 20
-166.628075
 30
0.0
  0
VERTEX
  5
933
  8
LAYER01
  6
CONTINUOUS
 62
     7
 10
2649.0613120000012
 20
-161.81066999999999
 30
0.0
  0
VERTEX
  5
934
  8
LAYER01
  6
CONTINUOUS
 62
     7
 10
2639.4265019999998
 20
-158.92022700000001
 30
0.0
  0
VERTEX
  5
935
  8
LAYER01
  6
CONTINUOUS
 62
     7
 10
2628.8282100000001
 20
-158.92022700000001
 30
0.0
  0
VERTEX
  5
936
  8
LAYER01
  6
CONTINUOUS
 62
     7
 10
2628.8282100000001
 20
-158.92022700000001
 30
0.0
  0
VERTEX
  5
937
  8
LAYER01
  6
CONTINUOUS
 62
     7
 10
2622.083842
 20
-158.92022700000001
 30
0.0
  0
VERTEX
  5
938
  8
LAYER01
  6
CONTINUOUS
 62
     7
 10
2615.3394739999999
 20
-159.88370800000001
 30
0.0
  0
VERTEX
  5
939
  8
LAYER01
  6
CONTINUOUS
 62
     7
 10
2608.5951070000001
 20
-161.81066999999999
 30
0.0
  0
VERTEX
  5
93A
  8
LAYER01
  6
CONTINUOUS
 62
     7
 10
2601.850739
 20
-164.70111299999999
 30
0.0
  0
VERTEX
  5
93B
  8
LAYER01
  6
CONTINUOUS
 62
     7
 10
2596.069853
 20
-167.59155699999999
 30
0.0
  0
VERTEX
  5
93C
  8
LAYER01
  6
CONTINUOUS
 62
     7
 10
2591.2524469999998
 20
-171.445481
 30
0.0
  0
VERTEX
  5
93D
  8
LAYER01
  6
CONTINUOUS
 62
     7
 10
2585.4715609999998
 20
-175.29940500000001
 30
0.0
  0
VERTEX
  5
93E
  8
LAYER01
  6
CONTINUOUS
 62
     7
 10
2581.6176359999999
 20
-180.11681100000001
 30
0.0
  0
VERTEX
  5
93F
  8
LAYER01
  6
CONTINUOUS
 62
     7
 10
2576.8002310000002
 20
-185.89769699999999
 30
0.0
  0
VERTEX
  5
940
  8
LAYER01
  6
CONTINUOUS
 62
     7
 10
2573.9097879999999
 20
-191.678584
 30
0.0
  0
VERTEX
  5
941
  8
LAYER01
  6
CONTINUOUS
 62
     7
 10
2570.055863
 20
-197.45947000000001
 30
0.0
  0
VERTEX
  5
942
  8
LAYER01
  6
CONTINUOUS
 62
     7
 10
2567.1654199999998
 20
-203.24035699999999
 30
0.0
  0
VERTEX
  5
943
  8
LAYER01
  6
CONTINUOUS
 62
     7
 10
2565.2384579999998
 20
-209.984724
 30
0.0
  0
VERTEX
  5
944
  8
LAYER01
  6
CONTINUOUS
 62
     7
 10
2564.274977
 20
-216.72909200000001
 30
0.0
  0
VERTEX
  5
945
  8
LAYER01
  6
CONTINUOUS
 62
     7
 10
2563.3114960000012
 20
-223.47345999999999
 30
0.0
  0
VERTEX
  5
946
  8
LAYER01
  6
CONTINUOUS
 62
     7
 10
2562.348015
 20
-231.181308
 30
0.0
  0
VERTEX
  5
947
  8
LAYER01
  6
CONTINUOUS
 62
     7
 10
2562.348015
 20
-231.181308
 30
0.0
  0
VERTEX
  5
948
  8
LAYER01
  6
CONTINUOUS
 62
     7
 10
2563.3114960000012
 20
-237.92567600000001
 30
0.0
  0
VERTEX
  5
949
  8
LAYER01
  6
CONTINUOUS
 62
     7
 10
2564.274977
 20
-244.67004399999999
 30
0.0
  0
VERTEX
  5
94A
  8
LAYER01
  6
CONTINUOUS
 62
     7
 10
2565.2384579999998
 20
-251.414411
 30
0.0
  0
VERTEX
  5
94B
  8
LAYER01
  6
CONTINUOUS
 62
     7
 10
2568.128901
 20
-257.19529799999998
 30
0.0
  0
VERTEX
  5
94C
  8
LAYER01
  6
CONTINUOUS
 62
     7
 10
2570.055863
 20
-262.97618399999999
 30
0.0
  0
VERTEX
  5
94D
  8
LAYER01
  6
CONTINUOUS
 62
     7
 10
2573.9097879999999
 20
-268.757071
 30
0.0
  0
VERTEX
  5
94E
  8
LAYER01
  6
CONTINUOUS
 62
     7
 10
2577.7637119999999
 20
-274.53795700000001
 30
0.0
  0
VERTEX
  5
94F
  8
LAYER01
  6
CONTINUOUS
 62
     7
 10
2581.6176359999999
 20
-279.35536300000001
 30
0.0
  0
VERTEX
  5
950
  8
LAYER01
  6
CONTINUOUS
 62
     7
 10
2586.4350420000001
 20
-284.17276800000002
 30
0.0
  0
VERTEX
  5
951
  8
LAYER01
  6
CONTINUOUS
 62
     7
 10
2591.2524469999998
 20
-288.02669300000002
 30
0.0
  0
VERTEX
  5
952
  8
LAYER01
  6
CONTINUOUS
 62
     7
 10
2597.0333340000011
 20
-290.91713600000003
 30
0.0
  0
VERTEX
  5
953
  8
LAYER01
  6
CONTINUOUS
 62
     7
 10
2602.8142200000002
 20
-293.80757899999998
 30
0.0
  0
VERTEX
  5
954
  8
LAYER01
  6
CONTINUOUS
 62
     7
 10
2609.5585879999999
 20
-296.69802199999998
 30
0.0
  0
VERTEX
  5
955
  8
LAYER01
  6
CONTINUOUS
 62
     7
 10
2615.3394739999999
 20
-298.62498399999998
 30
0.0
  0
VERTEX
  5
956
  8
LAYER01
  6
CONTINUOUS
 62
     7
 10
2622.083842
 20
-299.5884660000001
 30
0.0
  0
VERTEX
  5
957
  8
LAYER01
  6
CONTINUOUS
 62
     7
 10
2629.7916909999999
 20
-299.5884660000001
 30
0.0
  0
VERTEX
  5
958
  8
LAYER01
  6
CONTINUOUS
 62
     7
 10
2629.7916909999999
 20
-299.5884660000001
 30
0.0
  0
VERTEX
  5
959
  8
LAYER01
  6
CONTINUOUS
 62
     7
 10
2640.389983
 20
-298.62498399999998
 30
0.0
  0
VERTEX
  5
95A
  8
LAYER01
  6
CONTINUOUS
 62
     7
 10
2649.0613120000012
 20
-296.69802199999998
 30
0.0
  0
VERTEX
  5
95B
  8
LAYER01
  6
CONTINUOUS
 62
     7
 10
2657.7326420000009
 20
-291.88061699999997
 30
0.0
  0
VERTEX
  5
95C
  8
LAYER01
  6
CONTINUOUS
 62
     7
 10
2666.4039720000001
 20
-286.09973000000002
 30
0.0
  0
VERTEX
  5
95D
  8
LAYER01
  6
CONTINUOUS
 62
     7
 10
2691.4544799999999
 20
-319.82156800000001
 30
0.0
  0
VERTEX
  5
95E
  8
LAYER01
  6
CONTINUOUS
 62
     7
 10
2691.4544799999999
 20
-319.82156800000001
 30
0.0
  0
VERTEX
  5
95F
  8
LAYER01
  6
CONTINUOUS
 62
     7
 10
2677.0022640000002
 20
-328.49289800000003
 30
0.0
  0
VERTEX
  5
960
  8
LAYER01
  6
CONTINUOUS
 62
     7
 10
2669.2944149999998
 20
-331.38334099999997
 30
0.0
  0
VERTEX
  5
961
  8
LAYER01
  6
CONTINUOUS
 62
     7
 10
2662.5500480000001
 20
-334.27378499999998
 30
0.0
  0
VERTEX
  5
962
  8
LAYER01
  6
CONTINUOUS
 62
     7
 10
2654.8421990000002
 20
-336.20074699999998
 30
0.0
  0
VERTEX
  5
963
  8
LAYER01
  6
CONTINUOUS
 62
     7
 10
2647.1343499999998
 20
-337.16422799999998
 30
0.0
  0
VERTEX
  5
964
  8
LAYER01
  6
CONTINUOUS
 62
     7
 10
2629.7916909999999
 20
-338.12770899999998
 30
0.0
  0
VERTEX
  5
965
  8
LAYER01
  6
CONTINUOUS
 62
     7
 10
2629.7916909999999
 20
-338.12770899999998
 30
0.0
  0
VERTEX
  5
966
  8
LAYER01
  6
CONTINUOUS
 62
     7
 10
2618.229918
 20
-337.16422799999998
 30
0.0
  0
VERTEX
  5
967
  8
LAYER01
  6
CONTINUOUS
 62
     7
 10
2607.6316259999999
 20
-335.23726599999998
 30
0.0
  0
VERTEX
  5
968
  8
LAYER01
  6
CONTINUOUS
 62
     7
 10
2597.0333340000011
 20
-333.31030400000009
 30
0.0
  0
VERTEX
  5
969
  8
LAYER01
  6
CONTINUOUS
 62
     7
 10
2587.3985229999998
 20
-329.45637900000003
 30
0.0
  0
VERTEX
  5
96A
  8
LAYER01
  6
CONTINUOUS
 62
     7
 10
2577.7637119999999
 20
-324.63897400000002
 30
0.0
  0
VERTEX
  5
96B
  8
LAYER01
  6
CONTINUOUS
 62
     7
 10
2569.0923819999998
 20
-319.82156800000001
 30
0.0
  0
VERTEX
  5
96C
  8
LAYER01
  6
CONTINUOUS
 62
     7
 10
2560.4210520000011
 20
-313.077201
 30
0.0
  0
VERTEX
  5
96D
  8
LAYER01
  6
CONTINUOUS
 62
     7
 10
2552.7132040000001
 20
-306.33283299999999
 30
0.0
  0
VERTEX
  5
96E
  8
LAYER01
  6
CONTINUOUS
 62
     7
 10
2545.0053550000011
 20
-298.62498399999998
 30
0.0
  0
VERTEX
  5
96F
  8
LAYER01
  6
CONTINUOUS
 62
     7
 10
2539.2244679999999
 20
-289.95365500000003
 30
0.0
  0
VERTEX
  5
970
  8
LAYER01
  6
CONTINUOUS
 62
     7
 10
2533.4435819999999
 20
-281.28232500000001
 30
0.0
  0
VERTEX
  5
971
  8
LAYER01
  6
CONTINUOUS
 62
     7
 10
2528.6261760000002
 20
-271.647514
 30
0.0
  0
VERTEX
  5
972
  8
LAYER01
  6
CONTINUOUS
 62
     7
 10
2525.735733
 20
-262.01270299999999
 30
0.0
  0
VERTEX
  5
973
  8
LAYER01
  6
CONTINUOUS
 62
     7
 10
2522.8452900000002
 20
-251.414411
 30
0.0
  0
VERTEX
  5
974
  8
LAYER01
  6
CONTINUOUS
 62
     7
 10
2520.9183280000002
 20
-240.81611899999999
 30
0.0
  0
VERTEX
  5
975
  8
LAYER01
  6
CONTINUOUS
 62
     7
 10
2519.954847
 20
-229.254346
 30
0.0
  0
VERTEX
  5
976
  8
LAYER01
  6
CONTINUOUS
 62
     7
 10
2519.954847
 20
-229.254346
 30
0.0
  0
VERTEX
  5
977
  8
LAYER01
  6
CONTINUOUS
 62
     7
 10
2520.9183280000002
 20
-218.65605400000001
 30
0.0
  0
VERTEX
  5
978
  8
LAYER01
  6
CONTINUOUS
 62
     7
 10
2522.8452900000002
 20
-207.094281
 30
0.0
  0
VERTEX
  5
979
  8
LAYER01
  6
CONTINUOUS
 62
     7
 10
2524.7722520000002
 20
-197.45947000000001
 30
0.0
  0
VERTEX
  5
97A
  8
LAYER01
  6
CONTINUOUS
 62
     7
 10
2528.6261760000002
 20
-186.861178
 30
0.0
  0
VERTEX
  5
97B
  8
LAYER01
  6
CONTINUOUS
 62
     7
 10
2533.4435819999999
 20
-177.22636700000001
 30
0.0
  0
VERTEX
  5
97C
  8
LAYER01
  6
CONTINUOUS
 62
     7
 10
2538.260987000001
 20
-168.555038
 30
0.0
  0
VERTEX
  5
97D
  8
LAYER01
  6
CONTINUOUS
 62
     7
 10
2545.0053550000011
 20
-159.88370800000001
 30
0.0
  0
VERTEX
  5
97E
  8
LAYER01
  6
CONTINUOUS
 62
     7
 10
2551.7497229999999
 20
-152.175859
 30
0.0
  0
VERTEX
  5
97F
  8
LAYER01
  6
CONTINUOUS
 62
     7
 10
2559.4575709999999
 20
-145.43149099999999
 30
0.0
  0
VERTEX
  5
980
  8
LAYER01
  6
CONTINUOUS
 62
     7
 10
2568.128901
 20
-138.68712400000001
 30
0.0
  0
VERTEX
  5
981
  8
LAYER01
  6
CONTINUOUS
 62
     7
 10
2576.8002310000002
 20
-133.86971800000001
 30
0.0
  0
VERTEX
  5
982
  8
LAYER01
  6
CONTINUOUS
 62
     7
 10
2586.4350420000001
 20
-129.052313
 30
0.0
  0
VERTEX
  5
983
  8
LAYER01
  6
CONTINUOUS
 62
     7
 10
2596.069853
 20
-125.19838900000001
 30
0.0
  0
VERTEX
  5
984
  8
LAYER01
  6
CONTINUOUS
 62
     7
 10
2606.6681450000001
 20
-122.307945
 30
0.0
  0
VERTEX
  5
985
  8
LAYER01
  6
CONTINUOUS
 62
     7
 10
2618.229918
 20
-121.344464
 30
0.0
  0
VERTEX
  5
986
  8
LAYER01
  6
CONTINUOUS
 62
     7
 10
2628.8282100000001
 20
-120.380983
 30
0.0
  0
VERTEX
  5
987
  8
LAYER01
  6
CONTINUOUS
 62
     7
 10
2628.8282100000001
 20
-120.380983
 30
0.0
  0
VERTEX
  5
988
  8
LAYER01
  6
CONTINUOUS
 62
     7
 10
2646.170869
 20
-121.344464
 30
0.0
  0
VERTEX
  5
989
  8
LAYER01
  6
CONTINUOUS
 62
     7
 10
2654.8421990000002
 20
-122.307945
 30
0.0
  0
VERTEX
  5
98A
  8
LAYER01
  6
CONTINUOUS
 62
     7
 10
2662.5500480000001
 20
-124.234908
 30
0.0
  0
VERTEX
  5
98B
  8
LAYER01
  6
CONTINUOUS
 62
     7
 10
2669.2944149999998
 20
-127.12535099999999
 30
0.0
  0
VERTEX
  5
98C
  8
LAYER01
  6
CONTINUOUS
 62
     7
 10
2677.0022640000002
 20
-130.015794
 30
0.0
  0
VERTEX
  5
98D
  8
LAYER01
  6
CONTINUOUS
 62
     7
 10
2684.7101130000001
 20
-134.83320000000001
 30
0.0
  0
VERTEX
  5
98E
  8
LAYER01
  6
CONTINUOUS
 62
     7
 10
2692.4179610000001
 20
-139.65060500000001
 30
0.0
  0
VERTEX
  5
98F
  8
LAYER01
  6
CONTINUOUS
 62
     7
 10
2692.4179610000001
 20
-139.65060500000001
 30
0.0
  0
SEQEND
  5
990
  8
LAYER01
  6
CONTINUOUS
 62
     7
  0
POLYLINE
  5
2DF
  8
LAYER01
  6
CONTINUOUS
 62
     7
 66
     1
 10
0.0
 20
0.0
 30
0.0
 70
     1
  0
VERTEX
  5
991
  8
LAYER01
  6
CONTINUOUS
 62
     7
 10
2785.8756269999999
 20
-121.344464
 30
0.0
  0
VERTEX
  5
992
  8
LAYER01
  6
CONTINUOUS
 62
     7
 10
2785.8756269999999
 20
-121.344464
 30
0.0
  0
VERTEX
  5
993
  8
LAYER01
  6
CONTINUOUS
 62
     7
 10
2775.2773350000002
 20
-122.307945
 30
0.0
  0
VERTEX
  5
994
  8
LAYER01
  6
CONTINUOUS
 62
     7
 10
2763.7155620000008
 20
-123.27142600000001
 30
0.0
  0
VERTEX
  5
995
  8
LAYER01
  6
CONTINUOUS
 62
     7
 10
2754.080751
 20
-126.16186999999999
 30
0.0
  0
VERTEX
  5
996
  8
LAYER01
  6
CONTINUOUS
 62
     7
 10
2743.4824589999998
 20
-130.015794
 30
0.0
  0
VERTEX
  5
997
  8
LAYER01
  6
CONTINUOUS
 62
     7
 10
2733.8476479999999
 20
-133.86971800000001
 30
0.0
  0
VERTEX
  5
998
  8
LAYER01
  6
CONTINUOUS
 62
     7
 10
2725.1763179999998
 20
-139.65060500000001
 30
0.0
  0
VERTEX
  5
999
  8
LAYER01
  6
CONTINUOUS
 62
     7
 10
2716.5049890000009
 20
-145.43149099999999
 30
0.0
  0
VERTEX
  5
99A
  8
LAYER01
  6
CONTINUOUS
 62
     7
 10
2708.7971400000001
 20
-153.13934
 30
0.0
  0
VERTEX
  5
99B
  8
LAYER01
  6
CONTINUOUS
 62
     7
 10
2702.052772
 20
-160.84718899999999
 30
0.0
  0
VERTEX
  5
99C
  8
LAYER01
  6
CONTINUOUS
 62
     7
 10
2695.3084050000002
 20
-168.555038
 30
0.0
  0
VERTEX
  5
99D
  8
LAYER01
  6
CONTINUOUS
 62
     7
 10
2689.5275179999999
 20
-177.22636700000001
 30
0.0
  0
VERTEX
  5
99E
  8
LAYER01
  6
CONTINUOUS
 62
     7
 10
2684.7101130000001
 20
-186.861178
 30
0.0
  0
VERTEX
  5
99F
  8
LAYER01
  6
CONTINUOUS
 62
     7
 10
2681.819669
 20
-197.45947000000001
 30
0.0
  0
VERTEX
  5
9A0
  8
LAYER01
  6
CONTINUOUS
 62
     7
 10
2678.9292260000011
 20
-207.094281
 30
0.0
  0
VERTEX
  5
9A1
  8
LAYER01
  6
CONTINUOUS
 62
     7
 10
2677.0022640000002
 20
-218.65605400000001
 30
0.0
  0
VERTEX
  5
9A2
  8
LAYER01
  6
CONTINUOUS
 62
     7
 10
2676.038783
 20
-229.254346
 30
0.0
  0
VERTEX
  5
9A3
  8
LAYER01
  6
CONTINUOUS
 62
     7
 10
2676.038783
 20
-229.254346
 30
0.0
  0
VERTEX
  5
9A4
  8
LAYER01
  6
CONTINUOUS
 62
     7
 10
2677.0022640000002
 20
-240.81611899999999
 30
0.0
  0
VERTEX
  5
9A5
  8
LAYER01
  6
CONTINUOUS
 62
     7
 10
2677.965745
 20
-251.414411
 30
0.0
  0
VERTEX
  5
9A6
  8
LAYER01
  6
CONTINUOUS
 62
     7
 10
2680.8561880000002
 20
-262.01270299999999
 30
0.0
  0
VERTEX
  5
9A7
  8
LAYER01
  6
CONTINUOUS
 62
     7
 10
2684.7101130000001
 20
-271.647514
 30
0.0
  0
VERTEX
  5
9A8
  8
LAYER01
  6
CONTINUOUS
 62
     7
 10
2688.5640370000001
 20
-281.28232500000001
 30
0.0
  0
VERTEX
  5
9A9
  8
LAYER01
  6
CONTINUOUS
 62
     7
 10
2694.344924
 20
-289.95365500000003
 30
0.0
  0
VERTEX
  5
9AA
  8
LAYER01
  6
CONTINUOUS
 62
     7
 10
2700.12581
 20
-298.62498399999998
 30
0.0
  0
VERTEX
  5
9AB
  8
LAYER01
  6
CONTINUOUS
 62
     7
 10
2706.8701780000001
 20
-306.33283299999999
 30
0.0
  0
VERTEX
  5
9AC
  8
LAYER01
  6
CONTINUOUS
 62
     7
 10
2714.5780260000001
 20
-314.040682
 30
0.0
  0
VERTEX
  5
9AD
  8
LAYER01
  6
CONTINUOUS
 62
     7
 10
2723.2493559999998
 20
-319.82156800000001
 30
0.0
  0
VERTEX
  5
9AE
  8
LAYER01
  6
CONTINUOUS
 62
     7
 10
2731.9206859999999
 20
-325.60245500000002
 30
0.0
  0
VERTEX
  5
9AF
  8
LAYER01
  6
CONTINUOUS
 62
     7
 10
2741.5554969999998
 20
-330.41986000000003
 30
0.0
  0
VERTEX
  5
9B0
  8
LAYER01
  6
CONTINUOUS
 62
     7
 10
2751.1903080000002
 20
-334.27378499999998
 30
0.0
  0
VERTEX
  5
9B1
  8
LAYER01
  6
CONTINUOUS
 62
     7
 10
2761.7885999999999
 20
-336.20074699999998
 30
0.0
  0
VERTEX
  5
9B2
  8
LAYER01
  6
CONTINUOUS
 62
     7
 10
2772.386892
 20
-338.12770899999998
 30
0.0
  0
VERTEX
  5
9B3
  8
LAYER01
  6
CONTINUOUS
 62
     7
 10
2782.985184000001
 20
-339.09118999999998
 30
0.0
  0
VERTEX
  5
9B4
  8
LAYER01
  6
CONTINUOUS
 62
     7
 10
2782.985184000001
 20
-339.09118999999998
 30
0.0
  0
VERTEX
  5
9B5
  8
LAYER01
  6
CONTINUOUS
 62
     7
 10
2794.546957
 20
-338.12770899999998
 30
0.0
  0
VERTEX
  5
9B6
  8
LAYER01
  6
CONTINUOUS
 62
     7
 10
2805.1452490000001
 20
-336.20074699999998
 30
0.0
  0
VERTEX
  5
9B7
  8
LAYER01
  6
CONTINUOUS
 62
     7
 10
2815.7435409999998
 20
-333.31030400000009
 30
0.0
  0
VERTEX
  5
9B8
  8
LAYER01
  6
CONTINUOUS
 62
     7
 10
2825.3783520000002
 20
-329.45637900000003
 30
0.0
  0
VERTEX
  5
9B9
  8
LAYER01
  6
CONTINUOUS
 62
     7
 10
2835.0131620000002
 20
-324.63897400000002
 30
0.0
  0
VERTEX
  5
9BA
  8
LAYER01
  6
CONTINUOUS
 62
     7
 10
2843.6844919999999
 20
-318.85808700000001
 30
0.0
  0
VERTEX
  5
9BB
  8
LAYER01
  6
CONTINUOUS
 62
     7
 10
2852.355822
 20
-313.077201
 30
0.0
  0
VERTEX
  5
9BC
  8
LAYER01
  6
CONTINUOUS
 62
     7
 10
2860.0636709999999
 20
-305.36935199999999
 30
0.0
  0
VERTEX
  5
9BD
  8
LAYER01
  6
CONTINUOUS
 62
     7
 10
2866.8080380000001
 20
-297.66150299999998
 30
0.0
  0
VERTEX
  5
9BE
  8
LAYER01
  6
CONTINUOUS
 62
     7
 10
2872.588925
 20
-288.99017400000002
 30
0.0
  0
VERTEX
  5
9BF
  8
LAYER01
  6
CONTINUOUS
 62
     7
 10
2877.4063299999998
 20
-280.31884400000001
 30
0.0
  0
VERTEX
  5
9C0
  8
LAYER01
  6
CONTINUOUS
 62
     7
 10
2882.2237359999999
 20
-270.684033
 30
0.0
  0
VERTEX
  5
9C1
  8
LAYER01
  6
CONTINUOUS
 62
     7
 10
2886.0776599999999
 20
-260.0857410000001
 30
0.0
  0
VERTEX
  5
9C2
  8
LAYER01
  6
CONTINUOUS
 62
     7
 10
2888.0046219999999
 20
-249.487449
 30
0.0
  0
VERTEX
  5
9C3
  8
LAYER01
  6
CONTINUOUS
 62
     7
 10
2888.9681030000002
 20
-238.88915700000001
 30
0.0
  0
VERTEX
  5
9C4
  8
LAYER01
  6
CONTINUOUS
 62
     7
 10
2889.9315850000012
 20
-227.327384
 30
0.0
  0
VERTEX
  5
9C5
  8
LAYER01
  6
CONTINUOUS
 62
     7
 10
2889.9315850000012
 20
-227.327384
 30
0.0
  0
VERTEX
  5
9C6
  8
LAYER01
  6
CONTINUOUS
 62
     7
 10
2888.9681030000002
 20
-216.72909200000001
 30
0.0
  0
VERTEX
  5
9C7
  8
LAYER01
  6
CONTINUOUS
 62
     7
 10
2887.0411410000002
 20
-206.13079999999999
 30
0.0
  0
VERTEX
  5
9C8
  8
LAYER01
  6
CONTINUOUS
 62
     7
 10
2884.1506979999999
 20
-196.49598900000001
 30
0.0
  0
VERTEX
  5
9C9
  8
LAYER01
  6
CONTINUOUS
 62
     7
 10
2881.2602550000001
 20
-186.861178
 30
0.0
  0
VERTEX
  5
9CA
  8
LAYER01
  6
CONTINUOUS
 62
     7
 10
2876.442849
 20
-178.18984800000001
 30
0.0
  0
VERTEX
  5
9CB
  8
LAYER01
  6
CONTINUOUS
 62
     7
 10
2871.6254440000012
 20
-169.518519
 30
0.0
  0
VERTEX
  5
9CC
  8
LAYER01
  6
CONTINUOUS
 62
     7
 10
2865.8445569999999
 20
-160.84718899999999
 30
0.0
  0
VERTEX
  5
9CD
  8
LAYER01
  6
CONTINUOUS
 62
     7
 10
2859.1001900000001
 20
-154.10282100000001
 30
0.0
  0
VERTEX
  5
9CE
  8
LAYER01
  6
CONTINUOUS
 62
     7
 10
2851.3923410000002
 20
-147.35845399999999
 30
0.0
  0
VERTEX
  5
9CF
  8
LAYER01
  6
CONTINUOUS
 62
     7
 10
2843.6844919999999
 20
-140.61408599999999
 30
0.0
  0
VERTEX
  5
9D0
  8
LAYER01
  6
CONTINUOUS
 62
     7
 10
2835.0131620000002
 20
-135.79668100000001
 30
0.0
  0
VERTEX
  5
9D1
  8
LAYER01
  6
CONTINUOUS
 62
     7
 10
2826.341833
 20
-130.979275
 30
0.0
  0
VERTEX
  5
9D2
  8
LAYER01
  6
CONTINUOUS
 62
     7
 10
2816.7070220000001
 20
-127.12535099999999
 30
0.0
  0
VERTEX
  5
9D3
  8
LAYER01
  6
CONTINUOUS
 62
     7
 10
2807.0722110000002
 20
-124.234908
 30
0.0
  0
VERTEX
  5
9D4
  8
LAYER01
  6
CONTINUOUS
 62
     7
 10
2796.473919
 20
-122.307945
 30
0.0
  0
VERTEX
  5
9D5
  8
LAYER01
  6
CONTINUOUS
 62
     7
 10
2785.8756269999999
 20
-121.344464
 30
0.0
  0
VERTEX
  5
9D6
  8
LAYER01
  6
CONTINUOUS
 62
     7
 10
2785.8756269999999
 20
-121.344464
 30
0.0
  0
SEQEND
  5
9D7
  8
LAYER01
  6
CONTINUOUS
 62
     7
  0
POLYLINE
  5
327
  8
LAYER01
  6
CONTINUOUS
 62
     7
 66
     1
 10
0.0
 20
0.0
 30
0.0
 70
     1
  0
VERTEX
  5
9D8
  8
LAYER01
  6
CONTINUOUS
 62
     7
 10
2782.985184000001
 20
-299.5884660000001
 30
0.0
  0
VERTEX
  5
9D9
  8
LAYER01
  6
CONTINUOUS
 62
     7
 10
2782.985184000001
 20
-299.5884660000001
 30
0.0
  0
VERTEX
  5
9DA
  8
LAYER01
  6
CONTINUOUS
 62
     7
 10
2776.240816
 20
-298.62498399999998
 30
0.0
  0
VERTEX
  5
9DB
  8
LAYER01
  6
CONTINUOUS
 62
     7
 10
2769.4964479999999
 20
-297.66150299999998
 30
0.0
  0
VERTEX
  5
9DC
  8
LAYER01
  6
CONTINUOUS
 62
     7
 10
2762.7520810000001
 20
-296.69802199999998
 30
0.0
  0
VERTEX
  5
9DD
  8
LAYER01
  6
CONTINUOUS
 62
     7
 10
2756.007713
 20
-293.80757899999998
 30
0.0
  0
VERTEX
  5
9DE
  8
LAYER01
  6
CONTINUOUS
 62
     7
 10
2750.226827
 20
-290.91713600000003
 30
0.0
  0
VERTEX
  5
9DF
  8
LAYER01
  6
CONTINUOUS
 62
     7
 10
2744.4459400000001
 20
-287.06321100000002
 30
0.0
  0
VERTEX
  5
9E0
  8
LAYER01
  6
CONTINUOUS
 62
     7
 10
2739.6285349999998
 20
-283.20928700000002
 30
0.0
  0
VERTEX
  5
9E1
  8
LAYER01
  6
CONTINUOUS
 62
     7
 10
2734.8111290000002
 20
-278.39188200000001
 30
0.0
  0
VERTEX
  5
9E2
  8
LAYER01
  6
CONTINUOUS
 62
     7
 10
2729.9937239999999
 20
-273.574476
 30
0.0
  0
VERTEX
  5
9E3
  8
LAYER01
  6
CONTINUOUS
 62
     7
 10
2726.1397999999999
 20
-268.757071
 30
0.0
  0
VERTEX
  5
9E4
  8
LAYER01
  6
CONTINUOUS
 62
     7
 10
2723.2493559999998
 20
-262.97618399999999
 30
0.0
  0
VERTEX
  5
9E5
  8
LAYER01
  6
CONTINUOUS
 62
     7
 10
2720.358913
 20
-256.23181699999998
 30
0.0
  0
VERTEX
  5
9E6
  8
LAYER01
  6
CONTINUOUS
 62
     7
 10
2717.4684699999998
 20
-250.45093
 30
0.0
  0
VERTEX
  5
9E7
  8
LAYER01
  6
CONTINUOUS
 62
     7
 10
2716.5049890000009
 20
-243.70656199999999
 30
0.0
  0
VERTEX
  5
9E8
  8
LAYER01
  6
CONTINUOUS
 62
     7
 10
2714.5780260000001
 20
-236.96219500000001
 30
0.0
  0
VERTEX
  5
9E9
  8
LAYER01
  6
CONTINUOUS
 62
     7
 10
2714.5780260000001
 20
-229.254346
 30
0.0
  0
VERTEX
  5
9EA
  8
LAYER01
  6
CONTINUOUS
 62
     7
 10
2714.5780260000001
 20
-229.254346
 30
0.0
  0
VERTEX
  5
9EB
  8
LAYER01
  6
CONTINUOUS
 62
     7
 10
2715.5415079999998
 20
-222.50997899999999
 30
0.0
  0
VERTEX
  5
9EC
  8
LAYER01
  6
CONTINUOUS
 62
     7
 10
2716.5049890000009
 20
-215.76561100000001
 30
0.0
  0
VERTEX
  5
9ED
  8
LAYER01
  6
CONTINUOUS
 62
     7
 10
2718.431951
 20
-209.021243
 30
0.0
  0
VERTEX
  5
9EE
  8
LAYER01
  6
CONTINUOUS
 62
     7
 10
2720.358913
 20
-202.27687599999999
 30
0.0
  0
VERTEX
  5
9EF
  8
LAYER01
  6
CONTINUOUS
 62
     7
 10
2723.2493559999998
 20
-196.49598900000001
 30
0.0
  0
VERTEX
  5
9F0
  8
LAYER01
  6
CONTINUOUS
 62
     7
 10
2727.1032810000002
 20
-190.715103
 30
0.0
  0
VERTEX
  5
9F1
  8
LAYER01
  6
CONTINUOUS
 62
     7
 10
2730.9572050000011
 20
-185.89769699999999
 30
0.0
  0
VERTEX
  5
9F2
  8
LAYER01
  6
CONTINUOUS
 62
     7
 10
2735.7746099999999
 20
-181.08029199999999
 30
0.0
  0
VERTEX
  5
9F3
  8
LAYER01
  6
CONTINUOUS
 62
     7
 10
2740.5920160000001
 20
-176.26288600000001
 30
0.0
  0
VERTEX
  5
9F4
  8
LAYER01
  6
CONTINUOUS
 62
     7
 10
2745.4094210000012
 20
-172.408962
 30
0.0
  0
VERTEX
  5
9F5
  8
LAYER01
  6
CONTINUOUS
 62
     7
 10
2751.1903080000002
 20
-168.555038
 30
0.0
  0
VERTEX
  5
9F6
  8
LAYER01
  6
CONTINUOUS
 62
     7
 10
2757.934675
 20
-165.66459399999999
 30
0.0
  0
VERTEX
  5
9F7
  8
LAYER01
  6
CONTINUOUS
 62
     7
 10
2763.7155620000008
 20
-163.73763199999999
 30
0.0
  0
VERTEX
  5
9F8
  8
LAYER01
  6
CONTINUOUS
 62
     7
 10
2770.45993
 20
-161.81066999999999
 30
0.0
  0
VERTEX
  5
9F9
  8
LAYER01
  6
CONTINUOUS
 62
     7
 10
2777.2042970000002
 20
-160.84718899999999
 30
0.0
  0
VERTEX
  5
9FA
  8
LAYER01
  6
CONTINUOUS
 62
     7
 10
2784.9121460000001
 20
-160.84718899999999
 30
0.0
  0
VERTEX
  5
9FB
  8
LAYER01
  6
CONTINUOUS
 62
     7
 10
2784.9121460000001
 20
-160.84718899999999
 30
0.0
  0
VERTEX
  5
9FC
  8
LAYER01
  6
CONTINUOUS
 62
     7
 10
2791.6565139999998
 20
-161.81066999999999
 30
0.0
  0
VERTEX
  5
9FD
  8
LAYER01
  6
CONTINUOUS
 62
     7
 10
2798.400881
 20
-162.77415099999999
 30
0.0
  0
VERTEX
  5
9FE
  8
LAYER01
  6
CONTINUOUS
 62
     7
 10
2804.1817679999999
 20
-164.70111299999999
 30
0.0
  0
VERTEX
  5
9FF
  8
LAYER01
  6
CONTINUOUS
 62
     7
 10
2810.9261350000002
 20
-166.628075
 30
0.0
  0
VERTEX
  5
A00
  8
LAYER01
  6
CONTINUOUS
 62
     7
 10
2815.7435409999998
 20
-169.518519
 30
0.0
  0
VERTEX
  5
A01
  8
LAYER01
  6
CONTINUOUS
 62
     7
 10
2821.5244269999998
 20
-173.372443
 30
0.0
  0
VERTEX
  5
A02
  8
LAYER01
  6
CONTINUOUS
 62
     7
 10
2826.341833
 20
-177.22636700000001
 30
0.0
  0
VERTEX
  5
A03
  8
LAYER01
  6
CONTINUOUS
 62
     7
 10
2831.1592380000002
 20
-181.08029199999999
 30
0.0
  0
VERTEX
  5
A04
  8
LAYER01
  6
CONTINUOUS
 62
     7
 10
2835.0131620000002
 20
-185.89769699999999
 30
0.0
  0
VERTEX
  5
A05
  8
LAYER01
  6
CONTINUOUS
 62
     7
 10
2838.8670870000001
 20
-191.678584
 30
0.0
  0
VERTEX
  5
A06
  8
LAYER01
  6
CONTINUOUS
 62
     7
 10
2842.7210110000001
 20
-196.49598900000001
 30
0.0
  0
VERTEX
  5
A07
  8
LAYER01
  6
CONTINUOUS
 62
     7
 10
2845.6114539999999
 20
-202.27687599999999
 30
0.0
  0
VERTEX
  5
A08
  8
LAYER01
  6
CONTINUOUS
 62
     7
 10
2847.5384170000002
 20
-209.021243
 30
0.0
  0
VERTEX
  5
A09
  8
LAYER01
  6
CONTINUOUS
 62
     7
 10
2849.4653790000002
 20
-214.80213000000001
 30
0.0
  0
VERTEX
  5
A0A
  8
LAYER01
  6
CONTINUOUS
 62
     7
 10
2850.42886
 20
-221.54649699999999
 30
0.0
  0
VERTEX
  5
A0B
  8
LAYER01
  6
CONTINUOUS
 62
     7
 10
2850.42886
 20
-228.290865
 30
0.0
  0
VERTEX
  5
A0C
  8
LAYER01
  6
CONTINUOUS
 62
     7
 10
2850.42886
 20
-228.290865
 30
0.0
  0
VERTEX
  5
A0D
  8
LAYER01
  6
CONTINUOUS
 62
     7
 10
2850.42886
 20
-235.99871400000001
 30
0.0
  0
VERTEX
  5
A0E
  8
LAYER01
  6
CONTINUOUS
 62
     7
 10
2849.4653790000002
 20
-242.74308099999999
 30
0.0
  0
VERTEX
  5
A0F
  8
LAYER01
  6
CONTINUOUS
 62
     7
 10
2848.501898
 20
-249.487449
 30
0.0
  0
VERTEX
  5
A10
  8
LAYER01
  6
CONTINUOUS
 62
     7
 10
2845.6114539999999
 20
-255.26833600000001
 30
0.0
  0
VERTEX
  5
A11
  8
LAYER01
  6
CONTINUOUS
 62
     7
 10
2843.6844919999999
 20
-262.01270299999999
 30
0.0
  0
VERTEX
  5
A12
  8
LAYER01
  6
CONTINUOUS
 62
     7
 10
2839.8305679999999
 20
-267.79358999999999
 30
0.0
  0
VERTEX
  5
A13
  8
LAYER01
  6
CONTINUOUS
 62
     7
 10
2835.9766439999999
 20
-273.574476
 30
0.0
  0
VERTEX
  5
A14
  8
LAYER01
  6
CONTINUOUS
 62
     7
 10
2831.1592380000002
 20
-278.39188200000001
 30
0.0
  0
VERTEX
  5
A15
  8
LAYER01
  6
CONTINUOUS
 62
     7
 10
2826.341833
 20
-283.20928700000002
 30
0.0
  0
VERTEX
  5
A16
  8
LAYER01
  6
CONTINUOUS
 62
     7
 10
2821.5244269999998
 20
-287.06321100000002
 30
0.0
  0
VERTEX
  5
A17
  8
LAYER01
  6
CONTINUOUS
 62
     7
 10
2815.7435409999998
 20
-290.91713600000003
 30
0.0
  0
VERTEX
  5
A18
  8
LAYER01
  6
CONTINUOUS
 62
     7
 10
2809.9626539999999
 20
-293.80757899999998
 30
0.0
  0
VERTEX
  5
A19
  8
LAYER01
  6
CONTINUOUS
 62
     7
 10
2803.2182870000001
 20
-295.73454099999998
 30
0.0
  0
VERTEX
  5
A1A
  8
LAYER01
  6
CONTINUOUS
 62
     7
 10
2796.473919
 20
-297.66150299999998
 30
0.0
  0
VERTEX
  5
A1B
  8
LAYER01
  6
CONTINUOUS
 62
     7
 10
2789.7295510000008
 20
-298.62498399999998
 30
0.0
  0
VERTEX
  5
A1C
  8
LAYER01
  6
CONTINUOUS
 62
     7
 10
2782.985184000001
 20
-299.5884660000001
 30
0.0
  0
VERTEX
  5
A1D
  8
LAYER01
  6
CONTINUOUS
 62
     7
 10
2782.985184000001
 20
-299.5884660000001
 30
0.0
  0
SEQEND
  5
A1E
  8
LAYER01
  6
CONTINUOUS
 62
     7
  0
POLYLINE
  5
36F
  8
LAYER01
  6
CONTINUOUS
 62
     7
 66
     1
 10
0.0
 20
0.0
 30
0.0
 70
     1
  0
VERTEX
  5
A1F
  8
LAYER01
  6
CONTINUOUS
 62
     7
 10
2860.0636709999999
 20
-126.16186999999999
 30
0.0
  0
VERTEX
  5
A20
  8
LAYER01
  6
CONTINUOUS
 62
     7
 10
2962.1926659999999
 20
-126.16186999999999
 30
0.0
  0
VERTEX
  5
A21
  8
LAYER01
  6
CONTINUOUS
 62
     7
 10
2962.1926659999999
 20
-126.16186999999999
 30
0.0
  0
VERTEX
  5
A22
  8
LAYER01
  6
CONTINUOUS
 62
     7
 10
2973.7544389999998
 20
-128.088832
 30
0.0
  0
VERTEX
  5
A23
  8
LAYER01
  6
CONTINUOUS
 62
     7
 10
2984.3527309999999
 20
-132.906237
 30
0.0
  0
VERTEX
  5
A24
  8
LAYER01
  6
CONTINUOUS
 62
     7
 10
2993.0240610000001
 20
-138.68712400000001
 30
0.0
  0
VERTEX
  5
A25
  8
LAYER01
  6
CONTINUOUS
 62
     7
 10
3000.73191
 20
-146.39497299999999
 30
0.0
  0
VERTEX
  5
A26
  8
LAYER01
  6
CONTINUOUS
 62
     7
 10
3007.4762770000002
 20
-154.10282100000001
 30
0.0
  0
VERTEX
  5
A27
  8
LAYER01
  6
CONTINUOUS
 62
     7
 10
3012.2936829999999
 20
-163.73763199999999
 30
0.0
  0
VERTEX
  5
A28
  8
LAYER01
  6
CONTINUOUS
 62
     7
 10
3015.1841260000001
 20
-175.29940500000001
 30
0.0
  0
VERTEX
  5
A29
  8
LAYER01
  6
CONTINUOUS
 62
     7
 10
3016.1476069999999
 20
-185.89769699999999
 30
0.0
  0
VERTEX
  5
A2A
  8
LAYER01
  6
CONTINUOUS
 62
     7
 10
3016.1476069999999
 20
-185.89769699999999
 30
0.0
  0
VERTEX
  5
A2B
  8
LAYER01
  6
CONTINUOUS
 62
     7
 10
3015.1841260000001
 20
-197.45947000000001
 30
0.0
  0
VERTEX
  5
A2C
  8
LAYER01
  6
CONTINUOUS
 62
     7
 10
3013.2571640000001
 20
-207.094281
 30
0.0
  0
VERTEX
  5
A2D
  8
LAYER01
  6
CONTINUOUS
 62
     7
 10
3009.4032390000002
 20
-216.72909200000001
 30
0.0
  0
VERTEX
  5
A2E
  8
LAYER01
  6
CONTINUOUS
 62
     7
 10
3004.585834
 20
-225.40042199999999
 30
0.0
  0
VERTEX
  5
A2F
  8
LAYER01
  6
CONTINUOUS
 62
     7
 10
2997.8414659999999
 20
-233.10827
 30
0.0
  0
VERTEX
  5
A30
  8
LAYER01
  6
CONTINUOUS
 62
     7
 10
2991.0970990000001
 20
-238.88915700000001
 30
0.0
  0
VERTEX
  5
A31
  8
LAYER01
  6
CONTINUOUS
 62
     7
 10
2981.4622880000002
 20
-244.67004399999999
 30
0.0
  0
VERTEX
  5
A32
  8
LAYER01
  6
CONTINUOUS
 62
     7
 10
2971.8274769999998
 20
-248.523968
 30
0.0
  0
VERTEX
  5
A33
  8
LAYER01
  6
CONTINUOUS
 62
     7
 10
3034.4537479999999
 20
-332.34682299999997
 30
0.0
  0
VERTEX
  5
A34
  8
LAYER01
  6
CONTINUOUS
 62
     7
 10
2986.279693
 20
-332.34682299999997
 30
0.0
  0
VERTEX
  5
A35
  8
LAYER01
  6
CONTINUOUS
 62
     7
 10
2902.4568389999999
 20
-225.40042199999999
 30
0.0
  0
VERTEX
  5
A36
  8
LAYER01
  6
CONTINUOUS
 62
     7
 10
2949.6674119999998
 20
-225.40042199999999
 30
0.0
  0
VERTEX
  5
A37
  8
LAYER01
  6
CONTINUOUS
 62
     7
 10
2949.6674119999998
 20
-225.40042199999999
 30
0.0
  0
VERTEX
  5
A38
  8
LAYER01
  6
CONTINUOUS
 62
     7
 10
2955.4482990000001
 20
-223.47345999999999
 30
0.0
  0
VERTEX
  5
A39
  8
LAYER01
  6
CONTINUOUS
 62
     7
 10
2960.2657039999999
 20
-221.54649699999999
 30
0.0
  0
VERTEX
  5
A3A
  8
LAYER01
  6
CONTINUOUS
 62
     7
 10
2964.1196279999999
 20
-217.69257300000001
 30
0.0
  0
VERTEX
  5
A3B
  8
LAYER01
  6
CONTINUOUS
 62
     7
 10
2967.9735529999998
 20
-213.838649
 30
0.0
  0
VERTEX
  5
A3C
  8
LAYER01
  6
CONTINUOUS
 62
     7
 10
2970.863996
 20
-209.021243
 30
0.0
  0
VERTEX
  5
A3D
  8
LAYER01
  6
CONTINUOUS
 62
     7
 10
2973.7544389999998
 20
-204.20383799999999
 30
0.0
  0
VERTEX
  5
A3E
  8
LAYER01
  6
CONTINUOUS
 62
     7
 10
2974.71792
 20
-198.42295100000001
 30
0.0
  0
VERTEX
  5
A3F
  8
LAYER01
  6
CONTINUOUS
 62
     7
 10
2974.71792
 20
-192.642065
 30
0.0
  0
VERTEX
  5
A40
  8
LAYER01
  6
CONTINUOUS
 62
     7
 10
2974.71792
 20
-192.642065
 30
0.0
  0
VERTEX
  5
A41
  8
LAYER01
  6
CONTINUOUS
 62
     7
 10
2974.71792
 20
-186.861178
 30
0.0
  0
VERTEX
  5
A42
  8
LAYER01
  6
CONTINUOUS
 62
     7
 10
2972.790958
 20
-182.04377299999999
 30
0.0
  0
VERTEX
  5
A43
  8
LAYER01
  6
CONTINUOUS
 62
     7
 10
2970.863996
 20
-177.22636700000001
 30
0.0
  0
VERTEX
  5
A44
  8
LAYER01
  6
CONTINUOUS
 62
     7
 10
2967.9735529999998
 20
-172.408962
 30
0.0
  0
VERTEX
  5
A45
  8
LAYER01
  6
CONTINUOUS
 62
     7
 10
2964.1196279999999
 20
-168.555038
 30
0.0
  0
VERTEX
  5
A46
  8
LAYER01
  6
CONTINUOUS
 62
     7
 10
2960.2657039999999
 20
-165.66459399999999
 30
0.0
  0
VERTEX
  5
A47
  8
LAYER01
  6
CONTINUOUS
 62
     7
 10
2954.484817
 20
-162.77415099999999
 30
0.0
  0
VERTEX
  5
A48
  8
LAYER01
  6
CONTINUOUS
 62
     7
 10
2949.6674119999998
 20
-160.84718899999999
 30
0.0
  0
VERTEX
  5
A49
  8
LAYER01
  6
CONTINUOUS
 62
     7
 10
2894.74899
 20
-160.84718899999999
 30
0.0
  0
VERTEX
  5
A4A
  8
LAYER01
  6
CONTINUOUS
 62
     7
 10
2860.0636709999999
 20
-126.16186999999999
 30
0.0
  0
VERTEX
  5
A4B
  8
LAYER01
  6
CONTINUOUS
 62
     7
 10
2860.0636709999999
 20
-126.16186999999999
 30
0.0
  0
SEQEND
  5
A4C
  8
LAYER01
  6
CONTINUOUS
 62
     7
  0
POLYLINE
  5
39E
  8
LAYER01
  6
CONTINUOUS
 62
     7
 66
     1
 10
0.0
 20
0.0
 30
0.0
 70
     1
  0
VERTEX
  5
A4D
  8
LAYER01
  6
CONTINUOUS
 62
     7
 10
3060.4677369999999
 20
-177.22636700000001
 30
0.0
  0
VERTEX
  5
A4E
  8
LAYER01
  6
CONTINUOUS
 62
     7
 10
3060.4677369999999
 20
-177.22636700000001
 30
0.0
  0
VERTEX
  5
A4F
  8
LAYER01
  6
CONTINUOUS
 62
     7
 10
3065.2851430000001
 20
-176.26288600000001
 30
0.0
  0
VERTEX
  5
A50
  8
LAYER01
  6
CONTINUOUS
 62
     7
 10
3070.1025479999998
 20
-175.29940500000001
 30
0.0
  0
VERTEX
  5
A51
  8
LAYER01
  6
CONTINUOUS
 62
     7
 10
3074.9199530000001
 20
-172.408962
 30
0.0
  0
VERTEX
  5
A52
  8
LAYER01
  6
CONTINUOUS
 62
     7
 10
3078.773878
 20
-169.518519
 30
0.0
  0
VERTEX
  5
A53
  8
LAYER01
  6
CONTINUOUS
 62
     7
 10
3081.6643210000002
 20
-165.66459399999999
 30
0.0
  0
VERTEX
  5
A54
  8
LAYER01
  6
CONTINUOUS
 62
     7
 10
3083.5912830000002
 20
-161.81066999999999
 30
0.0
  0
VERTEX
  5
A55
  8
LAYER01
  6
CONTINUOUS
 62
     7
 10
3085.5182450000002
 20
-156.99326500000001
 30
0.0
  0
VERTEX
  5
A56
  8
LAYER01
  6
CONTINUOUS
 62
     7
 10
3085.5182450000002
 20
-151.212378
 30
0.0
  0
VERTEX
  5
A57
  8
LAYER01
  6
CONTINUOUS
 62
     7
 10
3085.5182450000002
 20
-151.212378
 30
0.0
  0
VERTEX
  5
A58
  8
LAYER01
  6
CONTINUOUS
 62
     7
 10
3085.5182450000002
 20
-146.39497299999999
 30
0.0
  0
VERTEX
  5
A59
  8
LAYER01
  6
CONTINUOUS
 62
     7
 10
3083.5912830000002
 20
-141.57756699999999
 30
0.0
  0
VERTEX
  5
A5A
  8
LAYER01
  6
CONTINUOUS
 62
     7
 10
3081.6643210000002
 20
-137.7236429999999
 30
0.0
  0
VERTEX
  5
A5B
  8
LAYER01
  6
CONTINUOUS
 62
     7
 10
3078.773878
 20
-133.86971800000001
 30
0.0
  0
VERTEX
  5
A5C
  8
LAYER01
  6
CONTINUOUS
 62
     7
 10
3074.9199530000001
 20
-130.979275
 30
0.0
  0
VERTEX
  5
A5D
  8
LAYER01
  6
CONTINUOUS
 62
     7
 10
3070.1025479999998
 20
-128.088832
 30
0.0
  0
VERTEX
  5
A5E
  8
LAYER01
  6
CONTINUOUS
 62
     7
 10
3065.2851430000001
 20
-127.12535099999999
 30
0.0
  0
VERTEX
  5
A5F
  8
LAYER01
  6
CONTINUOUS
 62
     7
 10
3060.4677369999999
 20
-126.16186999999999
 30
0.0
  0
VERTEX
  5
A60
  8
LAYER01
  6
CONTINUOUS
 62
     7
 10
3060.4677369999999
 20
-126.16186999999999
 30
0.0
  0
VERTEX
  5
A61
  8
LAYER01
  6
CONTINUOUS
 62
     7
 10
3055.6503320000002
 20
-127.12535099999999
 30
0.0
  0
VERTEX
  5
A62
  8
LAYER01
  6
CONTINUOUS
 62
     7
 10
3050.832926
 20
-128.088832
 30
0.0
  0
VERTEX
  5
A63
  8
LAYER01
  6
CONTINUOUS
 62
     7
 10
3046.0155210000012
 20
-130.979275
 30
0.0
  0
VERTEX
  5
A64
  8
LAYER01
  6
CONTINUOUS
 62
     7
 10
3042.1615959999999
 20
-133.86971800000001
 30
0.0
  0
VERTEX
  5
A65
  8
LAYER01
  6
CONTINUOUS
 62
     7
 10
3039.2711530000001
 20
-137.7236429999999
 30
0.0
  0
VERTEX
  5
A66
  8
LAYER01
  6
CONTINUOUS
 62
     7
 10
3037.3441910000001
 20
-141.57756699999999
 30
0.0
  0
VERTEX
  5
A67
  8
LAYER01
  6
CONTINUOUS
 62
     7
 10
3035.4172290000001
 20
-146.39497299999999
 30
0.0
  0
VERTEX
  5
A68
  8
LAYER01
  6
CONTINUOUS
 62
     7
 10
3035.4172290000001
 20
-151.212378
 30
0.0
  0
VERTEX
  5
A69
  8
LAYER01
  6
CONTINUOUS
 62
     7
 10
3035.4172290000001
 20
-151.212378
 30
0.0
  0
VERTEX
  5
A6A
  8
LAYER01
  6
CONTINUOUS
 62
     7
 10
3035.4172290000001
 20
-156.99326500000001
 30
0.0
  0
VERTEX
  5
A6B
  8
LAYER01
  6
CONTINUOUS
 62
     7
 10
3037.3441910000001
 20
-161.81066999999999
 30
0.0
  0
VERTEX
  5
A6C
  8
LAYER01
  6
CONTINUOUS
 62
     7
 10
3039.2711530000001
 20
-165.66459399999999
 30
0.0
  0
VERTEX
  5
A6D
  8
LAYER01
  6
CONTINUOUS
 62
     7
 10
3042.1615959999999
 20
-169.518519
 30
0.0
  0
VERTEX
  5
A6E
  8
LAYER01
  6
CONTINUOUS
 62
     7
 10
3046.0155210000012
 20
-172.408962
 30
0.0
  0
VERTEX
  5
A6F
  8
LAYER01
  6
CONTINUOUS
 62
     7
 10
3050.832926
 20
-175.29940500000001
 30
0.0
  0
VERTEX
  5
A70
  8
LAYER01
  6
CONTINUOUS
 62
     7
 10
3055.6503320000002
 20
-176.26288600000001
 30
0.0
  0
VERTEX
  5
A71
  8
LAYER01
  6
CONTINUOUS
 62
     7
 10
3060.4677369999999
 20
-177.22636700000001
 30
0.0
  0
VERTEX
  5
A72
  8
LAYER01
  6
CONTINUOUS
 62
     7
 10
3060.4677369999999
 20
-177.22636700000001
 30
0.0
  0
SEQEND
  5
A73
  8
LAYER01
  6
CONTINUOUS
 62
     7
  0
POLYLINE
  5
3C6
  8
LAYER01
  6
CONTINUOUS
 62
     7
 66
     1
 10
0.0
 20
0.0
 30
0.0
 70
     1
  0
VERTEX
  5
A74
  8
LAYER01
  6
CONTINUOUS
 62
     7
 10
3060.4677369999999
 20
-130.015794
 30
0.0
  0
VERTEX
  5
A75
  8
LAYER01
  6
CONTINUOUS
 62
     7
 10
3060.4677369999999
 20
-130.015794
 30
0.0
  0
VERTEX
  5
A76
  8
LAYER01
  6
CONTINUOUS
 62
     7
 10
3064.3216609999999
 20
-130.979275
 30
0.0
  0
VERTEX
  5
A77
  8
LAYER01
  6
CONTINUOUS
 62
     7
 10
3068.1755859999998
 20
-131.942756
 30
0.0
  0
VERTEX
  5
A78
  8
LAYER01
  6
CONTINUOUS
 62
     7
 10
3072.0295100000012
 20
-133.86971800000001
 30
0.0
  0
VERTEX
  5
A79
  8
LAYER01
  6
CONTINUOUS
 62
     7
 10
3074.9199530000001
 20
-136.76016200000001
 30
0.0
  0
VERTEX
  5
A7A
  8
LAYER01
  6
CONTINUOUS
 62
     7
 10
3077.8103970000002
 20
-139.65060500000001
 30
0.0
  0
VERTEX
  5
A7B
  8
LAYER01
  6
CONTINUOUS
 62
     7
 10
3079.7373590000011
 20
-143.50452899999999
 30
0.0
  0
VERTEX
  5
A7C
  8
LAYER01
  6
CONTINUOUS
 62
     7
 10
3081.6643210000002
 20
-147.35845399999999
 30
0.0
  0
VERTEX
  5
A7D
  8
LAYER01
  6
CONTINUOUS
 62
     7
 10
3081.6643210000002
 20
-151.212378
 30
0.0
  0
VERTEX
  5
A7E
  8
LAYER01
  6
CONTINUOUS
 62
     7
 10
3081.6643210000002
 20
-151.212378
 30
0.0
  0
VERTEX
  5
A7F
  8
LAYER01
  6
CONTINUOUS
 62
     7
 10
3081.6643210000002
 20
-156.02978300000001
 30
0.0
  0
VERTEX
  5
A80
  8
LAYER01
  6
CONTINUOUS
 62
     7
 10
3079.7373590000011
 20
-159.88370800000001
 30
0.0
  0
VERTEX
  5
A81
  8
LAYER01
  6
CONTINUOUS
 62
     7
 10
3077.8103970000002
 20
-163.73763199999999
 30
0.0
  0
VERTEX
  5
A82
  8
LAYER01
  6
CONTINUOUS
 62
     7
 10
3074.9199530000001
 20
-166.628075
 30
0.0
  0
VERTEX
  5
A83
  8
LAYER01
  6
CONTINUOUS
 62
     7
 10
3072.0295100000012
 20
-169.518519
 30
0.0
  0
VERTEX
  5
A84
  8
LAYER01
  6
CONTINUOUS
 62
     7
 10
3068.1755859999998
 20
-171.445481
 30
0.0
  0
VERTEX
  5
A85
  8
LAYER01
  6
CONTINUOUS
 62
     7
 10
3064.3216609999999
 20
-172.408962
 30
0.0
  0
VERTEX
  5
A86
  8
LAYER01
  6
CONTINUOUS
 62
     7
 10
3060.4677369999999
 20
-172.408962
 30
0.0
  0
VERTEX
  5
A87
  8
LAYER01
  6
CONTINUOUS
 62
     7
 10
3060.4677369999999
 20
-172.408962
 30
0.0
  0
VERTEX
  5
A88
  8
LAYER01
  6
CONTINUOUS
 62
     7
 10
3056.6138129999999
 20
-172.408962
 30
0.0
  0
VERTEX
  5
A89
  8
LAYER01
  6
CONTINUOUS
 62
     7
 10
3051.7964069999998
 20
-171.445481
 30
0.0
  0
VERTEX
  5
A8A
  8
LAYER01
  6
CONTINUOUS
 62
     7
 10
3048.905964
 20
-169.518519
 30
0.0
  0
VERTEX
  5
A8B
  8
LAYER01
  6
CONTINUOUS
 62
     7
 10
3045.05204
 20
-166.628075
 30
0.0
  0
VERTEX
  5
A8C
  8
LAYER01
  6
CONTINUOUS
 62
     7
 10
3043.125078
 20
-163.73763199999999
 30
0.0
  0
VERTEX
  5
A8D
  8
LAYER01
  6
CONTINUOUS
 62
     7
 10
3041.1981150000001
 20
-159.88370800000001
 30
0.0
  0
VERTEX
  5
A8E
  8
LAYER01
  6
CONTINUOUS
 62
     7
 10
3039.2711530000001
 20
-156.02978300000001
 30
0.0
  0
VERTEX
  5
A8F
  8
LAYER01
  6
CONTINUOUS
 62
     7
 10
3039.2711530000001
 20
-151.212378
 30
0.0
  0
VERTEX
  5
A90
  8
LAYER01
  6
CONTINUOUS
 62
     7
 10
3039.2711530000001
 20
-151.212378
 30
0.0
  0
VERTEX
  5
A91
  8
LAYER01
  6
CONTINUOUS
 62
     7
 10
3039.2711530000001
 20
-147.35845399999999
 30
0.0
  0
VERTEX
  5
A92
  8
LAYER01
  6
CONTINUOUS
 62
     7
 10
3041.1981150000001
 20
-143.50452899999999
 30
0.0
  0
VERTEX
  5
A93
  8
LAYER01
  6
CONTINUOUS
 62
     7
 10
3043.125078
 20
-139.65060500000001
 30
0.0
  0
VERTEX
  5
A94
  8
LAYER01
  6
CONTINUOUS
 62
     7
 10
3045.05204
 20
-136.76016200000001
 30
0.0
  0
VERTEX
  5
A95
  8
LAYER01
  6
CONTINUOUS
 62
     7
 10
3048.905964
 20
-133.86971800000001
 30
0.0
  0
VERTEX
  5
A96
  8
LAYER01
  6
CONTINUOUS
 62
     7
 10
3051.7964069999998
 20
-131.942756
 30
0.0
  0
VERTEX
  5
A97
  8
LAYER01
  6
CONTINUOUS
 62
     7
 10
3056.6138129999999
 20
-130.979275
 30
0.0
  0
VERTEX
  5
A98
  8
LAYER01
  6
CONTINUOUS
 62
     7
 10
3060.4677369999999
 20
-130.015794
 30
0.0
  0
VERTEX
  5
A99
  8
LAYER01
  6
CONTINUOUS
 62
     7
 10
3060.4677369999999
 20
-130.015794
 30
0.0
  0
SEQEND
  5
A9A
  8
LAYER01
  6
CONTINUOUS
 62
     7
  0
POLYLINE
  5
3EE
  8
LAYER01
  6
CONTINUOUS
 62
     7
 66
     1
 10
0.0
 20
0.0
 30
0.0
 70
     1
  0
VERTEX
  5
A9B
  8
LAYER01
  6
CONTINUOUS
 62
     7
 10
3064.3216609999999
 20
-153.13934
 30
0.0
  0
VERTEX
  5
A9C
  8
LAYER01
  6
CONTINUOUS
 62
     7
 10
3064.3216609999999
 20
-153.13934
 30
0.0
  0
VERTEX
  5
A9D
  8
LAYER01
  6
CONTINUOUS
 62
     7
 10
3067.2121050000001
 20
-152.175859
 30
0.0
  0
VERTEX
  5
A9E
  8
LAYER01
  6
CONTINUOUS
 62
     7
 10
3070.1025479999998
 20
-151.212378
 30
0.0
  0
VERTEX
  5
A9F
  8
LAYER01
  6
CONTINUOUS
 62
     7
 10
3072.0295100000012
 20
-148.321935
 30
0.0
  0
VERTEX
  5
AA0
  8
LAYER01
  6
CONTINUOUS
 62
     7
 10
3072.0295100000012
 20
-145.43149099999999
 30
0.0
  0
VERTEX
  5
AA1
  8
LAYER01
  6
CONTINUOUS
 62
     7
 10
3072.0295100000012
 20
-145.43149099999999
 30
0.0
  0
VERTEX
  5
AA2
  8
LAYER01
  6
CONTINUOUS
 62
     7
 10
3072.0295100000012
 20
-141.57756699999999
 30
0.0
  0
VERTEX
  5
AA3
  8
LAYER01
  6
CONTINUOUS
 62
     7
 10
3069.1390670000001
 20
-138.68712400000001
 30
0.0
  0
VERTEX
  5
AA4
  8
LAYER01
  6
CONTINUOUS
 62
     7
 10
3066.2486239999998
 20
-137.7236429999999
 30
0.0
  0
VERTEX
  5
AA5
  8
LAYER01
  6
CONTINUOUS
 62
     7
 10
3062.3946989999999
 20
-137.7236429999999
 30
0.0
  0
VERTEX
  5
AA6
  8
LAYER01
  6
CONTINUOUS
 62
     7
 10
3050.832926
 20
-137.7236429999999
 30
0.0
  0
VERTEX
  5
AA7
  8
LAYER01
  6
CONTINUOUS
 62
     7
 10
3050.832926
 20
-165.66459399999999
 30
0.0
  0
VERTEX
  5
AA8
  8
LAYER01
  6
CONTINUOUS
 62
     7
 10
3054.6868509999999
 20
-165.66459399999999
 30
0.0
  0
VERTEX
  5
AA9
  8
LAYER01
  6
CONTINUOUS
 62
     7
 10
3054.6868509999999
 20
-153.13934
 30
0.0
  0
VERTEX
  5
AAA
  8
LAYER01
  6
CONTINUOUS
 62
     7
 10
3060.4677369999999
 20
-153.13934
 30
0.0
  0
VERTEX
  5
AAB
  8
LAYER01
  6
CONTINUOUS
 62
     7
 10
3067.2121050000001
 20
-165.66459399999999
 30
0.0
  0
VERTEX
  5
AAC
  8
LAYER01
  6
CONTINUOUS
 62
     7
 10
3072.0295100000012
 20
-165.66459399999999
 30
0.0
  0
VERTEX
  5
AAD
  8
LAYER01
  6
CONTINUOUS
 62
     7
 10
3064.3216609999999
 20
-153.13934
 30
0.0
  0
VERTEX
  5
AAE
  8
LAYER01
  6
CONTINUOUS
 62
     7
 10
3064.3216609999999
 20
-153.13934
 30
0.0
  0
SEQEND
  5
AAF
  8
LAYER01
  6
CONTINUOUS
 62
     7
  0
POLYLINE
  5
404
  8
LAYER01
  6
CONTINUOUS
 62
     7
 66
     1
 10
0.0
 20
0.0
 30
0.0
 70
     1
  0
VERTEX
  5
AB0
  8
LAYER01
  6
CONTINUOUS
 62
     7
 10
3061.4312180000002
 20
-141.57756699999999
 30
0.0
  0
VERTEX
  5
AB1
  8
LAYER01
  6
CONTINUOUS
 62
     7
 10
3061.4312180000002
 20
-141.57756699999999
 30
0.0
  0
VERTEX
  5
AB2
  8
LAYER01
  6
CONTINUOUS
 62
     7
 10
3066.2486239999998
 20
-142.54104799999999
 30
0.0
  0
VERTEX
  5
AB3
  8
LAYER01
  6
CONTINUOUS
 62
     7
 10
3068.1755859999998
 20
-143.50452899999999
 30
0.0
  0
VERTEX
  5
AB4
  8
LAYER01
  6
CONTINUOUS
 62
     7
 10
3068.1755859999998
 20
-145.43149099999999
 30
0.0
  0
VERTEX
  5
AB5
  8
LAYER01
  6
CONTINUOUS
 62
     7
 10
3068.1755859999998
 20
-145.43149099999999
 30
0.0
  0
VERTEX
  5
AB6
  8
LAYER01
  6
CONTINUOUS
 62
     7
 10
3067.2121050000001
 20
-147.35845399999999
 30
0.0
  0
VERTEX
  5
AB7
  8
LAYER01
  6
CONTINUOUS
 62
     7
 10
3065.2851430000001
 20
-148.321935
 30
0.0
  0
VERTEX
  5
AB8
  8
LAYER01
  6
CONTINUOUS
 62
     7
 10
3059.5042560000002
 20
-149.285416
 30
0.0
  0
VERTEX
  5
AB9
  8
LAYER01
  6
CONTINUOUS
 62
     7
 10
3054.6868509999999
 20
-149.285416
 30
0.0
  0
VERTEX
  5
ABA
  8
LAYER01
  6
CONTINUOUS
 62
     7
 10
3054.6868509999999
 20
-141.57756699999999
 30
0.0
  0
VERTEX
  5
ABB
  8
LAYER01
  6
CONTINUOUS
 62
     7
 10
3061.4312180000002
 20
-141.57756699999999
 30
0.0
  0
VERTEX
  5
ABC
  8
LAYER01
  6
CONTINUOUS
 62
     7
 10
3061.4312180000002
 20
-141.57756699999999
 30
0.0
  0
SEQEND
  5
ABD
  8
LAYER01
  6
CONTINUOUS
 62
     7
  0
ENDBLK
  5
413
  8
0
  0
BLOCK
  8
0
  2
*D11
 70
     1
 10
0.0
 20
0.0
 30
0.0
  3
*D11
  1

  0
LINE
  5
416
  8
LAYER01
 62
     7
 10
2200.5148669999999
 20
731.13105899999994
 30
0.0
 11
2200.5148669999999
 21
575.00551299999995
 31
0.0
  0
LINE
  5
417
  8
LAYER01
 62
     7
 10
2004.531581
 20
731.13105899999994
 30
0.0
 11
2235.5148669999999
 21
731.13105899999994
 31
0.0
  0
LINE
  5
418
  8
LAYER01
 62
     7
 10
2004.531581
 20
575.00551299999995
 30
0.0
 11
2235.5148669999999
 21
575.00551299999995
 31
0.0
  0
SOLID
  5
419
  8
LAYER01
 62
     7
 10
2191.1819070000001
 20
675.13105899999994
 30
0.0
 11
2200.5148669999999
 21
731.13105899999994
 31
0.0
 12
2209.8478270000001
 22
675.13105899999994
 32
0.0
 13
2209.8478270000001
 23
675.13105899999994
 33
0.0
  0
SOLID
  5
41A
  8
LAYER01
 62
     7
 10
2191.1819070000001
 20
631.00551299999995
 30
0.0
 11
2200.5148669999999
 21
575.00551299999995
 31
0.0
 12
2209.8478270000001
 22
631.00551299999995
 32
0.0
 13
2209.8478270000001
 23
631.00551299999995
 33
0.0
  0
TEXT
  5
41B
  8
LAYER01
  6
CONTINUOUS
 62
     7
 10
2165.5148669999999
 20
597.50043700000003
 30
0.0
 40
70.0
  1
151
 50
90.0
  0
POINT
  5
41C
  8
LAYER01
 62
     7
 10
1976.531581
 20
731.13105899999994
 30
0.0
  0
POINT
  5
41D
  8
LAYER01
 62
     7
 10
1976.531581
 20
575.00551299999995
 30
0.0
  0
POINT
  5
41E
  8
LAYER01
 62
     7
 10
2200.5148669999999
 20
575.00551299999995
 30
0.0
  0
ENDBLK
  5
41F
  8
0
  0
BLOCK
  8
0
  2
*D12
 70
     1
 10
0.0
 20
0.0
 30
0.0
  3
*D12
  1

  0
LINE
  5
422
  8
LAYER01
 62
     7
 10
1561.879913
 20
836.48072100000002
 30
0.0
 11
1911.879907
 21
836.48072100000002
 31
0.0
  0
LINE
  5
423
  8
LAYER01
 62
     7
 10
1561.879913
 20
759.13105899999994
 30
0.0
 11
1561.879913
 21
871.48072100000013
 31
0.0
  0
LINE
  5
424
  8
LAYER01
 62
     7
 10
1911.879907
 20
759.13105899999994
 30
0.0
 11
1911.879907
 21
871.48072100000013
 31
0.0
  0
SOLID
  5
425
  8
LAYER01
 62
     7
 10
1617.879913
 20
827.14776100000006
 30
0.0
 11
1561.879913
 21
836.48072100000002
 31
0.0
 12
1617.879913
 22
845.81368099999997
 32
0.0
 13
1617.879913
 23
845.81368099999997
 33
0.0
  0
SOLID
  5
426
  8
LAYER01
 62
     7
 10
1855.879907
 20
827.14776100000006
 30
0.0
 11
1911.879907
 21
836.48072100000002
 31
0.0
 12
1855.879907
 22
845.81368099999997
 32
0.0
 13
1855.879907
 23
845.81368099999997
 33
0.0
  0
TEXT
  5
427
  8
LAYER01
  6
CONTINUOUS
 62
     7
 10
1684.144605
 20
871.48072100000013
 30
0.0
 40
70.0
  1
350
  0
POINT
  5
428
  8
LAYER01
 62
     7
 10
1561.879913
 20
731.13105899999994
 30
0.0
  0
POINT
  5
429
  8
LAYER01
 62
     7
 10
1911.879907
 20
731.13105899999994
 30
0.0
  0
POINT
  5
42A
  8
LAYER01
 62
     7
 10
1911.879907
 20
836.48072100000002
 30
0.0
  0
ENDBLK
  5
42B
  8
0
  0
BLOCK
  8
0
  2
VP359013-G14
 70
     0
 10
0.0
 20
0.0
 30
0.0
  3
VP359013-G14
  1

  0
LINE
  5
42E
  8
LAYER01
  6
CONTINUOUS
 62
     7
 10
1545.1236939999999
 20
718.77850699999999
 30
0.0
 11
1557.4762459999999
 21
731.13105899999994
 31
0.0
  0
LINE
  5
42F
  8
LAYER01
  6
CONTINUOUS
 62
     7
 10
1551.360541
 20
702.56471299999998
 30
0.0
 11
1562.778613
 21
713.98278499999992
 31
0.0
  0
LINE
  5
430
  8
LAYER01
  6
CONTINUOUS
 62
     7
 10
1552.478537
 20
681.23206899999991
 30
0.0
 11
1563.89661
 21
692.65014199999996
 31
0.0
  0
LINE
  5
431
  8
LAYER01
  6
CONTINUOUS
 62
     7
 10
1553.596534
 20
659.89942499999995
 30
0.0
 11
1565.014606
 21
671.31749799999989
 31
0.0
  0
LINE
  5
432
  8
LAYER01
  6
CONTINUOUS
 62
     7
 10
1554.71453
 20
638.56678199999999
 30
0.0
 11
1566.132603
 21
649.98485400000004
 31
0.0
  0
LINE
  5
433
  8
LAYER01
  6
CONTINUOUS
 62
     7
 10
1558.5527010000001
 20
619.95431199999985
 30
0.0
 11
1567.357941
 21
628.75955199999987
 31
0.0
  0
LINE
  5
434
  8
LAYER01
  6
CONTINUOUS
 62
     7
 10
1573.256905
 20
612.20787499999994
 30
0.0
 11
1583.0588479999999
 21
622.00981899999988
 31
0.0
  0
LINE
  5
435
  8
LAYER01
  6
CONTINUOUS
 62
     7
 10
1591.14471
 20
607.64503999999988
 30
0.0
 11
1600.9532750000001
 21
617.45360599999992
 31
0.0
  0
LINE
  5
436
  8
LAYER01
  6
CONTINUOUS
 62
     7
 10
1609.0325150000001
 20
603.08220499999993
 30
0.0
 11
1618.892799
 21
612.94248900000002
 31
0.0
  0
LINE
  5
437
  8
LAYER01
  6
CONTINUOUS
 62
     7
 10
1626.940621
 20
598.53967099999988
 30
0.0
 11
1636.8251359999999
 21
608.42418599999996
 31
0.0
  0
LINE
  5
438
  8
LAYER01
  6
CONTINUOUS
 62
     7
 10
1644.861609
 20
594.01001900000006
 30
0.0
 11
1654.7205369999999
 21
603.86894600000005
 31
0.0
  0
LINE
  5
439
  8
LAYER01
  6
CONTINUOUS
 62
     7
 10
1662.666641
 20
589.36441100000002
 30
0.0
 11
1672.7672809999999
 21
599.46505100000002
 31
0.0
  0
LINE
  5
43A
  8
LAYER01
  6
CONTINUOUS
 62
     7
 10
1682.3350150000001
 20
586.58214400000008
 30
0.0
 11
1693.4117630000001
 21
597.65889200000004
 31
0.0
  0
LINE
  5
43B
  8
LAYER01
  6
CONTINUOUS
 62
     7
 10
1696.8205760000001
 20
578.61706500000003
 30
0.0
 11
1708.6712849999999
 21
590.46777400000008
 31
0.0
  0
ENDBLK
  5
43C
  8
0
  0
BLOCK
  8
0
  2
*D14
 70
     1
 10
0.0
 20
0.0
 30
0.0
  3
*D14
  1

  0
LINE
  5
43F
  8
LAYER01
 62
     7
 10
2061.0903109999999
 20
731.13105899999994
 30
0.0
 11
2061.0903109999999
 21
591.79403300000001
 31
0.0
  0
LINE
  5
440
  8
LAYER01
 62
     7
 10
1972.278775
 20
731.13105899999994
 30
0.0
 11
2096.0903109999999
 21
731.13105899999994
 31
0.0
  0
LINE
  5
441
  8
LAYER01
 62
     7
 10
1972.278775
 20
591.79403300000001
 30
0.0
 11
2096.0903109999999
 21
591.79403300000001
 31
0.0
  0
SOLID
  5
442
  8
LAYER01
 62
     7
 10
2051.7573510000002
 20
675.13105899999994
 30
0.0
 11
2061.0903109999999
 21
731.13105899999994
 31
0.0
 12
2070.423271000001
 22
675.13105899999994
 32
0.0
 13
2070.423271000001
 23
675.13105899999994
 33
0.0
  0
SOLID
  5
443
  8
LAYER01
 62
     7
 10
2051.7573510000002
 20
647.79403300000001
 30
0.0
 11
2061.0903109999999
 21
591.79403300000001
 31
0.0
 12
2070.423271000001
 22
647.79403300000001
 32
0.0
 13
2070.423271000001
 23
647.79403300000001
 33
0.0
  0
TEXT
  5
444
  8
LAYER01
  6
CONTINUOUS
 62
     7
 10
2026.0903109999999
 20
605.89469699999995
 30
0.0
 40
70.0
  1
130
 50
90.0
  0
POINT
  5
445
  8
LAYER01
 62
     7
 10
1944.278775
 20
731.13105899999994
 30
0.0
  0
POINT
  5
446
  8
LAYER01
 62
     7
 10
1944.278775
 20
591.79403300000001
 30
0.0
  0
POINT
  5
447
  8
LAYER01
 62
     7
 10
2061.0903109999999
 20
591.79403300000001
 30
0.0
  0
ENDBLK
  5
448
  8
0
  0
BLOCK
  8
0
  2
VP359013-G16
 70
     0
 10
0.0
 20
0.0
 30
0.0
  3
VP359013-G16
  1

  0
LINE
  5
44B
  8
LAYER01
  6
CONTINUOUS
 62
     7
 10
1760.5609460000001
 20
575.00551399999995
 30
0.0
 11
1783.489131
 21
597.93369900000005
 31
0.0
  0
LINE
  5
44C
  8
LAYER01
  6
CONTINUOUS
 62
     7
 10
1911.6140760000001
 20
726.05864399999996
 30
0.0
 11
1916.6864909999999
 21
731.13105899999994
 31
0.0
  0
LINE
  5
44D
  8
LAYER01
  6
CONTINUOUS
 62
     7
 10
1794.8915149999989
 20
586.8854419999999
 30
0.0
 11
1809.341852
 21
601.335779
 31
0.0
  0
LINE
  5
44E
  8
LAYER01
  6
CONTINUOUS
 62
     7
 10
1910.372415
 20
702.36634299999992
 30
0.0
 11
1936.8799100000001
 21
728.87383799999986
 31
0.0
  0
LINE
  5
44F
  8
LAYER01
  6
CONTINUOUS
 62
     7
 10
1822.902307999999
 20
592.44559500000003
 30
0.0
 11
1839.5366770000001
 21
609.07996400000002
 31
0.0
  0
LINE
  5
450
  8
LAYER01
  6
CONTINUOUS
 62
     7
 10
1909.130754
 20
678.67404199999999
 30
0.0
 11
1921.8118079999999
 21
691.355096
 31
0.0
  0
LINE
  5
451
  8
LAYER01
  6
CONTINUOUS
 62
     7
 10
1853.0071829999999
 20
600.09983
 30
0.0
 11
1869.5393919999999
 21
616.63203899999996
 31
0.0
  0
LINE
  5
452
  8
LAYER01
  6
CONTINUOUS
 62
     7
 10
1907.889093
 20
654.98174000000006
 30
0.0
 11
1920.5701469999999
 21
667.66279400000008
 31
0.0
  0
LINE
  5
453
  8
LAYER01
  6
CONTINUOUS
 62
     7
 10
1883.135869
 20
607.77787599999999
 30
0.0
 11
1899.7319230000001
 21
624.37392999999986
 31
0.0
  0
LINE
  5
454
  8
LAYER01
  6
CONTINUOUS
 62
     7
 10
1906.6474330000001
 20
631.28943900000002
 30
0.0
 11
1919.328487
 21
643.97049299999992
 31
0.0
  0
ENDBLK
  5
455
  8
0
  0
ENDSEC
  0
SECTION
  2
ENTITIES
  0
POLYLINE
  5
456
  8
LAYER01
  6
CONTINUOUS
 62
     7
 66
     1
 10
0.0
 20
0.0
 30
0.0
 70
     1
  0
VERTEX
  5
ABE
  8
LAYER01
  6
CONTINUOUS
 62
     7
 10
-806.29240700000014
 20
-952.44140900000002
 30
0.0
  0
VERTEX
  5
ABF
  8
LAYER01
  6
CONTINUOUS
 62
     7
 10
-806.29240700000014
 20
1833.7042939999999
 30
0.0
  0
VERTEX
  5
AC0
  8
LAYER01
  6
CONTINUOUS
 62
     7
 10
3185.882329
 20
1833.7042939999999
 30
0.0
  0
VERTEX
  5
AC1
  8
LAYER01
  6
CONTINUOUS
 62
     7
 10
3185.882329
 20
-952.44140900000002
 30
0.0
  0
SEQEND
  5
AC2
  8
LAYER01
  6
CONTINUOUS
 62
     7
  0
DIMENSION
  5
45C
  8
LAYER01
 62
     7
  2
*D0
 10
324.88838800000002
 20
242.04893000000001
 30
0.0
 11
772.06643299999985
 21
312.04892999999998
 31
0.0
 13
1222.3917939999999
 23
162.92629199999999
 33
0.0
 14
324.88838800000002
 24
162.92629199999999
 34
0.0
  0
DIMENSION
  5
45D
  8
LAYER01
 62
     7
  2
*D1
 10
324.88838800000002
 20
953.22272599999985
 30
0.0
 11
774.91243399999985
 21
1023.222726
 31
0.0
 13
1224.8883639999999
 23
839.49049100000013
 33
0.0
 14
324.88838800000002
 24
839.49049100000013
 34
0.0
  0
DIMENSION
  5
45E
  8
LAYER01
 62
     7
  2
*D2
 10
1249.8883699999999
 20
1106.175923
 30
0.0
 11
774.91243399999985
 21
1176.175923
 31
0.0
 13
299.88838199999998
 23
839.49049100000013
 33
0.0
 14
1249.8883699999999
 24
839.49049100000013
 34
0.0
  0
LINE
  5
45F
  8
LAYER01
  6
CONTINUOUS
 62
     7
 10
1219.8952240000001
 20
457.5923949999999
 30
0.0
 11
329.881529
 21
457.5923949999999
 31
0.0
  0
LINE
  5
460
  8
LAYER01
  6
CONTINUOUS
 62
     7
 10
329.88838299999998
 20
432.59238899999991
 30
0.0
 11
1219.888369
 21
432.59238899999991
 31
0.0
  0
LINE
  5
461
  8
LAYER01
  6
CONTINUOUS
 62
     7
 10
1219.8952240000001
 20
807.5923889999998
 30
0.0
 11
329.881529
 21
807.5923889999998
 31
0.0
  0
LINE
  5
462
  8
LAYER01
  6
CONTINUOUS
 62
     7
 10
1219.888369
 20
832.5923949999999
 30
0.0
 11
329.88838299999998
 21
832.5923949999999
 31
0.0
  0
INSERT
  5
463
  8
LAYER01
  2
VP359013-G4
 10
0.0
 20
0.0
 30
0.0
  0
POLYLINE
  5
464
  8
LAYER01
  6
CONTINUOUS
 62
     7
 66
     1
 10
0.0
 20
0.0
 30
0.0
  0
VERTEX
  5
AC3
  8
LAYER01
  6
CONTINUOUS
 62
     7
 10
1215.5936160000001
 20
45.690876999999993
 30
0.0
  0
VERTEX
  5
AC4
  8
LAYER01
  6
CONTINUOUS
 62
     7
 10
1029.726754
 20
35.1051
 30
0.0
  0
VERTEX
  5
AC5
  8
LAYER01
  6
CONTINUOUS
 62
     7
 10
841.75268100000005
 20
24.399315999999999
 30
0.0
  0
SEQEND
  5
AC6
  8
LAYER01
  6
CONTINUOUS
 62
     7
  0
POLYLINE
  5
469
  8
LAYER01
  6
CONTINUOUS
 62
     7
 66
     1
 10
0.0
 20
0.0
 30
0.0
  0
VERTEX
  5
AC7
  8
LAYER01
  6
CONTINUOUS
 62
     7
 10
1214.9112620000001
 20
57.671463000000003
 30
0.0
  0
VERTEX
  5
AC8
  8
LAYER01
  6
CONTINUOUS
 62
     7
 10
1047.9785899999999
 20
48.164059999999999
 30
0.0
  0
VERTEX
  5
AC9
  8
LAYER01
  6
CONTINUOUS
 62
     7
 10
944.43348999999989
 20
42.266798999999992
 30
0.0
  0
VERTEX
  5
ACA
  8
LAYER01
  6
CONTINUOUS
 62
     7
 10
840.88837599999999
 20
36.369537999999999
 30
0.0
  0
SEQEND
  5
ACB
  8
LAYER01
  6
CONTINUOUS
 62
     7
  0
LINE
  5
46F
  8
LAYER01
  6
CONTINUOUS
 62
     7
 10
1219.8952240000001
 20
162.92629199999999
 30
0.0
 11
329.881529
 21
162.92629199999999
 31
0.0
  0
DIMENSION
  5
470
  8
LAYER01
 62
     7
  2
*D4
 10
30.894048000000002
 20
432.59238899999991
 30
0.0
 11
-39.105952000000002
 21
632.34465699999987
 31
0.0
 53
90.0
 13
285.09713199999999
 23
832.5923949999999
 33
0.0
 14
285.09713199999999
 24
432.59238899999991
 34
0.0
 50
90.0
  0
ARC
  5
471
  8
LAYER01
  6
CONTINUOUS
 62
     7
 10
329.88837599999999
 20
462.5923919999999
 30
0.0
 40
30.0
 50
180.0
 51
270.0
  0
TEXT
  5
472
  8
LAYER01
  6
CONTINUOUS
 62
     7
 10
-142.37781000000001
 20
-405.64071200000001
 30
0.0
 40
35.0
  1
Unterbauwaschtisch VP-35-90-13
  7
SIMPLEX
  0
INSERT
  5
473
  8
LAYER01
  2
VP359013-G6
 10
0.0
 20
0.0
 30
0.0
  0
LINE
  5
474
  8
LAYER01
  6
CONTINUOUS
 62
     7
 10
342.93110200000001
 20
57.220180999999997
 30
0.0
 11
734.06277799999998
 21
35.195888000000011
 31
0.0
  0
POLYLINE
  5
475
  8
LAYER01
  6
CONTINUOUS
 62
     7
 66
     1
 10
0.0
 20
0.0
 30
0.0
  0
VERTEX
  5
ACC
  8
LAYER01
  6
CONTINUOUS
 62
     7
 10
708.02407199999993
 20
24.399315999999999
 30
0.0
  0
VERTEX
  5
ACD
  8
LAYER01
  6
CONTINUOUS
 62
     7
 10
520.04901600000005
 20
35.105159
 30
0.0
  0
VERTEX
  5
ACE
  8
LAYER01
  6
CONTINUOUS
 62
     7
 10
334.18313699999999
 20
45.690876999999993
 30
0.0
  0
SEQEND
  5
ACF
  8
LAYER01
  6
CONTINUOUS
 62
     7
  0
LINE
  5
47A
  8
LAYER01
  6
CONTINUOUS
 62
     7
 10
313.89812599999999
 20
143.34497999999999
 30
0.0
 11
318.17309
 21
61.773662999999999
 31
0.0
  0
ARC
  5
47B
  8
LAYER01
  6
CONTINUOUS
 62
     7
 10
335.1497950000001
 20
62.663375999999992
 30
0.0
 40
5.0
 50
183.0
 51
266.74032399999999
  0
ARC
  5
47C
  8
LAYER01
  6
CONTINUOUS
 62
     7
 10
335.14964900000001
 20
62.666165999999997
 30
0.0
 40
5.0
 50
183.0
 51
266.77653700000002
  0
ARC
  5
47D
  8
LAYER01
  6
CONTINUOUS
 62
     7
 10
335.1497950000001
 20
62.663375999999992
 30
0.0
 40
17.0
 50
183.0
 51
266.74032399999999
  0
ARC
  5
47E
  8
LAYER01
  6
CONTINUOUS
 62
     7
 10
335.003197
 20
57.516002999999998
 30
0.0
 40
0.20768
 50
130.434461
 51
131.534538
  0
LINE
  5
47F
  8
LAYER01
  6
CONTINUOUS
 62
     7
 10
342.93110200000001
 20
57.220180999999997
 30
0.0
 11
334.86850099999998
 21
57.674078000000002
 31
0.0
  0
POLYLINE
  5
480
  8
LAYER01
  6
CONTINUOUS
 62
     7
 66
     1
 10
0.0
 20
0.0
 30
0.0
  0
VERTEX
  5
AD0
  8
LAYER01
  6
CONTINUOUS
 62
     7
 10
341.97582499999999
 20
57.326428999999997
 30
0.0
  0
VERTEX
  5
AD1
  8
LAYER01
  6
CONTINUOUS
 62
     7
 10
341.97632199999998
 20
57.323864
 30
0.0
  0
VERTEX
  5
AD2
  8
LAYER01
  6
CONTINUOUS
 62
     7
 10
341.97797200000002
 20
57.321320999999998
 30
0.0
  0
VERTEX
  5
AD3
  8
LAYER01
  6
CONTINUOUS
 62
     7
 10
341.98071599999997
 20
57.318804999999998
 30
0.0
  0
VERTEX
  5
AD4
  8
LAYER01
  6
CONTINUOUS
 62
     7
 10
341.98449199999999
 20
57.316319999999997
 30
0.0
  0
VERTEX
  5
AD5
  8
LAYER01
  6
CONTINUOUS
 62
     7
 10
341.98924199999999
 20
57.313870999999999
 30
0.0
  0
VERTEX
  5
AD6
  8
LAYER01
  6
CONTINUOUS
 62
     7
 10
341.99490500000002
 20
57.311463000000003
 30
0.0
  0
VERTEX
  5
AD7
  8
LAYER01
  6
CONTINUOUS
 62
     7
 10
342.00142
 20
57.309100999999998
 30
0.0
  0
VERTEX
  5
AD8
  8
LAYER01
  6
CONTINUOUS
 62
     7
 10
342.00872800000002
 20
57.306789000000002
 30
0.0
  0
VERTEX
  5
AD9
  8
LAYER01
  6
CONTINUOUS
 62
     7
 10
342.01677000000001
 20
57.304531999999988
 30
0.0
  0
VERTEX
  5
ADA
  8
LAYER01
  6
CONTINUOUS
 62
     7
 10
342.02547700000002
 20
57.302328000000003
 30
0.0
  0
VERTEX
  5
ADB
  8
LAYER01
  6
CONTINUOUS
 62
     7
 10
342.03479300000009
 20
57.300173000000001
 30
0.0
  0
VERTEX
  5
ADC
  8
LAYER01
  6
CONTINUOUS
 62
     7
 10
342.044668
 20
57.29806700000001
 30
0.0
  0
VERTEX
  5
ADD
  8
LAYER01
  6
CONTINUOUS
 62
     7
 10
342.05505399999998
 20
57.296008
 30
0.0
  0
VERTEX
  5
ADE
  8
LAYER01
  6
CONTINUOUS
 62
     7
 10
342.06590199999999
 20
57.293996999999997
 30
0.0
  0
VERTEX
  5
ADF
  8
LAYER01
  6
CONTINUOUS
 62
     7
 10
342.07716499999998
 20
57.292033999999987
 30
0.0
  0
VERTEX
  5
AE0
  8
LAYER01
  6
CONTINUOUS
 62
     7
 10
342.08879300000001
 20
57.290118000000007
 30
0.0
  0
VERTEX
  5
AE1
  8
LAYER01
  6
CONTINUOUS
 62
     7
 10
342.10073699999998
 20
57.288247999999989
 30
0.0
  0
VERTEX
  5
AE2
  8
LAYER01
  6
CONTINUOUS
 62
     7
 10
342.11295000000001
 20
57.286425000000001
 30
0.0
  0
VERTEX
  5
AE3
  8
LAYER01
  6
CONTINUOUS
 62
     7
 10
342.125406
 20
57.284643000000003
 30
0.0
  0
VERTEX
  5
AE4
  8
LAYER01
  6
CONTINUOUS
 62
     7
 10
342.138103
 20
57.282896999999998
 30
0.0
  0
VERTEX
  5
AE5
  8
LAYER01
  6
CONTINUOUS
 62
     7
 10
342.151028
 20
57.281185999999998
 30
0.0
  0
VERTEX
  5
AE6
  8
LAYER01
  6
CONTINUOUS
 62
     7
 10
342.16417000000001
 20
57.279507999999993
 30
0.0
  0
VERTEX
  5
AE7
  8
LAYER01
  6
CONTINUOUS
 62
     7
 10
342.17751800000002
 20
57.277863000000004
 30
0.0
  0
VERTEX
  5
AE8
  8
LAYER01
  6
CONTINUOUS
 62
     7
 10
342.191058
 20
57.276249
 30
0.0
  0
VERTEX
  5
AE9
  8
LAYER01
  6
CONTINUOUS
 62
     7
 10
342.20478000000003
 20
57.274666000000003
 30
0.0
  0
VERTEX
  5
AEA
  8
LAYER01
  6
CONTINUOUS
 62
     7
 10
342.21867000000009
 20
57.27311199999999
 30
0.0
  0
VERTEX
  5
AEB
  8
LAYER01
  6
CONTINUOUS
 62
     7
 10
342.23271799999998
 20
57.271586999999997
 30
0.0
  0
VERTEX
  5
AEC
  8
LAYER01
  6
CONTINUOUS
 62
     7
 10
342.24691200000001
 20
57.270090000000003
 30
0.0
  0
VERTEX
  5
AED
  8
LAYER01
  6
CONTINUOUS
 62
     7
 10
342.26123799999999
 20
57.268617999999996
 30
0.0
  0
VERTEX
  5
AEE
  8
LAYER01
  6
CONTINUOUS
 62
     7
 10
342.27568600000001
 20
57.267171999999988
 30
0.0
  0
VERTEX
  5
AEF
  8
LAYER01
  6
CONTINUOUS
 62
     7
 10
342.29024300000009
 20
57.265751000000002
 30
0.0
  0
VERTEX
  5
AF0
  8
LAYER01
  6
CONTINUOUS
 62
     7
 10
342.30489699999998
 20
57.264352000000002
 30
0.0
  0
VERTEX
  5
AF1
  8
LAYER01
  6
CONTINUOUS
 62
     7
 10
342.319637
 20
57.262976000000002
 30
0.0
  0
VERTEX
  5
AF2
  8
LAYER01
  6
CONTINUOUS
 62
     7
 10
342.334451
 20
57.261620999999991
 30
0.0
  0
VERTEX
  5
AF3
  8
LAYER01
  6
CONTINUOUS
 62
     7
 10
342.34932600000002
 20
57.260286000000001
 30
0.0
  0
VERTEX
  5
AF4
  8
LAYER01
  6
CONTINUOUS
 62
     7
 10
342.36425100000002
 20
57.258969999999991
 30
0.0
  0
VERTEX
  5
AF5
  8
LAYER01
  6
CONTINUOUS
 62
     7
 10
342.37922500000002
 20
57.257671999999992
 30
0.0
  0
VERTEX
  5
AF6
  8
LAYER01
  6
CONTINUOUS
 62
     7
 10
342.39425599999998
 20
57.25639000000001
 30
0.0
  0
VERTEX
  5
AF7
  8
LAYER01
  6
CONTINUOUS
 62
     7
 10
342.40934299999998
 20
57.255124000000002
 30
0.0
  0
VERTEX
  5
AF8
  8
LAYER01
  6
CONTINUOUS
 62
     7
 10
342.42448400000001
 20
57.253872999999999
 30
0.0
  0
VERTEX
  5
AF9
  8
LAYER01
  6
CONTINUOUS
 62
     7
 10
342.43967900000001
 20
57.252637999999997
 30
0.0
  0
VERTEX
  5
AFA
  8
LAYER01
  6
CONTINUOUS
 62
     7
 10
342.454926
 20
57.251418000000008
 30
0.0
  0
VERTEX
  5
AFB
  8
LAYER01
  6
CONTINUOUS
 62
     7
 10
342.47022500000003
 20
57.250211999999998
 30
0.0
  0
VERTEX
  5
AFC
  8
LAYER01
  6
CONTINUOUS
 62
     7
 10
342.48557299999999
 20
57.249020999999999
 30
0.0
  0
VERTEX
  5
AFD
  8
LAYER01
  6
CONTINUOUS
 62
     7
 10
342.50097099999999
 20
57.247843999999994
 30
0.0
  0
VERTEX
  5
AFE
  8
LAYER01
  6
CONTINUOUS
 62
     7
 10
342.51641599999999
 20
57.246680000000012
 30
0.0
  0
VERTEX
  5
AFF
  8
LAYER01
  6
CONTINUOUS
 62
     7
 10
342.53190899999998
 20
57.245530000000002
 30
0.0
  0
VERTEX
  5
B00
  8
LAYER01
  6
CONTINUOUS
 62
     7
 10
342.54744599999998
 20
57.244393000000002
 30
0.0
  0
VERTEX
  5
B01
  8
LAYER01
  6
CONTINUOUS
 62
     7
 10
342.56302899999997
 20
57.243268999999998
 30
0.0
  0
VERTEX
  5
B02
  8
LAYER01
  6
CONTINUOUS
 62
     7
 10
342.57865399999997
 20
57.242156999999992
 30
0.0
  0
VERTEX
  5
B03
  8
LAYER01
  6
CONTINUOUS
 62
     7
 10
342.59432200000009
 20
57.241056999999991
 30
0.0
  0
VERTEX
  5
B04
  8
LAYER01
  6
CONTINUOUS
 62
     7
 10
342.61003099999999
 20
57.239968999999988
 30
0.0
  0
VERTEX
  5
B05
  8
LAYER01
  6
CONTINUOUS
 62
     7
 10
342.62578000000002
 20
57.238892000000007
 30
0.0
  0
VERTEX
  5
B06
  8
LAYER01
  6
CONTINUOUS
 62
     7
 10
342.64156800000001
 20
57.23782700000001
 30
0.0
  0
VERTEX
  5
B07
  8
LAYER01
  6
CONTINUOUS
 62
     7
 10
342.65739300000001
 20
57.236772000000002
 30
0.0
  0
VERTEX
  5
B08
  8
LAYER01
  6
CONTINUOUS
 62
     7
 10
342.67325499999998
 20
57.235728000000002
 30
0.0
  0
VERTEX
  5
B09
  8
LAYER01
  6
CONTINUOUS
 62
     7
 10
342.68915299999998
 20
57.23469399999999
 30
0.0
  0
VERTEX
  5
B0A
  8
LAYER01
  6
CONTINUOUS
 62
     7
 10
342.705085
 20
57.233668999999992
 30
0.0
  0
VERTEX
  5
B0B
  8
LAYER01
  6
CONTINUOUS
 62
     7
 10
342.72104999999999
 20
57.232653999999997
 30
0.0
  0
VERTEX
  5
B0C
  8
LAYER01
  6
CONTINUOUS
 62
     7
 10
342.73704700000002
 20
57.231648999999997
 30
0.0
  0
VERTEX
  5
B0D
  8
LAYER01
  6
CONTINUOUS
 62
     7
 10
342.75307600000002
 20
57.230651999999999
 30
0.0
  0
VERTEX
  5
B0E
  8
LAYER01
  6
CONTINUOUS
 62
     7
 10
342.76913400000001
 20
57.229664
 30
0.0
  0
VERTEX
  5
B0F
  8
LAYER01
  6
CONTINUOUS
 62
     7
 10
342.78522099999998
 20
57.228683999999987
 30
0.0
  0
VERTEX
  5
B10
  8
LAYER01
  6
CONTINUOUS
 62
     7
 10
342.80133499999999
 20
57.227711999999997
 30
0.0
  0
VERTEX
  5
B11
  8
LAYER01
  6
CONTINUOUS
 62
     7
 10
342.817476
 20
57.226746999999989
 30
0.0
  0
VERTEX
  5
B12
  8
LAYER01
  6
CONTINUOUS
 62
     7
 10
342.833643
 20
57.225790000000003
 30
0.0
  0
VERTEX
  5
B13
  8
LAYER01
  6
CONTINUOUS
 62
     7
 10
342.84983299999999
 20
57.224839000000003
 30
0.0
  0
VERTEX
  5
B14
  8
LAYER01
  6
CONTINUOUS
 62
     7
 10
342.86604699999998
 20
57.223894999999999
 30
0.0
  0
VERTEX
  5
B15
  8
LAYER01
  6
CONTINUOUS
 62
     7
 10
342.88228299999997
 20
57.222957999999998
 30
0.0
  0
VERTEX
  5
B16
  8
LAYER01
  6
CONTINUOUS
 62
     7
 10
342.89854000000003
 20
57.222026
 30
0.0
  0
VERTEX
  5
B17
  8
LAYER01
  6
CONTINUOUS
 62
     7
 10
342.91481599999997
 20
57.2211
 30
0.0
  0
VERTEX
  5
B18
  8
LAYER01
  6
CONTINUOUS
 62
     7
 10
342.93111099999999
 20
57.220180000000013
 30
0.0
  0
SEQEND
  5
B19
  8
LAYER01
  6
CONTINUOUS
 62
     7
  0
LINE
  5
4CB
  8
LAYER01
  6
CONTINUOUS
 62
     7
 10
324.88838800000002
 20
162.92629199999999
 30
0.0
 11
299.88838199999998
 21
162.92629199999999
 31
0.0
  0
ARC
  5
4CC
  8
LAYER01
  6
CONTINUOUS
 62
     7
 10
305.909085
 20
142.92629199999999
 30
0.0
 40
8.0
 50
3.0
 51
90.0
  0
LINE
  5
4CD
  8
LAYER01
  6
CONTINUOUS
 62
     7
 10
305.90907700000002
 20
150.92629199999999
 30
0.0
 11
299.88838199999998
 21
150.92629199999999
 31
0.0
  0
LINE
  5
4CE
  8
LAYER01
  6
CONTINUOUS
 62
     7
 10
299.88838199999998
 20
150.92629199999999
 30
0.0
 11
299.88838199999998
 21
162.92629199999999
 31
0.0
  0
LINE
  5
4CF
  8
LAYER01
  6
CONTINUOUS
 62
     7
 10
324.88838800000002
 20
162.92629199999999
 30
0.0
 11
330.156634
 21
62.401694999999997
 31
0.0
  0
LINE
  5
4D0
  8
LAYER01
  6
CONTINUOUS
 62
     7
 10
324.88838800000002
 20
162.92629199999999
 30
0.0
 11
329.881529
 21
162.92629199999999
 31
0.0
  0
ARC
  5
4D1
  8
LAYER01
  6
CONTINUOUS
 62
     7
 10
822.88837599999999
 20
14.718344999999999
 30
0.0
 40
8.0
 50
95.0
 51
180.0
  0
ARC
  5
4D2
  8
LAYER01
  6
CONTINUOUS
 62
     7
 10
802.88837599999988
 20
20.505044000000002
 30
0.0
 40
5.0
 50
130.0
 51
180.0
  0
ARC
  5
4D3
  8
LAYER01
  6
CONTINUOUS
 62
     7
 10
726.88837599999999
 20
14.718344999999999
 30
0.0
 40
8.0
 50
0.0
 51
85.0
  0
ARC
  5
4D4
  8
LAYER01
  6
CONTINUOUS
 62
     7
 10
746.88837599999988
 20
20.505044000000002
 30
0.0
 40
5.0
 50
0.0
 51
50.0
  0
LINE
  5
4D5
  8
LAYER01
  6
CONTINUOUS
 62
     7
 10
814.88837499999988
 20
14.718344
 30
0.0
 11
814.88837499999988
 21
11.744877000000001
 31
0.0
  0
LINE
  5
4D6
  8
LAYER01
  6
CONTINUOUS
 62
     7
 10
814.88837499999988
 20
11.744877000000001
 30
0.0
 11
797.88837599999999
 21
11.744877000000001
 31
0.0
  0
LINE
  5
4D7
  8
LAYER01
  6
CONTINUOUS
 62
     7
 10
797.88837599999999
 20
20.505046
 30
0.0
 11
797.88837599999999
 21
11.744877000000001
 31
0.0
  0
LINE
  5
4D8
  8
LAYER01
  6
CONTINUOUS
 62
     7
 10
751.88837599999999
 20
11.744877000000001
 30
0.0
 11
751.88837599999999
 21
20.505046
 31
0.0
  0
LINE
  5
4D9
  8
LAYER01
  6
CONTINUOUS
 62
     7
 10
751.88837599999999
 20
11.744877000000001
 30
0.0
 11
753.39781200000004
 21
11.744877000000001
 31
0.0
  0
LINE
  5
4DA
  8
LAYER01
  6
CONTINUOUS
 62
     7
 10
753.39781200000004
 20
11.744877000000001
 30
0.0
 11
796.37894100000005
 21
11.744877000000001
 31
0.0
  0
LINE
  5
4DB
  8
LAYER01
  6
CONTINUOUS
 62
     7
 10
796.37894100000005
 20
11.744877000000001
 30
0.0
 11
797.88837599999999
 21
11.744877000000001
 31
0.0
  0
LINE
  5
4DC
  8
LAYER01
  6
CONTINUOUS
 62
     7
 10
734.88837699999999
 20
11.744877000000001
 30
0.0
 11
734.88837699999999
 21
14.718344
 31
0.0
  0
LINE
  5
4DD
  8
LAYER01
  6
CONTINUOUS
 62
     7
 10
751.88837599999999
 20
11.744877000000001
 30
0.0
 11
734.88837699999999
 21
11.744877000000001
 31
0.0
  0
LINE
  5
4DE
  8
LAYER01
  6
CONTINUOUS
 62
     7
 10
840.88837599999999
 20
36.369537999999999
 30
0.0
 11
812.45887100000004
 21
33.882280999999999
 31
0.0
  0
LINE
  5
4DF
  8
LAYER01
  6
CONTINUOUS
 62
     7
 10
841.75268100000005
 20
24.399315999999999
 30
0.0
 11
822.19112900000005
 21
22.687902999999999
 31
0.0
  0
LINE
  5
4E0
  8
LAYER01
  6
CONTINUOUS
 62
     7
 10
743.38837599999999
 20
29.968928999999999
 30
0.0
 11
806.38837599999988
 21
29.968928999999999
 31
0.0
  0
LINE
  5
4E1
  8
LAYER01
  6
CONTINUOUS
 62
     7
 10
809.68070999999986
 20
32.731524
 30
0.0
 11
799.67443899999989
 21
24.335270999999999
 31
0.0
  0
ARC
  5
4E2
  8
LAYER01
  6
CONTINUOUS
 62
     7
 10
812.89464999999996
 20
28.901305000000001
 30
0.0
 40
5.0
 50
95.0
 51
130.0
  0
LINE
  5
4E3
  8
LAYER01
  6
CONTINUOUS
 62
     7
 10
727.58562400000005
 20
22.687902999999999
 30
0.0
 11
708.02407199999993
 21
24.399315999999999
 31
0.0
  0
LINE
  5
4E4
  8
LAYER01
  6
CONTINUOUS
 62
     7
 10
798.04778699999986
 20
24.335270999999999
 30
0.0
 11
799.67443899999989
 21
24.335270999999999
 31
0.0
  0
LINE
  5
4E5
  8
LAYER01
  6
CONTINUOUS
 62
     7
 10
751.72896500000002
 20
24.335270999999999
 30
0.0
 11
798.04778699999986
 21
24.335270999999999
 31
0.0
  0
LINE
  5
4E6
  8
LAYER01
  6
CONTINUOUS
 62
     7
 10
750.10231399999998
 20
24.335270999999999
 30
0.0
 11
751.72896500000002
 21
24.335270999999999
 31
0.0
  0
LINE
  5
4E7
  8
LAYER01
  6
CONTINUOUS
 62
     7
 10
742.37938099999985
 20
32.731524
 30
0.0
 11
740.09604200000001
 21
32.731524
 31
0.0
  0
LINE
  5
4E8
  8
LAYER01
  6
CONTINUOUS
 62
     7
 10
807.3973719999999
 20
32.731524
 30
0.0
 11
742.37938099999985
 21
32.731524
 31
0.0
  0
LINE
  5
4E9
  8
LAYER01
  6
CONTINUOUS
 62
     7
 10
809.68070999999986
 20
32.731524
 30
0.0
 11
807.3973719999999
 21
32.731524
 31
0.0
  0
LINE
  5
4EA
  8
LAYER01
  6
CONTINUOUS
 62
     7
 10
750.10231399999998
 20
24.335270999999999
 30
0.0
 11
739.92845
 21
32.872149999999998
 31
0.0
  0
ARC
  5
4EB
  8
LAYER01
  6
CONTINUOUS
 62
     7
 10
733.50057699999991
 20
25.211704000000001
 30
0.0
 40
10.0
 50
50.000018999999988
 51
86.777126999999993
  0
DIMENSION
  5
4EC
  8
LAYER01
 62
     7
  2
*D6
 10
180.17963700000001
 20
457.5923949999999
 30
0.0
 11
110.179637
 21
632.34465699999987
 31
0.0
 53
90.0
 13
285.09713199999999
 23
807.5923889999998
 33
0.0
 14
285.09713199999999
 24
457.5923949999999
 34
0.0
 50
90.0
  0
ARC
  5
4ED
  8
LAYER01
  6
CONTINUOUS
 62
     7
 10
329.88837599999999
 20
802.59239200000002
 30
0.0
 40
30.0
 50
90.0
 51
180.0
  0
POLYLINE
  5
4EE
  8
LAYER01
  6
CONTINUOUS
 62
     7
 66
     1
 10
0.0
 20
0.0
 30
0.0
  0
VERTEX
  5
B1A
  8
LAYER01
  6
CONTINUOUS
 62
     7
 10
329.88152400000001
 20
807.59239200000013
 30
0.0
  0
VERTEX
  5
B1B
  8
LAYER01
  6
CONTINUOUS
 62
     7
 10
328.90668099999999
 20
807.49652100000003
 30
0.0
  0
VERTEX
  5
B1C
  8
LAYER01
  6
CONTINUOUS
 62
     7
 10
327.969696
 20
807.21257899999989
 30
0.0
  0
VERTEX
  5
B1D
  8
LAYER01
  6
CONTINUOUS
 62
     7
 10
327.10645199999999
 20
806.75143899999989
 30
0.0
  0
VERTEX
  5
B1E
  8
LAYER01
  6
CONTINUOUS
 62
     7
 10
326.35000700000001
 20
806.130762
 30
0.0
  0
VERTEX
  5
B1F
  8
LAYER01
  6
CONTINUOUS
 62
     7
 10
325.72933
 20
805.37431700000002
 30
0.0
  0
VERTEX
  5
B20
  8
LAYER01
  6
CONTINUOUS
 62
     7
 10
325.26819
 20
804.51107200000001
 30
0.0
  0
VERTEX
  5
B21
  8
LAYER01
  6
CONTINUOUS
 62
     7
 10
324.98424799999998
 20
803.57408699999985
 30
0.0
  0
VERTEX
  5
B22
  8
LAYER01
  6
CONTINUOUS
 62
     7
 10
324.88837599999999
 20
802.599245
 30
0.0
  0
SEQEND
  5
B23
  8
LAYER01
  6
CONTINUOUS
 62
     7
  0
LINE
  5
4F9
  8
LAYER01
 62
     7
 10
327.060542
 20
459.76455800000002
 30
0.0
 11
392.55814099999998
 21
554.61610199999996
 31
0.0
  0
LINE
  5
4FA
  8
LAYER01
 62
     7
 10
392.55814099999998
 20
554.61610199999996
 30
0.0
 11
442.3271059999999
 21
554.61610199999996
 31
0.0
  0
SOLID
  5
4FB
  8
LAYER01
 62
     7
 10
366.56070199999999
 20
500.54251099999999
 30
0.0
 11
327.060542
 21
459.76455800000002
 31
0.0
 12
351.200943
 22
511.14884699999999
 32
0.0
 13
351.200943
 23
511.14884699999999
 33
0.0
  0
TEXT
  5
4FC
  8
LAYER01
  6
CONTINUOUS
 62
     7
 10
477.3271059999999
 20
519.61610199999996
 30
0.0
 40
70.0
  1
R5
  0
LINE
  5
4FD
  8
LAYER01
  6
CONTINUOUS
 62
     7
 10
324.88838800000002
 20
802.59924899999999
 30
0.0
 11
324.88838800000002
 21
462.58553599999999
 31
0.0
  0
LINE
  5
4FE
  8
LAYER01
  6
CONTINUOUS
 62
     7
 10
299.88838199999998
 20
802.59239400000001
 30
0.0
 11
299.88838199999998
 21
462.59239000000002
 31
0.0
  0
POLYLINE
  5
4FF
  8
LAYER01
  6
CONTINUOUS
 62
     7
 66
     1
 10
0.0
 20
0.0
 30
0.0
  0
VERTEX
  5
B24
  8
LAYER01
  6
CONTINUOUS
 62
     7
 10
324.88837599999999
 20
462.58553999999998
 30
0.0
  0
VERTEX
  5
B25
  8
LAYER01
  6
CONTINUOUS
 62
     7
 10
324.98424799999998
 20
461.6106969999999
 30
0.0
  0
VERTEX
  5
B26
  8
LAYER01
  6
CONTINUOUS
 62
     7
 10
325.26819
 20
460.67371200000002
 30
0.0
  0
VERTEX
  5
B27
  8
LAYER01
  6
CONTINUOUS
 62
     7
 10
325.72933
 20
459.8104679999999
 30
0.0
  0
VERTEX
  5
B28
  8
LAYER01
  6
CONTINUOUS
 62
     7
 10
326.35000700000001
 20
459.05402299999997
 30
0.0
  0
VERTEX
  5
B29
  8
LAYER01
  6
CONTINUOUS
 62
     7
 10
327.10645199999999
 20
458.43334599999991
 30
0.0
  0
VERTEX
  5
B2A
  8
LAYER01
  6
CONTINUOUS
 62
     7
 10
327.969696
 20
457.97220599999991
 30
0.0
  0
VERTEX
  5
B2B
  8
LAYER01
  6
CONTINUOUS
 62
     7
 10
328.90668099999999
 20
457.688264
 30
0.0
  0
VERTEX
  5
B2C
  8
LAYER01
  6
CONTINUOUS
 62
     7
 10
329.88152400000001
 20
457.59239200000002
 30
0.0
  0
SEQEND
  5
B2D
  8
LAYER01
  6
CONTINUOUS
 62
     7
  0
ARC
  5
50A
  8
LAYER01
  6
CONTINUOUS
 62
     7
 10
774.88837599999999
 20
632.59239200000002
 30
0.0
 40
24.786062000000001
 50
339.12698
 51
20.87302
  0
ARC
  5
50B
  8
LAYER01
  6
CONTINUOUS
 62
     7
 10
774.88837599999999
 20
632.59239200000002
 30
0.0
 40
24.786062000000001
 50
159.12698
 51
200.87302
  0
ARC
  5
50C
  8
LAYER01
  6
CONTINUOUS
 62
     7
 10
774.88837599999999
 20
632.59239200000002
 30
0.0
 40
34.792335999999999
 50
339.12698
 51
20.87302
  0
ARC
  5
50D
  8
LAYER01
  6
CONTINUOUS
 62
     7
 10
774.88837599999999
 20
632.59239200000002
 30
0.0
 40
34.792335999999999
 50
159.12698
 51
200.87302
  0
INSERT
  5
50E
  8
LAYER01
  2
VP359013-G8
 10
0.0
 20
0.0
 30
0.0
  0
ARC
  5
50F
  8
LAYER01
  6
CONTINUOUS
 62
     7
 10
774.88837599999999
 20
632.59239200000002
 30
0.0
 40
24.786062000000001
 50
200.87302
 51
339.12698
  0
ARC
  5
510
  8
LAYER01
  6
CONTINUOUS
 62
     7
 10
774.88837599999999
 20
632.59239200000002
 30
0.0
 40
34.792335999999999
 50
200.87302
 51
339.12698
  0
ARC
  5
511
  8
LAYER01
  6
CONTINUOUS
 62
     7
 10
774.88837599999999
 20
632.59239200000002
 30
0.0
 40
24.786062000000001
 50
20.87302
 51
159.12698
  0
ARC
  5
512
  8
LAYER01
  6
CONTINUOUS
 62
     7
 10
774.88837599999999
 20
632.59239200000002
 30
0.0
 40
34.792335999999999
 50
20.87302
 51
159.12698
  0
ARC
  5
513
  8
LAYER01
  6
CONTINUOUS
 62
     7
 10
1219.8883760000001
 20
462.5923919999999
 30
0.0
 40
30.0
 50
270.0
 51
0.0
  0
TEXT
  5
514
  8
LAYER01
  6
STRICHPUNKTIERT
 62
     7
 10
2034.9354599000001
 20
-470.69685605870228
 30
0.0
 40
39.285955799999989
  1
http://www.mineralwerkstoff.de
  0
INSERT
  5
515
  8
LAYER01
  2
VP359013-G9
 10
0.0
 20
0.0
 30
0.0
  0
INSERT
  5
516
  8
LAYER01
  2
VP359013-G11
 10
0.0
 20
0.0
 30
0.0
  0
LINE
  5
517
  8
LAYER01
  6
CONTINUOUS
 62
     7
 10
1235.8786259999999
 20
143.34497999999999
 30
0.0
 11
1231.603662
 21
61.773662999999999
 31
0.0
  0
ARC
  5
518
  8
LAYER01
  6
CONTINUOUS
 62
     7
 10
1214.6271039999999
 20
62.666165999999997
 30
0.0
 40
5.0
 50
273.22346299999998
 51
357.0
  0
ARC
  5
519
  8
LAYER01
  6
CONTINUOUS
 62
     7
 10
1214.6269580000001
 20
62.663375999999992
 30
0.0
 40
17.0
 50
273.2596759999999
 51
357.0
  0
POLYLINE
  5
51A
  8
LAYER01
  6
CONTINUOUS
 62
     7
 66
     1
 10
0.0
 20
0.0
 30
0.0
  0
VERTEX
  5
B2E
  8
LAYER01
  6
CONTINUOUS
 62
     7
 10
1214.9112620000001
 20
57.671463000000003
 30
0.0
  0
VERTEX
  5
B2F
  8
LAYER01
  6
CONTINUOUS
 62
     7
 10
1214.911024
 20
57.671664
 30
0.0
  0
VERTEX
  5
B30
  8
LAYER01
  6
CONTINUOUS
 62
     7
 10
1214.9082519999999
 20
57.674078000000002
 30
0.0
  0
SEQEND
  5
B31
  8
LAYER01
  6
CONTINUOUS
 62
     7
  0
POLYLINE
  5
51F
  8
LAYER01
  6
CONTINUOUS
 62
     7
 66
     1
 10
0.0
 20
0.0
 30
0.0
  0
VERTEX
  5
B32
  8
LAYER01
  6
CONTINUOUS
 62
     7
 10
1206.845642
 20
57.220180000000013
 30
0.0
  0
VERTEX
  5
B33
  8
LAYER01
  6
CONTINUOUS
 62
     7
 10
1206.8619659999999
 20
57.221102000000002
 30
0.0
  0
VERTEX
  5
B34
  8
LAYER01
  6
CONTINUOUS
 62
     7
 10
1206.8782779999999
 20
57.222029999999997
 30
0.0
  0
VERTEX
  5
B35
  8
LAYER01
  6
CONTINUOUS
 62
     7
 10
1206.894577
 20
57.222964000000012
 30
0.0
  0
VERTEX
  5
B36
  8
LAYER01
  6
CONTINUOUS
 62
     7
 10
1206.91086
 20
57.223905000000002
 30
0.0
  0
VERTEX
  5
B37
  8
LAYER01
  6
CONTINUOUS
 62
     7
 10
1206.927126
 20
57.224851999999998
 30
0.0
  0
VERTEX
  5
B38
  8
LAYER01
  6
CONTINUOUS
 62
     7
 10
1206.9433750000001
 20
57.225806999999989
 30
0.0
  0
VERTEX
  5
B39
  8
LAYER01
  6
CONTINUOUS
 62
     7
 10
1206.959603
 20
57.226768000000007
 30
0.0
  0
VERTEX
  5
B3A
  8
LAYER01
  6
CONTINUOUS
 62
     7
 10
1206.975809
 20
57.227736999999998
 30
0.0
  0
VERTEX
  5
B3B
  8
LAYER01
  6
CONTINUOUS
 62
     7
 10
1206.9919930000001
 20
57.228713999999997
 30
0.0
  0
VERTEX
  5
B3C
  8
LAYER01
  6
CONTINUOUS
 62
     7
 10
1207.0081520000001
 20
57.229698999999989
 30
0.0
  0
VERTEX
  5
B3D
  8
LAYER01
  6
CONTINUOUS
 62
     7
 10
1207.0242860000001
 20
57.230693000000002
 30
0.0
  0
VERTEX
  5
B3E
  8
LAYER01
  6
CONTINUOUS
 62
     7
 10
1207.040391
 20
57.231695000000002
 30
0.0
  0
VERTEX
  5
B3F
  8
LAYER01
  6
CONTINUOUS
 62
     7
 10
1207.0564670000001
 20
57.232706999999998
 30
0.0
  0
VERTEX
  5
B40
  8
LAYER01
  6
CONTINUOUS
 62
     7
 10
1207.0725130000001
 20
57.233727000000002
 30
0.0
  0
VERTEX
  5
B41
  8
LAYER01
  6
CONTINUOUS
 62
     7
 10
1207.088526
 20
57.234757999999999
 30
0.0
  0
VERTEX
  5
B42
  8
LAYER01
  6
CONTINUOUS
 62
     7
 10
1207.1045059999999
 20
57.235797999999988
 30
0.0
  0
VERTEX
  5
B43
  8
LAYER01
  6
CONTINUOUS
 62
     7
 10
1207.1204499999999
 20
57.236848999999999
 30
0.0
  0
VERTEX
  5
B44
  8
LAYER01
  6
CONTINUOUS
 62
     7
 10
1207.1363570000001
 20
57.237909999999999
 30
0.0
  0
VERTEX
  5
B45
  8
LAYER01
  6
CONTINUOUS
 62
     7
 10
1207.1522259999999
 20
57.238981999999993
 30
0.0
  0
VERTEX
  5
B46
  8
LAYER01
  6
CONTINUOUS
 62
     7
 10
1207.168054
 20
57.240065000000001
 30
0.0
  0
VERTEX
  5
B47
  8
LAYER01
  6
CONTINUOUS
 62
     7
 10
1207.183841
 20
57.241160000000001
 30
0.0
  0
VERTEX
  5
B48
  8
LAYER01
  6
CONTINUOUS
 62
     7
 10
1207.1995850000001
 20
57.242266000000001
 30
0.0
  0
VERTEX
  5
B49
  8
LAYER01
  6
CONTINUOUS
 62
     7
 10
1207.215285
 20
57.243384999999989
 30
0.0
  0
VERTEX
  5
B4A
  8
LAYER01
  6
CONTINUOUS
 62
     7
 10
1207.2309379999999
 20
57.244515
 30
0.0
  0
VERTEX
  5
B4B
  8
LAYER01
  6
CONTINUOUS
 62
     7
 10
1207.2465440000001
 20
57.245658999999989
 30
0.0
  0
VERTEX
  5
B4C
  8
LAYER01
  6
CONTINUOUS
 62
     7
 10
1207.2620999999999
 20
57.246814999999998
 30
0.0
  0
VERTEX
  5
B4D
  8
LAYER01
  6
CONTINUOUS
 62
     7
 10
1207.277605
 20
57.247985
 30
0.0
  0
VERTEX
  5
B4E
  8
LAYER01
  6
CONTINUOUS
 62
     7
 10
1207.293058
 20
57.249167999999997
 30
0.0
  0
VERTEX
  5
B4F
  8
LAYER01
  6
CONTINUOUS
 62
     7
 10
1207.3084570000001
 20
57.250365000000002
 30
0.0
  0
VERTEX
  5
B50
  8
LAYER01
  6
CONTINUOUS
 62
     7
 10
1207.323801
 20
57.251576
 30
0.0
  0
VERTEX
  5
B51
  8
LAYER01
  6
CONTINUOUS
 62
     7
 10
1207.3390870000001
 20
57.252800999999991
 30
0.0
  0
VERTEX
  5
B52
  8
LAYER01
  6
CONTINUOUS
 62
     7
 10
1207.354315
 20
57.254041000000001
 30
0.0
  0
VERTEX
  5
B53
  8
LAYER01
  6
CONTINUOUS
 62
     7
 10
1207.3694829999999
 20
57.255295999999987
 30
0.0
  0
VERTEX
  5
B54
  8
LAYER01
  6
CONTINUOUS
 62
     7
 10
1207.384589
 20
57.256566999999997
 30
0.0
  0
VERTEX
  5
B55
  8
LAYER01
  6
CONTINUOUS
 62
     7
 10
1207.3996320000001
 20
57.257852999999997
 30
0.0
  0
VERTEX
  5
B56
  8
LAYER01
  6
CONTINUOUS
 62
     7
 10
1207.41461
 20
57.259155000000007
 30
0.0
  0
VERTEX
  5
B57
  8
LAYER01
  6
CONTINUOUS
 62
     7
 10
1207.4295300000001
 20
57.260474000000002
 30
0.0
  0
VERTEX
  5
B58
  8
LAYER01
  6
CONTINUOUS
 62
     7
 10
1207.444391
 20
57.261811000000002
 30
0.0
  0
VERTEX
  5
B59
  8
LAYER01
  6
CONTINUOUS
 62
     7
 10
1207.4591820000001
 20
57.263167000000003
 30
0.0
  0
VERTEX
  5
B5A
  8
LAYER01
  6
CONTINUOUS
 62
     7
 10
1207.4738930000001
 20
57.264543999999987
 30
0.0
  0
VERTEX
  5
B5B
  8
LAYER01
  6
CONTINUOUS
 62
     7
 10
1207.4885119999999
 20
57.265943000000007
 30
0.0
  0
VERTEX
  5
B5C
  8
LAYER01
  6
CONTINUOUS
 62
     7
 10
1207.503029
 20
57.267364000000001
 30
0.0
  0
VERTEX
  5
B5D
  8
LAYER01
  6
CONTINUOUS
 62
     7
 10
1207.517433
 20
57.268809999999988
 30
0.0
  0
VERTEX
  5
B5E
  8
LAYER01
  6
CONTINUOUS
 62
     7
 10
1207.5317130000001
 20
57.270280999999997
 30
0.0
  0
VERTEX
  5
B5F
  8
LAYER01
  6
CONTINUOUS
 62
     7
 10
1207.5458570000001
 20
57.271777999999998
 30
0.0
  0
VERTEX
  5
B60
  8
LAYER01
  6
CONTINUOUS
 62
     7
 10
1207.5598560000001
 20
57.273304000000003
 30
0.0
  0
VERTEX
  5
B61
  8
LAYER01
  6
CONTINUOUS
 62
     7
 10
1207.573697
 20
57.27485699999999
 30
0.0
  0
VERTEX
  5
B62
  8
LAYER01
  6
CONTINUOUS
 62
     7
 10
1207.5873710000001
 20
57.276440999999998
 30
0.0
  0
VERTEX
  5
B63
  8
LAYER01
  6
CONTINUOUS
 62
     7
 10
1207.600866
 20
57.278055999999999
 30
0.0
  0
VERTEX
  5
B64
  8
LAYER01
  6
CONTINUOUS
 62
     7
 10
1207.6141709999999
 20
57.279704000000002
 30
0.0
  0
VERTEX
  5
B65
  8
LAYER01
  6
CONTINUOUS
 62
     7
 10
1207.6272750000001
 20
57.281385
 30
0.0
  0
VERTEX
  5
B66
  8
LAYER01
  6
CONTINUOUS
 62
     7
 10
1207.6401679999999
 20
57.283099999999997
 30
0.0
  0
VERTEX
  5
B67
  8
LAYER01
  6
CONTINUOUS
 62
     7
 10
1207.652838
 20
57.284852000000001
 30
0.0
  0
VERTEX
  5
B68
  8
LAYER01
  6
CONTINUOUS
 62
     7
 10
1207.6652750000001
 20
57.286641000000003
 30
0.0
  0
VERTEX
  5
B69
  8
LAYER01
  6
CONTINUOUS
 62
     7
 10
1207.6774479999999
 20
57.288466999999997
 30
0.0
  0
VERTEX
  5
B6A
  8
LAYER01
  6
CONTINUOUS
 62
     7
 10
1207.689308
 20
57.290332999999997
 30
0.0
  0
VERTEX
  5
B6B
  8
LAYER01
  6
CONTINUOUS
 62
     7
 10
1207.7008169999999
 20
57.292239000000002
 30
0.0
  0
VERTEX
  5
B6C
  8
LAYER01
  6
CONTINUOUS
 62
     7
 10
1207.7119359999999
 20
57.294187999999998
 30
0.0
  0
VERTEX
  5
B6D
  8
LAYER01
  6
CONTINUOUS
 62
     7
 10
1207.722628
 20
57.296180999999997
 30
0.0
  0
VERTEX
  5
B6E
  8
LAYER01
  6
CONTINUOUS
 62
     7
 10
1207.732853
 20
57.298219999999993
 30
0.0
  0
VERTEX
  5
B6F
  8
LAYER01
  6
CONTINUOUS
 62
     7
 10
1207.742575
 20
57.300306999999997
 30
0.0
  0
VERTEX
  5
B70
  8
LAYER01
  6
CONTINUOUS
 62
     7
 10
1207.751753
 20
57.302442999999997
 30
0.0
  0
VERTEX
  5
B71
  8
LAYER01
  6
CONTINUOUS
 62
     7
 10
1207.76035
 20
57.304630000000003
 30
0.0
  0
VERTEX
  5
B72
  8
LAYER01
  6
CONTINUOUS
 62
     7
 10
1207.7683050000001
 20
57.306871999999998
 30
0.0
  0
VERTEX
  5
B73
  8
LAYER01
  6
CONTINUOUS
 62
     7
 10
1207.775541
 20
57.309170999999999
 30
0.0
  0
VERTEX
  5
B74
  8
LAYER01
  6
CONTINUOUS
 62
     7
 10
1207.7819959999999
 20
57.311520999999999
 30
0.0
  0
VERTEX
  5
B75
  8
LAYER01
  6
CONTINUOUS
 62
     7
 10
1207.787609
 20
57.313918000000001
 30
0.0
  0
VERTEX
  5
B76
  8
LAYER01
  6
CONTINUOUS
 62
     7
 10
1207.7923209999999
 20
57.316355999999999
 30
0.0
  0
VERTEX
  5
B77
  8
LAYER01
  6
CONTINUOUS
 62
     7
 10
1207.796069
 20
57.31883100000001
 30
0.0
  0
VERTEX
  5
B78
  8
LAYER01
  6
CONTINUOUS
 62
     7
 10
1207.798794
 20
57.32133799999999
 30
0.0
  0
VERTEX
  5
B79
  8
LAYER01
  6
CONTINUOUS
 62
     7
 10
1207.8004330000001
 20
57.323871999999987
 30
0.0
  0
VERTEX
  5
B7A
  8
LAYER01
  6
CONTINUOUS
 62
     7
 10
1207.800927
 20
57.326428999999997
 30
0.0
  0
SEQEND
  5
B7B
  8
LAYER01
  6
CONTINUOUS
 62
     7
  0
LINE
  5
56A
  8
LAYER01
  6
CONTINUOUS
 62
     7
 10
1224.8883639999999
 20
162.92629199999999
 30
0.0
 11
1219.620118
 21
62.401694999999997
 31
0.0
  0
LINE
  5
56B
  8
LAYER01
  6
CONTINUOUS
 62
     7
 10
1249.8883699999999
 20
162.92629199999999
 30
0.0
 11
1224.8883639999999
 21
162.92629199999999
 31
0.0
  0
LINE
  5
56C
  8
LAYER01
  6
CONTINUOUS
 62
     7
 10
1249.8883699999999
 20
162.92629199999999
 30
0.0
 11
1249.8883699999999
 21
150.92629199999999
 31
0.0
  0
LINE
  5
56D
  8
LAYER01
  6
CONTINUOUS
 62
     7
 10
1249.8883699999999
 20
150.92629199999999
 30
0.0
 11
1243.867675
 21
150.92629199999999
 31
0.0
  0
ARC
  5
56E
  8
LAYER01
  6
CONTINUOUS
 62
     7
 10
1243.8676680000001
 20
142.92629199999999
 30
0.0
 40
8.0
 50
90.0
 51
177.0
  0
LINE
  5
56F
  8
LAYER01
  6
CONTINUOUS
 62
     7
 10
1219.8952240000001
 20
162.92629199999999
 30
0.0
 11
1224.8883639999999
 21
162.92629199999999
 31
0.0
  0
TEXT
  5
570
  8
LAYER01
  6
CONTINUOUS
 62
     7
 10
2678.2411059999999
 20
-553.10039699999993
 30
0.0
 40
7.5
  1
Diese Zeichnung ist geistiges Eigentum der A. Sprenger GmbH
  7
SIMPLEX
  0
TEXT
  5
571
  8
LAYER01
  6
CONTINUOUS
 62
     7
 10
2678.2411059999999
 20
-565.95753899999988
 30
0.0
 40
7.5
  1
und urheberrechtlich geschützt. Ohne unsere Zustimmung darf 
  7
SIMPLEX
  0
TEXT
  5
572
  8
LAYER01
  6
CONTINUOUS
 62
     7
 10
2678.2411059999999
 20
-578.81468199999995
 30
0.0
 40
7.5
  1
sie in keiner Form verwendet oder Dritten zugänglich gemacht
  7
SIMPLEX
  0
TEXT
  5
573
  8
LAYER01
  6
CONTINUOUS
 62
     7
 10
2678.2411059999999
 20
-591.67182500000001
 30
0.0
 40
7.5
  1
werden. (§106 Urheberrecht)
  7
SIMPLEX
  0
TEXT
  5
574
  8
LAYER01
  6
VERDECKT
 62
     1
 10
2686.3512620000001
 20
-707.92206499999998
 30
0.0
 40
25.0
  1
A. Sprenger GmbH
  7
SIMPLEX
  0
TEXT
  5
575
  8
LAYER01
  6
VERDECKT
 62
     1
 10
2752.2949899999999
 20
-643.44375300000002
 30
0.0
 40
10.0
  1
1 : 10 (DIN A3)
  7
SIMPLEX
  0
TEXT
  5
576
  8
LAYER01
  6
VERDECKT
 62
     1
 10
2686.3512620000001
 20
-806.10494900000003
 30
0.0
 40
35.0
  1
VP-35-90-13
  7
SIMPLEX
  0
TEXT
  5
577
  8
LAYER01
  6
VERDECKT
 62
     1
 10
2550.8423550000002
 20
-765.84339999999986
 30
0.0
 40
10.0
  1
b.s.
  7
SIMPLEX
  0
TEXT
  5
578
  8
LAYER01
  6
VERDECKT
 62
     1
 10
2454.685199
 20
-765.80686300000002
 30
0.0
 40
10.0
  1
15.4.2021
  7
SIMPLEX
  0
TEXT
  5
579
  8
LAYER01
  6
VERDECKT
 62
     1
 10
3010.023584
 20
-643.44375300000002
 30
0.0
 40
10.0
  1
xxx.skd
  7
SIMPLEX
  0
DIMENSION
  5
57A
  8
LAYER01
 62
     7
  2
*D11
 10
2200.5148669999999
 20
575.00551299999995
 30
0.0
 11
2130.5148669999999
 21
648.86469899999986
 31
0.0
 53
90.0
 13
1976.531581
 23
731.13105899999994
 33
0.0
 14
1976.531581
 24
575.00551299999995
 34
0.0
 50
90.0
  0
DIMENSION
  5
57B
  8
LAYER01
 62
     7
  2
*D12
 10
1911.879907
 20
836.48072100000002
 30
0.0
 11
1737.114
 21
906.48072100000013
 31
0.0
 70
     1
 13
1561.879913
 23
731.13105899999994
 33
0.0
 14
1911.879907
 24
731.13105899999994
 34
0.0
  0
LINE
  5
57C
  8
LAYER01
  6
CONTINUOUS
 62
     7
 10
1906.8867660000001
 20
731.13105899999994
 30
0.0
 11
1566.8730539999999
 21
731.13105899999994
 31
0.0
  0
LINE
  5
57D
  8
LAYER01
  6
CONTINUOUS
 62
     7
 10
1726.538816
 20
595.99216000000001
 30
0.0
 11
1702.0875759999999
 21
595.99216000000001
 31
0.0
  0
LINE
  5
57E
  8
LAYER01
  6
CONTINUOUS
 62
     7
 10
1712.093848
 20
587.59590700000001
 30
0.0
 11
1702.0875759999999
 21
595.99216000000001
 31
0.0
  0
LINE
  5
57F
  8
LAYER01
  6
CONTINUOUS
 62
     7
 10
1713.8799100000001
 20
575.00551299999995
 30
0.0
 11
1696.879911
 21
575.00551299999995
 31
0.0
  0
POLYLINE
  5
580
  8
LAYER01
  6
CONTINUOUS
 62
     7
 66
     1
 10
0.0
 20
0.0
 30
0.0
  0
VERTEX
  5
B7C
  8
LAYER01
  6
CONTINUOUS
 62
     7
 10
1224.8883760000001
 20
802.599245
 30
0.0
  0
VERTEX
  5
B7D
  8
LAYER01
  6
CONTINUOUS
 62
     7
 10
1224.7925049999999
 20
803.57408699999985
 30
0.0
  0
VERTEX
  5
B7E
  8
LAYER01
  6
CONTINUOUS
 62
     7
 10
1224.5085630000001
 20
804.51107200000001
 30
0.0
  0
VERTEX
  5
B7F
  8
LAYER01
  6
CONTINUOUS
 62
     7
 10
1224.047423
 20
805.37431700000002
 30
0.0
  0
VERTEX
  5
B80
  8
LAYER01
  6
CONTINUOUS
 62
     7
 10
1223.4267460000001
 20
806.130762
 30
0.0
  0
VERTEX
  5
B81
  8
LAYER01
  6
CONTINUOUS
 62
     7
 10
1222.6703010000001
 20
806.75143899999989
 30
0.0
  0
VERTEX
  5
B82
  8
LAYER01
  6
CONTINUOUS
 62
     7
 10
1221.8070560000001
 20
807.21257899999989
 30
0.0
  0
VERTEX
  5
B83
  8
LAYER01
  6
CONTINUOUS
 62
     7
 10
1220.8700710000001
 20
807.49652100000003
 30
0.0
  0
VERTEX
  5
B84
  8
LAYER01
  6
CONTINUOUS
 62
     7
 10
1219.895229
 20
807.59239200000013
 30
0.0
  0
SEQEND
  5
B85
  8
LAYER01
  6
CONTINUOUS
 62
     7
  0
ARC
  5
58B
  8
LAYER01
  6
CONTINUOUS
 62
     7
 10
1219.8883760000001
 20
802.59239200000002
 30
0.0
 40
30.0
 50
0.0
 51
90.0
  0
LINE
  5
58C
  8
LAYER01
  6
CONTINUOUS
 62
     7
 10
1224.8883639999999
 20
802.59924899999999
 30
0.0
 11
1224.8883639999999
 21
462.58553599999999
 31
0.0
  0
LINE
  5
58D
  8
LAYER01
  6
CONTINUOUS
 62
     7
 10
1249.8883699999999
 20
462.59239000000002
 30
0.0
 11
1249.8883699999999
 21
802.59239400000001
 31
0.0
  0
POLYLINE
  5
58E
  8
LAYER01
  6
CONTINUOUS
 62
     7
 66
     1
 10
0.0
 20
0.0
 30
0.0
  0
VERTEX
  5
B86
  8
LAYER01
  6
CONTINUOUS
 62
     7
 10
1219.895229
 20
457.59239200000002
 30
0.0
  0
VERTEX
  5
B87
  8
LAYER01
  6
CONTINUOUS
 62
     7
 10
1220.8700710000001
 20
457.688264
 30
0.0
  0
VERTEX
  5
B88
  8
LAYER01
  6
CONTINUOUS
 62
     7
 10
1221.8070560000001
 20
457.97220599999991
 30
0.0
  0
VERTEX
  5
B89
  8
LAYER01
  6
CONTINUOUS
 62
     7
 10
1222.6703010000001
 20
458.43334599999991
 30
0.0
  0
VERTEX
  5
B8A
  8
LAYER01
  6
CONTINUOUS
 62
     7
 10
1223.4267460000001
 20
459.05402299999997
 30
0.0
  0
VERTEX
  5
B8B
  8
LAYER01
  6
CONTINUOUS
 62
     7
 10
1224.047423
 20
459.8104679999999
 30
0.0
  0
VERTEX
  5
B8C
  8
LAYER01
  6
CONTINUOUS
 62
     7
 10
1224.5085630000001
 20
460.67371200000002
 30
0.0
  0
VERTEX
  5
B8D
  8
LAYER01
  6
CONTINUOUS
 62
     7
 10
1224.7925049999999
 20
461.6106969999999
 30
0.0
  0
VERTEX
  5
B8E
  8
LAYER01
  6
CONTINUOUS
 62
     7
 10
1224.8883760000001
 20
462.58553999999998
 30
0.0
  0
SEQEND
  5
B8F
  8
LAYER01
  6
CONTINUOUS
 62
     7
  0
INSERT
  5
599
  8
LAYER01
  2
VP359013-G14
 10
0.0
 20
0.0
 30
0.0
  0
LINE
  5
59A
  8
LAYER01
  6
CONTINUOUS
 62
     7
 10
1536.879907
 20
719.13105899999994
 30
0.0
 11
1536.879907
 21
731.13105899999994
 31
0.0
  0
ARC
  5
59B
  8
LAYER01
  6
CONTINUOUS
 62
     7
 10
1542.900619
 20
711.13105899999994
 30
0.0
 40
8.0
 50
3.0
 51
90.0
  0
LINE
  5
59C
  8
LAYER01
  6
CONTINUOUS
 62
     7
 10
1542.900617
 20
719.13105899999994
 30
0.0
 11
1536.879907
 21
719.13105899999994
 31
0.0
  0
LINE
  5
59D
  8
LAYER01
  6
CONTINUOUS
 62
     7
 10
1561.879913
 20
731.13105899999994
 30
0.0
 11
1536.879907
 21
731.13105899999994
 31
0.0
  0
LINE
  5
59E
  8
LAYER01
  6
CONTINUOUS
 62
     7
 10
1561.879913
 20
731.13105899999994
 30
0.0
 11
1566.8730539999999
 21
731.13105899999994
 31
0.0
  0
LINE
  5
59F
  8
LAYER01
  6
CONTINUOUS
 62
     7
 10
1567.1923859999999
 20
629.76298899999995
 30
0.0
 11
1561.879913
 21
731.13105899999994
 31
0.0
  0
LINE
  5
5A0
  8
LAYER01
  6
CONTINUOUS
 62
     7
 10
1555.2088269999999
 20
629.13495699999999
 30
0.0
 11
1550.889651
 21
711.54974600000003
 31
0.0
  0
ARC
  5
5A1
  8
LAYER01
  6
CONTINUOUS
 62
     7
 10
1572.1855330000001
 20
630.02467200000001
 30
0.0
 40
17.0
 50
183.0
 51
255.13028
  0
ARC
  5
5A2
  8
LAYER01
  6
CONTINUOUS
 62
     7
 10
1572.1855330000001
 20
630.02467200000001
 30
0.0
 40
5.0
 50
183.0
 51
255.13028
  0
POLYLINE
  5
5A3
  8
LAYER01
  6
CONTINUOUS
 62
     7
 66
     1
 10
0.0
 20
0.0
 30
0.0
  0
VERTEX
  5
B90
  8
LAYER01
  6
CONTINUOUS
 62
     7
 10
1668.7874179999999
 20
587.76740499999994
 30
0.0
  0
VERTEX
  5
B91
  8
LAYER01
  6
CONTINUOUS
 62
     7
 10
1667.8194249999999
 20
588.02671799999985
 30
0.0
  0
VERTEX
  5
B92
  8
LAYER01
  6
CONTINUOUS
 62
     7
 10
1666.8513379999999
 20
588.28565900000001
 30
0.0
  0
VERTEX
  5
B93
  8
LAYER01
  6
CONTINUOUS
 62
     7
 10
1665.8831369999989
 20
588.54415900000004
 30
0.0
  0
VERTEX
  5
B94
  8
LAYER01
  6
CONTINUOUS
 62
     7
 10
1664.914806
 20
588.80215199999986
 30
0.0
  0
VERTEX
  5
B95
  8
LAYER01
  6
CONTINUOUS
 62
     7
 10
1663.9463270000001
 20
589.05956900000001
 30
0.0
  0
VERTEX
  5
B96
  8
LAYER01
  6
CONTINUOUS
 62
     7
 10
1662.977684
 20
589.31634199999985
 30
0.0
  0
VERTEX
  5
B97
  8
LAYER01
  6
CONTINUOUS
 62
     7
 10
1662.008863
 20
589.57242699999995
 30
0.0
  0
VERTEX
  5
B98
  8
LAYER01
  6
CONTINUOUS
 62
     7
 10
1661.039892
 20
589.82792400000005
 30
0.0
  0
VERTEX
  5
B99
  8
LAYER01
  6
CONTINUOUS
 62
     7
 10
1660.070778
 20
590.08286699999996
 30
0.0
  0
VERTEX
  5
B9A
  8
LAYER01
  6
CONTINUOUS
 62
     7
 10
1659.101527
 20
590.33727099999999
 30
0.0
  0
VERTEX
  5
B9B
  8
LAYER01
  6
CONTINUOUS
 62
     7
 10
1658.132141
 20
590.59115199999997
 30
0.0
  0
VERTEX
  5
B9C
  8
LAYER01
  6
CONTINUOUS
 62
     7
 10
1657.1626249999999
 20
590.84452599999986
 30
0.0
  0
VERTEX
  5
B9D
  8
LAYER01
  6
CONTINUOUS
 62
     7
 10
1656.1929829999999
 20
591.09740899999986
 30
0.0
  0
VERTEX
  5
B9E
  8
LAYER01
  6
CONTINUOUS
 62
     7
 10
1655.223219
 20
591.34981600000003
 30
0.0
  0
VERTEX
  5
B9F
  8
LAYER01
  6
CONTINUOUS
 62
     7
 10
1654.253336
 20
591.60176299999989
 30
0.0
  0
VERTEX
  5
BA0
  8
LAYER01
  6
CONTINUOUS
 62
     7
 10
1653.2833390000001
 20
591.85326199999986
 30
0.0
  0
VERTEX
  5
BA1
  8
LAYER01
  6
CONTINUOUS
 62
     7
 10
1652.3132310000001
 20
592.10432800000001
 30
0.0
  0
VERTEX
  5
BA2
  8
LAYER01
  6
CONTINUOUS
 62
     7
 10
1651.343014
 20
592.35497199999986
 30
0.0
  0
VERTEX
  5
BA3
  8
LAYER01
  6
CONTINUOUS
 62
     7
 10
1650.372693
 20
592.60520799999995
 30
0.0
  0
VERTEX
  5
BA4
  8
LAYER01
  6
CONTINUOUS
 62
     7
 10
1649.4022709999999
 20
592.85505000000001
 30
0.0
  0
VERTEX
  5
BA5
  8
LAYER01
  6
CONTINUOUS
 62
     7
 10
1648.4317510000001
 20
593.104511
 30
0.0
  0
VERTEX
  5
BA6
  8
LAYER01
  6
CONTINUOUS
 62
     7
 10
1647.4611359999999
 20
593.3536049999999
 30
0.0
  0
VERTEX
  5
BA7
  8
LAYER01
  6
CONTINUOUS
 62
     7
 10
1646.4904309999999
 20
593.60234300000002
 30
0.0
  0
VERTEX
  5
BA8
  8
LAYER01
  6
CONTINUOUS
 62
     7
 10
1645.519638
 20
593.85073999999997
 30
0.0
  0
VERTEX
  5
BA9
  8
LAYER01
  6
CONTINUOUS
 62
     7
 10
1644.5487599999999
 20
594.09880899999985
 30
0.0
  0
VERTEX
  5
BAA
  8
LAYER01
  6
CONTINUOUS
 62
     7
 10
1643.577802
 20
594.34656399999994
 30
0.0
  0
VERTEX
  5
BAB
  8
LAYER01
  6
CONTINUOUS
 62
     7
 10
1642.606767
 20
594.59401700000001
 30
0.0
  0
VERTEX
  5
BAC
  8
LAYER01
  6
CONTINUOUS
 62
     7
 10
1641.6356579999999
 20
594.841182
 30
0.0
  0
VERTEX
  5
BAD
  8
LAYER01
  6
CONTINUOUS
 62
     7
 10
1640.664477
 20
595.0880699999999
 30
0.0
  0
VERTEX
  5
BAE
  8
LAYER01
  6
CONTINUOUS
 62
     7
 10
1639.693229
 20
595.33469000000002
 30
0.0
  0
VERTEX
  5
BAF
  8
LAYER01
  6
CONTINUOUS
 62
     7
 10
1638.721914
 20
595.58105399999988
 30
0.0
  0
VERTEX
  5
BB0
  8
LAYER01
  6
CONTINUOUS
 62
     7
 10
1637.750536
 20
595.8271729999999
 30
0.0
  0
VERTEX
  5
BB1
  8
LAYER01
  6
CONTINUOUS
 62
     7
 10
1636.779098
 20
596.07305799999995
 30
0.0
  0
VERTEX
  5
BB2
  8
LAYER01
  6
CONTINUOUS
 62
     7
 10
1635.807603
 20
596.31871799999999
 30
0.0
  0
VERTEX
  5
BB3
  8
LAYER01
  6
CONTINUOUS
 62
     7
 10
1634.836053
 20
596.564166
 30
0.0
  0
VERTEX
  5
BB4
  8
LAYER01
  6
CONTINUOUS
 62
     7
 10
1633.864452
 20
596.80941199999995
 30
0.0
  0
VERTEX
  5
BB5
  8
LAYER01
  6
CONTINUOUS
 62
     7
 10
1632.892801
 20
597.05446600000005
 30
0.0
  0
VERTEX
  5
BB6
  8
LAYER01
  6
CONTINUOUS
 62
     7
 10
1631.921104
 20
597.29934000000003
 30
0.0
  0
VERTEX
  5
BB7
  8
LAYER01
  6
CONTINUOUS
 62
     7
 10
1630.9493629999999
 20
597.54404399999987
 30
0.0
  0
VERTEX
  5
BB8
  8
LAYER01
  6
CONTINUOUS
 62
     7
 10
1629.977582
 20
597.78859
 30
0.0
  0
VERTEX
  5
BB9
  8
LAYER01
  6
CONTINUOUS
 62
     7
 10
1629.005762
 20
598.03298700000005
 30
0.0
  0
VERTEX
  5
BBA
  8
LAYER01
  6
CONTINUOUS
 62
     7
 10
1628.0339080000001
 20
598.27724699999999
 30
0.0
  0
VERTEX
  5
BBB
  8
LAYER01
  6
CONTINUOUS
 62
     7
 10
1627.0620200000001
 20
598.52138000000002
 30
0.0
  0
VERTEX
  5
BBC
  8
LAYER01
  6
CONTINUOUS
 62
     7
 10
1626.0901040000001
 20
598.765398
 30
0.0
  0
VERTEX
  5
BBD
  8
LAYER01
  6
CONTINUOUS
 62
     7
 10
1625.11816
 20
599.00930999999991
 30
0.0
  0
VERTEX
  5
BBE
  8
LAYER01
  6
CONTINUOUS
 62
     7
 10
1624.1461919999999
 20
599.25312899999994
 30
0.0
  0
VERTEX
  5
BBF
  8
LAYER01
  6
CONTINUOUS
 62
     7
 10
1623.174203
 20
599.49686399999985
 30
0.0
  0
VERTEX
  5
BC0
  8
LAYER01
  6
CONTINUOUS
 62
     7
 10
1622.2021950000001
 20
599.74052699999993
 30
0.0
  0
VERTEX
  5
BC1
  8
LAYER01
  6
CONTINUOUS
 62
     7
 10
1621.2301709999999
 20
599.98412800000006
 30
0.0
  0
VERTEX
  5
BC2
  8
LAYER01
  6
CONTINUOUS
 62
     7
 10
1620.2581339999999
 20
600.22767799999997
 30
0.0
  0
VERTEX
  5
BC3
  8
LAYER01
  6
CONTINUOUS
 62
     7
 10
1619.286087
 20
600.47118799999998
 30
0.0
  0
VERTEX
  5
BC4
  8
LAYER01
  6
CONTINUOUS
 62
     7
 10
1618.3140330000001
 20
600.71466899999996
 30
0.0
  0
VERTEX
  5
BC5
  8
LAYER01
  6
CONTINUOUS
 62
     7
 10
1617.3419730000001
 20
600.95812799999987
 30
0.0
  0
VERTEX
  5
BC6
  8
LAYER01
  6
CONTINUOUS
 62
     7
 10
1616.369909
 20
601.20157400000005
 30
0.0
  0
VERTEX
  5
BC7
  8
LAYER01
  6
CONTINUOUS
 62
     7
 10
1615.397845
 20
601.44501699999989
 30
0.0
  0
VERTEX
  5
BC8
  8
LAYER01
  6
CONTINUOUS
 62
     7
 10
1614.4257829999999
 20
601.68846799999994
 30
0.0
  0
VERTEX
  5
BC9
  8
LAYER01
  6
CONTINUOUS
 62
     7
 10
1613.4537250000001
 20
601.93193699999995
 30
0.0
  0
VERTEX
  5
BCA
  8
LAYER01
  6
CONTINUOUS
 62
     7
 10
1612.481675
 20
602.17543499999999
 30
0.0
  0
VERTEX
  5
BCB
  8
LAYER01
  6
CONTINUOUS
 62
     7
 10
1611.509634
 20
602.41897099999994
 30
0.0
  0
VERTEX
  5
BCC
  8
LAYER01
  6
CONTINUOUS
 62
     7
 10
1610.537607
 20
602.66255699999999
 30
0.0
  0
VERTEX
  5
BCD
  8
LAYER01
  6
CONTINUOUS
 62
     7
 10
1609.5655939999999
 20
602.90620200000001
 30
0.0
  0
VERTEX
  5
BCE
  8
LAYER01
  6
CONTINUOUS
 62
     7
 10
1608.593599
 20
603.14991799999984
 30
0.0
  0
VERTEX
  5
BCF
  8
LAYER01
  6
CONTINUOUS
 62
     7
 10
1607.6216260000001
 20
603.39371399999993
 30
0.0
  0
VERTEX
  5
BD0
  8
LAYER01
  6
CONTINUOUS
 62
     7
 10
1606.6496749999999
 20
603.63760199999979
 30
0.0
  0
VERTEX
  5
BD1
  8
LAYER01
  6
CONTINUOUS
 62
     7
 10
1605.6777500000001
 20
603.88159100000007
 30
0.0
  0
VERTEX
  5
BD2
  8
LAYER01
  6
CONTINUOUS
 62
     7
 10
1604.705854
 20
604.12569199999984
 30
0.0
  0
VERTEX
  5
BD3
  8
LAYER01
  6
CONTINUOUS
 62
     7
 10
1603.7339890000001
 20
604.36991599999999
 30
0.0
  0
VERTEX
  5
BD4
  8
LAYER01
  6
CONTINUOUS
 62
     7
 10
1602.762158
 20
604.61427200000003
 30
0.0
  0
VERTEX
  5
BD5
  8
LAYER01
  6
CONTINUOUS
 62
     7
 10
1601.790364
 20
604.85877199999993
 30
0.0
  0
VERTEX
  5
BD6
  8
LAYER01
  6
CONTINUOUS
 62
     7
 10
1600.8186089999999
 20
605.10342600000001
 30
0.0
  0
VERTEX
  5
BD7
  8
LAYER01
  6
CONTINUOUS
 62
     7
 10
1599.846896
 20
605.34824300000002
 30
0.0
  0
VERTEX
  5
BD8
  8
LAYER01
  6
CONTINUOUS
 62
     7
 10
1598.875227
 20
605.59323600000005
 30
0.0
  0
VERTEX
  5
BD9
  8
LAYER01
  6
CONTINUOUS
 62
     7
 10
1597.9036060000001
 20
605.83841299999995
 30
0.0
  0
VERTEX
  5
BDA
  8
LAYER01
  6
CONTINUOUS
 62
     7
 10
1596.932035
 20
606.08378600000003
 30
0.0
  0
VERTEX
  5
BDB
  8
LAYER01
  6
CONTINUOUS
 62
     7
 10
1595.9605160000001
 20
606.32936500000005
 30
0.0
  0
VERTEX
  5
BDC
  8
LAYER01
  6
CONTINUOUS
 62
     7
 10
1594.989053
 20
606.57516099999987
 30
0.0
  0
VERTEX
  5
BDD
  8
LAYER01
  6
CONTINUOUS
 62
     7
 10
1594.017648
 20
606.82118300000002
 30
0.0
  0
VERTEX
  5
BDE
  8
LAYER01
  6
CONTINUOUS
 62
     7
 10
1593.0463030000001
 20
607.06744300000003
 30
0.0
  0
VERTEX
  5
BDF
  8
LAYER01
  6
CONTINUOUS
 62
     7
 10
1592.0750210000001
 20
607.31394699999998
 30
0.0
  0
VERTEX
  5
BE0
  8
LAYER01
  6
CONTINUOUS
 62
     7
 10
1591.1038040000001
 20
607.56070599999998
 30
0.0
  0
VERTEX
  5
BE1
  8
LAYER01
  6
CONTINUOUS
 62
     7
 10
1590.1326550000001
 20
607.80773199999999
 30
0.0
  0
VERTEX
  5
BE2
  8
LAYER01
  6
CONTINUOUS
 62
     7
 10
1589.161578
 20
608.05503999999996
 30
0.0
  0
VERTEX
  5
BE3
  8
LAYER01
  6
CONTINUOUS
 62
     7
 10
1588.190576
 20
608.30264199999999
 30
0.0
  0
VERTEX
  5
BE4
  8
LAYER01
  6
CONTINUOUS
 62
     7
 10
1587.219652
 20
608.55055099999993
 30
0.0
  0
VERTEX
  5
BE5
  8
LAYER01
  6
CONTINUOUS
 62
     7
 10
1586.2488109999999
 20
608.79878200000007
 30
0.0
  0
VERTEX
  5
BE6
  8
LAYER01
  6
CONTINUOUS
 62
     7
 10
1585.278055
 20
609.04734699999995
 30
0.0
  0
VERTEX
  5
BE7
  8
LAYER01
  6
CONTINUOUS
 62
     7
 10
1584.3073879999999
 20
609.29625999999985
 30
0.0
  0
VERTEX
  5
BE8
  8
LAYER01
  6
CONTINUOUS
 62
     7
 10
1583.336814
 20
609.54553499999986
 30
0.0
  0
VERTEX
  5
BE9
  8
LAYER01
  6
CONTINUOUS
 62
     7
 10
1582.3663349999999
 20
609.79518399999995
 30
0.0
  0
VERTEX
  5
BEA
  8
LAYER01
  6
CONTINUOUS
 62
     7
 10
1581.395955
 20
610.04522099999997
 30
0.0
  0
VERTEX
  5
BEB
  8
LAYER01
  6
CONTINUOUS
 62
     7
 10
1580.4256780000001
 20
610.29565899999989
 30
0.0
  0
VERTEX
  5
BEC
  8
LAYER01
  6
CONTINUOUS
 62
     7
 10
1579.4555069999999
 20
610.54651299999989
 30
0.0
  0
VERTEX
  5
BED
  8
LAYER01
  6
CONTINUOUS
 62
     7
 10
1578.485445
 20
610.79779399999995
 30
0.0
  0
VERTEX
  5
BEE
  8
LAYER01
  6
CONTINUOUS
 62
     7
 10
1577.5154950000001
 20
611.04951700000004
 30
0.0
  0
VERTEX
  5
BEF
  8
LAYER01
  6
CONTINUOUS
 62
     7
 10
1576.545662
 20
611.301695
 30
0.0
  0
VERTEX
  5
BF0
  8
LAYER01
  6
CONTINUOUS
 62
     7
 10
1575.575949
 20
611.55434100000002
 30
0.0
  0
VERTEX
  5
BF1
  8
LAYER01
  6
CONTINUOUS
 62
     7
 10
1574.6063590000001
 20
611.80746799999986
 30
0.0
  0
VERTEX
  5
BF2
  8
LAYER01
  6
CONTINUOUS
 62
     7
 10
1573.6368950000001
 20
612.06109100000003
 30
0.0
  0
VERTEX
  5
BF3
  8
LAYER01
  6
CONTINUOUS
 62
     7
 10
1572.667561
 20
612.31522199999995
 30
0.0
  0
VERTEX
  5
BF4
  8
LAYER01
  6
CONTINUOUS
 62
     7
 10
1571.6983600000001
 20
612.56987500000002
 30
0.0
  0
VERTEX
  5
BF5
  8
LAYER01
  6
CONTINUOUS
 62
     7
 10
1570.729296
 20
612.825063
 30
0.0
  0
VERTEX
  5
BF6
  8
LAYER01
  6
CONTINUOUS
 62
     7
 10
1569.760372
 20
613.08079899999996
 30
0.0
  0
VERTEX
  5
BF7
  8
LAYER01
  6
CONTINUOUS
 62
     7
 10
1568.791592
 20
613.33709699999986
 30
0.0
  0
VERTEX
  5
BF8
  8
LAYER01
  6
CONTINUOUS
 62
     7
 10
1567.822958
 20
613.59397100000001
 30
0.0
  0
SEQEND
  5
BF9
  8
LAYER01
  6
CONTINUOUS
 62
     7
  0
POLYLINE
  5
60E
  8
LAYER01
  6
CONTINUOUS
 62
     7
 66
     1
 10
0.0
 20
0.0
 30
0.0
  0
VERTEX
  5
BFA
  8
LAYER01
  6
CONTINUOUS
 62
     7
 10
1670.879852
 20
599.6301739999999
 30
0.0
  0
VERTEX
  5
BFB
  8
LAYER01
  6
CONTINUOUS
 62
     7
 10
1666.8848039999989
 20
600.69525499999997
 30
0.0
  0
VERTEX
  5
BFC
  8
LAYER01
  6
CONTINUOUS
 62
     7
 10
1662.848418
 20
601.76033600000005
 30
0.0
  0
VERTEX
  5
BFD
  8
LAYER01
  6
CONTINUOUS
 62
     7
 10
1658.7743049999999
 20
602.82541600000002
 30
0.0
  0
VERTEX
  5
BFE
  8
LAYER01
  6
CONTINUOUS
 62
     7
 10
1654.6660790000001
 20
603.89049699999987
 30
0.0
  0
VERTEX
  5
BFF
  8
LAYER01
  6
CONTINUOUS
 62
     7
 10
1650.5273540000001
 20
604.95557799999995
 30
0.0
  0
VERTEX
  5
C00
  8
LAYER01
  6
CONTINUOUS
 62
     7
 10
1646.361742
 20
606.02065899999991
 30
0.0
  0
VERTEX
  5
C01
  8
LAYER01
  6
CONTINUOUS
 62
     7
 10
1642.1728579999999
 20
607.08573999999999
 30
0.0
  0
VERTEX
  5
C02
  8
LAYER01
  6
CONTINUOUS
 62
     7
 10
1637.9643149999999
 20
608.15081999999995
 30
0.0
  0
VERTEX
  5
C03
  8
LAYER01
  6
CONTINUOUS
 62
     7
 10
1633.7397249999999
 20
609.21590100000003
 30
0.0
  0
VERTEX
  5
C04
  8
LAYER01
  6
CONTINUOUS
 62
     7
 10
1629.502702
 20
610.28098199999999
 30
0.0
  0
VERTEX
  5
C05
  8
LAYER01
  6
CONTINUOUS
 62
     7
 10
1625.2568609999989
 20
611.34606299999984
 30
0.0
  0
VERTEX
  5
C06
  8
LAYER01
  6
CONTINUOUS
 62
     7
 10
1621.005813
 20
612.41114299999992
 30
0.0
  0
VERTEX
  5
C07
  8
LAYER01
  6
CONTINUOUS
 62
     7
 10
1616.7531719999999
 20
613.476224
 30
0.0
  0
VERTEX
  5
C08
  8
LAYER01
  6
CONTINUOUS
 62
     7
 10
1612.5025519999999
 20
614.54130499999997
 30
0.0
  0
VERTEX
  5
C09
  8
LAYER01
  6
CONTINUOUS
 62
     7
 10
1608.257566
 20
615.60638600000004
 30
0.0
  0
VERTEX
  5
C0A
  8
LAYER01
  6
CONTINUOUS
 62
     7
 10
1604.021827
 20
616.67146700000001
 30
0.0
  0
VERTEX
  5
C0B
  8
LAYER01
  6
CONTINUOUS
 62
     7
 10
1599.798949
 20
617.73654699999986
 30
0.0
  0
VERTEX
  5
C0C
  8
LAYER01
  6
CONTINUOUS
 62
     7
 10
1595.592545
 20
618.80162800000005
 30
0.0
  0
VERTEX
  5
C0D
  8
LAYER01
  6
CONTINUOUS
 62
     7
 10
1591.4062289999999
 20
619.86670900000001
 30
0.0
  0
VERTEX
  5
C0E
  8
LAYER01
  6
CONTINUOUS
 62
     7
 10
1587.2436130000001
 20
620.93179000000009
 30
0.0
  0
VERTEX
  5
C0F
  8
LAYER01
  6
CONTINUOUS
 62
     7
 10
1583.108311
 20
621.99686999999994
 30
0.0
  0
VERTEX
  5
C10
  8
LAYER01
  6
CONTINUOUS
 62
     7
 10
1579.0039360000001
 20
623.06195100000002
 30
0.0
  0
VERTEX
  5
C11
  8
LAYER01
  6
CONTINUOUS
 62
     7
 10
1574.9341030000001
 20
624.12703199999987
 30
0.0
  0
VERTEX
  5
C12
  8
LAYER01
  6
CONTINUOUS
 62
     7
 10
1570.902423
 20
625.19211299999995
 30
0.0
  0
SEQEND
  5
C13
  8
LAYER01
  6
CONTINUOUS
 62
     7
  0
LINE
  5
629
  8
LAYER01
  6
CONTINUOUS
 62
     7
 10
1699.3094149999999
 20
597.14291700000001
 30
0.0
 11
1670.8799100000001
 21
599.6301739999999
 31
0.0
  0
LINE
  5
62A
  8
LAYER01
  6
CONTINUOUS
 62
     7
 10
1696.879911
 20
575.00551299999995
 30
0.0
 11
1696.879911
 21
577.97897999999986
 31
0.0
  0
ARC
  5
62B
  8
LAYER01
  6
CONTINUOUS
 62
     7
 10
1688.8799100000001
 20
577.97898099999986
 30
0.0
 40
8.0
 50
0.0
 51
85.0
  0
LINE
  5
62C
  8
LAYER01
  6
CONTINUOUS
 62
     7
 10
1689.5771569999999
 20
585.94853899999987
 30
0.0
 11
1668.787415
 21
587.76740400000006
 31
0.0
  0
ARC
  5
62D
  8
LAYER01
  6
CONTINUOUS
 62
     7
 10
1698.8736369999999
 20
592.16194099999996
 30
0.0
 40
5.0
 50
50.0
 51
85.0
  0
DIMENSION
  5
62E
  8
LAYER01
 62
     7
  2
*D14
 10
2061.0903109999999
 20
591.79403300000001
 30
0.0
 11
1991.0903109999999
 21
657.25895899999989
 31
0.0
 53
90.0
 13
1944.278775
 23
731.13105899999994
 33
0.0
 14
1944.278775
 24
591.79403300000001
 34
0.0
 50
90.0
  0
LINE
  5
62F
  8
LAYER01
  6
CONTINUOUS
 62
     7
 10
1713.8799100000001
 20
575.00551299999995
 30
0.0
 11
1730.043774
 21
575.00551299999995
 31
0.0
  0
LINE
  5
630
  8
LAYER01
  6
CONTINUOUS
 62
     7
 10
1712.093848
 20
587.59590700000001
 30
0.0
 11
1729.5129139999999
 21
587.59590700000001
 31
0.0
  0
LINE
  5
631
  8
LAYER01
  6
CONTINUOUS
 62
     7
 10
1713.8799100000001
 20
575.00551299999995
 30
0.0
 11
1713.8799100000001
 21
583.76568200000008
 31
0.0
  0
ARC
  5
632
  8
LAYER01
  6
CONTINUOUS
 62
     7
 10
1708.8799100000001
 20
583.76568099999986
 30
0.0
 40
5.0
 50
0.0
 51
50.0
  0
INSERT
  5
633
  8
LAYER01
  2
VP359013-G16
 10
0.0
 20
0.0
 30
0.0
  0
ARC
  5
634
  8
LAYER01
  6
CONTINUOUS
 62
     7
 10
1774.886184
 20
592.16194099999996
 30
0.0
 40
5.0
 50
95.0
 51
130.0
  0
LINE
  5
635
  8
LAYER01
  6
CONTINUOUS
 62
     7
 10
1776.879909
 20
575.00551299999995
 30
0.0
 11
1759.8799100000001
 21
575.00551299999995
 31
0.0
  0
LINE
  5
636
  8
LAYER01
  6
CONTINUOUS
 62
     7
 10
1771.6722440000001
 20
595.99216000000001
 30
0.0
 11
1761.6659729999999
 21
587.59590700000001
 31
0.0
  0
LINE
  5
637
  8
LAYER01
  6
CONTINUOUS
 62
     7
 10
1759.8799100000001
 20
583.76568200000008
 30
0.0
 11
1759.8799100000001
 21
575.00551299999995
 31
0.0
  0
ARC
  5
638
  8
LAYER01
  6
CONTINUOUS
 62
     7
 10
1764.8799100000001
 20
583.76568099999986
 30
0.0
 40
5.0
 50
130.0
 51
180.0
  0
LINE
  5
639
  8
LAYER01
  6
CONTINUOUS
 62
     7
 10
1730.043774
 20
575.00551299999995
 30
0.0
 11
1743.716046
 21
575.00551299999995
 31
0.0
  0
LINE
  5
63A
  8
LAYER01
  6
CONTINUOUS
 62
     7
 10
1743.716046
 20
575.00551299999995
 30
0.0
 11
1759.8799100000001
 21
575.00551299999995
 31
0.0
  0
LINE
  5
63B
  8
LAYER01
  6
CONTINUOUS
 62
     7
 10
1744.2469060000001
 20
587.59590700000001
 30
0.0
 11
1761.6659729999999
 21
587.59590700000001
 31
0.0
  0
LINE
  5
63C
  8
LAYER01
  6
CONTINUOUS
 62
     7
 10
1729.5129139999999
 20
587.59590700000001
 30
0.0
 11
1744.2469060000001
 21
587.59590700000001
 31
0.0
  0
LINE
  5
63D
  8
LAYER01
  6
CONTINUOUS
 62
     7
 10
1747.221004
 20
595.99216000000001
 30
0.0
 11
1726.538816
 21
595.99216000000001
 31
0.0
  0
LINE
  5
63E
  8
LAYER01
  6
CONTINUOUS
 62
     7
 10
1771.6722440000001
 20
595.99216000000001
 30
0.0
 11
1747.221004
 21
595.99216000000001
 31
0.0
  0
LINE
  5
63F
  8
LAYER01
  6
CONTINUOUS
 62
     7
 10
1802.8799100000001
 20
599.6301739999999
 30
0.0
 11
1774.450405
 21
597.14291700000001
 31
0.0
  0
LINE
  5
640
  8
LAYER01
  6
CONTINUOUS
 62
     7
 10
1804.972405
 20
587.76740400000006
 30
0.0
 11
1784.182663
 21
585.94853899999987
 31
0.0
  0
ARC
  5
641
  8
LAYER01
  6
CONTINUOUS
 62
     7
 10
1784.8799100000001
 20
577.97898099999986
 30
0.0
 40
8.0
 50
95.0
 51
180.0
  0
LINE
  5
642
  8
LAYER01
  6
CONTINUOUS
 62
     7
 10
1776.879909
 20
577.97897999999986
 30
0.0
 11
1776.879909
 21
575.00551299999995
 31
0.0
  0
POLYLINE
  5
643
  8
LAYER01
  6
CONTINUOUS
 62
     7
 66
     1
 10
0.0
 20
0.0
 30
0.0
  0
VERTEX
  5
C14
  8
LAYER01
  6
CONTINUOUS
 62
     7
 10
1902.857397
 20
625.19211299999995
 30
0.0
  0
VERTEX
  5
C15
  8
LAYER01
  6
CONTINUOUS
 62
     7
 10
1898.8257180000001
 20
624.12703199999987
 30
0.0
  0
VERTEX
  5
C16
  8
LAYER01
  6
CONTINUOUS
 62
     7
 10
1894.7558839999999
 20
623.06195100000002
 30
0.0
  0
VERTEX
  5
C17
  8
LAYER01
  6
CONTINUOUS
 62
     7
 10
1890.6515099999999
 20
621.99686999999994
 30
0.0
  0
VERTEX
  5
C18
  8
LAYER01
  6
CONTINUOUS
 62
     7
 10
1886.5162079999991
 20
620.93179000000009
 30
0.0
  0
VERTEX
  5
C19
  8
LAYER01
  6
CONTINUOUS
 62
     7
 10
1882.3535919999999
 20
619.86670900000001
 30
0.0
  0
VERTEX
  5
C1A
  8
LAYER01
  6
CONTINUOUS
 62
     7
 10
1878.167275
 20
618.80162800000005
 30
0.0
  0
VERTEX
  5
C1B
  8
LAYER01
  6
CONTINUOUS
 62
     7
 10
1873.960871
 20
617.73654699999986
 30
0.0
  0
VERTEX
  5
C1C
  8
LAYER01
  6
CONTINUOUS
 62
     7
 10
1869.737993
 20
616.67146700000001
 30
0.0
  0
VERTEX
  5
C1D
  8
LAYER01
  6
CONTINUOUS
 62
     7
 10
1865.502254
 20
615.60638600000004
 30
0.0
  0
VERTEX
  5
C1E
  8
LAYER01
  6
CONTINUOUS
 62
     7
 10
1861.2572680000001
 20
614.54130499999997
 30
0.0
  0
VERTEX
  5
C1F
  8
LAYER01
  6
CONTINUOUS
 62
     7
 10
1857.006648
 20
613.476224
 30
0.0
  0
VERTEX
  5
C20
  8
LAYER01
  6
CONTINUOUS
 62
     7
 10
1852.754007999999
 20
612.41114299999992
 30
0.0
  0
VERTEX
  5
C21
  8
LAYER01
  6
CONTINUOUS
 62
     7
 10
1848.50296
 20
611.34606299999984
 30
0.0
  0
VERTEX
  5
C22
  8
LAYER01
  6
CONTINUOUS
 62
     7
 10
1844.257118
 20
610.28098199999999
 30
0.0
  0
VERTEX
  5
C23
  8
LAYER01
  6
CONTINUOUS
 62
     7
 10
1840.0200950000001
 20
609.21590100000003
 30
0.0
  0
VERTEX
  5
C24
  8
LAYER01
  6
CONTINUOUS
 62
     7
 10
1835.7955059999999
 20
608.15081999999995
 30
0.0
  0
VERTEX
  5
C25
  8
LAYER01
  6
CONTINUOUS
 62
     7
 10
1831.5869620000001
 20
607.08573999999999
 30
0.0
  0
VERTEX
  5
C26
  8
LAYER01
  6
CONTINUOUS
 62
     7
 10
1827.3980779999999
 20
606.02065899999991
 30
0.0
  0
VERTEX
  5
C27
  8
LAYER01
  6
CONTINUOUS
 62
     7
 10
1823.2324659999999
 20
604.95557799999995
 30
0.0
  0
VERTEX
  5
C28
  8
LAYER01
  6
CONTINUOUS
 62
     7
 10
1819.0937409999999
 20
603.89049699999987
 30
0.0
  0
VERTEX
  5
C29
  8
LAYER01
  6
CONTINUOUS
 62
     7
 10
1814.9855150000001
 20
602.82541600000002
 30
0.0
  0
VERTEX
  5
C2A
  8
LAYER01
  6
CONTINUOUS
 62
     7
 10
1810.9114030000001
 20
601.76033600000005
 30
0.0
  0
VERTEX
  5
C2B
  8
LAYER01
  6
CONTINUOUS
 62
     7
 10
1806.875016
 20
600.69525499999997
 30
0.0
  0
VERTEX
  5
C2C
  8
LAYER01
  6
CONTINUOUS
 62
     7
 10
1802.8799690000001
 20
599.6301739999999
 30
0.0
  0
SEQEND
  5
C2D
  8
LAYER01
  6
CONTINUOUS
 62
     7
  0
POLYLINE
  5
65E
  8
LAYER01
  6
CONTINUOUS
 62
     7
 66
     1
 10
0.0
 20
0.0
 30
0.0
  0
VERTEX
  5
C2E
  8
LAYER01
  6
CONTINUOUS
 62
     7
 10
1905.936862
 20
613.59397100000001
 30
0.0
  0
VERTEX
  5
C2F
  8
LAYER01
  6
CONTINUOUS
 62
     7
 10
1904.968228
 20
613.33709699999986
 30
0.0
  0
VERTEX
  5
C30
  8
LAYER01
  6
CONTINUOUS
 62
     7
 10
1903.999448
 20
613.08079899999996
 30
0.0
  0
VERTEX
  5
C31
  8
LAYER01
  6
CONTINUOUS
 62
     7
 10
1903.030524
 20
612.825063
 30
0.0
  0
VERTEX
  5
C32
  8
LAYER01
  6
CONTINUOUS
 62
     7
 10
1902.0614599999999
 20
612.56987500000002
 30
0.0
  0
VERTEX
  5
C33
  8
LAYER01
  6
CONTINUOUS
 62
     7
 10
1901.092259
 20
612.31522199999995
 30
0.0
  0
VERTEX
  5
C34
  8
LAYER01
  6
CONTINUOUS
 62
     7
 10
1900.122924999999
 20
612.06109100000003
 30
0.0
  0
VERTEX
  5
C35
  8
LAYER01
  6
CONTINUOUS
 62
     7
 10
1899.1534610000001
 20
611.80746799999986
 30
0.0
  0
VERTEX
  5
C36
  8
LAYER01
  6
CONTINUOUS
 62
     7
 10
1898.183871
 20
611.55434100000002
 30
0.0
  0
VERTEX
  5
C37
  8
LAYER01
  6
CONTINUOUS
 62
     7
 10
1897.214158
 20
611.301695
 30
0.0
  0
VERTEX
  5
C38
  8
LAYER01
  6
CONTINUOUS
 62
     7
 10
1896.2443249999999
 20
611.04951700000004
 30
0.0
  0
VERTEX
  5
C39
  8
LAYER01
  6
CONTINUOUS
 62
     7
 10
1895.2743760000001
 20
610.79779399999995
 30
0.0
  0
VERTEX
  5
C3A
  8
LAYER01
  6
CONTINUOUS
 62
     7
 10
1894.304314
 20
610.54651299999989
 30
0.0
  0
VERTEX
  5
C3B
  8
LAYER01
  6
CONTINUOUS
 62
     7
 10
1893.3341419999999
 20
610.29565899999989
 30
0.0
  0
VERTEX
  5
C3C
  8
LAYER01
  6
CONTINUOUS
 62
     7
 10
1892.363865
 20
610.04522099999997
 30
0.0
  0
VERTEX
  5
C3D
  8
LAYER01
  6
CONTINUOUS
 62
     7
 10
1891.3934850000001
 20
609.79518399999995
 30
0.0
  0
VERTEX
  5
C3E
  8
LAYER01
  6
CONTINUOUS
 62
     7
 10
1890.423006
 20
609.54553499999986
 30
0.0
  0
VERTEX
  5
C3F
  8
LAYER01
  6
CONTINUOUS
 62
     7
 10
1889.452432
 20
609.29625999999985
 30
0.0
  0
VERTEX
  5
C40
  8
LAYER01
  6
CONTINUOUS
 62
     7
 10
1888.481765
 20
609.04734699999995
 30
0.0
  0
VERTEX
  5
C41
  8
LAYER01
  6
CONTINUOUS
 62
     7
 10
1887.5110090000001
 20
608.79878200000007
 30
0.0
  0
VERTEX
  5
C42
  8
LAYER01
  6
CONTINUOUS
 62
     7
 10
1886.540168
 20
608.55055099999993
 30
0.0
  0
VERTEX
  5
C43
  8
LAYER01
  6
CONTINUOUS
 62
     7
 10
1885.5692449999999
 20
608.30264199999999
 30
0.0
  0
VERTEX
  5
C44
  8
LAYER01
  6
CONTINUOUS
 62
     7
 10
1884.5982429999999
 20
608.05503999999996
 30
0.0
  0
VERTEX
  5
C45
  8
LAYER01
  6
CONTINUOUS
 62
     7
 10
1883.627166
 20
607.80773199999999
 30
0.0
  0
VERTEX
  5
C46
  8
LAYER01
  6
CONTINUOUS
 62
     7
 10
1882.656017
 20
607.56070599999998
 30
0.0
  0
VERTEX
  5
C47
  8
LAYER01
  6
CONTINUOUS
 62
     7
 10
1881.6847990000001
 20
607.31394699999998
 30
0.0
  0
VERTEX
  5
C48
  8
LAYER01
  6
CONTINUOUS
 62
     7
 10
1880.7135169999999
 20
607.06744300000003
 30
0.0
  0
VERTEX
  5
C49
  8
LAYER01
  6
CONTINUOUS
 62
     7
 10
1879.7421730000001
 20
606.82118300000002
 30
0.0
  0
VERTEX
  5
C4A
  8
LAYER01
  6
CONTINUOUS
 62
     7
 10
1878.770767
 20
606.57516099999987
 30
0.0
  0
VERTEX
  5
C4B
  8
LAYER01
  6
CONTINUOUS
 62
     7
 10
1877.7993039999999
 20
606.32936500000005
 30
0.0
  0
VERTEX
  5
C4C
  8
LAYER01
  6
CONTINUOUS
 62
     7
 10
1876.8277849999999
 20
606.08378600000003
 30
0.0
  0
VERTEX
  5
C4D
  8
LAYER01
  6
CONTINUOUS
 62
     7
 10
1875.8562139999999
 20
605.83841299999995
 30
0.0
  0
VERTEX
  5
C4E
  8
LAYER01
  6
CONTINUOUS
 62
     7
 10
1874.884593
 20
605.59323600000005
 30
0.0
  0
VERTEX
  5
C4F
  8
LAYER01
  6
CONTINUOUS
 62
     7
 10
1873.912924
 20
605.34824300000002
 30
0.0
  0
VERTEX
  5
C50
  8
LAYER01
  6
CONTINUOUS
 62
     7
 10
1872.9412110000001
 20
605.10342600000001
 30
0.0
  0
VERTEX
  5
C51
  8
LAYER01
  6
CONTINUOUS
 62
     7
 10
1871.969456
 20
604.85877199999993
 30
0.0
  0
VERTEX
  5
C52
  8
LAYER01
  6
CONTINUOUS
 62
     7
 10
1870.997662
 20
604.61427200000003
 30
0.0
  0
VERTEX
  5
C53
  8
LAYER01
  6
CONTINUOUS
 62
     7
 10
1870.0258309999999
 20
604.36991599999999
 30
0.0
  0
VERTEX
  5
C54
  8
LAYER01
  6
CONTINUOUS
 62
     7
 10
1869.0539659999999
 20
604.12569199999984
 30
0.0
  0
VERTEX
  5
C55
  8
LAYER01
  6
CONTINUOUS
 62
     7
 10
1868.082069999999
 20
603.88159100000007
 30
0.0
  0
VERTEX
  5
C56
  8
LAYER01
  6
CONTINUOUS
 62
     7
 10
1867.1101450000001
 20
603.63760199999979
 30
0.0
  0
VERTEX
  5
C57
  8
LAYER01
  6
CONTINUOUS
 62
     7
 10
1866.138195
 20
603.39371399999993
 30
0.0
  0
VERTEX
  5
C58
  8
LAYER01
  6
CONTINUOUS
 62
     7
 10
1865.166221
 20
603.14991799999984
 30
0.0
  0
VERTEX
  5
C59
  8
LAYER01
  6
CONTINUOUS
 62
     7
 10
1864.1942260000001
 20
602.90620200000001
 30
0.0
  0
VERTEX
  5
C5A
  8
LAYER01
  6
CONTINUOUS
 62
     7
 10
1863.2222139999999
 20
602.66255699999999
 30
0.0
  0
VERTEX
  5
C5B
  8
LAYER01
  6
CONTINUOUS
 62
     7
 10
1862.250186
 20
602.41897099999994
 30
0.0
  0
VERTEX
  5
C5C
  8
LAYER01
  6
CONTINUOUS
 62
     7
 10
1861.278145
 20
602.17543499999999
 30
0.0
  0
VERTEX
  5
C5D
  8
LAYER01
  6
CONTINUOUS
 62
     7
 10
1860.3060949999999
 20
601.93193699999995
 30
0.0
  0
VERTEX
  5
C5E
  8
LAYER01
  6
CONTINUOUS
 62
     7
 10
1859.334038
 20
601.68846799999994
 30
0.0
  0
VERTEX
  5
C5F
  8
LAYER01
  6
CONTINUOUS
 62
     7
 10
1858.361975
 20
601.44501699999989
 30
0.0
  0
VERTEX
  5
C60
  8
LAYER01
  6
CONTINUOUS
 62
     7
 10
1857.389911
 20
601.20157400000005
 30
0.0
  0
VERTEX
  5
C61
  8
LAYER01
  6
CONTINUOUS
 62
     7
 10
1856.417848
 20
600.95812799999987
 30
0.0
  0
VERTEX
  5
C62
  8
LAYER01
  6
CONTINUOUS
 62
     7
 10
1855.445788
 20
600.71466899999996
 30
0.0
  0
VERTEX
  5
C63
  8
LAYER01
  6
CONTINUOUS
 62
     7
 10
1854.473733
 20
600.47118799999998
 30
0.0
  0
VERTEX
  5
C64
  8
LAYER01
  6
CONTINUOUS
 62
     7
 10
1853.5016860000001
 20
600.22767799999997
 30
0.0
  0
VERTEX
  5
C65
  8
LAYER01
  6
CONTINUOUS
 62
     7
 10
1852.5296490000001
 20
599.98412800000006
 30
0.0
  0
VERTEX
  5
C66
  8
LAYER01
  6
CONTINUOUS
 62
     7
 10
1851.5576249999999
 20
599.74052699999993
 30
0.0
  0
VERTEX
  5
C67
  8
LAYER01
  6
CONTINUOUS
 62
     7
 10
1850.5856180000001
 20
599.49686399999985
 30
0.0
  0
VERTEX
  5
C68
  8
LAYER01
  6
CONTINUOUS
 62
     7
 10
1849.6136280000001
 20
599.25312899999994
 30
0.0
  0
VERTEX
  5
C69
  8
LAYER01
  6
CONTINUOUS
 62
     7
 10
1848.64166
 20
599.00930999999991
 30
0.0
  0
VERTEX
  5
C6A
  8
LAYER01
  6
CONTINUOUS
 62
     7
 10
1847.669717
 20
598.765398
 30
0.0
  0
VERTEX
  5
C6B
  8
LAYER01
  6
CONTINUOUS
 62
     7
 10
1846.6977999999999
 20
598.52138000000002
 30
0.0
  0
VERTEX
  5
C6C
  8
LAYER01
  6
CONTINUOUS
 62
     7
 10
1845.725913
 20
598.27724699999999
 30
0.0
  0
VERTEX
  5
C6D
  8
LAYER01
  6
CONTINUOUS
 62
     7
 10
1844.754058
 20
598.03298700000005
 30
0.0
  0
VERTEX
  5
C6E
  8
LAYER01
  6
CONTINUOUS
 62
     7
 10
1843.7822389999999
 20
597.78859
 30
0.0
  0
VERTEX
  5
C6F
  8
LAYER01
  6
CONTINUOUS
 62
     7
 10
1842.810457
 20
597.54404399999987
 30
0.0
  0
VERTEX
  5
C70
  8
LAYER01
  6
CONTINUOUS
 62
     7
 10
1841.8387170000001
 20
597.29934000000003
 30
0.0
  0
VERTEX
  5
C71
  8
LAYER01
  6
CONTINUOUS
 62
     7
 10
1840.867019
 20
597.05446600000005
 30
0.0
  0
VERTEX
  5
C72
  8
LAYER01
  6
CONTINUOUS
 62
     7
 10
1839.8953690000001
 20
596.80941199999995
 30
0.0
  0
VERTEX
  5
C73
  8
LAYER01
  6
CONTINUOUS
 62
     7
 10
1838.923767
 20
596.564166
 30
0.0
  0
VERTEX
  5
C74
  8
LAYER01
  6
CONTINUOUS
 62
     7
 10
1837.952217
 20
596.31871799999999
 30
0.0
  0
VERTEX
  5
C75
  8
LAYER01
  6
CONTINUOUS
 62
     7
 10
1836.980722
 20
596.07305799999995
 30
0.0
  0
VERTEX
  5
C76
  8
LAYER01
  6
CONTINUOUS
 62
     7
 10
1836.009284
 20
595.8271729999999
 30
0.0
  0
VERTEX
  5
C77
  8
LAYER01
  6
CONTINUOUS
 62
     7
 10
1835.037906
 20
595.58105399999988
 30
0.0
  0
VERTEX
  5
C78
  8
LAYER01
  6
CONTINUOUS
 62
     7
 10
1834.0665919999999
 20
595.33469000000002
 30
0.0
  0
VERTEX
  5
C79
  8
LAYER01
  6
CONTINUOUS
 62
     7
 10
1833.095343
 20
595.0880699999999
 30
0.0
  0
VERTEX
  5
C7A
  8
LAYER01
  6
CONTINUOUS
 62
     7
 10
1832.1241620000001
 20
594.841182
 30
0.0
  0
VERTEX
  5
C7B
  8
LAYER01
  6
CONTINUOUS
 62
     7
 10
1831.153053
 20
594.59401700000001
 30
0.0
  0
VERTEX
  5
C7C
  8
LAYER01
  6
CONTINUOUS
 62
     7
 10
1830.182018
 20
594.34656399999994
 30
0.0
  0
VERTEX
  5
C7D
  8
LAYER01
  6
CONTINUOUS
 62
     7
 10
1829.2110600000001
 20
594.09880899999985
 30
0.0
  0
VERTEX
  5
C7E
  8
LAYER01
  6
CONTINUOUS
 62
     7
 10
1828.2401829999999
 20
593.85073999999997
 30
0.0
  0
VERTEX
  5
C7F
  8
LAYER01
  6
CONTINUOUS
 62
     7
 10
1827.2693899999999
 20
593.60234300000002
 30
0.0
  0
VERTEX
  5
C80
  8
LAYER01
  6
CONTINUOUS
 62
     7
 10
1826.2986840000001
 20
593.3536049999999
 30
0.0
  0
VERTEX
  5
C81
  8
LAYER01
  6
CONTINUOUS
 62
     7
 10
1825.32807
 20
593.104511
 30
0.0
  0
VERTEX
  5
C82
  8
LAYER01
  6
CONTINUOUS
 62
     7
 10
1824.3575490000001
 20
592.85505000000001
 30
0.0
  0
VERTEX
  5
C83
  8
LAYER01
  6
CONTINUOUS
 62
     7
 10
1823.387127
 20
592.60520799999995
 30
0.0
  0
VERTEX
  5
C84
  8
LAYER01
  6
CONTINUOUS
 62
     7
 10
1822.416806
 20
592.35497199999986
 30
0.0
  0
VERTEX
  5
C85
  8
LAYER01
  6
CONTINUOUS
 62
     7
 10
1821.44659
 20
592.10432800000001
 30
0.0
  0
VERTEX
  5
C86
  8
LAYER01
  6
CONTINUOUS
 62
     7
 10
1820.4764809999999
 20
591.85326199999986
 30
0.0
  0
VERTEX
  5
C87
  8
LAYER01
  6
CONTINUOUS
 62
     7
 10
1819.506484
 20
591.60176299999989
 30
0.0
  0
VERTEX
  5
C88
  8
LAYER01
  6
CONTINUOUS
 62
     7
 10
1818.5366019999999
 20
591.34981600000003
 30
0.0
  0
VERTEX
  5
C89
  8
LAYER01
  6
CONTINUOUS
 62
     7
 10
1817.566838
 20
591.09740899999986
 30
0.0
  0
VERTEX
  5
C8A
  8
LAYER01
  6
CONTINUOUS
 62
     7
 10
1816.5971959999999
 20
590.84452599999986
 30
0.0
  0
VERTEX
  5
C8B
  8
LAYER01
  6
CONTINUOUS
 62
     7
 10
1815.6276800000001
 20
590.59115199999997
 30
0.0
  0
VERTEX
  5
C8C
  8
LAYER01
  6
CONTINUOUS
 62
     7
 10
1814.6582940000001
 20
590.33727099999999
 30
0.0
  0
VERTEX
  5
C8D
  8
LAYER01
  6
CONTINUOUS
 62
     7
 10
1813.689042
 20
590.08286699999996
 30
0.0
  0
VERTEX
  5
C8E
  8
LAYER01
  6
CONTINUOUS
 62
     7
 10
1812.719928
 20
589.82792400000005
 30
0.0
  0
VERTEX
  5
C8F
  8
LAYER01
  6
CONTINUOUS
 62
     7
 10
1811.750957
 20
589.57242699999995
 30
0.0
  0
VERTEX
  5
C90
  8
LAYER01
  6
CONTINUOUS
 62
     7
 10
1810.7821369999999
 20
589.31634199999985
 30
0.0
  0
VERTEX
  5
C91
  8
LAYER01
  6
CONTINUOUS
 62
     7
 10
1809.8134930000001
 20
589.05956900000001
 30
0.0
  0
VERTEX
  5
C92
  8
LAYER01
  6
CONTINUOUS
 62
     7
 10
1808.845014
 20
588.80215199999986
 30
0.0
  0
VERTEX
  5
C93
  8
LAYER01
  6
CONTINUOUS
 62
     7
 10
1807.876683
 20
588.54415900000004
 30
0.0
  0
VERTEX
  5
C94
  8
LAYER01
  6
CONTINUOUS
 62
     7
 10
1806.9084829999999
 20
588.28565900000001
 30
0.0
  0
VERTEX
  5
C95
  8
LAYER01
  6
CONTINUOUS
 62
     7
 10
1805.9403950000001
 20
588.02671799999985
 30
0.0
  0
VERTEX
  5
C96
  8
LAYER01
  6
CONTINUOUS
 62
     7
 10
1804.972403
 20
587.76740499999994
 30
0.0
  0
SEQEND
  5
C97
  8
LAYER01
  6
CONTINUOUS
 62
     7
  0
ARC
  5
6C9
  8
LAYER01
  6
CONTINUOUS
 62
     7
 10
1901.5742869999999
 20
630.02467200000001
 30
0.0
 40
5.0
 50
284.86971999999997
 51
357.0
  0
LINE
  5
6CA
  8
LAYER01
  6
CONTINUOUS
 62
     7
 10
1918.5509930000001
 20
629.13495699999999
 30
0.0
 11
1922.870169
 21
711.54974600000003
 31
0.0
  0
LINE
  5
6CB
  8
LAYER01
  6
CONTINUOUS
 62
     7
 10
1906.5674349999999
 20
629.76298899999995
 30
0.0
 11
1911.879907
 21
731.13105899999994
 31
0.0
  0
LINE
  5
6CC
  8
LAYER01
  6
CONTINUOUS
 62
     7
 10
1906.8867660000001
 20
731.13105899999994
 30
0.0
 11
1911.879907
 21
731.13105899999994
 31
0.0
  0
LINE
  5
6CD
  8
LAYER01
  6
CONTINUOUS
 62
     7
 10
1936.879913
 20
731.13105899999994
 30
0.0
 11
1911.879907
 21
731.13105899999994
 31
0.0
  0
ARC
  5
6CE
  8
LAYER01
  6
CONTINUOUS
 62
     7
 10
1930.859201
 20
711.13105899999994
 30
0.0
 40
8.0
 50
90.0
 51
177.0
  0
LINE
  5
6CF
  8
LAYER01
  6
CONTINUOUS
 62
     7
 10
1936.879913
 20
719.13105899999994
 30
0.0
 11
1930.859203
 21
719.13105899999994
 31
0.0
  0
LINE
  5
6D0
  8
LAYER01
  6
CONTINUOUS
 62
     7
 10
1936.879913
 20
731.13105899999994
 30
0.0
 11
1936.879913
 21
719.13105899999994
 31
0.0
  0
ARC
  5
6D1
  8
LAYER01
  6
CONTINUOUS
 62
     7
 10
1901.5742869999999
 20
630.02467200000001
 30
0.0
 40
17.0
 50
284.86971999999997
 51
357.0
  0
ENDSEC
  0
EOF
