  0
SECTION
  2
HEADER
  9
$ACADVER
  1
AC1009
  9
$INSBASE
 10
0.0
 20
0.0
 30
0.0
  9
$EXTMIN
 10
-499.56538799999993
 20
-1003.3935770000001
 30
-0.00000001
  9
$EXTMAX
 10
3492.609348
 20
1782.752127
 30
0.00000001
  9
$LIMMIN
 10
-595.43490300000008
 20
-1106.3111080000001
  9
$LIMMAX
 10
3604.5650970000002
 20
1863.6888919999999
  9
$ORTHOMODE
 70
     1
  9
$REGENMODE
 70
     1
  9
$FILLMODE
 70
     1
  9
$QTEXTMODE
 70
     0
  9
$MIRRTEXT
 70
     0
  9
$DRAGMODE
 70
     2
  9
$LTSCALE
 40
1.0
  9
$OSMODE
 70
    37
  9
$ATTMODE
 70
     1
  9
$TEXTSIZE
 40
0.0
  9
$TRACEWID
 40
0.05
  9
$TEXTSTYLE
  7
STANDARD
  9
$CLAYER
  8
LAYER01
  9
$CELTYPE
  6
CONTINUOUS
  9
$CECOLOR
 62
     7
  9
$DIMSCALE
 40
1.0
  9
$DIMASZ
 40
0.18
  9
$DIMEXO
 40
0.0625
  9
$DIMDLI
 40
0.38
  9
$DIMRND
 40
0.0
  9
$DIMDLE
 40
0.0
  9
$DIMEXE
 40
0.18
  9
$DIMTP
 40
0.0
  9
$DIMTM
 40
0.0
  9
$DIMTXT
 40
0.18
  9
$DIMCEN
 40
0.09
  9
$DIMTSZ
 40
0.0
  9
$DIMTOL
 70
     0
  9
$DIMLIM
 70
     0
  9
$DIMTIH
 70
     1
  9
$DIMTOH
 70
     1
  9
$DIMSE1
 70
     0
  9
$DIMSE2
 70
     0
  9
$DIMTAD
 70
     0
  9
$DIMZIN
 70
     0
  9
$DIMBLK
  1

  9
$DIMASO
 70
     1
  9
$DIMSHO
 70
     1
  9
$DIMPOST
  1

  9
$DIMAPOST
  1

  9
$DIMALT
 70
     0
  9
$DIMALTD
 70
     2
  9
$DIMALTF
 40
25.399999999999999
  9
$DIMLFAC
 40
1.0
  9
$DIMTOFL
 70
     0
  9
$DIMTVP
 40
0.0
  9
$DIMTIX
 70
     0
  9
$DIMSOXD
 70
     0
  9
$DIMSAH
 70
     0
  9
$DIMBLK1
  1

  9
$DIMBLK2
  1

  9
$DIMSTYLE
  2
STANDARD
  9
$DIMCLRD
 70
     0
  9
$DIMCLRE
 70
     0
  9
$DIMCLRT
 70
     0
  9
$DIMTFAC
 40
1.0
  9
$DIMGAP
 40
0.09
  9
$LUNITS
 70
     2
  9
$LUPREC
 70
     4
  9
$SKETCHINC
 40
0.1
  9
$FILLETRAD
 40
10.0
  9
$AUNITS
 70
     0
  9
$AUPREC
 70
     0
  9
$MENU
  1
acad
  9
$ELEVATION
 40
0.0
  9
$PELEVATION
 40
0.0
  9
$THICKNESS
 40
0.0
  9
$LIMCHECK
 70
     0
  9
$BLIPMODE
 70
     0
  9
$CHAMFERA
 40
10.0
  9
$CHAMFERB
 40
10.0
  9
$SKPOLY
 70
     0
  9
$TDCREATE
 40
11456049.350352149
  9
$TDUPDATE
 40
2459321.3891160758
  9
$TDINDWG
 40
0.002064213
  9
$TDUSRTIMER
 40
0.0020641667
  9
$USRTIMER
 70
     1
  9
$ANGBASE
 50
0.0
  9
$ANGDIR
 70
     0
  9
$PDMODE
 70
     0
  9
$PDSIZE
 40
0.0
  9
$PLINEWID
 40
0.0
  9
$COORDS
 70
     0
  9
$SPLFRAME
 70
     0
  9
$SPLINETYPE
 70
     6
  9
$SPLINESEGS
 70
    10
  9
$ATTDIA
 70
     0
  9
$ATTREQ
 70
     1
  9
$HANDLING
 70
     1
  9
$HANDSEED
  5
BA4
  9
$SURFTAB1
 70
     6
  9
$SURFTAB2
 70
     6
  9
$SURFTYPE
 70
     6
  9
$SURFU
 70
     6
  9
$SURFV
 70
     6
  9
$UCSNAME
  2

  9
$UCSORG
 10
0.0
 20
0.0
 30
0.0
  9
$UCSXDIR
 10
1.0
 20
0.0
 30
0.0
  9
$UCSYDIR
 10
0.0
 20
1.0
 30
0.0
  9
$PUCSNAME
  2

  9
$PUCSORG
 10
0.0
 20
0.0
 30
0.0
  9
$PUCSXDIR
 10
1.0
 20
0.0
 30
0.0
  9
$PUCSYDIR
 10
0.0
 20
1.0
 30
0.0
  9
$USERI1
 70
     0
  9
$USERI2
 70
     0
  9
$USERI3
 70
     0
  9
$USERI4
 70
     0
  9
$USERI5
 70
     0
  9
$USERR1
 40
0.0
  9
$USERR2
 40
0.0
  9
$USERR3
 40
0.0
  9
$USERR4
 40
0.0
  9
$USERR5
 40
0.0
  9
$WORLDVIEW
 70
     1
  9
$SHADEDGE
 70
     3
  9
$SHADEDIF
 70
    70
  9
$TILEMODE
 70
     1
  9
$MAXACTVP
 70
    64
  9
$PLIMCHECK
 70
     0
  9
$PEXTMIN
 10
1.0000000000000000E+020
 20
1.0000000000000000E+020
 30
1.0000000000000000E+020
  9
$PEXTMAX
 10
-1.0000000000000000E+020
 20
-1.0000000000000000E+020
 30
-1.0000000000000000E+020
  9
$PLIMMIN
 10
0.0
 20
0.0
  9
$PLIMMAX
 10
12.0
 20
9.0
  9
$UNITMODE
 70
     0
  9
$VISRETAIN
 70
     1
  9
$PLINEGEN
 70
     0
  9
$PSLTSCALE
 70
     1
  0
ENDSEC
  0
SECTION
  2
TABLES
  0
TABLE
  2
VPORT
 70
     1
  0
VPORT
  2
*ACTIVE
 70
     0
 10
0.0
 20
0.0
 11
1.0
 21
1.0
 12
-1183.7913362382319
 22
651.37814929966669
 13
0.0
 23
0.0
 14
1.0
 24
1.0
 15
0.0
 25
0.0
 16
0.0
 26
0.0
 36
10632.627563224331
 17
2688.3564332382321
 27
-272.68925729966691
 37
0.0
 40
3007.8343949044579
 41
2.1234042553191479
 42
50.0
 43
0.0
 44
0.0
 50
0.0
 51
0.0
 71
     0
 72
   100
 73
     1
 74
     1
 75
     0
 76
     0
 77
     0
 78
     0
  0
ENDTAB
  0
TABLE
  2
LTYPE
 70
    11
  0
LTYPE
  2
CONTINUOUS
 70
     0
  3
Solid line
 72
    65
 73
     0
 40
0.0
  0
LTYPE
  2
GESTRICHELT
 70
     0
  3
__ __ __ __ __ __ __ __ __ __ __ __ __ __ __
 72
    65
 73
     2
 40
0.75
 49
0.5
 49
-0.25
  0
LTYPE
  2
VERDECKT
 70
     0
  3
_ _ _ _ _ _ _ _ _ _ _ _ _ _ _ _ _ _ _ _ _ _ 
 72
    65
 73
     2
 40
0.25
 49
0.125
 49
-0.125
  0
LTYPE
  2
MITTELLINIE
 70
     0
  3
____ _ ____ _ ____ _ ____ _ ____ _ ____ _ __
 72
    65
 73
     4
 40
2.0
 49
1.25
 49
-0.25
 49
0.25
 49
-0.25
  0
LTYPE
  2
PHANTOM
 70
     0
  3
_____ _ _ _____ _ _ _____ _ _ _____ _ _ ____
 72
    65
 73
     6
 40
2.5
 49
1.25
 49
-0.25
 49
0.25
 49
-0.25
 49
0.25
 49
-0.25
  0
LTYPE
  2
PUNKTIERT
 70
     0
  3
............................................
 72
    65
 73
     2
 40
0.25
 49
0.0
 49
-0.25
  0
LTYPE
  2
STRICHPUNKTIERT
 70
     0
  3
__ . __ . __ . __ . __ . __ . __ . __ . __ .
 72
    65
 73
     4
 40
1.0
 49
0.5
 49
-0.25
 49
0.0
 49
-0.25
  0
LTYPE
  2
RAND
 70
     0
  3
__ __ . __ __ . __ __ . __ __ . __ __ . __ _
 72
    65
 73
     6
 40
1.75
 49
0.5
 49
-0.25
 49
0.5
 49
-0.25
 49
0.0
 49
-0.25
  0
LTYPE
  2
TRENNLINIE
 70
     0
  3
__ . . __ . . __ . . __ . . __ . . __ . . __
 72
    65
 73
     6
 40
1.25
 49
0.5
 49
-0.25
 49
0.0
 49
-0.25
 49
0.0
 49
-0.25
  0
LTYPE
  2
ENG_PUNKTIERT
 70
     0
  3
Schließen                                   
 72
    65
 73
     2
 40
0.1
 49
0.05
 49
-0.05
  0
LTYPE
  2
CLOSE
 70
     0
  3
                                            
 72
    65
 73
     0
 40
0.0
  0
ENDTAB
  0
TABLE
  2
LAYER
 70
   256
  0
LAYER
  2
0
 70
     0
 62
     7
  6
CONTINUOUS
  0
LAYER
  2
LAYER01
 70
     0
 62
     7
  6
CONTINUOUS
  0
LAYER
  2
LAYER02
 70
     0
 62
     7
  6
CONTINUOUS
  0
LAYER
  2
LAYER03
 70
     0
 62
     7
  6
CONTINUOUS
  0
LAYER
  2
LAYER04
 70
     0
 62
     7
  6
CONTINUOUS
  0
LAYER
  2
LAYER05
 70
     0
 62
     7
  6
CONTINUOUS
  0
LAYER
  2
LAYER06
 70
     0
 62
     7
  6
CONTINUOUS
  0
LAYER
  2
LAYER07
 70
     0
 62
     7
  6
CONTINUOUS
  0
LAYER
  2
LAYER08
 70
     0
 62
     7
  6
CONTINUOUS
  0
LAYER
  2
LAYER09
 70
     0
 62
     7
  6
CONTINUOUS
  0
LAYER
  2
LAYER10
 70
     0
 62
     7
  6
CONTINUOUS
  0
LAYER
  2
FORMAT
 70
     0
 62
     7
  6
CONTINUOUS
  0
LAYER
  2
2
 70
     0
 62
     7
  6
CONTINUOUS
  0
LAYER
  2
5
 70
     0
 62
     7
  6
CONTINUOUS
  0
LAYER
  2
RAUMAUFM
 70
     0
 62
     7
  6
CONTINUOUS
  0
LAYER
  2
EINRICHT
 70
     0
 62
     7
  6
CONTINUOUS
  0
LAYER
  2
HILFE
 70
     0
 62
     7
  6
CONTINUOUS
  0
LAYER
  2
SCHNITTE
 70
     0
 62
     7
  6
CONTINUOUS
  0
LAYER
  2
SCHRAFF1
 70
     0
 62
     7
  6
CONTINUOUS
  0
LAYER
  2
SCHRAFF2
 70
     0
 62
     7
  6
CONTINUOUS
  0
LAYER
  2
BEMASS-1
 70
     0
 62
     7
  6
CONTINUOUS
  0
LAYER
  2
BEMASS-2
 70
     0
 62
     7
  6
CONTINUOUS
  0
LAYER
  2
TEXT
 70
     0
 62
     7
  6
CONTINUOUS
  0
LAYER
  2
SYMBOLE
 70
     0
 62
     7
  6
CONTINUOUS
  0
LAYER
  2
RAHMEN
 70
     0
 62
     7
  6
CONTINUOUS
  0
LAYER
  2
SCHRIFTF
 70
     0
 62
     7
  6
CONTINUOUS
  0
LAYER
  2
ACHSEN
 70
     0
 62
     7
  6
CONTINUOUS
  0
LAYER
  2
ZEICHN
 70
     0
 62
     7
  6
CONTINUOUS
  0
LAYER
  2
7
 70
     0
 62
     7
  6
CONTINUOUS
  0
LAYER
  2
1
 70
     0
 62
     7
  6
CONTINUOUS
  0
LAYER
  2
6
 70
     0
 62
     7
  6
CONTINUOUS
  0
LAYER
  2
4
 70
     0
 62
     7
  6
CONTINUOUS
  0
LAYER
  2
GRUNDEBENE
 70
     0
 62
     7
  6
CONTINUOUS
  0
LAYER
  2
GRUNDRISS
 70
     0
 62
     7
  6
CONTINUOUS
  0
LAYER
  2
BEMASSUNGGRUNDRISS
 70
     0
 62
     7
  6
CONTINUOUS
  0
LAYER
  2
WANDELEMENTE
 70
     0
 62
     7
  6
CONTINUOUS
  0
LAYER
  2
KUECHE
 70
     0
 62
     7
  6
CONTINUOUS
  0
LAYER
  2
THEKEBROETCHEN
 70
     0
 62
     7
  6
CONTINUOUS
  0
LAYER
  2
CENTERLINIE
 70
     0
 62
     7
  6
CONTINUOUS
  0
LAYER
  2
UMRISSE
 70
     0
 62
     7
  6
CONTINUOUS
  0
LAYER
  2
MAUER
 70
     0
 62
     7
  6
CONTINUOUS
  0
LAYER
  2
SCHRAFFUR
 70
     0
 62
     7
  6
CONTINUOUS
  0
LAYER
  2
MASSLINIE
 70
     0
 62
     7
  6
CONTINUOUS
  0
LAYER
  2
PV
 70
     0
 62
     7
  6
CONTINUOUS
  0
LAYER
  2
BESCHRIFTUNG
 70
     0
 62
     7
  6
CONTINUOUS
  0
LAYER
  2
AS
 70
     0
 62
     7
  6
CONTINUOUS
  0
LAYER
  2
PL
 70
     0
 62
     7
  6
CONTINUOUS
  0
LAYER
  2
UK
 70
     0
 62
     7
  6
CONTINUOUS
  0
LAYER
  2
TEXT3
 70
     0
 62
     7
  6
CONTINUOUS
  0
LAYER
  2
TEXT7
 70
     0
 62
     7
  6
CONTINUOUS
  0
LAYER
  2
BEPL1
 70
     0
 62
     7
  6
CONTINUOUS
  0
LAYER
  2
BEPL2
 70
     0
 62
     7
  6
CONTINUOUS
  0
LAYER
  2
BEPL2V
 70
     0
 62
     7
  6
CONTINUOUS
  0
LAYER
  2
BEPL4
 70
     0
 62
     7
  6
CONTINUOUS
  0
LAYER
  2
BEPL
 70
     0
 62
     7
  6
CONTINUOUS
  0
LAYER
  2
UK1
 70
     0
 62
     7
  6
CONTINUOUS
  0
LAYER
  2
UK2
 70
     0
 62
     7
  6
CONTINUOUS
  0
LAYER
  2
UK2V
 70
     0
 62
     7
  6
CONTINUOUS
  0
LAYER
  2
UK3
 70
     0
 62
     7
  6
CONTINUOUS
  0
LAYER
  2
TEXT2
 70
     0
 62
     7
  6
CONTINUOUS
  0
LAYER
  2
HILF2S
 70
     0
 62
     7
  6
CONTINUOUS
  0
LAYER
  2
UK1V
 70
     0
 62
     7
  6
CONTINUOUS
  0
LAYER
  2
GAIN_ZRA
 70
     0
 62
     7
  6
CONTINUOUS
  0
LAYER
  2
GAIN_ZSF
 70
     0
 62
     7
  6
CONTINUOUS
  0
LAYER
  2
RAHM4
 70
     0
 62
     7
  6
CONTINUOUS
  0
LAYER
  2
KORPUSBAND
 70
     0
 62
     7
  6
CONTINUOUS
  0
LAYER
  2
E---LGPL--------
 70
     0
 62
     7
  6
CONTINUOUS
  0
LAYER
  2
E---NPFL--------
 70
     0
 62
     7
  6
CONTINUOUS
  0
LAYER
  2
E---PLNKTXT-----
 70
     0
 62
     7
  6
CONTINUOUS
  0
LAYER
  2
E---PLNK--------
 70
     0
 62
     7
  6
CONTINUOUS
  0
LAYER
  2
E---PLNR--------
 70
     0
 62
     7
  6
CONTINUOUS
  0
LAYER
  2
D547_ARCHICAD
 70
     0
 62
     7
  6
CONTINUOUS
  0
LAYER
  2
D547_E---TEXT--------
 70
     0
 62
     7
  6
CONTINUOUS
  0
LAYER
  2
E---LEGD--------
 70
     0
 62
     7
  6
CONTINUOUS
  0
LAYER
  2
D43_ARCHICAD
 70
     0
 62
     7
  6
CONTINUOUS
  0
LAYER
  2
D43_FENSTER_VON_B---FASS--
 70
     0
 62
     7
  6
CONTINUOUS
  0
LAYER
  2
D43_E---SCHN--------
 70
     0
 62
     7
  6
CONTINUOUS
  0
LAYER
  2
D43_B---MW-N--------
 70
     0
 62
     7
  6
CONTINUOUS
  0
LAYER
  2
D43_B---DECK--------
 70
     0
 62
     7
  6
CONTINUOUS
  0
LAYER
  2
D43_B---MW-S--------
 70
     0
 62
     7
  6
CONTINUOUS
  0
LAYER
  2
D43_B---MW----------
 70
     0
 62
     7
  6
CONTINUOUS
  0
LAYER
  2
D43_B---FASS--------
 70
     0
 62
     7
  6
CONTINUOUS
  0
LAYER
  2
D43_E---RASG--------
 70
     0
 62
     7
  6
CONTINUOUS
  0
LAYER
  2
D40_ARCHICAD
 70
     0
 62
     7
  6
CONTINUOUS
  0
LAYER
  2
D40_E---MW--------
 70
     0
 62
     7
  6
CONTINUOUS
  0
LAYER
  2
D40_E---FASSKON-----
 70
     0
 62
     7
  6
CONTINUOUS
  0
LAYER
  2
D40_TÜREN_VON_B---MW-N----
 70
     0
 62
     7
  6
CONTINUOUS
  0
LAYER
  2
D40_E---MW-L------
 70
     0
 62
     7
  6
CONTINUOUS
  0
LAYER
  2
D40_TÜREN_VON_B---MW------
 70
     0
 62
     7
  6
CONTINUOUS
  0
LAYER
  2
D40_E---VERM--------
 70
     0
 62
     7
  6
CONTINUOUS
  0
LAYER
  2
D40_FENSTER_VON_E---MW-L--
 70
     0
 62
     7
  6
CONTINUOUS
  0
LAYER
  2
D40_FENSTER_VON_B---MW-N--
 70
     0
 62
     7
  6
CONTINUOUS
  0
LAYER
  2
D40_E---SCHN--------
 70
     0
 62
     7
  6
CONTINUOUS
  0
LAYER
  2
D40_E---AUFZ--------
 70
     0
 62
     7
  6
CONTINUOUS
  0
LAYER
  2
D40_E---DECK--------
 70
     0
 62
     7
  6
CONTINUOUS
  0
LAYER
  2
D40_E---RAUMINF-----
 70
     0
 62
     7
  6
CONTINUOUS
  0
LAYER
  2
D40_E---TEXT--------
 70
     0
 62
     7
  6
CONTINUOUS
  0
LAYER
  2
D40_B---TEXT--------
 70
     0
 62
     7
  6
CONTINUOUS
  0
LAYER
  2
D40_B---MW-N--------
 70
     0
 62
     7
  6
CONTINUOUS
  0
LAYER
  2
D40_B---DECK--------
 70
     0
 62
     7
  6
CONTINUOUS
  0
LAYER
  2
D40_B---AUFZ--------
 70
     0
 62
     7
  6
CONTINUOUS
  0
LAYER
  2
D40_B---MW-S--------
 70
     0
 62
     7
  6
CONTINUOUS
  0
LAYER
  2
D40_B---MW----------
 70
     0
 62
     7
  6
CONTINUOUS
  0
LAYER
  2
D40_E---MOEB--------
 70
     0
 62
     7
  6
CONTINUOUS
  0
LAYER
  2
D40_B---UMGB--------
 70
     0
 62
     7
  6
CONTINUOUS
  0
LAYER
  2
D40_B---FASS--------
 70
     0
 62
     7
  6
CONTINUOUS
  0
LAYER
  2
D40_E---DACH--------
 70
     0
 62
     7
  6
CONTINUOUS
  0
LAYER
  2
D40_E---BODE--------
 70
     0
 62
     7
  6
CONTINUOUS
  0
LAYER
  2
D40_E---TREP--------
 70
     0
 62
     7
  6
CONTINUOUS
  0
LAYER
  2
D40_E---RASG--------
 70
     0
 62
     7
  6
CONTINUOUS
  0
LAYER
  2
D40_B---MW-K--------
 70
     0
 62
     7
  6
CONTINUOUS
  0
LAYER
  2
D40_E---FASSGLA-----
 70
     0
 62
     7
  6
CONTINUOUS
  0
LAYER
  2
D40_B---VERM--------
 70
     0
 62
     7
  6
CONTINUOUS
  0
LAYER
  2
D40_E---UMGBGSG-----
 70
     0
 62
     7
  6
CONTINUOUS
  0
LAYER
  2
D40_E---RASF--------
 70
     0
 62
     7
  6
CONTINUOUS
  0
LAYER
  2
D40_E---PFLA--------
 70
     0
 62
     7
  6
CONTINUOUS
  0
LAYER
  2
D40_E---KONS-ST-----
 70
     0
 62
     7
  6
CONTINUOUS
  0
LAYER
  2
D40_E---WERB--------
 70
     0
 62
     7
  6
CONTINUOUS
  0
LAYER
  2
D40_E---TUERINF-----
 70
     0
 62
     7
  6
CONTINUOUS
  0
LAYER
  2
D40_E---WOLK--------
 70
     0
 62
     7
  6
CONTINUOUS
  0
LAYER
  2
D40_B---MW-L--------
 70
     0
 62
     7
  6
CONTINUOUS
  0
LAYER
  2
D40_B---SANI--------
 70
     0
 62
     7
  6
CONTINUOUS
  0
LAYER
  2
D40_E---SANI--------
 70
     0
 62
     7
  6
CONTINUOUS
  0
LAYER
  2
D40_E---MW-K------
 70
     0
 62
     7
  6
CONTINUOUS
  0
LAYER
  2
D40_E---OBJE--------
 70
     0
 62
     7
  6
CONTINUOUS
  0
LAYER
  2
D40_E---ASPR--------
 70
     0
 62
     7
  6
CONTINUOUS
  0
LAYER
  2
D40_E---VERMTGA-----
 70
     0
 62
     7
  6
CONTINUOUS
  0
LAYER
  2
D40_E---PARK--------
 70
     0
 62
     7
  6
CONTINUOUS
  0
LAYER
  2
D40_E---ISOL--------
 70
     0
 62
     7
  6
CONTINUOUS
  0
LAYER
  2
D40_E---TUER--------
 70
     0
 62
     7
  6
CONTINUOUS
  0
LAYER
  2
D40_E---MW--BRA---
 70
     0
 62
     7
  6
CONTINUOUS
  0
LAYER
  2
D41_ARCHICAD
 70
     0
 62
     7
  6
CONTINUOUS
  0
LAYER
  2
D41_E---MW--------
 70
     0
 62
     7
  6
CONTINUOUS
  0
LAYER
  2
D41_E---FASSKON-----
 70
     0
 62
     7
  6
CONTINUOUS
  0
LAYER
  2
D41_TÜREN_VON_B---MW-N----
 70
     0
 62
     7
  6
CONTINUOUS
  0
LAYER
  2
D41_E---MW-L------
 70
     0
 62
     7
  6
CONTINUOUS
  0
LAYER
  2
D41_TÜREN_VON_B---MW------
 70
     0
 62
     7
  6
CONTINUOUS
  0
LAYER
  2
D41_E---VERM--------
 70
     0
 62
     7
  6
CONTINUOUS
  0
LAYER
  2
D41_FENSTER_VON_E---MW-L--
 70
     0
 62
     7
  6
CONTINUOUS
  0
LAYER
  2
D41_FENSTER_VON_B---MW-N--
 70
     0
 62
     7
  6
CONTINUOUS
  0
LAYER
  2
D41_E---SCHN--------
 70
     0
 62
     7
  6
CONTINUOUS
  0
LAYER
  2
D41_E---AUFZ--------
 70
     0
 62
     7
  6
CONTINUOUS
  0
LAYER
  2
D41_E---DECK--------
 70
     0
 62
     7
  6
CONTINUOUS
  0
LAYER
  2
D41_E---RAUMINF-----
 70
     0
 62
     7
  6
CONTINUOUS
  0
LAYER
  2
D41_E---TEXT--------
 70
     0
 62
     7
  6
CONTINUOUS
  0
LAYER
  2
D41_B---TEXT--------
 70
     0
 62
     7
  6
CONTINUOUS
  0
LAYER
  2
D41_B---MW-N--------
 70
     0
 62
     7
  6
CONTINUOUS
  0
LAYER
  2
D41_B---DECK--------
 70
     0
 62
     7
  6
CONTINUOUS
  0
LAYER
  2
D41_B---AUFZ--------
 70
     0
 62
     7
  6
CONTINUOUS
  0
LAYER
  2
D41_B---MW-S--------
 70
     0
 62
     7
  6
CONTINUOUS
  0
LAYER
  2
D41_B---MW----------
 70
     0
 62
     7
  6
CONTINUOUS
  0
LAYER
  2
D41_E---MOEB--------
 70
     0
 62
     7
  6
CONTINUOUS
  0
LAYER
  2
D41_B---UMGB--------
 70
     0
 62
     7
  6
CONTINUOUS
  0
LAYER
  2
D41_B---FASS--------
 70
     0
 62
     7
  6
CONTINUOUS
  0
LAYER
  2
D41_E---DACH--------
 70
     0
 62
     7
  6
CONTINUOUS
  0
LAYER
  2
D41_E---BODE--------
 70
     0
 62
     7
  6
CONTINUOUS
  0
LAYER
  2
D41_E---TREP--------
 70
     0
 62
     7
  6
CONTINUOUS
  0
LAYER
  2
D41_E---RASG--------
 70
     0
 62
     7
  6
CONTINUOUS
  0
LAYER
  2
D41_B---MW-K--------
 70
     0
 62
     7
  6
CONTINUOUS
  0
LAYER
  2
D41_E---FASSGLA-----
 70
     0
 62
     7
  6
CONTINUOUS
  0
LAYER
  2
D41_B---VERM--------
 70
     0
 62
     7
  6
CONTINUOUS
  0
LAYER
  2
D41_E---UMGBGSG-----
 70
     0
 62
     7
  6
CONTINUOUS
  0
LAYER
  2
D41_E---RASF--------
 70
     0
 62
     7
  6
CONTINUOUS
  0
LAYER
  2
D41_E---PFLA--------
 70
     0
 62
     7
  6
CONTINUOUS
  0
LAYER
  2
D41_E---KONS-ST-----
 70
     0
 62
     7
  6
CONTINUOUS
  0
LAYER
  2
D41_E---WERB--------
 70
     0
 62
     7
  6
CONTINUOUS
  0
LAYER
  2
D41_E---TUERINF-----
 70
     0
 62
     7
  6
CONTINUOUS
  0
LAYER
  2
D41_E---WOLK--------
 70
     0
 62
     7
  6
CONTINUOUS
  0
LAYER
  2
D41_B---MW-L--------
 70
     0
 62
     7
  6
CONTINUOUS
  0
LAYER
  2
D41_B---SANI--------
 70
     0
 62
     7
  6
CONTINUOUS
  0
LAYER
  2
D41_E---SANI--------
 70
     0
 62
     7
  6
CONTINUOUS
  0
LAYER
  2
D41_E---MW-K------
 70
     0
 62
     7
  6
CONTINUOUS
  0
LAYER
  2
D41_E---OBJE--------
 70
     0
 62
     7
  6
CONTINUOUS
  0
LAYER
  2
D41_E---ASPR--------
 70
     0
 62
     7
  6
CONTINUOUS
  0
LAYER
  2
D41_E---VERMTGA-----
 70
     0
 62
     7
  6
CONTINUOUS
  0
LAYER
  2
D41_E---PARK--------
 70
     0
 62
     7
  6
CONTINUOUS
  0
LAYER
  2
D41_E---ISOL--------
 70
     0
 62
     7
  6
CONTINUOUS
  0
LAYER
  2
D41_E---TUER--------
 70
     0
 62
     7
  6
CONTINUOUS
  0
LAYER
  2
D41_E---MW--BRA---
 70
     0
 62
     7
  6
CONTINUOUS
  0
LAYER
  2
D42_ARCHICAD
 70
     0
 62
     7
  6
CONTINUOUS
  0
LAYER
  2
D42_FENSTER_VON_B---FASS--
 70
     0
 62
     7
  6
CONTINUOUS
  0
LAYER
  2
D42_E---SCHN--------
 70
     0
 62
     7
  6
CONTINUOUS
  0
LAYER
  2
D42_B---MW-N--------
 70
     0
 62
     7
  6
CONTINUOUS
  0
LAYER
  2
D42_B---DECK--------
 70
     0
 62
     7
  6
CONTINUOUS
  0
LAYER
  2
D42_B---MW-S--------
 70
     0
 62
     7
  6
CONTINUOUS
  0
LAYER
  2
D42_B---MW----------
 70
     0
 62
     7
  6
CONTINUOUS
  0
LAYER
  2
D42_B---FASS--------
 70
     0
 62
     7
  6
CONTINUOUS
  0
LAYER
  2
D42_E---RASG--------
 70
     0
 62
     7
  6
CONTINUOUS
  0
LAYER
  2
CONSTRUCTION_CLASS
 70
     0
 62
     7
  6
CONTINUOUS
  0
LAYER
  2
PATTERN_CLASS
 70
     0
 62
     7
  6
CONTINUOUS
  0
LAYER
  2
KONSTRUKTION
 70
     0
 62
     7
  6
CONTINUOUS
  0
LAYER
  2
BEMAßUNG
 70
     0
 62
     7
  6
CONTINUOUS
  0
LAYER
  2
HILFSGEOMETRIE
 70
     0
 62
     7
  6
CONTINUOUS
  0
LAYER
  2
UNSICHTBAR
 70
     0
 62
     7
  6
CONTINUOUS
  0
LAYER
  2
LOGO
 70
     0
 62
     7
  6
CONTINUOUS
  0
LAYER
  2
VERWALTUNG
 70
     0
 62
     7
  6
CONTINUOUS
  0
LAYER
  2
UNSICHTBARE_GEWINDE
 70
     0
 62
     7
  6
CONTINUOUS
  0
LAYER
  2
SICHTBARE_GEWINDE
 70
     0
 62
     7
  6
CONTINUOUS
  0
LAYER
  2
DEFPOINTS
 70
     0
 62
     7
  6
CONTINUOUS
  0
LAYER
  2
THICK
 70
     0
 62
     7
  6
CONTINUOUS
  0
LAYER
  2
HIDDEN
 70
     0
 62
     7
  6
CONTINUOUS
  0
LAYER
  2
SCHRAFFURGRUNDRISS
 70
     0
 62
     7
  6
CONTINUOUS
  0
LAYER
  2
BEMASSUNG_GRUNDRISS
 70
     0
 62
     7
  6
CONTINUOUS
  0
LAYER
  2
STATIK
 70
     0
 62
     7
  6
CONTINUOUS
  0
LAYER
  2
TÜREN
 70
     0
 62
     7
  6
CONTINUOUS
  0
LAYER
  2
SANITÄR
 70
     0
 62
     7
  6
CONTINUOUS
  0
LAYER
  2
BEMASSUNG_GIPSKARTON
 70
     0
 62
     7
  6
CONTINUOUS
  0
LAYER
  2
EINRICHTUNGEN
 70
     0
 62
     7
  6
CONTINUOUS
  0
LAYER
  2
BECKEN
 70
     0
 62
     7
  6
CONTINUOUS
  0
LAYER
  2
BELEUCHTUNG
 70
     0
 62
     7
  6
CONTINUOUS
  0
LAYER
  2
BESCHRIFTUNGEN
 70
     0
 62
     7
  6
CONTINUOUS
  0
LAYER
  2
ELEKTRO_1__DOSEN_SCHALTER
 70
     0
 62
     7
  6
CONTINUOUS
  0
LAYER
  2
DEFAULT_1
 70
     0
 62
     7
  6
CONTINUOUS
  0
LAYER
  2
AM_0
 70
     0
 62
     7
  6
CONTINUOUS
  0
LAYER
  2
FRAME0_7
 70
     0
 62
     7
  6
CONTINUOUS
  0
LAYER
  2
AM_BOR
 70
     0
 62
     7
  6
CONTINUOUS
  0
LAYER
  2
RAHM2
 70
     0
 62
     7
  6
CONTINUOUS
  0
LAYER
  2
RAHM3
 70
     0
 62
     7
  6
CONTINUOUS
  0
LAYER
  2
FRAME0_5
 70
     0
 62
     7
  6
CONTINUOUS
  0
LAYER
  2
8
 70
     0
 62
     7
  6
CONTINUOUS
  0
LAYER
  2
AM_5
 70
     0
 62
     7
  6
CONTINUOUS
  0
LAYER
  2
AM_7
 70
     0
 62
     7
  6
CONTINUOUS
  0
LAYER
  2
HILFSLINIEN
 70
     0
 62
     7
  6
CONTINUOUS
  0
LAYER
  2
DRAWING_TEMPLATE
 70
     0
 62
     7
  6
CONTINUOUS
  0
LAYER
  2
TECHNOBOX_EXTERNALREFSYMBO
 70
     0
 62
     7
  6
CONTINUOUS
  0
LAYER
  2
TECHNOBOX_POLYCLIPSYMBOL_L
 70
     0
 62
     7
  6
CONTINUOUS
  0
LAYER
  2
100
 70
     0
 62
     7
  6
CONTINUOUS
  0
LAYER
  2
101
 70
     0
 62
     7
  6
CONTINUOUS
  0
LAYER
  2
KONTUR
 70
     0
 62
     7
  6
CONTINUOUS
  0
LAYER
  2
MITTELLINIE
 70
     0
 62
     7
  6
CONTINUOUS
  0
LAYER
  2
GESTRICHELT
 70
     0
 62
     7
  6
CONTINUOUS
  0
LAYER
  2
HILFSLINIE
 70
     0
 62
     7
  6
CONTINUOUS
  0
LAYER
  2
TEXT-25
 70
     0
 62
     7
  6
CONTINUOUS
  0
LAYER
  2
TEXT35
 70
     0
 62
     7
  6
CONTINUOUS
  0
LAYER
  2
TEXT-50
 70
     0
 62
     7
  6
CONTINUOUS
  0
LAYER
  2
TEXT-70
 70
     0
 62
     7
  6
CONTINUOUS
  0
LAYER
  2
ANSICHTSFENSTER
 70
     0
 62
     7
  6
CONTINUOUS
  0
LAYER
  2
KERA0
 70
     0
 62
     7
  6
CONTINUOUS
  0
LAYER
  2
KERA1
 70
     0
 62
     7
  6
CONTINUOUS
  0
LAYER
  2
KERA2
 70
     0
 62
     7
  6
CONTINUOUS
  0
LAYER
  2
KERA3
 70
     0
 62
     7
  6
CONTINUOUS
  0
LAYER
  2
KERA4
 70
     0
 62
     7
  6
CONTINUOUS
  0
LAYER
  2
KERA5
 70
     0
 62
     7
  6
CONTINUOUS
  0
LAYER
  2
KERA6
 70
     0
 62
     7
  6
CONTINUOUS
  0
LAYER
  2
KERA7
 70
     0
 62
     7
  6
CONTINUOUS
  0
LAYER
  2
20
 70
     0
 62
     7
  6
CONTINUOUS
  0
LAYER
  2
50
 70
     0
 62
     7
  6
CONTINUOUS
  0
LAYER
  2
BECKEN_FUTURA_EBENE_1
 70
     0
 62
     7
  6
CONTINUOUS
  0
LAYER
  2
EBENE_1
 70
     0
 62
     7
  6
CONTINUOUS
  0
LAYER
  2
EBENE_2
 70
     0
 62
     7
  6
CONTINUOUS
  0
LAYER
  2
EBENE_5
 70
     0
 62
     7
  6
CONTINUOUS
  0
LAYER
  2
3
 70
     0
 62
     7
  6
CONTINUOUS
  0
LAYER
  2
GEB-KONTUR-A
 70
     0
 62
     7
  6
CONTINUOUS
  0
LAYER
  2
GEB-SYMETRIE
 70
     0
 62
     7
  6
CONTINUOUS
  0
LAYER
  2
GEB-ART-NR
 70
     0
 62
     7
  6
CONTINUOUS
  0
LAYER
  2
PROJECTION
 70
     0
 62
     7
  6
CONTINUOUS
  0
ENDTAB
  0
TABLE
  2
STYLE
 70
     3
  0
STYLE
  2
STANDARD
 70
     0
 40
0.0
 41
1.0
 50
0.0
 71
     0
 42
0.0
  3
txt
  4

  0
STYLE
  2
ANNOTATIVE
 70
     0
 40
0.0
 41
1.0
 50
0.0
 71
     0
 42
0.2
  3
txt
  4

  0
STYLE
  2
SIMPLEX
 70
     0
 40
0.0
 41
1.0
 50
0.0
 71
     0
 42
0.0
  3
SIMPLEX
  4

  0
ENDTAB
  0
TABLE
  2
VIEW
 70
     0
  0
ENDTAB
  0
TABLE
  2
UCS
 70
     0
  0
ENDTAB
  0
TABLE
  2
APPID
 70
     3
  0
APPID
  2
ACAD
 70
     0
  0
APPID
  2
ACADANNOTATIVE
 70
     0
  0
APPID
  2
ACAD_MLEADERVER
 70
     0
  0
ENDTAB
  0
TABLE
  2
DIMSTYLE
 70
     2
  0
DIMSTYLE
  2
STANDARD
 70
     0
  3

  4

  5

  6

  7

 40
1.0
 41
0.18
 42
0.0625
 43
0.38
 44
0.18
 45
0.0
 46
0.0
 47
0.0
 48
0.0
140
0.18
141
0.09
142
0.0
143
25.399999999999999
144
1.0
145
0.0
146
1.0
147
0.09
 71
     0
 72
     0
 73
     1
 74
     1
 75
     0
 76
     0
 77
     0
 78
     0
170
     0
171
     2
172
     0
173
     0
174
     0
175
     0
176
     0
177
     0
178
     0
  0
DIMSTYLE
  2
ANNOTATIVE
 70
     0
  3

  4

  5

  6

  7

 40
1.0
 41
0.18
 42
0.0625
 43
0.38
 44
0.18
 45
0.0
 46
0.0
 47
0.0
 48
0.0
140
0.18
141
0.09
142
0.0
143
25.399999999999999
144
1.0
145
0.0
146
1.0
147
0.09
 71
     0
 72
     0
 73
     1
 74
     1
 75
     0
 76
     0
 77
     0
 78
     0
170
     0
171
     2
172
     0
173
     0
174
     0
175
     0
176
     0
177
     0
178
     0
  0
ENDTAB
  0
ENDSEC
  0
SECTION
  2
BLOCKS
  0
BLOCK
  8
0
  2
$MODEL_SPACE
 70
     0
 10
0.0
 20
0.0
 30
0.0
  3
$MODEL_SPACE
  1

  0
ENDBLK
  5
76
  8
0
  0
BLOCK
 67
     1
  8
0
  2
$PAPER_SPACE
 70
     0
 10
0.0
 20
0.0
 30
0.0
  3
$PAPER_SPACE
  1

  0
ENDBLK
  5
72
 67
     1
  8
0
  0
BLOCK
  8
0
  2
*D0
 70
     1
 10
0.0
 20
0.0
 30
0.0
  3
*D0
  1

  0
LINE
  5
187
  8
LAYER01
 62
     7
 10
518.93389999999999
 20
761.64022399999999
 30
0.0
 11
518.93389999999999
 21
401.64022399999999
 31
0.0
  0
LINE
  5
188
  8
LAYER01
 62
     7
 10
769.09957399999996
 20
761.64022399999999
 30
0.0
 11
483.93389999999988
 21
761.64022399999999
 31
0.0
  0
LINE
  5
189
  8
LAYER01
 62
     7
 10
769.09957399999996
 20
401.64022399999999
 30
0.0
 11
483.93389999999988
 21
401.64022399999999
 31
0.0
  0
SOLID
  5
18A
  8
LAYER01
 62
     7
 10
509.60093999999998
 20
705.64022399999988
 30
0.0
 11
518.93389999999999
 21
761.64022399999999
 31
0.0
 12
528.26685999999995
 22
705.64022399999988
 32
0.0
 13
528.26685999999995
 23
705.64022399999988
 33
0.0
  0
SOLID
  5
18B
  8
LAYER01
 62
     7
 10
509.60093999999998
 20
457.64022399999999
 30
0.0
 11
518.93389999999999
 21
401.64022399999999
 31
0.0
 12
528.26685999999995
 22
457.64022399999999
 32
0.0
 13
528.26685999999995
 23
457.64022399999999
 33
0.0
  0
TEXT
  5
18C
  8
LAYER01
  6
CONTINUOUS
 62
     7
 10
483.93389999999988
 20
528.66769599999998
 30
0.0
 40
70.0
  1
360
 50
90.0
  0
POINT
  5
18D
  8
LAYER01
 62
     7
 10
797.09957400000008
 20
761.64022399999999
 30
0.0
  0
POINT
  5
18E
  8
LAYER01
 62
     7
 10
797.09957400000008
 20
401.64022399999999
 30
0.0
  0
POINT
  5
18F
  8
LAYER01
 62
     7
 10
518.93389999999999
 20
401.64022399999999
 30
0.0
  0
ENDBLK
  5
190
  8
0
  0
BLOCK
  8
0
  2
*D1
 70
     1
 10
0.0
 20
0.0
 30
0.0
  3
*D1
  1

  0
LINE
  5
193
  8
LAYER01
 62
     7
 10
677.85148499999991
 20
736.64022399999999
 30
0.0
 11
677.85148499999991
 21
426.64022399999999
 31
0.0
  0
LINE
  5
194
  8
LAYER01
 62
     7
 10
769.09957399999996
 20
736.64022399999999
 30
0.0
 11
642.85148499999991
 21
736.64022399999999
 31
0.0
  0
LINE
  5
195
  8
LAYER01
 62
     7
 10
769.09957399999996
 20
426.64022399999999
 30
0.0
 11
642.85148499999991
 21
426.64022399999999
 31
0.0
  0
SOLID
  5
196
  8
LAYER01
 62
     7
 10
668.51852499999995
 20
680.64022399999988
 30
0.0
 11
677.85148499999991
 21
736.64022399999999
 31
0.0
 12
687.18444499999998
 22
680.64022399999988
 32
0.0
 13
687.18444499999998
 23
680.64022399999988
 33
0.0
  0
SOLID
  5
197
  8
LAYER01
 62
     7
 10
668.51852499999995
 20
482.64022399999999
 30
0.0
 11
677.85148499999991
 21
426.64022399999999
 31
0.0
 12
687.18444499999998
 22
482.64022399999999
 32
0.0
 13
687.18444499999998
 23
482.64022399999999
 33
0.0
  0
TEXT
  5
198
  8
LAYER01
  6
CONTINUOUS
 62
     7
 10
642.85148499999991
 20
528.66769599999998
 30
0.0
 40
70.0
  1
310
 50
90.0
  0
POINT
  5
199
  8
LAYER01
 62
     7
 10
797.09957400000008
 20
736.64022399999999
 30
0.0
  0
POINT
  5
19A
  8
LAYER01
 62
     7
 10
797.09957400000008
 20
426.64022399999999
 30
0.0
  0
POINT
  5
19B
  8
LAYER01
 62
     7
 10
677.85148499999991
 20
426.64022399999999
 30
0.0
  0
ENDBLK
  5
19C
  8
0
  0
BLOCK
  8
0
  2
VP315010-G3
 70
     0
 10
0.0
 20
0.0
 30
0.0
  3
VP315010-G3
  1

  0
LINE
  5
19F
  8
LAYER01
  6
CONTINUOUS
 62
     7
 10
806.61539500000003
 20
155.477225
 30
0.0
 11
810.54546300000004
 21
159.40729300000001
 31
0.0
  0
LINE
  5
1A0
  8
LAYER01
  6
CONTINUOUS
 62
     7
 10
818.44843800000001
 20
144.85962699999999
 30
0.0
 11
831.68415199999981
 21
158.09534099999999
 31
0.0
  0
LINE
  5
1A1
  8
LAYER01
  6
CONTINUOUS
 62
     7
 10
821.38407600000005
 20
125.34462499999999
 30
0.0
 11
832.80214799999999
 21
136.762697
 31
0.0
  0
LINE
  5
1A2
  8
LAYER01
  6
CONTINUOUS
 62
     7
 10
822.50207199999988
 20
104.01198100000001
 30
0.0
 11
833.92014500000005
 21
115.430053
 31
0.0
  0
LINE
  5
1A3
  8
LAYER01
  6
CONTINUOUS
 62
     7
 10
823.62006899999994
 20
82.679337000000004
 30
0.0
 11
835.038141
 21
94.097408999999999
 31
0.0
  0
LINE
  5
1A4
  8
LAYER01
  6
CONTINUOUS
 62
     7
 10
829.72106099999996
 20
66.329689000000002
 30
0.0
 11
838.24243899999999
 21
74.851066000000003
 31
0.0
  0
LINE
  5
1A5
  8
LAYER01
  6
CONTINUOUS
 62
     7
 10
847.47881500000005
 20
61.636802000000003
 30
0.0
 11
858.76728500000002
 21
72.925273000000004
 31
0.0
  0
LINE
  5
1A6
  8
LAYER01
  6
CONTINUOUS
 62
     7
 10
868.55338699999982
 20
60.260733999999999
 30
0.0
 11
879.84185799999989
 21
71.549205000000001
 31
0.0
  0
LINE
  5
1A7
  8
LAYER01
  6
CONTINUOUS
 62
     7
 10
889.62795900000003
 20
58.884666000000003
 30
0.0
 11
900.9164300000001
 21
70.173136999999997
 31
0.0
  0
LINE
  5
1A8
  8
LAYER01
  6
CONTINUOUS
 62
     7
 10
910.70253199999991
 20
57.508597999999999
 30
0.0
 11
921.99100199999998
 21
68.797068999999993
 31
0.0
  0
LINE
  5
1A9
  8
LAYER01
  6
CONTINUOUS
 62
     7
 10
931.77710399999978
 20
56.132530000000003
 30
0.0
 11
943.06557499999985
 21
67.421001000000004
 31
0.0
  0
LINE
  5
1AA
  8
LAYER01
  6
CONTINUOUS
 62
     7
 10
952.851676
 20
54.756461999999992
 30
0.0
 11
964.14014700000007
 21
66.044933
 31
0.0
  0
LINE
  5
1AB
  8
LAYER01
  6
CONTINUOUS
 62
     7
 10
973.92624799999999
 20
53.380393999999988
 30
0.0
 11
985.21471899999995
 21
64.668864999999997
 31
0.0
  0
LINE
  5
1AC
  8
LAYER01
  6
CONTINUOUS
 62
     7
 10
995.00082100000009
 20
52.004325999999999
 30
0.0
 11
1006.289292
 21
63.292797
 31
0.0
  0
LINE
  5
1AD
  8
LAYER01
  6
CONTINUOUS
 62
     7
 10
1016.047353
 20
50.600217999999998
 30
0.0
 11
1027.1241010000001
 21
61.676966
 31
0.0
  0
LINE
  5
1AE
  8
LAYER01
  6
CONTINUOUS
 62
     7
 10
1036.3955080000001
 20
48.497732999999997
 30
0.0
 11
1046.8886090000001
 21
58.990834
 31
0.0
  0
LINE
  5
1AF
  8
LAYER01
  6
CONTINUOUS
 62
     7
 10
1048.4076030000001
 20
38.059187999999999
 30
0.0
 11
1058.4330480000001
 21
48.084632999999997
 31
0.0
  0
ENDBLK
  5
1B0
  8
0
  0
BLOCK
  8
0
  2
*D3
 70
     1
 10
0.0
 20
0.0
 30
0.0
  3
*D3
  1

  0
LINE
  5
1B3
  8
LAYER01
 62
     7
 10
831.61539500000003
 20
207.59851399999999
 30
0.0
 11
1331.615395
 21
207.59851399999999
 31
0.0
  0
LINE
  5
1B4
  8
LAYER01
 62
     7
 10
831.61539500000003
 20
187.40729300000001
 30
0.0
 11
831.61539500000003
 21
242.59851399999999
 31
0.0
  0
LINE
  5
1B5
  8
LAYER01
 62
     7
 10
1331.615395
 20
187.40729300000001
 30
0.0
 11
1331.615395
 21
242.59851399999999
 31
0.0
  0
SOLID
  5
1B6
  8
LAYER01
 62
     7
 10
887.61539499999992
 20
198.26555400000001
 30
0.0
 11
831.61539500000003
 21
207.59851399999999
 31
0.0
 12
887.61539499999992
 22
216.93147400000001
 32
0.0
 13
887.61539499999992
 23
216.93147400000001
 33
0.0
  0
SOLID
  5
1B7
  8
LAYER01
 62
     7
 10
1275.615395
 20
198.26555400000001
 30
0.0
 11
1331.615395
 21
207.59851399999999
 31
0.0
 12
1275.615395
 22
216.93147400000001
 32
0.0
 13
1275.615395
 23
216.93147400000001
 33
0.0
  0
TEXT
  5
1B8
  8
LAYER01
  6
CONTINUOUS
 62
     7
 10
1028.3982639999999
 20
242.59851399999999
 30
0.0
 40
70.0
  1
500
  0
POINT
  5
1B9
  8
LAYER01
 62
     7
 10
831.61539500000003
 20
159.40729300000001
 30
0.0
  0
POINT
  5
1BA
  8
LAYER01
 62
     7
 10
1331.615395
 20
159.40729300000001
 30
0.0
  0
POINT
  5
1BB
  8
LAYER01
 62
     7
 10
1331.615395
 20
207.59851399999999
 30
0.0
  0
ENDBLK
  5
1BC
  8
0
  0
BLOCK
  8
0
  2
VP315010-G5
 70
     0
 10
0.0
 20
0.0
 30
0.0
  3
VP315010-G5
  1

  0
LINE
  5
1BF
  8
LAYER01
  6
CONTINUOUS
 62
     7
 10
1115.7595240000001
 20
38.059187999999999
 30
0.0
 11
1122.686052
 21
44.985715999999996
 31
0.0
  0
LINE
  5
1C0
  8
LAYER01
  6
CONTINUOUS
 62
     7
 10
1125.638627
 20
47.938290000000002
 30
0.0
 11
1139.6908780000001
 21
61.990541999999998
 31
0.0
  0
LINE
  5
1C1
  8
LAYER01
  6
CONTINUOUS
 62
     7
 10
1151.032383
 20
50.881407000000003
 30
0.0
 11
1163.8979999999999
 21
63.747022999999999
 31
0.0
  0
LINE
  5
1C2
  8
LAYER01
  6
CONTINUOUS
 62
     7
 10
1175.051346
 20
52.449728999999998
 30
0.0
 11
1187.916962
 21
65.315345999999991
 31
0.0
  0
LINE
  5
1C3
  8
LAYER01
  6
CONTINUOUS
 62
     7
 10
1199.070309
 20
54.018051999999997
 30
0.0
 11
1211.935925
 21
66.883668
 31
0.0
  0
LINE
  5
1C4
  8
LAYER01
  6
CONTINUOUS
 62
     7
 10
1223.0892719999999
 20
55.586373999999999
 30
0.0
 11
1235.954888
 21
68.451991000000007
 31
0.0
  0
LINE
  5
1C5
  8
LAYER01
  6
CONTINUOUS
 62
     7
 10
1247.1082349999999
 20
57.154696999999992
 30
0.0
 11
1259.973851
 21
70.020313000000002
 31
0.0
  0
LINE
  5
1C6
  8
LAYER01
  6
CONTINUOUS
 62
     7
 10
1330.6339620000001
 20
140.68042399999999
 30
0.0
 11
1349.3608300000001
 21
159.40729300000001
 31
0.0
  0
LINE
  5
1C7
  8
LAYER01
  6
CONTINUOUS
 62
     7
 10
1271.127197
 20
58.723019000000001
 30
0.0
 11
1283.992814
 21
71.588634999999996
 31
0.0
  0
LINE
  5
1C8
  8
LAYER01
  6
CONTINUOUS
 62
     7
 10
1295.14616
 20
60.291342000000007
 30
0.0
 11
1308.0117760000001
 21
73.156957999999989
 31
0.0
  0
LINE
  5
1C9
  8
LAYER01
  6
CONTINUOUS
 62
     7
 10
1329.3923010000001
 20
116.988123
 30
0.0
 11
1342.073355
 21
129.66917699999999
 31
0.0
  0
LINE
  5
1CA
  8
LAYER01
  6
CONTINUOUS
 62
     7
 10
1328.1506400000001
 20
93.295820999999989
 30
0.0
 11
1340.831694
 21
105.97687500000001
 31
0.0
  0
LINE
  5
1CB
  8
LAYER01
  6
CONTINUOUS
 62
     7
 10
1319.165123
 20
61.859664000000002
 30
0.0
 11
1339.5900329999999
 21
82.284573999999992
 31
0.0
  0
ENDBLK
  5
1CC
  8
0
  0
BLOCK
  8
0
  2
*D5
 70
     1
 10
0.0
 20
0.0
 30
0.0
  3
*D5
  1

  0
LINE
  5
1CF
  8
LAYER01
 62
     7
 10
831.61539500000003
 20
840.21506499999987
 30
0.0
 11
1331.615395
 21
840.21506499999987
 31
0.0
  0
LINE
  5
1D0
  8
LAYER01
 62
     7
 10
831.61539500000003
 20
796.57900299999994
 30
0.0
 11
831.61539500000003
 21
875.21506499999998
 31
0.0
  0
LINE
  5
1D1
  8
LAYER01
 62
     7
 10
1331.615395
 20
796.57900299999994
 30
0.0
 11
1331.615395
 21
875.21506499999998
 31
0.0
  0
SOLID
  5
1D2
  8
LAYER01
 62
     7
 10
887.61539499999992
 20
830.88210500000002
 30
0.0
 11
831.61539500000003
 21
840.21506499999987
 31
0.0
 12
887.61539499999992
 22
849.54802499999994
 32
0.0
 13
887.61539499999992
 23
849.54802499999994
 33
0.0
  0
SOLID
  5
1D3
  8
LAYER01
 62
     7
 10
1275.615395
 20
830.88210500000002
 30
0.0
 11
1331.615395
 21
840.21506499999987
 31
0.0
 12
1275.615395
 22
849.54802499999994
 32
0.0
 13
1275.615395
 23
849.54802499999994
 33
0.0
  0
TEXT
  5
1D4
  8
LAYER01
  6
CONTINUOUS
 62
     7
 10
1028.8973490000001
 20
875.21506499999998
 30
0.0
 40
70.0
  1
500
  0
POINT
  5
1D5
  8
LAYER01
 62
     7
 10
831.61539500000003
 20
768.57900299999994
 30
0.0
  0
POINT
  5
1D6
  8
LAYER01
 62
     7
 10
1331.615395
 20
768.57900299999994
 30
0.0
  0
POINT
  5
1D7
  8
LAYER01
 62
     7
 10
1331.615395
 20
840.21506499999987
 30
0.0
  0
ENDBLK
  5
1D8
  8
0
  0
BLOCK
  8
0
  2
*D6
 70
     1
 10
0.0
 20
0.0
 30
0.0
  3
*D6
  1

  0
LINE
  5
1DB
  8
LAYER01
 62
     7
 10
1356.615395
 20
969.08139900000003
 30
0.0
 11
806.61539500000003
 21
969.08139900000003
 31
0.0
  0
LINE
  5
1DC
  8
LAYER01
 62
     7
 10
1356.615395
 20
796.57900299999994
 30
0.0
 11
1356.615395
 21
1004.081399
 31
0.0
  0
LINE
  5
1DD
  8
LAYER01
 62
     7
 10
806.61539500000003
 20
796.57900299999994
 30
0.0
 11
806.61539500000003
 21
1004.081399
 31
0.0
  0
SOLID
  5
1DE
  8
LAYER01
 62
     7
 10
1300.615395
 20
978.41435899999988
 30
0.0
 11
1356.615395
 21
969.08139900000003
 31
0.0
 12
1300.615395
 22
959.74843900000008
 32
0.0
 13
1300.615395
 23
959.74843900000008
 33
0.0
  0
SOLID
  5
1DF
  8
LAYER01
 62
     7
 10
862.61539499999992
 20
978.41435899999988
 30
0.0
 11
806.61539500000003
 21
969.08139900000003
 31
0.0
 12
862.61539499999992
 22
959.74843900000008
 32
0.0
 13
862.61539499999992
 23
959.74843900000008
 33
0.0
  0
TEXT
  5
1E0
  8
LAYER01
  6
CONTINUOUS
 62
     7
 10
1028.8973490000001
 20
1004.081399
 30
0.0
 40
70.0
  1
550
  0
POINT
  5
1E1
  8
LAYER01
 62
     7
 10
1356.615395
 20
768.57900299999994
 30
0.0
  0
POINT
  5
1E2
  8
LAYER01
 62
     7
 10
806.61539500000003
 20
768.57900299999994
 30
0.0
  0
POINT
  5
1E3
  8
LAYER01
 62
     7
 10
806.61539500000003
 20
969.08139900000003
 30
0.0
  0
ENDBLK
  5
1E4
  8
0
  0
BLOCK
  8
0
  2
VP315010-G8
 70
     0
 10
0.0
 20
0.0
 30
0.0
  3
VP315010-G8
  1

  0
LINE
  5
1E7
  8
LAYER01
  6
CONTINUOUS
 62
     7
 10
1081.615395
 20
581.64022399999999
 30
0.0
 11
1081.615395
 21
584.14022399999988
 31
0.0
  0
LINE
  5
1E8
  8
LAYER01
  6
CONTINUOUS
 62
     7
 10
1081.615395
 20
581.64022399999999
 30
0.0
 11
1079.115395
 21
581.64022399999999
 31
0.0
  0
LINE
  5
1E9
  8
LAYER01
  6
CONTINUOUS
 62
     7
 10
1081.615395
 20
581.64022399999999
 30
0.0
 11
1081.615395
 21
579.14022399999999
 31
0.0
  0
LINE
  5
1EA
  8
LAYER01
  6
CONTINUOUS
 62
     7
 10
1081.615395
 20
581.64022399999999
 30
0.0
 11
1084.115395
 21
581.64022399999999
 31
0.0
  0
LINE
  5
1EB
  8
LAYER01
  6
CONTINUOUS
 62
     7
 10
1081.615395
 20
586.64022399999999
 30
0.0
 11
1081.615395
 21
607.14022399999999
 31
0.0
  0
LINE
  5
1EC
  8
LAYER01
  6
CONTINUOUS
 62
     7
 10
1076.615395
 20
581.64022399999999
 30
0.0
 11
1056.115395
 21
581.64022399999999
 31
0.0
  0
LINE
  5
1ED
  8
LAYER01
  6
CONTINUOUS
 62
     7
 10
1081.615395
 20
576.64022399999988
 30
0.0
 11
1081.615395
 21
556.14022399999988
 31
0.0
  0
LINE
  5
1EE
  8
LAYER01
  6
CONTINUOUS
 62
     7
 10
1086.615395
 20
581.64022399999999
 30
0.0
 11
1107.115395
 21
581.64022399999999
 31
0.0
  0
ENDBLK
  5
1EF
  8
0
  0
BLOCK
  8
0
  2
VP315010-G9
 70
     0
 10
0.0
 20
0.0
 30
0.0
  3
VP315010-G9
  1

  0
POLYLINE
  5
1F2
  8
LAYER01
  6
CONTINUOUS
 62
     7
 66
     1
 10
0.0
 20
0.0
 30
0.0
 70
     1
  0
VERTEX
  5
86A
  8
LAYER01
  6
CONTINUOUS
 62
     7
 10
2295.8037859999999
 20
-177.11403799999999
 30
0.0
  0
VERTEX
  5
86B
  8
LAYER01
  6
CONTINUOUS
 62
     7
 10
2337.2334729999998
 20
-177.11403799999999
 30
0.0
  0
VERTEX
  5
86C
  8
LAYER01
  6
CONTINUOUS
 62
     7
 10
2389.2614520000002
 20
-295.62221099999999
 30
0.0
  0
VERTEX
  5
86D
  8
LAYER01
  6
CONTINUOUS
 62
     7
 10
2441.2894300000012
 20
-177.11403799999999
 30
0.0
  0
VERTEX
  5
86E
  8
LAYER01
  6
CONTINUOUS
 62
     7
 10
2484.6460790000001
 20
-177.11403799999999
 30
0.0
  0
VERTEX
  5
86F
  8
LAYER01
  6
CONTINUOUS
 62
     7
 10
2389.2614520000002
 20
-389.07987700000001
 30
0.0
  0
VERTEX
  5
870
  8
LAYER01
  6
CONTINUOUS
 62
     7
 10
2295.8037859999999
 20
-177.11403799999999
 30
0.0
  0
VERTEX
  5
871
  8
LAYER01
  6
CONTINUOUS
 62
     7
 10
2295.8037859999999
 20
-177.11403799999999
 30
0.0
  0
SEQEND
  5
872
  8
LAYER01
  6
CONTINUOUS
 62
     7
  0
POLYLINE
  5
1FC
  8
LAYER01
  6
CONTINUOUS
 62
     7
 66
     1
 10
0.0
 20
0.0
 30
0.0
 70
     1
  0
VERTEX
  5
873
  8
LAYER01
  6
CONTINUOUS
 62
     7
 10
2437.4355059999998
 20
-321.63620100000003
 30
0.0
  0
VERTEX
  5
874
  8
LAYER01
  6
CONTINUOUS
 62
     7
 10
2451.8877219999999
 20
-287.91436299999998
 30
0.0
  0
VERTEX
  5
875
  8
LAYER01
  6
CONTINUOUS
 62
     7
 10
2514.513993
 20
-287.91436299999998
 30
0.0
  0
VERTEX
  5
876
  8
LAYER01
  6
CONTINUOUS
 62
     7
 10
2482.7191170000001
 20
-218.543724
 30
0.0
  0
VERTEX
  5
877
  8
LAYER01
  6
CONTINUOUS
 62
     7
 10
2501.0252580000001
 20
-174.22359399999999
 30
0.0
  0
VERTEX
  5
878
  8
LAYER01
  6
CONTINUOUS
 62
     7
 10
2586.775075
 20
-355.35803900000002
 30
0.0
  0
VERTEX
  5
879
  8
LAYER01
  6
CONTINUOUS
 62
     7
 10
2586.775075
 20
-177.11403799999999
 30
0.0
  0
VERTEX
  5
87A
  8
LAYER01
  6
CONTINUOUS
 62
     7
 10
2701.4293240000002
 20
-177.11403799999999
 30
0.0
  0
VERTEX
  5
87B
  8
LAYER01
  6
CONTINUOUS
 62
     7
 10
2701.4293240000002
 20
-177.11403799999999
 30
0.0
  0
VERTEX
  5
87C
  8
LAYER01
  6
CONTINUOUS
 62
     7
 10
2712.0276159999999
 20
-179.041
 30
0.0
  0
VERTEX
  5
87D
  8
LAYER01
  6
CONTINUOUS
 62
     7
 10
2721.6624270000002
 20
-182.894924
 30
0.0
  0
VERTEX
  5
87E
  8
LAYER01
  6
CONTINUOUS
 62
     7
 10
2730.3337569999999
 20
-189.63929200000001
 30
0.0
  0
VERTEX
  5
87F
  8
LAYER01
  6
CONTINUOUS
 62
     7
 10
2738.0416059999998
 20
-196.38365899999999
 30
0.0
  0
VERTEX
  5
880
  8
LAYER01
  6
CONTINUOUS
 62
     7
 10
2744.785973
 20
-205.05498900000001
 30
0.0
  0
VERTEX
  5
881
  8
LAYER01
  6
CONTINUOUS
 62
     7
 10
2749.6033790000001
 20
-214.68979999999999
 30
0.0
  0
VERTEX
  5
882
  8
LAYER01
  6
CONTINUOUS
 62
     7
 10
2753.4573030000001
 20
-226.25157300000001
 30
0.0
  0
VERTEX
  5
883
  8
LAYER01
  6
CONTINUOUS
 62
     7
 10
2754.4207839999999
 20
-236.84986499999999
 30
0.0
  0
VERTEX
  5
884
  8
LAYER01
  6
CONTINUOUS
 62
     7
 10
2754.4207839999999
 20
-236.84986499999999
 30
0.0
  0
VERTEX
  5
885
  8
LAYER01
  6
CONTINUOUS
 62
     7
 10
2754.4207839999999
 20
-248.41163800000001
 30
0.0
  0
VERTEX
  5
886
  8
LAYER01
  6
CONTINUOUS
 62
     7
 10
2752.4938219999999
 20
-258.046449
 30
0.0
  0
VERTEX
  5
887
  8
LAYER01
  6
CONTINUOUS
 62
     7
 10
2748.639897
 20
-267.68126000000001
 30
0.0
  0
VERTEX
  5
888
  8
LAYER01
  6
CONTINUOUS
 62
     7
 10
2743.8224919999998
 20
-276.35259000000002
 30
0.0
  0
VERTEX
  5
889
  8
LAYER01
  6
CONTINUOUS
 62
     7
 10
2737.0781240000001
 20
-284.06043799999998
 30
0.0
  0
VERTEX
  5
88A
  8
LAYER01
  6
CONTINUOUS
 62
     7
 10
2729.3702760000001
 20
-290.80480599999999
 30
0.0
  0
VERTEX
  5
88B
  8
LAYER01
  6
CONTINUOUS
 62
     7
 10
2720.698946
 20
-295.62221099999999
 30
0.0
  0
VERTEX
  5
88C
  8
LAYER01
  6
CONTINUOUS
 62
     7
 10
2710.1006539999998
 20
-299.476136
 30
0.0
  0
VERTEX
  5
88D
  8
LAYER01
  6
CONTINUOUS
 62
     7
 10
2771.7634440000002
 20
-381.372028
 30
0.0
  0
VERTEX
  5
88E
  8
LAYER01
  6
CONTINUOUS
 62
     7
 10
2771.7634440000002
 20
-177.11403799999999
 30
0.0
  0
VERTEX
  5
88F
  8
LAYER01
  6
CONTINUOUS
 62
     7
 10
2812.2296489999999
 20
-177.11403799999999
 30
0.0
  0
VERTEX
  5
890
  8
LAYER01
  6
CONTINUOUS
 62
     7
 10
2812.2296489999999
 20
-383.29899
 30
0.0
  0
VERTEX
  5
891
  8
LAYER01
  6
CONTINUOUS
 62
     7
 10
2725.5163510000002
 20
-383.29899
 30
0.0
  0
VERTEX
  5
892
  8
LAYER01
  6
CONTINUOUS
 62
     7
 10
2641.6934970000002
 20
-276.35259000000002
 30
0.0
  0
VERTEX
  5
893
  8
LAYER01
  6
CONTINUOUS
 62
     7
 10
2684.0866649999998
 20
-276.35259000000002
 30
0.0
  0
VERTEX
  5
894
  8
LAYER01
  6
CONTINUOUS
 62
     7
 10
2684.0866649999998
 20
-276.35259000000002
 30
0.0
  0
VERTEX
  5
895
  8
LAYER01
  6
CONTINUOUS
 62
     7
 10
2689.8675510000012
 20
-275.38910900000002
 30
0.0
  0
VERTEX
  5
896
  8
LAYER01
  6
CONTINUOUS
 62
     7
 10
2695.6484380000002
 20
-273.46214600000002
 30
0.0
  0
VERTEX
  5
897
  8
LAYER01
  6
CONTINUOUS
 62
     7
 10
2700.4658429999999
 20
-270.57170300000001
 30
0.0
  0
VERTEX
  5
898
  8
LAYER01
  6
CONTINUOUS
 62
     7
 10
2705.2832490000001
 20
-266.71777900000001
 30
0.0
  0
VERTEX
  5
899
  8
LAYER01
  6
CONTINUOUS
 62
     7
 10
2708.1736920000012
 20
-261.900373
 30
0.0
  0
VERTEX
  5
89A
  8
LAYER01
  6
CONTINUOUS
 62
     7
 10
2711.0641350000001
 20
-256.11948699999999
 30
0.0
  0
VERTEX
  5
89B
  8
LAYER01
  6
CONTINUOUS
 62
     7
 10
2712.9910970000001
 20
-250.33860000000001
 30
0.0
  0
VERTEX
  5
89C
  8
LAYER01
  6
CONTINUOUS
 62
     7
 10
2712.9910970000001
 20
-243.594233
 30
0.0
  0
VERTEX
  5
89D
  8
LAYER01
  6
CONTINUOUS
 62
     7
 10
2712.9910970000001
 20
-243.594233
 30
0.0
  0
VERTEX
  5
89E
  8
LAYER01
  6
CONTINUOUS
 62
     7
 10
2712.9910970000001
 20
-237.813346
 30
0.0
  0
VERTEX
  5
89F
  8
LAYER01
  6
CONTINUOUS
 62
     7
 10
2711.0641350000001
 20
-232.03245999999999
 30
0.0
  0
VERTEX
  5
8A0
  8
LAYER01
  6
CONTINUOUS
 62
     7
 10
2709.1371730000001
 20
-226.25157300000001
 30
0.0
  0
VERTEX
  5
8A1
  8
LAYER01
  6
CONTINUOUS
 62
     7
 10
2705.2832490000001
 20
-221.434168
 30
0.0
  0
VERTEX
  5
8A2
  8
LAYER01
  6
CONTINUOUS
 62
     7
 10
2701.4293240000002
 20
-217.580243
 30
0.0
  0
VERTEX
  5
8A3
  8
LAYER01
  6
CONTINUOUS
 62
     7
 10
2695.6484380000002
 20
-214.68979999999999
 30
0.0
  0
VERTEX
  5
8A4
  8
LAYER01
  6
CONTINUOUS
 62
     7
 10
2689.8675510000012
 20
-212.76283799999999
 30
0.0
  0
VERTEX
  5
8A5
  8
LAYER01
  6
CONTINUOUS
 62
     7
 10
2684.0866649999998
 20
-211.79935699999999
 30
0.0
  0
VERTEX
  5
8A6
  8
LAYER01
  6
CONTINUOUS
 62
     7
 10
2630.1317239999998
 20
-211.79935699999999
 30
0.0
  0
VERTEX
  5
8A7
  8
LAYER01
  6
CONTINUOUS
 62
     7
 10
2630.1317239999998
 20
-383.29899
 30
0.0
  0
VERTEX
  5
8A8
  8
LAYER01
  6
CONTINUOUS
 62
     7
 10
2560.7610850000001
 20
-383.29899
 30
0.0
  0
VERTEX
  5
8A9
  8
LAYER01
  6
CONTINUOUS
 62
     7
 10
2531.8566529999998
 20
-321.63620100000003
 30
0.0
  0
VERTEX
  5
8AA
  8
LAYER01
  6
CONTINUOUS
 62
     7
 10
2437.4355059999998
 20
-321.63620100000003
 30
0.0
  0
VERTEX
  5
8AB
  8
LAYER01
  6
CONTINUOUS
 62
     7
 10
2437.4355059999998
 20
-321.63620100000003
 30
0.0
  0
SEQEND
  5
8AC
  8
LAYER01
  6
CONTINUOUS
 62
     7
  0
POLYLINE
  5
237
  8
LAYER01
  6
CONTINUOUS
 62
     7
 66
     1
 10
0.0
 20
0.0
 30
0.0
 70
     1
  0
VERTEX
  5
8AD
  8
LAYER01
  6
CONTINUOUS
 62
     7
 10
2999.14498
 20
-190.60277300000001
 30
0.0
  0
VERTEX
  5
8AE
  8
LAYER01
  6
CONTINUOUS
 62
     7
 10
2973.130991
 20
-223.36113
 30
0.0
  0
VERTEX
  5
8AF
  8
LAYER01
  6
CONTINUOUS
 62
     7
 10
2973.130991
 20
-223.36113
 30
0.0
  0
VERTEX
  5
8B0
  8
LAYER01
  6
CONTINUOUS
 62
     7
 10
2964.4596609999999
 20
-217.580243
 30
0.0
  0
VERTEX
  5
8B1
  8
LAYER01
  6
CONTINUOUS
 62
     7
 10
2955.7883310000002
 20
-212.76283799999999
 30
0.0
  0
VERTEX
  5
8B2
  8
LAYER01
  6
CONTINUOUS
 62
     7
 10
2946.1535210000002
 20
-209.87239500000001
 30
0.0
  0
VERTEX
  5
8B3
  8
LAYER01
  6
CONTINUOUS
 62
     7
 10
2935.5552290000001
 20
-209.87239500000001
 30
0.0
  0
VERTEX
  5
8B4
  8
LAYER01
  6
CONTINUOUS
 62
     7
 10
2935.5552290000001
 20
-209.87239500000001
 30
0.0
  0
VERTEX
  5
8B5
  8
LAYER01
  6
CONTINUOUS
 62
     7
 10
2928.8108609999999
 20
-209.87239500000001
 30
0.0
  0
VERTEX
  5
8B6
  8
LAYER01
  6
CONTINUOUS
 62
     7
 10
2922.0664929999998
 20
-210.83587600000001
 30
0.0
  0
VERTEX
  5
8B7
  8
LAYER01
  6
CONTINUOUS
 62
     7
 10
2915.322126
 20
-212.76283799999999
 30
0.0
  0
VERTEX
  5
8B8
  8
LAYER01
  6
CONTINUOUS
 62
     7
 10
2908.5777579999999
 20
-215.65328099999999
 30
0.0
  0
VERTEX
  5
8B9
  8
LAYER01
  6
CONTINUOUS
 62
     7
 10
2902.7968719999999
 20
-218.543724
 30
0.0
  0
VERTEX
  5
8BA
  8
LAYER01
  6
CONTINUOUS
 62
     7
 10
2897.9794660000011
 20
-222.397649
 30
0.0
  0
VERTEX
  5
8BB
  8
LAYER01
  6
CONTINUOUS
 62
     7
 10
2892.1985800000002
 20
-226.25157300000001
 30
0.0
  0
VERTEX
  5
8BC
  8
LAYER01
  6
CONTINUOUS
 62
     7
 10
2888.3446549999999
 20
-231.06897900000001
 30
0.0
  0
VERTEX
  5
8BD
  8
LAYER01
  6
CONTINUOUS
 62
     7
 10
2883.5272500000001
 20
-236.84986499999999
 30
0.0
  0
VERTEX
  5
8BE
  8
LAYER01
  6
CONTINUOUS
 62
     7
 10
2880.6368069999999
 20
-242.630752
 30
0.0
  0
VERTEX
  5
8BF
  8
LAYER01
  6
CONTINUOUS
 62
     7
 10
2876.782882
 20
-248.41163800000001
 30
0.0
  0
VERTEX
  5
8C0
  8
LAYER01
  6
CONTINUOUS
 62
     7
 10
2873.8924390000002
 20
-254.19252499999999
 30
0.0
  0
VERTEX
  5
8C1
  8
LAYER01
  6
CONTINUOUS
 62
     7
 10
2871.9654770000002
 20
-260.936892
 30
0.0
  0
VERTEX
  5
8C2
  8
LAYER01
  6
CONTINUOUS
 62
     7
 10
2871.001996
 20
-267.68126000000001
 30
0.0
  0
VERTEX
  5
8C3
  8
LAYER01
  6
CONTINUOUS
 62
     7
 10
2870.0385150000002
 20
-274.42562700000002
 30
0.0
  0
VERTEX
  5
8C4
  8
LAYER01
  6
CONTINUOUS
 62
     7
 10
2869.0750330000001
 20
-282.13347599999997
 30
0.0
  0
VERTEX
  5
8C5
  8
LAYER01
  6
CONTINUOUS
 62
     7
 10
2869.0750330000001
 20
-282.13347599999997
 30
0.0
  0
VERTEX
  5
8C6
  8
LAYER01
  6
CONTINUOUS
 62
     7
 10
2870.0385150000002
 20
-288.87784399999998
 30
0.0
  0
VERTEX
  5
8C7
  8
LAYER01
  6
CONTINUOUS
 62
     7
 10
2871.001996
 20
-295.62221099999999
 30
0.0
  0
VERTEX
  5
8C8
  8
LAYER01
  6
CONTINUOUS
 62
     7
 10
2871.9654770000002
 20
-302.366579
 30
0.0
  0
VERTEX
  5
8C9
  8
LAYER01
  6
CONTINUOUS
 62
     7
 10
2874.85592
 20
-308.14746600000001
 30
0.0
  0
VERTEX
  5
8CA
  8
LAYER01
  6
CONTINUOUS
 62
     7
 10
2876.782882
 20
-313.92835200000002
 30
0.0
  0
VERTEX
  5
8CB
  8
LAYER01
  6
CONTINUOUS
 62
     7
 10
2880.6368069999999
 20
-319.70923900000003
 30
0.0
  0
VERTEX
  5
8CC
  8
LAYER01
  6
CONTINUOUS
 62
     7
 10
2884.4907309999999
 20
-325.49012499999998
 30
0.0
  0
VERTEX
  5
8CD
  8
LAYER01
  6
CONTINUOUS
 62
     7
 10
2888.3446549999999
 20
-330.30753099999998
 30
0.0
  0
VERTEX
  5
8CE
  8
LAYER01
  6
CONTINUOUS
 62
     7
 10
2893.162061
 20
-335.12493599999999
 30
0.0
  0
VERTEX
  5
8CF
  8
LAYER01
  6
CONTINUOUS
 62
     7
 10
2897.9794660000011
 20
-338.97886
 30
0.0
  0
VERTEX
  5
8D0
  8
LAYER01
  6
CONTINUOUS
 62
     7
 10
2903.7603530000001
 20
-341.869304
 30
0.0
  0
VERTEX
  5
8D1
  8
LAYER01
  6
CONTINUOUS
 62
     7
 10
2909.541239000001
 20
-344.759747
 30
0.0
  0
VERTEX
  5
8D2
  8
LAYER01
  6
CONTINUOUS
 62
     7
 10
2916.2856070000012
 20
-347.65019000000001
 30
0.0
  0
VERTEX
  5
8D3
  8
LAYER01
  6
CONTINUOUS
 62
     7
 10
2922.0664929999998
 20
-349.57715200000001
 30
0.0
  0
VERTEX
  5
8D4
  8
LAYER01
  6
CONTINUOUS
 62
     7
 10
2928.8108609999999
 20
-350.54063300000001
 30
0.0
  0
VERTEX
  5
8D5
  8
LAYER01
  6
CONTINUOUS
 62
     7
 10
2936.5187100000012
 20
-350.54063300000001
 30
0.0
  0
VERTEX
  5
8D6
  8
LAYER01
  6
CONTINUOUS
 62
     7
 10
2936.5187100000012
 20
-350.54063300000001
 30
0.0
  0
VERTEX
  5
8D7
  8
LAYER01
  6
CONTINUOUS
 62
     7
 10
2947.117002
 20
-349.57715200000001
 30
0.0
  0
VERTEX
  5
8D8
  8
LAYER01
  6
CONTINUOUS
 62
     7
 10
2955.7883310000002
 20
-347.65019000000001
 30
0.0
  0
VERTEX
  5
8D9
  8
LAYER01
  6
CONTINUOUS
 62
     7
 10
2964.4596609999999
 20
-342.832785
 30
0.0
  0
VERTEX
  5
8DA
  8
LAYER01
  6
CONTINUOUS
 62
     7
 10
2973.130991
 20
-337.05189799999999
 30
0.0
  0
VERTEX
  5
8DB
  8
LAYER01
  6
CONTINUOUS
 62
     7
 10
2998.1814989999998
 20
-370.77373599999999
 30
0.0
  0
VERTEX
  5
8DC
  8
LAYER01
  6
CONTINUOUS
 62
     7
 10
2998.1814989999998
 20
-370.77373599999999
 30
0.0
  0
VERTEX
  5
8DD
  8
LAYER01
  6
CONTINUOUS
 62
     7
 10
2983.7292830000001
 20
-379.445066
 30
0.0
  0
VERTEX
  5
8DE
  8
LAYER01
  6
CONTINUOUS
 62
     7
 10
2976.0214340000002
 20
-382.335509
 30
0.0
  0
VERTEX
  5
8DF
  8
LAYER01
  6
CONTINUOUS
 62
     7
 10
2969.277067
 20
-385.225953
 30
0.0
  0
VERTEX
  5
8E0
  8
LAYER01
  6
CONTINUOUS
 62
     7
 10
2961.5692180000001
 20
-387.15291500000001
 30
0.0
  0
VERTEX
  5
8E1
  8
LAYER01
  6
CONTINUOUS
 62
     7
 10
2953.8613690000002
 20
-388.11639600000001
 30
0.0
  0
VERTEX
  5
8E2
  8
LAYER01
  6
CONTINUOUS
 62
     7
 10
2936.5187100000012
 20
-389.07987700000001
 30
0.0
  0
VERTEX
  5
8E3
  8
LAYER01
  6
CONTINUOUS
 62
     7
 10
2936.5187100000012
 20
-389.07987700000001
 30
0.0
  0
VERTEX
  5
8E4
  8
LAYER01
  6
CONTINUOUS
 62
     7
 10
2924.9569369999999
 20
-388.11639600000001
 30
0.0
  0
VERTEX
  5
8E5
  8
LAYER01
  6
CONTINUOUS
 62
     7
 10
2914.3586449999998
 20
-386.18943400000001
 30
0.0
  0
VERTEX
  5
8E6
  8
LAYER01
  6
CONTINUOUS
 62
     7
 10
2903.7603530000001
 20
-384.262472
 30
0.0
  0
VERTEX
  5
8E7
  8
LAYER01
  6
CONTINUOUS
 62
     7
 10
2894.1255420000011
 20
-380.408547
 30
0.0
  0
VERTEX
  5
8E8
  8
LAYER01
  6
CONTINUOUS
 62
     7
 10
2884.4907309999999
 20
-375.59114199999999
 30
0.0
  0
VERTEX
  5
8E9
  8
LAYER01
  6
CONTINUOUS
 62
     7
 10
2875.8194010000011
 20
-370.77373599999999
 30
0.0
  0
VERTEX
  5
8EA
  8
LAYER01
  6
CONTINUOUS
 62
     7
 10
2867.1480710000001
 20
-364.02936899999997
 30
0.0
  0
VERTEX
  5
8EB
  8
LAYER01
  6
CONTINUOUS
 62
     7
 10
2859.4402230000001
 20
-357.28500100000002
 30
0.0
  0
VERTEX
  5
8EC
  8
LAYER01
  6
CONTINUOUS
 62
     7
 10
2851.7323740000002
 20
-349.57715200000001
 30
0.0
  0
VERTEX
  5
8ED
  8
LAYER01
  6
CONTINUOUS
 62
     7
 10
2845.9514870000012
 20
-340.905823
 30
0.0
  0
VERTEX
  5
8EE
  8
LAYER01
  6
CONTINUOUS
 62
     7
 10
2840.1706009999998
 20
-332.23449299999999
 30
0.0
  0
VERTEX
  5
8EF
  8
LAYER01
  6
CONTINUOUS
 62
     7
 10
2835.3531950000001
 20
-322.59968199999997
 30
0.0
  0
VERTEX
  5
8F0
  8
LAYER01
  6
CONTINUOUS
 62
     7
 10
2832.4627519999999
 20
-312.96487100000002
 30
0.0
  0
VERTEX
  5
8F1
  8
LAYER01
  6
CONTINUOUS
 62
     7
 10
2829.5723090000001
 20
-302.366579
 30
0.0
  0
VERTEX
  5
8F2
  8
LAYER01
  6
CONTINUOUS
 62
     7
 10
2827.6453470000001
 20
-291.76828699999999
 30
0.0
  0
VERTEX
  5
8F3
  8
LAYER01
  6
CONTINUOUS
 62
     7
 10
2826.6818659999999
 20
-280.20651400000003
 30
0.0
  0
VERTEX
  5
8F4
  8
LAYER01
  6
CONTINUOUS
 62
     7
 10
2826.6818659999999
 20
-280.20651400000003
 30
0.0
  0
VERTEX
  5
8F5
  8
LAYER01
  6
CONTINUOUS
 62
     7
 10
2827.6453470000001
 20
-269.60822200000001
 30
0.0
  0
VERTEX
  5
8F6
  8
LAYER01
  6
CONTINUOUS
 62
     7
 10
2829.5723090000001
 20
-258.046449
 30
0.0
  0
VERTEX
  5
8F7
  8
LAYER01
  6
CONTINUOUS
 62
     7
 10
2831.4992710000001
 20
-248.41163800000001
 30
0.0
  0
VERTEX
  5
8F8
  8
LAYER01
  6
CONTINUOUS
 62
     7
 10
2835.3531950000001
 20
-237.813346
 30
0.0
  0
VERTEX
  5
8F9
  8
LAYER01
  6
CONTINUOUS
 62
     7
 10
2840.1706009999998
 20
-228.17853500000001
 30
0.0
  0
VERTEX
  5
8FA
  8
LAYER01
  6
CONTINUOUS
 62
     7
 10
2844.988006
 20
-219.507205
 30
0.0
  0
VERTEX
  5
8FB
  8
LAYER01
  6
CONTINUOUS
 62
     7
 10
2851.7323740000002
 20
-210.83587600000001
 30
0.0
  0
VERTEX
  5
8FC
  8
LAYER01
  6
CONTINUOUS
 62
     7
 10
2858.4767419999998
 20
-203.128027
 30
0.0
  0
VERTEX
  5
8FD
  8
LAYER01
  6
CONTINUOUS
 62
     7
 10
2866.1845899999998
 20
-196.38365899999999
 30
0.0
  0
VERTEX
  5
8FE
  8
LAYER01
  6
CONTINUOUS
 62
     7
 10
2874.85592
 20
-189.63929200000001
 30
0.0
  0
VERTEX
  5
8FF
  8
LAYER01
  6
CONTINUOUS
 62
     7
 10
2883.5272500000001
 20
-184.82188600000001
 30
0.0
  0
VERTEX
  5
900
  8
LAYER01
  6
CONTINUOUS
 62
     7
 10
2893.162061
 20
-180.004481
 30
0.0
  0
VERTEX
  5
901
  8
LAYER01
  6
CONTINUOUS
 62
     7
 10
2902.7968719999999
 20
-176.15055699999999
 30
0.0
  0
VERTEX
  5
902
  8
LAYER01
  6
CONTINUOUS
 62
     7
 10
2913.395164
 20
-173.26011299999999
 30
0.0
  0
VERTEX
  5
903
  8
LAYER01
  6
CONTINUOUS
 62
     7
 10
2924.9569369999999
 20
-172.29663199999999
 30
0.0
  0
VERTEX
  5
904
  8
LAYER01
  6
CONTINUOUS
 62
     7
 10
2935.5552290000001
 20
-171.33315099999999
 30
0.0
  0
VERTEX
  5
905
  8
LAYER01
  6
CONTINUOUS
 62
     7
 10
2935.5552290000001
 20
-171.33315099999999
 30
0.0
  0
VERTEX
  5
906
  8
LAYER01
  6
CONTINUOUS
 62
     7
 10
2952.897888
 20
-172.29663199999999
 30
0.0
  0
VERTEX
  5
907
  8
LAYER01
  6
CONTINUOUS
 62
     7
 10
2961.5692180000001
 20
-173.26011299999999
 30
0.0
  0
VERTEX
  5
908
  8
LAYER01
  6
CONTINUOUS
 62
     7
 10
2969.277067
 20
-175.18707499999999
 30
0.0
  0
VERTEX
  5
909
  8
LAYER01
  6
CONTINUOUS
 62
     7
 10
2976.0214340000002
 20
-178.077519
 30
0.0
  0
VERTEX
  5
90A
  8
LAYER01
  6
CONTINUOUS
 62
     7
 10
2983.7292830000001
 20
-180.967962
 30
0.0
  0
VERTEX
  5
90B
  8
LAYER01
  6
CONTINUOUS
 62
     7
 10
2991.437132
 20
-185.78536700000001
 30
0.0
  0
VERTEX
  5
90C
  8
LAYER01
  6
CONTINUOUS
 62
     7
 10
2999.14498
 20
-190.60277300000001
 30
0.0
  0
VERTEX
  5
90D
  8
LAYER01
  6
CONTINUOUS
 62
     7
 10
2999.14498
 20
-190.60277300000001
 30
0.0
  0
SEQEND
  5
90E
  8
LAYER01
  6
CONTINUOUS
 62
     7
  0
POLYLINE
  5
29A
  8
LAYER01
  6
CONTINUOUS
 62
     7
 66
     1
 10
0.0
 20
0.0
 30
0.0
 70
     1
  0
VERTEX
  5
90F
  8
LAYER01
  6
CONTINUOUS
 62
     7
 10
3092.6026459999998
 20
-172.29663199999999
 30
0.0
  0
VERTEX
  5
910
  8
LAYER01
  6
CONTINUOUS
 62
     7
 10
3092.6026459999998
 20
-172.29663199999999
 30
0.0
  0
VERTEX
  5
911
  8
LAYER01
  6
CONTINUOUS
 62
     7
 10
3082.0043540000001
 20
-173.26011299999999
 30
0.0
  0
VERTEX
  5
912
  8
LAYER01
  6
CONTINUOUS
 62
     7
 10
3070.4425809999998
 20
-174.22359399999999
 30
0.0
  0
VERTEX
  5
913
  8
LAYER01
  6
CONTINUOUS
 62
     7
 10
3060.8077699999999
 20
-177.11403799999999
 30
0.0
  0
VERTEX
  5
914
  8
LAYER01
  6
CONTINUOUS
 62
     7
 10
3050.2094780000011
 20
-180.967962
 30
0.0
  0
VERTEX
  5
915
  8
LAYER01
  6
CONTINUOUS
 62
     7
 10
3040.5746669999999
 20
-184.82188600000001
 30
0.0
  0
VERTEX
  5
916
  8
LAYER01
  6
CONTINUOUS
 62
     7
 10
3031.9033370000011
 20
-190.60277300000001
 30
0.0
  0
VERTEX
  5
917
  8
LAYER01
  6
CONTINUOUS
 62
     7
 10
3023.232008
 20
-196.38365899999999
 30
0.0
  0
VERTEX
  5
918
  8
LAYER01
  6
CONTINUOUS
 62
     7
 10
3015.5241590000001
 20
-204.091508
 30
0.0
  0
VERTEX
  5
919
  8
LAYER01
  6
CONTINUOUS
 62
     7
 10
3008.7797909999999
 20
-211.79935699999999
 30
0.0
  0
VERTEX
  5
91A
  8
LAYER01
  6
CONTINUOUS
 62
     7
 10
3002.0354240000001
 20
-219.507205
 30
0.0
  0
VERTEX
  5
91B
  8
LAYER01
  6
CONTINUOUS
 62
     7
 10
2996.2545369999998
 20
-228.17853500000001
 30
0.0
  0
VERTEX
  5
91C
  8
LAYER01
  6
CONTINUOUS
 62
     7
 10
2991.437132
 20
-237.813346
 30
0.0
  0
VERTEX
  5
91D
  8
LAYER01
  6
CONTINUOUS
 62
     7
 10
2988.5466879999999
 20
-248.41163800000001
 30
0.0
  0
VERTEX
  5
91E
  8
LAYER01
  6
CONTINUOUS
 62
     7
 10
2985.6562450000001
 20
-258.046449
 30
0.0
  0
VERTEX
  5
91F
  8
LAYER01
  6
CONTINUOUS
 62
     7
 10
2983.7292830000001
 20
-269.60822200000001
 30
0.0
  0
VERTEX
  5
920
  8
LAYER01
  6
CONTINUOUS
 62
     7
 10
2982.7658019999999
 20
-280.20651400000003
 30
0.0
  0
VERTEX
  5
921
  8
LAYER01
  6
CONTINUOUS
 62
     7
 10
2982.7658019999999
 20
-280.20651400000003
 30
0.0
  0
VERTEX
  5
922
  8
LAYER01
  6
CONTINUOUS
 62
     7
 10
2983.7292830000001
 20
-291.76828699999999
 30
0.0
  0
VERTEX
  5
923
  8
LAYER01
  6
CONTINUOUS
 62
     7
 10
2984.6927639999999
 20
-302.366579
 30
0.0
  0
VERTEX
  5
924
  8
LAYER01
  6
CONTINUOUS
 62
     7
 10
2987.5832070000001
 20
-312.96487100000002
 30
0.0
  0
VERTEX
  5
925
  8
LAYER01
  6
CONTINUOUS
 62
     7
 10
2991.437132
 20
-322.59968199999997
 30
0.0
  0
VERTEX
  5
926
  8
LAYER01
  6
CONTINUOUS
 62
     7
 10
2995.291056
 20
-332.23449299999999
 30
0.0
  0
VERTEX
  5
927
  8
LAYER01
  6
CONTINUOUS
 62
     7
 10
3001.0719429999999
 20
-340.905823
 30
0.0
  0
VERTEX
  5
928
  8
LAYER01
  6
CONTINUOUS
 62
     7
 10
3006.8528289999999
 20
-349.57715200000001
 30
0.0
  0
VERTEX
  5
929
  8
LAYER01
  6
CONTINUOUS
 62
     7
 10
3013.5971970000001
 20
-357.28500100000002
 30
0.0
  0
VERTEX
  5
92A
  8
LAYER01
  6
CONTINUOUS
 62
     7
 10
3021.3050450000001
 20
-364.99284999999998
 30
0.0
  0
VERTEX
  5
92B
  8
LAYER01
  6
CONTINUOUS
 62
     7
 10
3029.9763750000002
 20
-370.77373599999999
 30
0.0
  0
VERTEX
  5
92C
  8
LAYER01
  6
CONTINUOUS
 62
     7
 10
3038.6477049999999
 20
-376.55462299999999
 30
0.0
  0
VERTEX
  5
92D
  8
LAYER01
  6
CONTINUOUS
 62
     7
 10
3048.2825160000002
 20
-381.372028
 30
0.0
  0
VERTEX
  5
92E
  8
LAYER01
  6
CONTINUOUS
 62
     7
 10
3057.9173270000001
 20
-385.225953
 30
0.0
  0
VERTEX
  5
92F
  8
LAYER01
  6
CONTINUOUS
 62
     7
 10
3068.5156190000012
 20
-387.15291500000001
 30
0.0
  0
VERTEX
  5
930
  8
LAYER01
  6
CONTINUOUS
 62
     7
 10
3079.1139109999999
 20
-389.07987700000001
 30
0.0
  0
VERTEX
  5
931
  8
LAYER01
  6
CONTINUOUS
 62
     7
 10
3089.712203
 20
-390.04335800000001
 30
0.0
  0
VERTEX
  5
932
  8
LAYER01
  6
CONTINUOUS
 62
     7
 10
3089.712203
 20
-390.04335800000001
 30
0.0
  0
VERTEX
  5
933
  8
LAYER01
  6
CONTINUOUS
 62
     7
 10
3101.2739759999999
 20
-389.07987700000001
 30
0.0
  0
VERTEX
  5
934
  8
LAYER01
  6
CONTINUOUS
 62
     7
 10
3111.8722680000001
 20
-387.15291500000001
 30
0.0
  0
VERTEX
  5
935
  8
LAYER01
  6
CONTINUOUS
 62
     7
 10
3122.4705600000002
 20
-384.262472
 30
0.0
  0
VERTEX
  5
936
  8
LAYER01
  6
CONTINUOUS
 62
     7
 10
3132.1053710000001
 20
-380.408547
 30
0.0
  0
VERTEX
  5
937
  8
LAYER01
  6
CONTINUOUS
 62
     7
 10
3141.7401810000001
 20
-375.59114199999999
 30
0.0
  0
VERTEX
  5
938
  8
LAYER01
  6
CONTINUOUS
 62
     7
 10
3150.4115109999998
 20
-369.81025499999998
 30
0.0
  0
VERTEX
  5
939
  8
LAYER01
  6
CONTINUOUS
 62
     7
 10
3159.0828409999999
 20
-364.02936899999997
 30
0.0
  0
VERTEX
  5
93A
  8
LAYER01
  6
CONTINUOUS
 62
     7
 10
3166.7906899999998
 20
-356.32152000000002
 30
0.0
  0
VERTEX
  5
93B
  8
LAYER01
  6
CONTINUOUS
 62
     7
 10
3173.5350570000001
 20
-348.61367100000001
 30
0.0
  0
VERTEX
  5
93C
  8
LAYER01
  6
CONTINUOUS
 62
     7
 10
3179.3159439999999
 20
-339.942341
 30
0.0
  0
VERTEX
  5
93D
  8
LAYER01
  6
CONTINUOUS
 62
     7
 10
3184.1333490000002
 20
-331.27101199999998
 30
0.0
  0
VERTEX
  5
93E
  8
LAYER01
  6
CONTINUOUS
 62
     7
 10
3188.9507549999998
 20
-321.63620100000003
 30
0.0
  0
VERTEX
  5
93F
  8
LAYER01
  6
CONTINUOUS
 62
     7
 10
3192.8046789999999
 20
-311.03790900000001
 30
0.0
  0
VERTEX
  5
940
  8
LAYER01
  6
CONTINUOUS
 62
     7
 10
3194.7316409999999
 20
-300.439617
 30
0.0
  0
VERTEX
  5
941
  8
LAYER01
  6
CONTINUOUS
 62
     7
 10
3195.6951220000001
 20
-289.84132499999998
 30
0.0
  0
VERTEX
  5
942
  8
LAYER01
  6
CONTINUOUS
 62
     7
 10
3196.6586030000012
 20
-278.27955200000002
 30
0.0
  0
VERTEX
  5
943
  8
LAYER01
  6
CONTINUOUS
 62
     7
 10
3196.6586030000012
 20
-278.27955200000002
 30
0.0
  0
VERTEX
  5
944
  8
LAYER01
  6
CONTINUOUS
 62
     7
 10
3195.6951220000001
 20
-267.68126000000001
 30
0.0
  0
VERTEX
  5
945
  8
LAYER01
  6
CONTINUOUS
 62
     7
 10
3193.7681600000001
 20
-257.08296799999999
 30
0.0
  0
VERTEX
  5
946
  8
LAYER01
  6
CONTINUOUS
 62
     7
 10
3190.8777170000012
 20
-247.44815700000001
 30
0.0
  0
VERTEX
  5
947
  8
LAYER01
  6
CONTINUOUS
 62
     7
 10
3187.9872740000001
 20
-237.813346
 30
0.0
  0
VERTEX
  5
948
  8
LAYER01
  6
CONTINUOUS
 62
     7
 10
3183.169868
 20
-229.14201600000001
 30
0.0
  0
VERTEX
  5
949
  8
LAYER01
  6
CONTINUOUS
 62
     7
 10
3178.3524630000002
 20
-220.470687
 30
0.0
  0
VERTEX
  5
94A
  8
LAYER01
  6
CONTINUOUS
 62
     7
 10
3172.5715760000012
 20
-211.79935699999999
 30
0.0
  0
VERTEX
  5
94B
  8
LAYER01
  6
CONTINUOUS
 62
     7
 10
3165.827209
 20
-205.05498900000001
 30
0.0
  0
VERTEX
  5
94C
  8
LAYER01
  6
CONTINUOUS
 62
     7
 10
3158.1193600000011
 20
-198.310622
 30
0.0
  0
VERTEX
  5
94D
  8
LAYER01
  6
CONTINUOUS
 62
     7
 10
3150.4115109999998
 20
-191.56625399999999
 30
0.0
  0
VERTEX
  5
94E
  8
LAYER01
  6
CONTINUOUS
 62
     7
 10
3141.7401810000001
 20
-186.74884800000001
 30
0.0
  0
VERTEX
  5
94F
  8
LAYER01
  6
CONTINUOUS
 62
     7
 10
3133.0688519999999
 20
-181.931443
 30
0.0
  0
VERTEX
  5
950
  8
LAYER01
  6
CONTINUOUS
 62
     7
 10
3123.434041
 20
-178.077519
 30
0.0
  0
VERTEX
  5
951
  8
LAYER01
  6
CONTINUOUS
 62
     7
 10
3113.7992300000001
 20
-175.18707499999999
 30
0.0
  0
VERTEX
  5
952
  8
LAYER01
  6
CONTINUOUS
 62
     7
 10
3103.200938
 20
-173.26011299999999
 30
0.0
  0
VERTEX
  5
953
  8
LAYER01
  6
CONTINUOUS
 62
     7
 10
3092.6026459999998
 20
-172.29663199999999
 30
0.0
  0
VERTEX
  5
954
  8
LAYER01
  6
CONTINUOUS
 62
     7
 10
3092.6026459999998
 20
-172.29663199999999
 30
0.0
  0
SEQEND
  5
955
  8
LAYER01
  6
CONTINUOUS
 62
     7
  0
POLYLINE
  5
2E2
  8
LAYER01
  6
CONTINUOUS
 62
     7
 66
     1
 10
0.0
 20
0.0
 30
0.0
 70
     1
  0
VERTEX
  5
956
  8
LAYER01
  6
CONTINUOUS
 62
     7
 10
3089.712203
 20
-350.54063300000001
 30
0.0
  0
VERTEX
  5
957
  8
LAYER01
  6
CONTINUOUS
 62
     7
 10
3089.712203
 20
-350.54063300000001
 30
0.0
  0
VERTEX
  5
958
  8
LAYER01
  6
CONTINUOUS
 62
     7
 10
3082.9678349999999
 20
-349.57715200000001
 30
0.0
  0
VERTEX
  5
959
  8
LAYER01
  6
CONTINUOUS
 62
     7
 10
3076.2234669999998
 20
-348.61367100000001
 30
0.0
  0
VERTEX
  5
95A
  8
LAYER01
  6
CONTINUOUS
 62
     7
 10
3069.4791000000009
 20
-347.65019000000001
 30
0.0
  0
VERTEX
  5
95B
  8
LAYER01
  6
CONTINUOUS
 62
     7
 10
3062.7347319999999
 20
-344.759747
 30
0.0
  0
VERTEX
  5
95C
  8
LAYER01
  6
CONTINUOUS
 62
     7
 10
3056.9538459999999
 20
-341.869304
 30
0.0
  0
VERTEX
  5
95D
  8
LAYER01
  6
CONTINUOUS
 62
     7
 10
3051.172959
 20
-338.015379
 30
0.0
  0
VERTEX
  5
95E
  8
LAYER01
  6
CONTINUOUS
 62
     7
 10
3046.3555540000002
 20
-334.16145499999999
 30
0.0
  0
VERTEX
  5
95F
  8
LAYER01
  6
CONTINUOUS
 62
     7
 10
3041.5381480000001
 20
-329.34404999999998
 30
0.0
  0
VERTEX
  5
960
  8
LAYER01
  6
CONTINUOUS
 62
     7
 10
3036.7207429999999
 20
-324.52664399999998
 30
0.0
  0
VERTEX
  5
961
  8
LAYER01
  6
CONTINUOUS
 62
     7
 10
3032.866818
 20
-319.70923900000003
 30
0.0
  0
VERTEX
  5
962
  8
LAYER01
  6
CONTINUOUS
 62
     7
 10
3029.9763750000002
 20
-313.92835200000002
 30
0.0
  0
VERTEX
  5
963
  8
LAYER01
  6
CONTINUOUS
 62
     7
 10
3027.085932
 20
-307.18398400000001
 30
0.0
  0
VERTEX
  5
964
  8
LAYER01
  6
CONTINUOUS
 62
     7
 10
3024.1954890000002
 20
-301.403098
 30
0.0
  0
VERTEX
  5
965
  8
LAYER01
  6
CONTINUOUS
 62
     7
 10
3023.232008
 20
-294.65872999999999
 30
0.0
  0
VERTEX
  5
966
  8
LAYER01
  6
CONTINUOUS
 62
     7
 10
3021.3050450000001
 20
-287.91436299999998
 30
0.0
  0
VERTEX
  5
967
  8
LAYER01
  6
CONTINUOUS
 62
     7
 10
3021.3050450000001
 20
-280.20651400000003
 30
0.0
  0
VERTEX
  5
968
  8
LAYER01
  6
CONTINUOUS
 62
     7
 10
3021.3050450000001
 20
-280.20651400000003
 30
0.0
  0
VERTEX
  5
969
  8
LAYER01
  6
CONTINUOUS
 62
     7
 10
3022.2685270000002
 20
-273.46214600000002
 30
0.0
  0
VERTEX
  5
96A
  8
LAYER01
  6
CONTINUOUS
 62
     7
 10
3023.232008
 20
-266.71777900000001
 30
0.0
  0
VERTEX
  5
96B
  8
LAYER01
  6
CONTINUOUS
 62
     7
 10
3025.15897
 20
-259.973411
 30
0.0
  0
VERTEX
  5
96C
  8
LAYER01
  6
CONTINUOUS
 62
     7
 10
3027.085932
 20
-253.22904399999999
 30
0.0
  0
VERTEX
  5
96D
  8
LAYER01
  6
CONTINUOUS
 62
     7
 10
3029.9763750000002
 20
-247.44815700000001
 30
0.0
  0
VERTEX
  5
96E
  8
LAYER01
  6
CONTINUOUS
 62
     7
 10
3033.8303000000001
 20
-241.66727
 30
0.0
  0
VERTEX
  5
96F
  8
LAYER01
  6
CONTINUOUS
 62
     7
 10
3037.6842240000001
 20
-236.84986499999999
 30
0.0
  0
VERTEX
  5
970
  8
LAYER01
  6
CONTINUOUS
 62
     7
 10
3042.5016289999999
 20
-232.03245999999999
 30
0.0
  0
VERTEX
  5
971
  8
LAYER01
  6
CONTINUOUS
 62
     7
 10
3047.319035
 20
-227.21505400000001
 30
0.0
  0
VERTEX
  5
972
  8
LAYER01
  6
CONTINUOUS
 62
     7
 10
3052.1364400000002
 20
-223.36113
 30
0.0
  0
VERTEX
  5
973
  8
LAYER01
  6
CONTINUOUS
 62
     7
 10
3057.9173270000001
 20
-219.507205
 30
0.0
  0
VERTEX
  5
974
  8
LAYER01
  6
CONTINUOUS
 62
     7
 10
3064.6616940000008
 20
-216.61676199999999
 30
0.0
  0
VERTEX
  5
975
  8
LAYER01
  6
CONTINUOUS
 62
     7
 10
3070.4425809999998
 20
-214.68979999999999
 30
0.0
  0
VERTEX
  5
976
  8
LAYER01
  6
CONTINUOUS
 62
     7
 10
3077.1869489999999
 20
-212.76283799999999
 30
0.0
  0
VERTEX
  5
977
  8
LAYER01
  6
CONTINUOUS
 62
     7
 10
3083.9313160000011
 20
-211.79935699999999
 30
0.0
  0
VERTEX
  5
978
  8
LAYER01
  6
CONTINUOUS
 62
     7
 10
3091.639165
 20
-211.79935699999999
 30
0.0
  0
VERTEX
  5
979
  8
LAYER01
  6
CONTINUOUS
 62
     7
 10
3091.639165
 20
-211.79935699999999
 30
0.0
  0
VERTEX
  5
97A
  8
LAYER01
  6
CONTINUOUS
 62
     7
 10
3098.3835319999998
 20
-212.76283799999999
 30
0.0
  0
VERTEX
  5
97B
  8
LAYER01
  6
CONTINUOUS
 62
     7
 10
3105.1279
 20
-213.72631899999999
 30
0.0
  0
VERTEX
  5
97C
  8
LAYER01
  6
CONTINUOUS
 62
     7
 10
3110.9087869999998
 20
-215.65328099999999
 30
0.0
  0
VERTEX
  5
97D
  8
LAYER01
  6
CONTINUOUS
 62
     7
 10
3117.6531540000001
 20
-217.580243
 30
0.0
  0
VERTEX
  5
97E
  8
LAYER01
  6
CONTINUOUS
 62
     7
 10
3122.4705600000002
 20
-220.470687
 30
0.0
  0
VERTEX
  5
97F
  8
LAYER01
  6
CONTINUOUS
 62
     7
 10
3128.2514460000002
 20
-224.324611
 30
0.0
  0
VERTEX
  5
980
  8
LAYER01
  6
CONTINUOUS
 62
     7
 10
3133.0688519999999
 20
-228.17853500000001
 30
0.0
  0
VERTEX
  5
981
  8
LAYER01
  6
CONTINUOUS
 62
     7
 10
3137.8862570000001
 20
-232.03245999999999
 30
0.0
  0
VERTEX
  5
982
  8
LAYER01
  6
CONTINUOUS
 62
     7
 10
3141.7401810000001
 20
-236.84986499999999
 30
0.0
  0
VERTEX
  5
983
  8
LAYER01
  6
CONTINUOUS
 62
     7
 10
3145.594106
 20
-242.630752
 30
0.0
  0
VERTEX
  5
984
  8
LAYER01
  6
CONTINUOUS
 62
     7
 10
3149.44803
 20
-247.44815700000001
 30
0.0
  0
VERTEX
  5
985
  8
LAYER01
  6
CONTINUOUS
 62
     7
 10
3152.3384729999998
 20
-253.22904399999999
 30
0.0
  0
VERTEX
  5
986
  8
LAYER01
  6
CONTINUOUS
 62
     7
 10
3154.265436000001
 20
-259.973411
 30
0.0
  0
VERTEX
  5
987
  8
LAYER01
  6
CONTINUOUS
 62
     7
 10
3156.1923980000001
 20
-265.75429800000001
 30
0.0
  0
VERTEX
  5
988
  8
LAYER01
  6
CONTINUOUS
 62
     7
 10
3157.1558789999999
 20
-272.49866500000002
 30
0.0
  0
VERTEX
  5
989
  8
LAYER01
  6
CONTINUOUS
 62
     7
 10
3157.1558789999999
 20
-279.24303300000003
 30
0.0
  0
VERTEX
  5
98A
  8
LAYER01
  6
CONTINUOUS
 62
     7
 10
3157.1558789999999
 20
-279.24303300000003
 30
0.0
  0
VERTEX
  5
98B
  8
LAYER01
  6
CONTINUOUS
 62
     7
 10
3157.1558789999999
 20
-286.95088199999998
 30
0.0
  0
VERTEX
  5
98C
  8
LAYER01
  6
CONTINUOUS
 62
     7
 10
3156.1923980000001
 20
-293.69524899999999
 30
0.0
  0
VERTEX
  5
98D
  8
LAYER01
  6
CONTINUOUS
 62
     7
 10
3155.2289169999999
 20
-300.439617
 30
0.0
  0
VERTEX
  5
98E
  8
LAYER01
  6
CONTINUOUS
 62
     7
 10
3152.3384729999998
 20
-306.22050300000001
 30
0.0
  0
VERTEX
  5
98F
  8
LAYER01
  6
CONTINUOUS
 62
     7
 10
3150.4115109999998
 20
-312.96487100000002
 30
0.0
  0
VERTEX
  5
990
  8
LAYER01
  6
CONTINUOUS
 62
     7
 10
3146.5575869999998
 20
-318.74575800000002
 30
0.0
  0
VERTEX
  5
991
  8
LAYER01
  6
CONTINUOUS
 62
     7
 10
3142.7036629999998
 20
-324.52664399999998
 30
0.0
  0
VERTEX
  5
992
  8
LAYER01
  6
CONTINUOUS
 62
     7
 10
3137.8862570000001
 20
-329.34404999999998
 30
0.0
  0
VERTEX
  5
993
  8
LAYER01
  6
CONTINUOUS
 62
     7
 10
3133.0688519999999
 20
-334.16145499999999
 30
0.0
  0
VERTEX
  5
994
  8
LAYER01
  6
CONTINUOUS
 62
     7
 10
3128.2514460000002
 20
-338.015379
 30
0.0
  0
VERTEX
  5
995
  8
LAYER01
  6
CONTINUOUS
 62
     7
 10
3122.4705600000002
 20
-341.869304
 30
0.0
  0
VERTEX
  5
996
  8
LAYER01
  6
CONTINUOUS
 62
     7
 10
3116.6896729999999
 20
-344.759747
 30
0.0
  0
VERTEX
  5
997
  8
LAYER01
  6
CONTINUOUS
 62
     7
 10
3109.9453060000001
 20
-346.68670900000001
 30
0.0
  0
VERTEX
  5
998
  8
LAYER01
  6
CONTINUOUS
 62
     7
 10
3103.200938
 20
-348.61367100000001
 30
0.0
  0
VERTEX
  5
999
  8
LAYER01
  6
CONTINUOUS
 62
     7
 10
3096.4565699999998
 20
-349.57715200000001
 30
0.0
  0
VERTEX
  5
99A
  8
LAYER01
  6
CONTINUOUS
 62
     7
 10
3089.712203
 20
-350.54063300000001
 30
0.0
  0
VERTEX
  5
99B
  8
LAYER01
  6
CONTINUOUS
 62
     7
 10
3089.712203
 20
-350.54063300000001
 30
0.0
  0
SEQEND
  5
99C
  8
LAYER01
  6
CONTINUOUS
 62
     7
  0
POLYLINE
  5
32A
  8
LAYER01
  6
CONTINUOUS
 62
     7
 66
     1
 10
0.0
 20
0.0
 30
0.0
 70
     1
  0
VERTEX
  5
99D
  8
LAYER01
  6
CONTINUOUS
 62
     7
 10
3166.7906899999998
 20
-177.11403799999999
 30
0.0
  0
VERTEX
  5
99E
  8
LAYER01
  6
CONTINUOUS
 62
     7
 10
3268.9196849999998
 20
-177.11403799999999
 30
0.0
  0
VERTEX
  5
99F
  8
LAYER01
  6
CONTINUOUS
 62
     7
 10
3268.9196849999998
 20
-177.11403799999999
 30
0.0
  0
VERTEX
  5
9A0
  8
LAYER01
  6
CONTINUOUS
 62
     7
 10
3280.4814580000002
 20
-179.041
 30
0.0
  0
VERTEX
  5
9A1
  8
LAYER01
  6
CONTINUOUS
 62
     7
 10
3291.0797499999999
 20
-183.858405
 30
0.0
  0
VERTEX
  5
9A2
  8
LAYER01
  6
CONTINUOUS
 62
     7
 10
3299.75108
 20
-189.63929200000001
 30
0.0
  0
VERTEX
  5
9A3
  8
LAYER01
  6
CONTINUOUS
 62
     7
 10
3307.4589289999999
 20
-197.34714
 30
0.0
  0
VERTEX
  5
9A4
  8
LAYER01
  6
CONTINUOUS
 62
     7
 10
3314.2032960000001
 20
-205.05498900000001
 30
0.0
  0
VERTEX
  5
9A5
  8
LAYER01
  6
CONTINUOUS
 62
     7
 10
3319.0207019999989
 20
-214.68979999999999
 30
0.0
  0
VERTEX
  5
9A6
  8
LAYER01
  6
CONTINUOUS
 62
     7
 10
3321.911145
 20
-226.25157300000001
 30
0.0
  0
VERTEX
  5
9A7
  8
LAYER01
  6
CONTINUOUS
 62
     7
 10
3322.8746259999998
 20
-236.84986499999999
 30
0.0
  0
VERTEX
  5
9A8
  8
LAYER01
  6
CONTINUOUS
 62
     7
 10
3322.8746259999998
 20
-236.84986499999999
 30
0.0
  0
VERTEX
  5
9A9
  8
LAYER01
  6
CONTINUOUS
 62
     7
 10
3321.911145
 20
-248.41163800000001
 30
0.0
  0
VERTEX
  5
9AA
  8
LAYER01
  6
CONTINUOUS
 62
     7
 10
3319.9841830000009
 20
-258.046449
 30
0.0
  0
VERTEX
  5
9AB
  8
LAYER01
  6
CONTINUOUS
 62
     7
 10
3316.1302580000001
 20
-267.68126000000001
 30
0.0
  0
VERTEX
  5
9AC
  8
LAYER01
  6
CONTINUOUS
 62
     7
 10
3311.3128529999999
 20
-276.35259000000002
 30
0.0
  0
VERTEX
  5
9AD
  8
LAYER01
  6
CONTINUOUS
 62
     7
 10
3304.5684849999998
 20
-284.06043799999998
 30
0.0
  0
VERTEX
  5
9AE
  8
LAYER01
  6
CONTINUOUS
 62
     7
 10
3297.824118
 20
-289.84132499999998
 30
0.0
  0
VERTEX
  5
9AF
  8
LAYER01
  6
CONTINUOUS
 62
     7
 10
3288.189307000001
 20
-295.62221099999999
 30
0.0
  0
VERTEX
  5
9B0
  8
LAYER01
  6
CONTINUOUS
 62
     7
 10
3278.5544960000002
 20
-299.476136
 30
0.0
  0
VERTEX
  5
9B1
  8
LAYER01
  6
CONTINUOUS
 62
     7
 10
3341.1807669999998
 20
-383.29899
 30
0.0
  0
VERTEX
  5
9B2
  8
LAYER01
  6
CONTINUOUS
 62
     7
 10
3293.0067119999999
 20
-383.29899
 30
0.0
  0
VERTEX
  5
9B3
  8
LAYER01
  6
CONTINUOUS
 62
     7
 10
3209.1838579999999
 20
-276.35259000000002
 30
0.0
  0
VERTEX
  5
9B4
  8
LAYER01
  6
CONTINUOUS
 62
     7
 10
3256.3944310000002
 20
-276.35259000000002
 30
0.0
  0
VERTEX
  5
9B5
  8
LAYER01
  6
CONTINUOUS
 62
     7
 10
3256.3944310000002
 20
-276.35259000000002
 30
0.0
  0
VERTEX
  5
9B6
  8
LAYER01
  6
CONTINUOUS
 62
     7
 10
3262.1753170000002
 20
-274.42562700000002
 30
0.0
  0
VERTEX
  5
9B7
  8
LAYER01
  6
CONTINUOUS
 62
     7
 10
3266.9927229999998
 20
-272.49866500000002
 30
0.0
  0
VERTEX
  5
9B8
  8
LAYER01
  6
CONTINUOUS
 62
     7
 10
3270.8466469999998
 20
-268.64474100000001
 30
0.0
  0
VERTEX
  5
9B9
  8
LAYER01
  6
CONTINUOUS
 62
     7
 10
3274.7005720000002
 20
-264.790817
 30
0.0
  0
VERTEX
  5
9BA
  8
LAYER01
  6
CONTINUOUS
 62
     7
 10
3277.591015
 20
-259.973411
 30
0.0
  0
VERTEX
  5
9BB
  8
LAYER01
  6
CONTINUOUS
 62
     7
 10
3280.4814580000002
 20
-255.15600599999999
 30
0.0
  0
VERTEX
  5
9BC
  8
LAYER01
  6
CONTINUOUS
 62
     7
 10
3281.444939
 20
-249.37511900000001
 30
0.0
  0
VERTEX
  5
9BD
  8
LAYER01
  6
CONTINUOUS
 62
     7
 10
3281.444939
 20
-243.594233
 30
0.0
  0
VERTEX
  5
9BE
  8
LAYER01
  6
CONTINUOUS
 62
     7
 10
3281.444939
 20
-243.594233
 30
0.0
  0
VERTEX
  5
9BF
  8
LAYER01
  6
CONTINUOUS
 62
     7
 10
3281.444939
 20
-237.813346
 30
0.0
  0
VERTEX
  5
9C0
  8
LAYER01
  6
CONTINUOUS
 62
     7
 10
3279.517977
 20
-232.99594099999999
 30
0.0
  0
VERTEX
  5
9C1
  8
LAYER01
  6
CONTINUOUS
 62
     7
 10
3277.591015
 20
-228.17853500000001
 30
0.0
  0
VERTEX
  5
9C2
  8
LAYER01
  6
CONTINUOUS
 62
     7
 10
3274.7005720000002
 20
-223.36113
 30
0.0
  0
VERTEX
  5
9C3
  8
LAYER01
  6
CONTINUOUS
 62
     7
 10
3270.8466469999998
 20
-219.507205
 30
0.0
  0
VERTEX
  5
9C4
  8
LAYER01
  6
CONTINUOUS
 62
     7
 10
3266.9927229999998
 20
-216.61676199999999
 30
0.0
  0
VERTEX
  5
9C5
  8
LAYER01
  6
CONTINUOUS
 62
     7
 10
3261.2118359999999
 20
-213.72631899999999
 30
0.0
  0
VERTEX
  5
9C6
  8
LAYER01
  6
CONTINUOUS
 62
     7
 10
3256.3944310000002
 20
-211.79935699999999
 30
0.0
  0
VERTEX
  5
9C7
  8
LAYER01
  6
CONTINUOUS
 62
     7
 10
3201.476009
 20
-211.79935699999999
 30
0.0
  0
VERTEX
  5
9C8
  8
LAYER01
  6
CONTINUOUS
 62
     7
 10
3166.7906899999998
 20
-177.11403799999999
 30
0.0
  0
VERTEX
  5
9C9
  8
LAYER01
  6
CONTINUOUS
 62
     7
 10
3166.7906899999998
 20
-177.11403799999999
 30
0.0
  0
SEQEND
  5
9CA
  8
LAYER01
  6
CONTINUOUS
 62
     7
  0
POLYLINE
  5
359
  8
LAYER01
  6
CONTINUOUS
 62
     7
 66
     1
 10
0.0
 20
0.0
 30
0.0
 70
     1
  0
VERTEX
  5
9CB
  8
LAYER01
  6
CONTINUOUS
 62
     7
 10
3367.1947560000008
 20
-228.17853500000001
 30
0.0
  0
VERTEX
  5
9CC
  8
LAYER01
  6
CONTINUOUS
 62
     7
 10
3367.1947560000008
 20
-228.17853500000001
 30
0.0
  0
VERTEX
  5
9CD
  8
LAYER01
  6
CONTINUOUS
 62
     7
 10
3372.0121610000001
 20
-227.21505400000001
 30
0.0
  0
VERTEX
  5
9CE
  8
LAYER01
  6
CONTINUOUS
 62
     7
 10
3376.8295670000002
 20
-226.25157300000001
 30
0.0
  0
VERTEX
  5
9CF
  8
LAYER01
  6
CONTINUOUS
 62
     7
 10
3381.646972
 20
-223.36113
 30
0.0
  0
VERTEX
  5
9D0
  8
LAYER01
  6
CONTINUOUS
 62
     7
 10
3385.5008969999999
 20
-220.470687
 30
0.0
  0
VERTEX
  5
9D1
  8
LAYER01
  6
CONTINUOUS
 62
     7
 10
3388.3913400000001
 20
-216.61676199999999
 30
0.0
  0
VERTEX
  5
9D2
  8
LAYER01
  6
CONTINUOUS
 62
     7
 10
3390.3183020000001
 20
-212.76283799999999
 30
0.0
  0
VERTEX
  5
9D3
  8
LAYER01
  6
CONTINUOUS
 62
     7
 10
3392.2452640000001
 20
-207.94543200000001
 30
0.0
  0
VERTEX
  5
9D4
  8
LAYER01
  6
CONTINUOUS
 62
     7
 10
3392.2452640000001
 20
-202.164546
 30
0.0
  0
VERTEX
  5
9D5
  8
LAYER01
  6
CONTINUOUS
 62
     7
 10
3392.2452640000001
 20
-202.164546
 30
0.0
  0
VERTEX
  5
9D6
  8
LAYER01
  6
CONTINUOUS
 62
     7
 10
3392.2452640000001
 20
-197.34714
 30
0.0
  0
VERTEX
  5
9D7
  8
LAYER01
  6
CONTINUOUS
 62
     7
 10
3390.3183020000001
 20
-192.52973499999999
 30
0.0
  0
VERTEX
  5
9D8
  8
LAYER01
  6
CONTINUOUS
 62
     7
 10
3388.3913400000001
 20
-188.67581100000001
 30
0.0
  0
VERTEX
  5
9D9
  8
LAYER01
  6
CONTINUOUS
 62
     7
 10
3385.5008969999999
 20
-184.82188600000001
 30
0.0
  0
VERTEX
  5
9DA
  8
LAYER01
  6
CONTINUOUS
 62
     7
 10
3381.646972
 20
-181.931443
 30
0.0
  0
VERTEX
  5
9DB
  8
LAYER01
  6
CONTINUOUS
 62
     7
 10
3376.8295670000002
 20
-179.041
 30
0.0
  0
VERTEX
  5
9DC
  8
LAYER01
  6
CONTINUOUS
 62
     7
 10
3372.0121610000001
 20
-178.077519
 30
0.0
  0
VERTEX
  5
9DD
  8
LAYER01
  6
CONTINUOUS
 62
     7
 10
3367.1947560000008
 20
-177.11403799999999
 30
0.0
  0
VERTEX
  5
9DE
  8
LAYER01
  6
CONTINUOUS
 62
     7
 10
3367.1947560000008
 20
-177.11403799999999
 30
0.0
  0
VERTEX
  5
9DF
  8
LAYER01
  6
CONTINUOUS
 62
     7
 10
3362.3773510000001
 20
-178.077519
 30
0.0
  0
VERTEX
  5
9E0
  8
LAYER01
  6
CONTINUOUS
 62
     7
 10
3357.5599450000009
 20
-179.041
 30
0.0
  0
VERTEX
  5
9E1
  8
LAYER01
  6
CONTINUOUS
 62
     7
 10
3352.7425400000002
 20
-181.931443
 30
0.0
  0
VERTEX
  5
9E2
  8
LAYER01
  6
CONTINUOUS
 62
     7
 10
3348.8886149999998
 20
-184.82188600000001
 30
0.0
  0
VERTEX
  5
9E3
  8
LAYER01
  6
CONTINUOUS
 62
     7
 10
3345.9981720000001
 20
-188.67581100000001
 30
0.0
  0
VERTEX
  5
9E4
  8
LAYER01
  6
CONTINUOUS
 62
     7
 10
3344.0712100000001
 20
-192.52973499999999
 30
0.0
  0
VERTEX
  5
9E5
  8
LAYER01
  6
CONTINUOUS
 62
     7
 10
3342.1442480000001
 20
-197.34714
 30
0.0
  0
VERTEX
  5
9E6
  8
LAYER01
  6
CONTINUOUS
 62
     7
 10
3342.1442480000001
 20
-202.164546
 30
0.0
  0
VERTEX
  5
9E7
  8
LAYER01
  6
CONTINUOUS
 62
     7
 10
3342.1442480000001
 20
-202.164546
 30
0.0
  0
VERTEX
  5
9E8
  8
LAYER01
  6
CONTINUOUS
 62
     7
 10
3342.1442480000001
 20
-207.94543200000001
 30
0.0
  0
VERTEX
  5
9E9
  8
LAYER01
  6
CONTINUOUS
 62
     7
 10
3344.0712100000001
 20
-212.76283799999999
 30
0.0
  0
VERTEX
  5
9EA
  8
LAYER01
  6
CONTINUOUS
 62
     7
 10
3345.9981720000001
 20
-216.61676199999999
 30
0.0
  0
VERTEX
  5
9EB
  8
LAYER01
  6
CONTINUOUS
 62
     7
 10
3348.8886149999998
 20
-220.470687
 30
0.0
  0
VERTEX
  5
9EC
  8
LAYER01
  6
CONTINUOUS
 62
     7
 10
3352.7425400000002
 20
-223.36113
 30
0.0
  0
VERTEX
  5
9ED
  8
LAYER01
  6
CONTINUOUS
 62
     7
 10
3357.5599450000009
 20
-226.25157300000001
 30
0.0
  0
VERTEX
  5
9EE
  8
LAYER01
  6
CONTINUOUS
 62
     7
 10
3362.3773510000001
 20
-227.21505400000001
 30
0.0
  0
VERTEX
  5
9EF
  8
LAYER01
  6
CONTINUOUS
 62
     7
 10
3367.1947560000008
 20
-228.17853500000001
 30
0.0
  0
VERTEX
  5
9F0
  8
LAYER01
  6
CONTINUOUS
 62
     7
 10
3367.1947560000008
 20
-228.17853500000001
 30
0.0
  0
SEQEND
  5
9F1
  8
LAYER01
  6
CONTINUOUS
 62
     7
  0
POLYLINE
  5
381
  8
LAYER01
  6
CONTINUOUS
 62
     7
 66
     1
 10
0.0
 20
0.0
 30
0.0
 70
     1
  0
VERTEX
  5
9F2
  8
LAYER01
  6
CONTINUOUS
 62
     7
 10
3367.1947560000008
 20
-180.967962
 30
0.0
  0
VERTEX
  5
9F3
  8
LAYER01
  6
CONTINUOUS
 62
     7
 10
3367.1947560000008
 20
-180.967962
 30
0.0
  0
VERTEX
  5
9F4
  8
LAYER01
  6
CONTINUOUS
 62
     7
 10
3371.0486799999999
 20
-181.931443
 30
0.0
  0
VERTEX
  5
9F5
  8
LAYER01
  6
CONTINUOUS
 62
     7
 10
3374.9026050000002
 20
-182.894924
 30
0.0
  0
VERTEX
  5
9F6
  8
LAYER01
  6
CONTINUOUS
 62
     7
 10
3378.7565289999998
 20
-184.82188600000001
 30
0.0
  0
VERTEX
  5
9F7
  8
LAYER01
  6
CONTINUOUS
 62
     7
 10
3381.646972
 20
-187.71233000000001
 30
0.0
  0
VERTEX
  5
9F8
  8
LAYER01
  6
CONTINUOUS
 62
     7
 10
3384.5374160000001
 20
-190.60277300000001
 30
0.0
  0
VERTEX
  5
9F9
  8
LAYER01
  6
CONTINUOUS
 62
     7
 10
3386.4643780000001
 20
-194.45669699999999
 30
0.0
  0
VERTEX
  5
9FA
  8
LAYER01
  6
CONTINUOUS
 62
     7
 10
3388.3913400000001
 20
-198.310622
 30
0.0
  0
VERTEX
  5
9FB
  8
LAYER01
  6
CONTINUOUS
 62
     7
 10
3388.3913400000001
 20
-202.164546
 30
0.0
  0
VERTEX
  5
9FC
  8
LAYER01
  6
CONTINUOUS
 62
     7
 10
3388.3913400000001
 20
-202.164546
 30
0.0
  0
VERTEX
  5
9FD
  8
LAYER01
  6
CONTINUOUS
 62
     7
 10
3388.3913400000001
 20
-206.98195100000001
 30
0.0
  0
VERTEX
  5
9FE
  8
LAYER01
  6
CONTINUOUS
 62
     7
 10
3386.4643780000001
 20
-210.83587600000001
 30
0.0
  0
VERTEX
  5
9FF
  8
LAYER01
  6
CONTINUOUS
 62
     7
 10
3384.5374160000001
 20
-214.68979999999999
 30
0.0
  0
VERTEX
  5
A00
  8
LAYER01
  6
CONTINUOUS
 62
     7
 10
3381.646972
 20
-217.580243
 30
0.0
  0
VERTEX
  5
A01
  8
LAYER01
  6
CONTINUOUS
 62
     7
 10
3378.7565289999998
 20
-220.470687
 30
0.0
  0
VERTEX
  5
A02
  8
LAYER01
  6
CONTINUOUS
 62
     7
 10
3374.9026050000002
 20
-222.397649
 30
0.0
  0
VERTEX
  5
A03
  8
LAYER01
  6
CONTINUOUS
 62
     7
 10
3371.0486799999999
 20
-223.36113
 30
0.0
  0
VERTEX
  5
A04
  8
LAYER01
  6
CONTINUOUS
 62
     7
 10
3367.1947560000008
 20
-223.36113
 30
0.0
  0
VERTEX
  5
A05
  8
LAYER01
  6
CONTINUOUS
 62
     7
 10
3367.1947560000008
 20
-223.36113
 30
0.0
  0
VERTEX
  5
A06
  8
LAYER01
  6
CONTINUOUS
 62
     7
 10
3363.3408319999999
 20
-223.36113
 30
0.0
  0
VERTEX
  5
A07
  8
LAYER01
  6
CONTINUOUS
 62
     7
 10
3358.5234260000002
 20
-222.397649
 30
0.0
  0
VERTEX
  5
A08
  8
LAYER01
  6
CONTINUOUS
 62
     7
 10
3355.632983
 20
-220.470687
 30
0.0
  0
VERTEX
  5
A09
  8
LAYER01
  6
CONTINUOUS
 62
     7
 10
3351.779059
 20
-217.580243
 30
0.0
  0
VERTEX
  5
A0A
  8
LAYER01
  6
CONTINUOUS
 62
     7
 10
3349.8520960000001
 20
-214.68979999999999
 30
0.0
  0
VERTEX
  5
A0B
  8
LAYER01
  6
CONTINUOUS
 62
     7
 10
3347.9251340000001
 20
-210.83587600000001
 30
0.0
  0
VERTEX
  5
A0C
  8
LAYER01
  6
CONTINUOUS
 62
     7
 10
3345.9981720000001
 20
-206.98195100000001
 30
0.0
  0
VERTEX
  5
A0D
  8
LAYER01
  6
CONTINUOUS
 62
     7
 10
3345.9981720000001
 20
-202.164546
 30
0.0
  0
VERTEX
  5
A0E
  8
LAYER01
  6
CONTINUOUS
 62
     7
 10
3345.9981720000001
 20
-202.164546
 30
0.0
  0
VERTEX
  5
A0F
  8
LAYER01
  6
CONTINUOUS
 62
     7
 10
3345.9981720000001
 20
-198.310622
 30
0.0
  0
VERTEX
  5
A10
  8
LAYER01
  6
CONTINUOUS
 62
     7
 10
3347.9251340000001
 20
-194.45669699999999
 30
0.0
  0
VERTEX
  5
A11
  8
LAYER01
  6
CONTINUOUS
 62
     7
 10
3349.8520960000001
 20
-190.60277300000001
 30
0.0
  0
VERTEX
  5
A12
  8
LAYER01
  6
CONTINUOUS
 62
     7
 10
3351.779059
 20
-187.71233000000001
 30
0.0
  0
VERTEX
  5
A13
  8
LAYER01
  6
CONTINUOUS
 62
     7
 10
3355.632983
 20
-184.82188600000001
 30
0.0
  0
VERTEX
  5
A14
  8
LAYER01
  6
CONTINUOUS
 62
     7
 10
3358.5234260000002
 20
-182.894924
 30
0.0
  0
VERTEX
  5
A15
  8
LAYER01
  6
CONTINUOUS
 62
     7
 10
3363.3408319999999
 20
-181.931443
 30
0.0
  0
VERTEX
  5
A16
  8
LAYER01
  6
CONTINUOUS
 62
     7
 10
3367.1947560000008
 20
-180.967962
 30
0.0
  0
VERTEX
  5
A17
  8
LAYER01
  6
CONTINUOUS
 62
     7
 10
3367.1947560000008
 20
-180.967962
 30
0.0
  0
SEQEND
  5
A18
  8
LAYER01
  6
CONTINUOUS
 62
     7
  0
POLYLINE
  5
3A9
  8
LAYER01
  6
CONTINUOUS
 62
     7
 66
     1
 10
0.0
 20
0.0
 30
0.0
 70
     1
  0
VERTEX
  5
A19
  8
LAYER01
  6
CONTINUOUS
 62
     7
 10
3371.0486799999999
 20
-204.091508
 30
0.0
  0
VERTEX
  5
A1A
  8
LAYER01
  6
CONTINUOUS
 62
     7
 10
3371.0486799999999
 20
-204.091508
 30
0.0
  0
VERTEX
  5
A1B
  8
LAYER01
  6
CONTINUOUS
 62
     7
 10
3373.939124
 20
-203.128027
 30
0.0
  0
VERTEX
  5
A1C
  8
LAYER01
  6
CONTINUOUS
 62
     7
 10
3376.8295670000002
 20
-202.164546
 30
0.0
  0
VERTEX
  5
A1D
  8
LAYER01
  6
CONTINUOUS
 62
     7
 10
3378.7565289999998
 20
-199.274103
 30
0.0
  0
VERTEX
  5
A1E
  8
LAYER01
  6
CONTINUOUS
 62
     7
 10
3378.7565289999998
 20
-196.38365899999999
 30
0.0
  0
VERTEX
  5
A1F
  8
LAYER01
  6
CONTINUOUS
 62
     7
 10
3378.7565289999998
 20
-196.38365899999999
 30
0.0
  0
VERTEX
  5
A20
  8
LAYER01
  6
CONTINUOUS
 62
     7
 10
3378.7565289999998
 20
-192.52973499999999
 30
0.0
  0
VERTEX
  5
A21
  8
LAYER01
  6
CONTINUOUS
 62
     7
 10
3375.866086
 20
-189.63929200000001
 30
0.0
  0
VERTEX
  5
A22
  8
LAYER01
  6
CONTINUOUS
 62
     7
 10
3372.9756430000002
 20
-188.67581100000001
 30
0.0
  0
VERTEX
  5
A23
  8
LAYER01
  6
CONTINUOUS
 62
     7
 10
3369.1217180000008
 20
-188.67581100000001
 30
0.0
  0
VERTEX
  5
A24
  8
LAYER01
  6
CONTINUOUS
 62
     7
 10
3357.5599450000009
 20
-188.67581100000001
 30
0.0
  0
VERTEX
  5
A25
  8
LAYER01
  6
CONTINUOUS
 62
     7
 10
3357.5599450000009
 20
-216.61676199999999
 30
0.0
  0
VERTEX
  5
A26
  8
LAYER01
  6
CONTINUOUS
 62
     7
 10
3361.4138700000012
 20
-216.61676199999999
 30
0.0
  0
VERTEX
  5
A27
  8
LAYER01
  6
CONTINUOUS
 62
     7
 10
3361.4138700000012
 20
-204.091508
 30
0.0
  0
VERTEX
  5
A28
  8
LAYER01
  6
CONTINUOUS
 62
     7
 10
3367.1947560000008
 20
-204.091508
 30
0.0
  0
VERTEX
  5
A29
  8
LAYER01
  6
CONTINUOUS
 62
     7
 10
3373.939124
 20
-216.61676199999999
 30
0.0
  0
VERTEX
  5
A2A
  8
LAYER01
  6
CONTINUOUS
 62
     7
 10
3378.7565289999998
 20
-216.61676199999999
 30
0.0
  0
VERTEX
  5
A2B
  8
LAYER01
  6
CONTINUOUS
 62
     7
 10
3371.0486799999999
 20
-204.091508
 30
0.0
  0
VERTEX
  5
A2C
  8
LAYER01
  6
CONTINUOUS
 62
     7
 10
3371.0486799999999
 20
-204.091508
 30
0.0
  0
SEQEND
  5
A2D
  8
LAYER01
  6
CONTINUOUS
 62
     7
  0
POLYLINE
  5
3BF
  8
LAYER01
  6
CONTINUOUS
 62
     7
 66
     1
 10
0.0
 20
0.0
 30
0.0
 70
     1
  0
VERTEX
  5
A2E
  8
LAYER01
  6
CONTINUOUS
 62
     7
 10
3368.1582369999992
 20
-192.52973499999999
 30
0.0
  0
VERTEX
  5
A2F
  8
LAYER01
  6
CONTINUOUS
 62
     7
 10
3368.1582369999992
 20
-192.52973499999999
 30
0.0
  0
VERTEX
  5
A30
  8
LAYER01
  6
CONTINUOUS
 62
     7
 10
3372.9756430000002
 20
-193.49321599999999
 30
0.0
  0
VERTEX
  5
A31
  8
LAYER01
  6
CONTINUOUS
 62
     7
 10
3374.9026050000002
 20
-194.45669699999999
 30
0.0
  0
VERTEX
  5
A32
  8
LAYER01
  6
CONTINUOUS
 62
     7
 10
3374.9026050000002
 20
-196.38365899999999
 30
0.0
  0
VERTEX
  5
A33
  8
LAYER01
  6
CONTINUOUS
 62
     7
 10
3374.9026050000002
 20
-196.38365899999999
 30
0.0
  0
VERTEX
  5
A34
  8
LAYER01
  6
CONTINUOUS
 62
     7
 10
3373.939124
 20
-198.310622
 30
0.0
  0
VERTEX
  5
A35
  8
LAYER01
  6
CONTINUOUS
 62
     7
 10
3372.0121610000001
 20
-199.274103
 30
0.0
  0
VERTEX
  5
A36
  8
LAYER01
  6
CONTINUOUS
 62
     7
 10
3366.2312750000001
 20
-200.237584
 30
0.0
  0
VERTEX
  5
A37
  8
LAYER01
  6
CONTINUOUS
 62
     7
 10
3361.4138700000012
 20
-200.237584
 30
0.0
  0
VERTEX
  5
A38
  8
LAYER01
  6
CONTINUOUS
 62
     7
 10
3361.4138700000012
 20
-192.52973499999999
 30
0.0
  0
VERTEX
  5
A39
  8
LAYER01
  6
CONTINUOUS
 62
     7
 10
3368.1582369999992
 20
-192.52973499999999
 30
0.0
  0
VERTEX
  5
A3A
  8
LAYER01
  6
CONTINUOUS
 62
     7
 10
3368.1582369999992
 20
-192.52973499999999
 30
0.0
  0
SEQEND
  5
A3B
  8
LAYER01
  6
CONTINUOUS
 62
     7
  0
ENDBLK
  5
3CE
  8
0
  0
BLOCK
  8
0
  2
VP315010-G11
 70
     0
 10
0.0
 20
0.0
 30
0.0
  3
VP315010-G11
  1

  0
TEXT
  5
3D1
  8
LAYER01
  6
VERDECKT
 62
     1
 10
2376.7908929999999
 20
-683.31338899999992
 30
0.0
 40
10.0
  1
A. Sprenger GmbH
  7
SIMPLEX
  0
TEXT
  5
3D2
  8
LAYER01
  6
VERDECKT
 62
     1
 10
2376.7908929999999
 20
-700.45624699999985
 30
0.0
 40
10.0
  1
Berner Str. 10
  7
SIMPLEX
  0
TEXT
  5
3D3
  8
LAYER01
  6
VERDECKT
 62
     1
 10
2376.7908929999999
 20
-717.59910400000001
 30
0.0
 40
10.0
  1
60437 Frankfurt
  7
SIMPLEX
  0
TEXT
  5
3D4
  8
LAYER01
  6
VERDECKT
 62
     1
 10
2376.7908929999999
 20
-734.74196100000006
 30
0.0
 40
10.0
  1
Tel.: 069 - 507 27 41
  7
SIMPLEX
  0
TEXT
  5
3D5
  8
LAYER01
  6
VERDECKT
 62
     1
 10
2376.7908929999999
 20
-751.88481799999988
 30
0.0
 40
10.0
  1
Fax: 069 - 507 72 91
  7
SIMPLEX
  0
TEXT
  5
3D6
  8
LAYER01
  6
VERDECKT
 62
     1
 10
2376.7908929999999
 20
-769.02767500000004
 30
0.0
 40
10.0
  1
info@varicor.org
  7
SIMPLEX
  0
ENDBLK
  5
3D7
  8
0
  0
BLOCK
  8
0
  2
VP315010-G10
 70
     0
 10
0.0
 20
0.0
 30
0.0
  3
VP315010-G10
  1

  0
TEXT
  5
3DA
  8
LAYER01
  6
CONTINUOUS
 62
     1
 10
3427.609347999999
 20
-918.39357699999994
 30
0.0
 40
10.0
  1
Blatt
  7
SIMPLEX
  0
LINE
  5
3DB
  8
LAYER01
  6
CONTINUOUS
 62
     1
 10
2362.609348
 20
-848.39357699999982
 30
0.0
 11
2962.609348
 21
-848.39357699999982
 31
0.0
  0
LINE
  5
3DC
  8
LAYER01
  6
CONTINUOUS
 62
     1
 10
2362.609348
 20
-873.39357700000005
 30
0.0
 11
2962.609348
 21
-873.39357700000005
 31
0.0
  0
LINE
  5
3DD
  8
LAYER01
  6
CONTINUOUS
 62
     1
 10
2362.609348
 20
-898.39357700000005
 30
0.0
 11
3492.609348
 21
-898.39357700000005
 31
0.0
  0
LINE
  5
3DE
  8
LAYER01
  6
CONTINUOUS
 62
     1
 10
2362.609348
 20
-973.39357700000005
 30
0.0
 11
3492.609348
 21
-973.39357700000005
 31
0.0
  0
LINE
  5
3DF
  8
LAYER01
  6
CONTINUOUS
 62
     1
 10
2362.609348
 20
-773.39357699999994
 30
0.0
 11
3492.609348
 21
-773.39357699999994
 31
0.0
  0
POLYLINE
  5
3E0
  8
LAYER01
  6
CONTINUOUS
 62
     1
 66
     1
 10
0.0
 20
0.0
 30
0.0
 70
     1
  0
VERTEX
  5
A3C
  8
LAYER01
  6
CONTINUOUS
 62
     1
 10
2362.609348
 20
-1003.3935770000001
 30
0.0
  0
VERTEX
  5
A3D
  8
LAYER01
  6
CONTINUOUS
 62
     1
 10
2362.609348
 20
-668.39357699999994
 30
0.0
  0
VERTEX
  5
A3E
  8
LAYER01
  6
CONTINUOUS
 62
     1
 10
3492.609348
 20
-668.39357699999994
 30
0.0
  0
VERTEX
  5
A3F
  8
LAYER01
  6
CONTINUOUS
 62
     1
 10
3492.609348
 20
-1003.3935770000001
 30
0.0
  0
SEQEND
  5
A40
  8
LAYER01
  6
CONTINUOUS
 62
     1
  0
LINE
  5
3E6
  8
LAYER01
  6
CONTINUOUS
 62
     1
 10
2362.609348
 20
-798.39357699999994
 30
0.0
 11
2962.609348
 21
-798.39357699999994
 31
0.0
  0
LINE
  5
3E7
  8
LAYER01
  6
CONTINUOUS
 62
     1
 10
2362.609348
 20
-823.39357699999982
 30
0.0
 11
2962.609348
 21
-823.39357699999982
 31
0.0
  0
LINE
  5
3E8
  8
LAYER01
  6
CONTINUOUS
 62
     1
 10
2687.609348
 20
-668.39357699999994
 30
0.0
 11
2687.609348
 21
-1003.3935770000001
 31
0.0
  0
INSERT
  5
3E9
  8
LAYER01
  2
VP315010-G11
 10
0.0
 20
0.0
 30
0.0
  0
LINE
  5
3EA
  8
LAYER01
  6
CONTINUOUS
 62
     1
 10
2362.609348
 20
-948.39357700000005
 30
0.0
 11
2687.609348
 21
-948.39357700000005
 31
0.0
  0
LINE
  5
3EB
  8
LAYER01
  6
CONTINUOUS
 62
     1
 10
2362.609348
 20
-923.39357700000005
 30
0.0
 11
2687.609348
 21
-923.39357700000005
 31
0.0
  0
LINE
  5
3EC
  8
LAYER01
  6
CONTINUOUS
 62
     1
 10
2407.609348
 20
-773.39357699999994
 30
0.0
 11
2407.609348
 21
-1003.3935770000001
 31
0.0
  0
TEXT
  5
3ED
  8
LAYER01
  6
CONTINUOUS
 62
     1
 10
2371.008613
 20
-993.39357699999994
 30
0.0
 40
9.5
  1
Zust
  7
SIMPLEX
  0
LINE
  5
3EE
  8
LAYER01
  6
CONTINUOUS
 62
     1
 10
2565.393963
 20
-1003.3935770000001
 30
0.0
 11
2565.393963
 21
-773.39357699999994
 31
0.0
  0
LINE
  5
3EF
  8
LAYER01
  6
CONTINUOUS
 62
     1
 10
2642.609348
 20
-773.39357699999994
 30
0.0
 11
2642.609348
 21
-1003.3935770000001
 31
0.0
  0
TEXT
  5
3F0
  8
LAYER01
  6
CONTINUOUS
 62
     1
 10
2451.7378899999999
 20
-993.39357699999994
 30
0.0
 40
9.5
  1
Änderung
  7
SIMPLEX
  0
TEXT
  5
3F1
  8
LAYER01
  6
CONTINUOUS
 62
     1
 10
2579.4634919999999
 20
-993.39357699999994
 30
0.0
 40
9.5
  1
Datum
  7
SIMPLEX
  0
TEXT
  5
3F2
  8
LAYER01
  6
CONTINUOUS
 62
     1
 10
2646.373251
 20
-993.39357699999994
 30
0.0
 40
9.5
  1
Name
  7
SIMPLEX
  0
LINE
  5
3F3
  8
LAYER01
  6
CONTINUOUS
 62
     1
 10
3492.609348
 20
-708.39357699999994
 30
0.0
 11
2962.609348
 21
-708.39357699999994
 31
0.0
  0
LINE
  5
3F4
  8
LAYER01
  6
CONTINUOUS
 62
     1
 10
2752.609348
 20
-873.39357700000005
 30
0.0
 11
2752.609348
 21
-773.39357699999994
 31
0.0
  0
TEXT
  5
3F5
  8
LAYER01
  6
CONTINUOUS
 62
     1
 10
2697.609348
 20
-818.39357699999994
 30
0.0
 40
10.0
  1
Bearb.
  7
SIMPLEX
  0
TEXT
  5
3F6
  8
LAYER01
  6
CONTINUOUS
 62
     1
 10
2697.609348
 20
-868.39357699999994
 30
0.0
 40
10.0
  1
Norm
  7
SIMPLEX
  0
TEXT
  5
3F7
  8
LAYER01
  6
CONTINUOUS
 62
     1
 10
2697.609348
 20
-843.39357699999994
 30
0.0
 40
10.0
  1
Gepr.
  7
SIMPLEX
  0
TEXT
  5
3F8
  8
LAYER01
  6
CONTINUOUS
 62
     1
 10
2777.609348
 20
-793.39357699999994
 30
0.0
 40
10.0
  1
Datum
  7
SIMPLEX
  0
TEXT
  5
3F9
  8
LAYER01
  6
CONTINUOUS
 62
     1
 10
2877.609348
 20
-793.39357699999994
 30
0.0
 40
10.0
  1
Name
  7
SIMPLEX
  0
TEXT
  5
3FA
  8
LAYER01
  6
CONTINUOUS
 62
     1
 10
3467.609348
 20
-968.39357699999994
 30
0.0
 40
10.0
  1
Bl.
  7
SIMPLEX
  0
LINE
  5
3FB
  8
LAYER01
  6
CONTINUOUS
 62
     1
 10
2962.609348
 20
-1003.3935770000001
 30
0.0
 11
2962.609348
 21
-668.39357699999994
 31
0.0
  0
LINE
  5
3FC
  8
LAYER01
  6
CONTINUOUS
 62
     1
 10
2847.609348
 20
-898.39357700000005
 30
0.0
 11
2847.609348
 21
-668.39357699999994
 31
0.0
  0
LINE
  5
3FD
  8
LAYER01
  6
CONTINUOUS
 62
     1
 10
3277.609348
 20
-668.39357699999994
 30
0.0
 11
3277.609348
 21
-708.39357699999994
 31
0.0
  0
TEXT
  5
3FE
  8
LAYER01
  6
CONTINUOUS
 62
     1
 10
2973.5033469999998
 20
-693.92357900000002
 30
0.0
 40
10.0
  1
Maßstab
  7
SIMPLEX
  0
LINE
  5
3FF
  8
LAYER01
  6
CONTINUOUS
 62
     1
 10
3417.609348
 20
-898.39357700000005
 30
0.0
 11
3417.609348
 21
-973.39357700000005
 31
0.0
  0
LINE
  5
400
  8
LAYER01
  6
CONTINUOUS
 62
     1
 10
3417.609348
 20
-948.39357700000005
 30
0.0
 11
3492.609348
 21
-948.39357700000005
 31
0.0
  0
ENDBLK
  5
401
  8
0
  0
BLOCK
  8
0
  2
*D11
 70
     1
 10
0.0
 20
0.0
 30
0.0
  3
*D11
  1

  0
LINE
  5
404
  8
LAYER01
 62
     7
 10
1878.6278970000001
 20
724.19383700000003
 30
0.0
 11
2188.1651019999999
 21
724.19383700000003
 31
0.0
  0
LINE
  5
405
  8
LAYER01
 62
     7
 10
1878.6278970000001
 20
691.603521
 30
0.0
 11
1878.6278970000001
 21
759.19383700000003
 31
0.0
  0
LINE
  5
406
  8
LAYER01
 62
     7
 10
2188.1651019999999
 20
691.603521
 30
0.0
 11
2188.1651019999999
 21
759.19383700000003
 31
0.0
  0
SOLID
  5
407
  8
LAYER01
 62
     7
 10
1934.6278970000001
 20
714.86087699999996
 30
0.0
 11
1878.6278970000001
 21
724.19383700000003
 31
0.0
 12
1934.6278970000001
 22
733.52679699999999
 32
0.0
 13
1934.6278970000001
 23
733.52679699999999
 33
0.0
  0
SOLID
  5
408
  8
LAYER01
 62
     7
 10
2132.1651019999999
 20
714.86087699999996
 30
0.0
 11
2188.1651019999999
 21
724.19383700000003
 31
0.0
 12
2132.1651019999999
 22
733.52679699999999
 32
0.0
 13
2132.1651019999999
 23
733.52679699999999
 33
0.0
  0
TEXT
  5
409
  8
LAYER01
  6
CONTINUOUS
 62
     7
 10
1980.9974930000001
 20
759.19383700000003
 30
0.0
 40
70.0
  1
310
  0
POINT
  5
40A
  8
LAYER01
 62
     7
 10
1878.6278970000001
 20
663.603521
 30
0.0
  0
POINT
  5
40B
  8
LAYER01
 62
     7
 10
2188.1651019999999
 20
663.603521
 30
0.0
  0
POINT
  5
40C
  8
LAYER01
 62
     7
 10
2188.1651019999999
 20
724.19383700000003
 30
0.0
  0
ENDBLK
  5
40D
  8
0
  0
BLOCK
  8
0
  2
VP315010-G13
 70
     0
 10
0.0
 20
0.0
 30
0.0
  3
VP315010-G13
  1

  0
LINE
  5
410
  8
LAYER01
  6
CONTINUOUS
 62
     7
 10
2057.8614550000002
 20
527.72418899999991
 30
0.0
 11
2080.7739390000002
 21
550.63667299999997
 31
0.0
  0
LINE
  5
411
  8
LAYER01
  6
CONTINUOUS
 62
     7
 10
2189.1010109999988
 20
658.96374500000002
 30
0.0
 11
2193.7407870000002
 21
663.603521
 31
0.0
  0
LINE
  5
412
  8
LAYER01
  6
CONTINUOUS
 62
     7
 10
2092.1763230000001
 20
539.58841600000005
 30
0.0
 11
2107.1270530000011
 21
554.53914699999984
 31
0.0
  0
LINE
  5
413
  8
LAYER01
  6
CONTINUOUS
 62
     7
 10
2187.8593500000002
 20
635.27144399999997
 30
0.0
 11
2214.3441720000001
 21
661.75626499999987
 31
0.0
  0
LINE
  5
414
  8
LAYER01
  6
CONTINUOUS
 62
     7
 10
2121.5232780000001
 20
546.48473200000001
 30
0.0
 11
2139.6012049999999
 21
564.56265899999994
 31
0.0
  0
LINE
  5
415
  8
LAYER01
  6
CONTINUOUS
 62
     7
 10
2186.6176890000002
 20
611.57914299999993
 30
0.0
 11
2199.2987440000002
 21
624.26019699999995
 31
0.0
  0
LINE
  5
416
  8
LAYER01
  6
CONTINUOUS
 62
     7
 10
2153.8268459999999
 20
556.33765900000003
 30
0.0
 11
2171.93309
 21
574.44390299999986
 31
0.0
  0
LINE
  5
417
  8
LAYER01
  6
CONTINUOUS
 62
     7
 10
2185.376029
 20
587.88684199999989
 30
0.0
 11
2198.0570830000001
 21
600.56789600000002
 31
0.0
  0
LINE
  5
418
  8
LAYER01
  6
CONTINUOUS
 62
     7
 10
2186.5987490000002
 20
566.65892199999985
 30
0.0
 11
2195.800745
 21
575.86091799999986
 31
0.0
  0
ENDBLK
  5
419
  8
0
  0
BLOCK
  8
0
  2
VP315010-G14
 70
     0
 10
0.0
 20
0.0
 30
0.0
  3
VP315010-G14
  1

  0
LINE
  5
41C
  8
LAYER01
  6
CONTINUOUS
 62
     7
 10
1854.3441720000001
 20
660.96650999999986
 30
0.0
 11
1856.9811830000001
 21
663.603521
 31
0.0
  0
LINE
  5
41D
  8
LAYER01
  6
CONTINUOUS
 62
     7
 10
1865.5145190000001
 20
649.68621799999994
 30
0.0
 11
1879.3485370000001
 21
663.52023499999996
 31
0.0
  0
LINE
  5
41E
  8
LAYER01
  6
CONTINUOUS
 62
     7
 10
1869.0484610000001
 20
630.76951899999995
 30
0.0
 11
1880.466533
 21
642.18759099999988
 31
0.0
  0
LINE
  5
41F
  8
LAYER01
  6
CONTINUOUS
 62
     7
 10
1870.166457
 20
609.43687499999999
 30
0.0
 11
1881.584529
 21
620.85494699999992
 31
0.0
  0
LINE
  5
420
  8
LAYER01
  6
CONTINUOUS
 62
     7
 10
1871.2844540000001
 20
588.1042309999998
 30
0.0
 11
1882.702526
 21
599.52230299999997
 31
0.0
  0
LINE
  5
421
  8
LAYER01
  6
CONTINUOUS
 62
     7
 10
1876.2657799999999
 20
570.63491699999997
 30
0.0
 11
1884.75928
 21
579.1284169999999
 31
0.0
  0
LINE
  5
422
  8
LAYER01
  6
CONTINUOUS
 62
     7
 10
1891.6096869999999
 20
563.52818400000001
 30
0.0
 11
1901.1583599999999
 21
573.07685700000002
 31
0.0
  0
LINE
  5
423
  8
LAYER01
  6
CONTINUOUS
 62
     7
 10
1908.7307430000001
 20
558.19860000000006
 30
0.0
 11
1918.3526830000001
 21
567.82054000000005
 31
0.0
  0
LINE
  5
424
  8
LAYER01
  6
CONTINUOUS
 62
     7
 10
1925.9554330000001
 20
552.97264900000005
 30
0.0
 11
1935.571682
 21
562.58889799999997
 31
0.0
  0
LINE
  5
425
  8
LAYER01
  6
CONTINUOUS
 62
     7
 10
1943.163534
 20
547.73010999999997
 30
0.0
 11
1952.756359
 21
557.32293499999992
 31
0.0
  0
LINE
  5
426
  8
LAYER01
  6
CONTINUOUS
 62
     7
 10
1960.2142140000001
 20
542.33014999999989
 30
0.0
 11
1970.0809630000001
 21
552.19689900000003
 31
0.0
  0
LINE
  5
427
  8
LAYER01
  6
CONTINUOUS
 62
     7
 10
1979.6486970000001
 20
539.31399299999998
 30
0.0
 11
1990.7254459999999
 21
550.39074100000005
 31
0.0
  0
LINE
  5
428
  8
LAYER01
  6
CONTINUOUS
 62
     7
 10
1994.270906
 20
531.48556199999985
 30
0.0
 11
2006.046507
 21
543.26116200000001
 31
0.0
  0
ENDBLK
  5
429
  8
0
  0
BLOCK
  8
0
  2
*D14
 70
     1
 10
0.0
 20
0.0
 30
0.0
  3
*D14
  1

  0
LINE
  5
42C
  8
LAYER01
 62
     7
 10
2342.229988
 20
663.603521
 30
0.0
 11
2342.229988
 21
548.71083799999985
 31
0.0
  0
LINE
  5
42D
  8
LAYER01
 62
     7
 10
2247.8068800000001
 20
663.603521
 30
0.0
 11
2377.229988
 21
663.603521
 31
0.0
  0
LINE
  5
42E
  8
LAYER01
 62
     7
 10
2247.8068800000001
 20
548.71083799999985
 30
0.0
 11
2377.229988
 21
548.71083799999985
 31
0.0
  0
SOLID
  5
42F
  8
LAYER01
 62
     7
 10
2332.8970279999999
 20
607.603521
 30
0.0
 11
2342.229988
 21
663.603521
 31
0.0
 12
2351.5629479999998
 22
607.603521
 32
0.0
 13
2351.5629479999998
 23
607.603521
 33
0.0
  0
SOLID
  5
430
  8
LAYER01
 62
     7
 10
2332.8970279999999
 20
604.71083799999997
 30
0.0
 11
2342.229988
 21
548.71083799999985
 31
0.0
 12
2351.5629479999998
 22
604.71083799999997
 32
0.0
 13
2351.5629479999998
 23
604.71083799999997
 33
0.0
  0
TEXT
  5
431
  8
LAYER01
  6
CONTINUOUS
 62
     7
 10
2307.229988
 20
553.75817300000006
 30
0.0
 40
70.0
  1
105
 50
90.0
  0
POINT
  5
432
  8
LAYER01
 62
     7
 10
2219.8068800000001
 20
663.603521
 30
0.0
  0
POINT
  5
433
  8
LAYER01
 62
     7
 10
2219.8068800000001
 20
548.71083799999985
 30
0.0
  0
POINT
  5
434
  8
LAYER01
 62
     7
 10
2342.229988
 20
548.71083799999985
 30
0.0
  0
ENDBLK
  5
435
  8
0
  0
BLOCK
  8
0
  2
*D15
 70
     1
 10
0.0
 20
0.0
 30
0.0
  3
*D15
  1

  0
LINE
  5
438
  8
LAYER01
 62
     7
 10
2484.0022880000001
 20
663.603521
 30
0.0
 11
2484.0022880000001
 21
527.72418400000004
 31
0.0
  0
LINE
  5
439
  8
LAYER01
 62
     7
 10
2248.5672719999998
 20
663.603521
 30
0.0
 11
2519.0022880000001
 21
663.603521
 31
0.0
  0
LINE
  5
43A
  8
LAYER01
 62
     7
 10
2248.5672719999998
 20
527.72418400000004
 30
0.0
 11
2519.0022880000001
 21
527.72418400000004
 31
0.0
  0
SOLID
  5
43B
  8
LAYER01
 62
     7
 10
2474.669328
 20
607.603521
 30
0.0
 11
2484.0022880000001
 21
663.603521
 31
0.0
 12
2493.3352479999999
 22
607.603521
 32
0.0
 13
2493.3352479999999
 23
607.603521
 33
0.0
  0
SOLID
  5
43C
  8
LAYER01
 62
     7
 10
2474.669328
 20
583.72418400000004
 30
0.0
 11
2484.0022880000001
 21
527.72418400000004
 31
0.0
 12
2493.3352479999999
 22
583.72418400000004
 32
0.0
 13
2493.3352479999999
 23
583.72418400000004
 33
0.0
  0
TEXT
  5
43D
  8
LAYER01
  6
CONTINUOUS
 62
     7
 10
2449.0022880000001
 20
543.26484600000003
 30
0.0
 40
70.0
  1
126
 50
90.0
  0
POINT
  5
43E
  8
LAYER01
 62
     7
 10
2220.5672719999998
 20
663.603521
 30
0.0
  0
POINT
  5
43F
  8
LAYER01
 62
     7
 10
2220.5672719999998
 20
527.72418400000004
 30
0.0
  0
POINT
  5
440
  8
LAYER01
 62
     7
 10
2484.0022880000001
 20
527.72418400000004
 30
0.0
  0
ENDBLK
  5
441
  8
0
  0
ENDSEC
  0
SECTION
  2
ENTITIES
  0
POLYLINE
  5
442
  8
LAYER01
  6
CONTINUOUS
 62
     7
 66
     1
 10
0.0
 20
0.0
 30
0.0
 70
     1
  0
VERTEX
  5
A41
  8
LAYER01
  6
CONTINUOUS
 62
     7
 10
-499.56538799999993
 20
-1003.3935770000001
 30
0.0
  0
VERTEX
  5
A42
  8
LAYER01
  6
CONTINUOUS
 62
     7
 10
-499.56538799999993
 20
1782.752127
 30
0.0
  0
VERTEX
  5
A43
  8
LAYER01
  6
CONTINUOUS
 62
     7
 10
3492.609348
 20
1782.752127
 30
0.0
  0
VERTEX
  5
A44
  8
LAYER01
  6
CONTINUOUS
 62
     7
 10
3492.609348
 20
-1003.3935770000001
 30
0.0
  0
SEQEND
  5
A45
  8
LAYER01
  6
CONTINUOUS
 62
     7
  0
DIMENSION
  5
448
  8
LAYER01
 62
     7
  2
*D0
 10
518.93389999999999
 20
401.64022399999999
 30
0.0
 11
448.93389999999999
 21
581.88482699999997
 31
0.0
 53
90.0
 13
797.09957400000008
 23
761.64022399999999
 33
0.0
 14
797.09957400000008
 24
401.64022399999999
 34
0.0
 50
90.0
  0
DIMENSION
  5
449
  8
LAYER01
 62
     7
  2
*D1
 10
677.85148499999991
 20
426.64022399999999
 30
0.0
 11
607.85148499999991
 21
581.88482699999997
 31
0.0
 53
90.0
 13
797.09957400000008
 23
736.64022399999999
 33
0.0
 14
797.09957400000008
 24
426.64022399999999
 34
0.0
 50
90.0
  0
LINE
  5
44A
  8
LAYER01
 62
     7
 10
832.76668699999993
 20
428.48007699999988
 30
0.0
 11
904.47925699999996
 21
491.69020599999988
 31
0.0
  0
LINE
  5
44B
  8
LAYER01
 62
     7
 10
904.47925699999996
 20
491.69020599999988
 30
0.0
 11
957.19730299999981
 21
491.69020599999988
 31
0.0
  0
SOLID
  5
44C
  8
LAYER01
 62
     7
 10
880.94796899999994
 20
458.50786799999992
 30
0.0
 11
832.76668699999993
 21
428.48007699999988
 31
0.0
 12
868.60540400000002
 22
472.51064100000002
 32
0.0
 13
868.60540400000002
 23
472.51064100000002
 33
0.0
  0
TEXT
  5
44D
  8
LAYER01
  6
CONTINUOUS
 62
     7
 10
992.19730300000003
 20
456.69020599999988
 30
0.0
 40
70.0
  1
R5
  0
POLYLINE
  5
44E
  8
LAYER01
  6
CONTINUOUS
 62
     7
 66
     1
 10
0.0
 20
0.0
 30
0.0
  0
VERTEX
  5
A46
  8
LAYER01
  6
CONTINUOUS
 62
     7
 10
831.61539500000003
 20
431.63337199999989
 30
0.0
  0
VERTEX
  5
A47
  8
LAYER01
  6
CONTINUOUS
 62
     7
 10
831.71126700000002
 20
430.65852899999999
 30
0.0
  0
VERTEX
  5
A48
  8
LAYER01
  6
CONTINUOUS
 62
     7
 10
831.99520899999993
 20
429.72154399999999
 30
0.0
  0
VERTEX
  5
A49
  8
LAYER01
  6
CONTINUOUS
 62
     7
 10
832.45634900000005
 20
428.85829999999999
 30
0.0
  0
VERTEX
  5
A4A
  8
LAYER01
  6
CONTINUOUS
 62
     7
 10
833.07702599999993
 20
428.10185499999989
 30
0.0
  0
VERTEX
  5
A4B
  8
LAYER01
  6
CONTINUOUS
 62
     7
 10
833.83347099999992
 20
427.481178
 30
0.0
  0
VERTEX
  5
A4C
  8
LAYER01
  6
CONTINUOUS
 62
     7
 10
834.69671500000015
 20
427.020038
 30
0.0
  0
VERTEX
  5
A4D
  8
LAYER01
  6
CONTINUOUS
 62
     7
 10
835.63369999999986
 20
426.73609599999992
 30
0.0
  0
VERTEX
  5
A4E
  8
LAYER01
  6
CONTINUOUS
 62
     7
 10
836.60854300000005
 20
426.64022399999999
 30
0.0
  0
SEQEND
  5
A4F
  8
LAYER01
  6
CONTINUOUS
 62
     7
  0
ARC
  5
459
  8
LAYER01
  6
CONTINUOUS
 62
     7
 10
836.61539500000015
 20
431.64022399999999
 30
0.0
 40
30.0
 50
180.0
 51
270.0
  0
POLYLINE
  5
45A
  8
LAYER01
  6
CONTINUOUS
 62
     7
 66
     1
 10
0.0
 20
0.0
 30
0.0
  0
VERTEX
  5
A50
  8
LAYER01
  6
CONTINUOUS
 62
     7
 10
1326.6222479999999
 20
426.64022399999999
 30
0.0
  0
VERTEX
  5
A51
  8
LAYER01
  6
CONTINUOUS
 62
     7
 10
1327.59709
 20
426.73609599999992
 30
0.0
  0
VERTEX
  5
A52
  8
LAYER01
  6
CONTINUOUS
 62
     7
 10
1328.534075
 20
427.020038
 30
0.0
  0
VERTEX
  5
A53
  8
LAYER01
  6
CONTINUOUS
 62
     7
 10
1329.39732
 20
427.481178
 30
0.0
  0
VERTEX
  5
A54
  8
LAYER01
  6
CONTINUOUS
 62
     7
 10
1330.153765
 20
428.10185499999989
 30
0.0
  0
VERTEX
  5
A55
  8
LAYER01
  6
CONTINUOUS
 62
     7
 10
1330.7744419999999
 20
428.85829999999999
 30
0.0
  0
VERTEX
  5
A56
  8
LAYER01
  6
CONTINUOUS
 62
     7
 10
1331.235582
 20
429.72154399999999
 30
0.0
  0
VERTEX
  5
A57
  8
LAYER01
  6
CONTINUOUS
 62
     7
 10
1331.519524
 20
430.65852899999999
 30
0.0
  0
VERTEX
  5
A58
  8
LAYER01
  6
CONTINUOUS
 62
     7
 10
1331.615395
 20
431.63337199999989
 30
0.0
  0
SEQEND
  5
A59
  8
LAYER01
  6
CONTINUOUS
 62
     7
  0
ARC
  5
465
  8
LAYER01
  6
CONTINUOUS
 62
     7
 10
1326.615395
 20
431.64022399999999
 30
0.0
 40
30.0
 50
270.0
 51
0.0
  0
TEXT
  5
466
  8
LAYER01
  6
CONTINUOUS
 62
     7
 10
185.68185600000001
 20
-458.1554559999999
 30
0.0
 40
35.0
  1
Unterbauwaschtisch VP-31-50-10
  7
SIMPLEX
  0
INSERT
  5
467
  8
LAYER01
  2
VP315010-G3
 10
0.0
 20
0.0
 30
0.0
  0
DIMENSION
  5
468
  8
LAYER01
 62
     7
  2
*D3
 10
1331.615395
 20
207.59851399999999
 30
0.0
 11
1081.615395
 21
277.59851400000002
 31
0.0
 13
831.61539500000003
 23
159.40729300000001
 33
0.0
 14
1331.615395
 24
159.40729300000001
 34
0.0
  0
LINE
  5
469
  8
LAYER01
  6
CONTINUOUS
 62
     7
 10
1326.622255
 20
159.40729300000001
 30
0.0
 11
836.60853600000007
 21
159.40729300000001
 31
0.0
  0
LINE
  5
46A
  8
LAYER01
  6
CONTINUOUS
 62
     7
 10
1044.0449000000001
 20
60.196591000000012
 30
0.0
 11
1015.615396
 21
62.68384799999999
 31
0.0
  0
LINE
  5
46B
  8
LAYER01
  6
CONTINUOUS
 62
     7
 10
1034.3126420000001
 20
49.002212999999998
 30
0.0
 11
1014.701411
 21
50.717970000000001
 31
0.0
  0
LINE
  5
46C
  8
LAYER01
  6
CONTINUOUS
 62
     7
 10
1326.6222479999999
 20
426.64022399999999
 30
0.0
 11
836.60854300000005
 21
426.64022399999999
 31
0.0
  0
LINE
  5
46D
  8
LAYER01
  6
CONTINUOUS
 62
     7
 10
836.61539500000015
 20
401.64022399999999
 30
0.0
 11
1326.615395
 21
401.64022399999999
 31
0.0
  0
POLYLINE
  5
46E
  8
LAYER01
  6
CONTINUOUS
 62
     7
 66
     1
 10
0.0
 20
0.0
 30
0.0
  0
VERTEX
  5
A5A
  8
LAYER01
  6
CONTINUOUS
 62
     7
 10
1014.701411
 20
50.717970000000001
 30
0.0
  0
VERTEX
  5
A5B
  8
LAYER01
  6
CONTINUOUS
 62
     7
 10
954.94974300000001
 20
54.619466000000003
 30
0.0
  0
VERTEX
  5
A5C
  8
LAYER01
  6
CONTINUOUS
 62
     7
 10
896.70409900000004
 20
58.422629999999998
 30
0.0
  0
VERTEX
  5
A5D
  8
LAYER01
  6
CONTINUOUS
 62
     7
 10
839.72295299999996
 20
62.143225999999999
 30
0.0
  0
SEQEND
  5
A5E
  8
LAYER01
  6
CONTINUOUS
 62
     7
  0
POLYLINE
  5
474
  8
LAYER01
  6
CONTINUOUS
 62
     7
 66
     1
 10
0.0
 20
0.0
 30
0.0
  0
VERTEX
  5
A5F
  8
LAYER01
  6
CONTINUOUS
 62
     7
 10
1015.615396
 20
62.68384799999999
 30
0.0
  0
VERTEX
  5
A60
  8
LAYER01
  6
CONTINUOUS
 62
     7
 10
960.15079300000002
 20
66.305419000000001
 30
0.0
  0
VERTEX
  5
A61
  8
LAYER01
  6
CONTINUOUS
 62
     7
 10
899.69832399999996
 20
70.252677000000006
 30
0.0
  0
VERTEX
  5
A62
  8
LAYER01
  6
CONTINUOUS
 62
     7
 10
840.50483199999996
 20
74.117724999999993
 30
0.0
  0
SEQEND
  5
A63
  8
LAYER01
  6
CONTINUOUS
 62
     7
  0
LINE
  5
47A
  8
LAYER01
  6
CONTINUOUS
 62
     7
 10
831.61539500000003
 20
159.40729300000001
 30
0.0
 11
835.83745999999985
 21
78.845416
 31
0.0
  0
LINE
  5
47B
  8
LAYER01
  6
CONTINUOUS
 62
     7
 10
820.62513300000001
 20
139.82597999999999
 30
0.0
 11
823.85391700000014
 21
78.217384999999993
 31
0.0
  0
LINE
  5
47C
  8
LAYER01
  6
CONTINUOUS
 62
     7
 10
806.61538899999982
 20
147.40729300000001
 30
0.0
 11
806.61538899999982
 21
159.40729300000001
 31
0.0
  0
ARC
  5
47D
  8
LAYER01
  6
CONTINUOUS
 62
     7
 10
812.63610400000005
 20
139.40729300000001
 30
0.0
 40
8.0
 50
3.0
 51
90.0
  0
LINE
  5
47E
  8
LAYER01
  6
CONTINUOUS
 62
     7
 10
812.63611400000002
 20
147.40729300000001
 30
0.0
 11
806.61538899999982
 21
147.40729300000001
 31
0.0
  0
LINE
  5
47F
  8
LAYER01
  6
CONTINUOUS
 62
     7
 10
831.61539500000003
 20
159.40729300000001
 30
0.0
 11
806.61538899999982
 21
159.40729300000001
 31
0.0
  0
LINE
  5
480
  8
LAYER01
  6
CONTINUOUS
 62
     7
 10
831.61539500000003
 20
159.40729300000001
 30
0.0
 11
836.60853600000007
 21
159.40729300000001
 31
0.0
  0
ARC
  5
481
  8
LAYER01
  6
CONTINUOUS
 62
     7
 10
840.83061199999997
 20
79.107099000000005
 30
0.0
 40
17.0
 50
183.0
 51
266.26416499999999
  0
ARC
  5
482
  8
LAYER01
  6
CONTINUOUS
 62
     7
 10
840.83061199999997
 20
79.107099000000005
 30
0.0
 40
5.0
 50
183.0
 51
266.26416499999999
  0
LINE
  5
483
  8
LAYER01
  6
CONTINUOUS
 62
     7
 10
840.52088000000003
 20
74.131240000000005
 30
0.0
 11
840.50483199999996
 21
74.117724999999993
 31
0.0
  0
ARC
  5
484
  8
LAYER01
  6
CONTINUOUS
 62
     7
 10
840.82984999999985
 20
79.121686999999994
 30
0.0
 40
5.0000029999999986
 50
183.000034
 51
266.45720899999998
  0
INSERT
  5
485
  8
LAYER01
  2
VP315010-G5
 10
0.0
 20
0.0
 30
0.0
  0
LINE
  5
486
  8
LAYER01
  6
CONTINUOUS
 62
     7
 10
1116.407729
 20
59.045833999999992
 30
0.0
 11
1106.401458
 21
50.64957299999999
 31
0.0
  0
LINE
  5
487
  8
LAYER01
  6
CONTINUOUS
 62
     7
 10
1056.8293329999999
 20
50.64957299999999
 30
0.0
 11
1046.8230610000001
 21
59.045833999999992
 31
0.0
  0
POLYLINE
  5
488
  8
LAYER01
  6
CONTINUOUS
 62
     7
 66
     1
 10
0.0
 20
0.0
 30
0.0
  0
VERTEX
  5
A64
  8
LAYER01
  6
CONTINUOUS
 62
     7
 10
1323.5078370000001
 20
62.143225999999999
 30
0.0
  0
VERTEX
  5
A65
  8
LAYER01
  6
CONTINUOUS
 62
     7
 10
1264.8822580000001
 20
58.315252000000001
 30
0.0
  0
VERTEX
  5
A66
  8
LAYER01
  6
CONTINUOUS
 62
     7
 10
1206.639774
 20
54.512304
 30
0.0
  0
VERTEX
  5
A67
  8
LAYER01
  6
CONTINUOUS
 62
     7
 10
1148.5293799999999
 20
50.717970000000001
 30
0.0
  0
SEQEND
  5
A68
  8
LAYER01
  6
CONTINUOUS
 62
     7
  0
ARC
  5
48E
  8
LAYER01
  6
CONTINUOUS
 62
     7
 10
1129.615395
 20
41.032654999999998
 30
0.0
 40
8.0
 50
95.0
 51
180.0
  0
LINE
  5
48F
  8
LAYER01
  6
CONTINUOUS
 62
     7
 10
1121.6153939999999
 20
41.032654000000001
 30
0.0
 11
1121.6153939999999
 21
38.059187000000001
 31
0.0
  0
LINE
  5
490
  8
LAYER01
  6
CONTINUOUS
 62
     7
 10
1121.6153939999999
 20
38.059187000000001
 30
0.0
 11
1104.615395
 21
38.059187000000001
 31
0.0
  0
LINE
  5
491
  8
LAYER01
  6
CONTINUOUS
 62
     7
 10
1104.615395
 20
46.819355999999999
 30
0.0
 11
1104.615395
 21
38.059187000000001
 31
0.0
  0
ARC
  5
492
  8
LAYER01
  6
CONTINUOUS
 62
     7
 10
1109.615395
 20
46.81935399999999
 30
0.0
 40
5.0
 50
130.0
 51
180.0
  0
LINE
  5
493
  8
LAYER01
  6
CONTINUOUS
 62
     7
 10
1058.615395
 20
38.059187000000001
 30
0.0
 11
1058.615395
 21
46.819355999999999
 31
0.0
  0
LINE
  5
494
  8
LAYER01
  6
CONTINUOUS
 62
     7
 10
1062.007339
 20
46.819355999999999
 30
0.0
 11
1058.615395
 21
46.819355999999999
 31
0.0
  0
LINE
  5
495
  8
LAYER01
  6
CONTINUOUS
 62
     7
 10
1101.2234510000001
 20
46.819355999999999
 30
0.0
 11
1062.007339
 21
46.819355999999999
 31
0.0
  0
LINE
  5
496
  8
LAYER01
  6
CONTINUOUS
 62
     7
 10
1104.615395
 20
46.819355999999999
 30
0.0
 11
1101.2234510000001
 21
46.819355999999999
 31
0.0
  0
LINE
  5
497
  8
LAYER01
  6
CONTINUOUS
 62
     7
 10
1058.615395
 20
38.059187000000001
 30
0.0
 11
1062.007339
 21
38.059187000000001
 31
0.0
  0
LINE
  5
498
  8
LAYER01
  6
CONTINUOUS
 62
     7
 10
1062.007339
 20
38.059187000000001
 30
0.0
 11
1101.2234510000001
 21
38.059187000000001
 31
0.0
  0
LINE
  5
499
  8
LAYER01
  6
CONTINUOUS
 62
     7
 10
1101.2234510000001
 20
38.059187000000001
 30
0.0
 11
1104.615395
 21
38.059187000000001
 31
0.0
  0
LINE
  5
49A
  8
LAYER01
  6
CONTINUOUS
 62
     7
 10
1041.6153959999999
 20
38.059187000000001
 30
0.0
 11
1041.6153959999999
 21
41.032654000000001
 31
0.0
  0
ARC
  5
49B
  8
LAYER01
  6
CONTINUOUS
 62
     7
 10
1033.615395
 20
41.032654999999998
 30
0.0
 40
8.0
 50
0.0
 51
85.0
  0
ARC
  5
49C
  8
LAYER01
  6
CONTINUOUS
 62
     7
 10
1053.615395
 20
46.81935399999999
 30
0.0
 40
5.0
 50
0.0
 51
50.0
  0
LINE
  5
49D
  8
LAYER01
  6
CONTINUOUS
 62
     7
 10
1058.615395
 20
38.059187000000001
 30
0.0
 11
1041.6153959999999
 21
38.059187000000001
 31
0.0
  0
LINE
  5
49E
  8
LAYER01
  6
CONTINUOUS
 62
     7
 10
1148.5293799999999
 20
50.717970000000001
 30
0.0
 11
1128.918148
 21
49.002212999999998
 31
0.0
  0
ARC
  5
49F
  8
LAYER01
  6
CONTINUOUS
 62
     7
 10
1119.6216690000001
 20
55.215615
 30
0.0
 40
5.0
 50
95.0
 51
130.0
  0
ARC
  5
4A0
  8
LAYER01
  6
CONTINUOUS
 62
     7
 10
1043.6091220000001
 20
55.215615
 30
0.0
 40
5.0
 50
50.0
 51
85.0
  0
LINE
  5
4A1
  8
LAYER01
  6
CONTINUOUS
 62
     7
 10
1147.615395
 20
62.68384799999999
 30
0.0
 11
1119.18589
 21
60.196591000000012
 31
0.0
  0
LINE
  5
4A2
  8
LAYER01
  6
CONTINUOUS
 62
     7
 10
1113.6451509999999
 20
60.196591000000012
 30
0.0
 11
1119.18589
 21
60.196591000000012
 31
0.0
  0
LINE
  5
4A3
  8
LAYER01
  6
CONTINUOUS
 62
     7
 10
1049.58564
 20
60.196591000000012
 30
0.0
 11
1113.6451509999999
 21
60.196591000000012
 31
0.0
  0
LINE
  5
4A4
  8
LAYER01
  6
CONTINUOUS
 62
     7
 10
1044.0449000000001
 20
60.196591000000012
 30
0.0
 11
1049.58564
 21
60.196591000000012
 31
0.0
  0
LINE
  5
4A5
  8
LAYER01
  6
CONTINUOUS
 62
     7
 10
1331.615395
 20
159.40729300000001
 30
0.0
 11
1327.3933300000001
 21
78.845416
 31
0.0
  0
LINE
  5
4A6
  8
LAYER01
  6
CONTINUOUS
 62
     7
 10
1342.6056570000001
 20
139.82597999999999
 30
0.0
 11
1339.376874
 21
78.217384999999993
 31
0.0
  0
LINE
  5
4A7
  8
LAYER01
  6
CONTINUOUS
 62
     7
 10
1356.615401
 20
159.40729300000001
 30
0.0
 11
1356.615401
 21
147.40729300000001
 31
0.0
  0
LINE
  5
4A8
  8
LAYER01
  6
CONTINUOUS
 62
     7
 10
1356.615401
 20
147.40729300000001
 30
0.0
 11
1350.5946759999999
 21
147.40729300000001
 31
0.0
  0
ARC
  5
4A9
  8
LAYER01
  6
CONTINUOUS
 62
     7
 10
1350.594687
 20
139.40729300000001
 30
0.0
 40
8.0
 50
90.0
 51
177.0
  0
LINE
  5
4AA
  8
LAYER01
  6
CONTINUOUS
 62
     7
 10
1356.615401
 20
159.40729300000001
 30
0.0
 11
1331.615395
 21
159.40729300000001
 31
0.0
  0
LINE
  5
4AB
  8
LAYER01
  6
CONTINUOUS
 62
     7
 10
1326.622255
 20
159.40729300000001
 30
0.0
 11
1331.615395
 21
159.40729300000001
 31
0.0
  0
POLYLINE
  5
4AC
  8
LAYER01
  6
CONTINUOUS
 62
     7
 66
     1
 10
0.0
 20
0.0
 30
0.0
  0
VERTEX
  5
A69
  8
LAYER01
  6
CONTINUOUS
 62
     7
 10
1322.725958
 20
74.117724999999993
 30
0.0
  0
VERTEX
  5
A6A
  8
LAYER01
  6
CONTINUOUS
 62
     7
 10
1268.520317
 20
70.578355999999999
 30
0.0
  0
VERTEX
  5
A6B
  8
LAYER01
  6
CONTINUOUS
 62
     7
 10
1208.0678559999999
 20
66.631097999999994
 30
0.0
  0
VERTEX
  5
A6C
  8
LAYER01
  6
CONTINUOUS
 62
     7
 10
1147.615395
 20
62.68384799999999
 30
0.0
  0
SEQEND
  5
A6D
  8
LAYER01
  6
CONTINUOUS
 62
     7
  0
ARC
  5
4B2
  8
LAYER01
  6
CONTINUOUS
 62
     7
 10
1322.400179
 20
79.107099000000005
 30
0.0
 40
5.0
 50
273.73583500000001
 51
357.0
  0
ARC
  5
4B3
  8
LAYER01
  6
CONTINUOUS
 62
     7
 10
1322.400179
 20
79.107099000000005
 30
0.0
 40
17.0
 50
273.73583500000001
 51
357.0
  0
POLYLINE
  5
4B4
  8
LAYER01
  6
CONTINUOUS
 62
     7
 66
     1
 10
0.0
 20
0.0
 30
0.0
  0
VERTEX
  5
A6E
  8
LAYER01
  6
CONTINUOUS
 62
     7
 10
1322.7259610000001
 20
74.117722999999984
 30
0.0
  0
VERTEX
  5
A6F
  8
LAYER01
  6
CONTINUOUS
 62
     7
 10
1322.725929
 20
74.117750000000001
 30
0.0
  0
VERTEX
  5
A70
  8
LAYER01
  6
CONTINUOUS
 62
     7
 10
1322.725833
 20
74.117829999999984
 30
0.0
  0
VERTEX
  5
A71
  8
LAYER01
  6
CONTINUOUS
 62
     7
 10
1322.725674
 20
74.117962000000006
 30
0.0
  0
VERTEX
  5
A72
  8
LAYER01
  6
CONTINUOUS
 62
     7
 10
1322.725455
 20
74.118144999999998
 30
0.0
  0
VERTEX
  5
A73
  8
LAYER01
  6
CONTINUOUS
 62
     7
 10
1322.725175
 20
74.118378000000007
 30
0.0
  0
VERTEX
  5
A74
  8
LAYER01
  6
CONTINUOUS
 62
     7
 10
1322.7248360000001
 20
74.118662
 30
0.0
  0
VERTEX
  5
A75
  8
LAYER01
  6
CONTINUOUS
 62
     7
 10
1322.7244390000001
 20
74.118993000000003
 30
0.0
  0
VERTEX
  5
A76
  8
LAYER01
  6
CONTINUOUS
 62
     7
 10
1322.7239850000001
 20
74.119372999999996
 30
0.0
  0
VERTEX
  5
A77
  8
LAYER01
  6
CONTINUOUS
 62
     7
 10
1322.723475
 20
74.119799
 30
0.0
  0
VERTEX
  5
A78
  8
LAYER01
  6
CONTINUOUS
 62
     7
 10
1322.7229110000001
 20
74.120272
 30
0.0
  0
VERTEX
  5
A79
  8
LAYER01
  6
CONTINUOUS
 62
     7
 10
1322.722293
 20
74.12079
 30
0.0
  0
VERTEX
  5
A7A
  8
LAYER01
  6
CONTINUOUS
 62
     7
 10
1322.7216229999999
 20
74.121352000000002
 30
0.0
  0
VERTEX
  5
A7B
  8
LAYER01
  6
CONTINUOUS
 62
     7
 10
1322.7209009999999
 20
74.121956999999995
 30
0.0
  0
VERTEX
  5
A7C
  8
LAYER01
  6
CONTINUOUS
 62
     7
 10
1322.7201299999999
 20
74.122605000000007
 30
0.0
  0
VERTEX
  5
A7D
  8
LAYER01
  6
CONTINUOUS
 62
     7
 10
1322.7193090000001
 20
74.123294999999999
 30
0.0
  0
VERTEX
  5
A7E
  8
LAYER01
  6
CONTINUOUS
 62
     7
 10
1322.718441
 20
74.124026000000001
 30
0.0
  0
VERTEX
  5
A7F
  8
LAYER01
  6
CONTINUOUS
 62
     7
 10
1322.717525
 20
74.124797000000001
 30
0.0
  0
VERTEX
  5
A80
  8
LAYER01
  6
CONTINUOUS
 62
     7
 10
1322.7165649999999
 20
74.125608
 30
0.0
  0
VERTEX
  5
A81
  8
LAYER01
  6
CONTINUOUS
 62
     7
 10
1322.715559
 20
74.126456000000005
 30
0.0
  0
VERTEX
  5
A82
  8
LAYER01
  6
CONTINUOUS
 62
     7
 10
1322.71451
 20
74.127341999999999
 30
0.0
  0
VERTEX
  5
A83
  8
LAYER01
  6
CONTINUOUS
 62
     7
 10
1322.7134189999999
 20
74.128264999999999
 30
0.0
  0
VERTEX
  5
A84
  8
LAYER01
  6
CONTINUOUS
 62
     7
 10
1322.7122870000001
 20
74.129222999999996
 30
0.0
  0
VERTEX
  5
A85
  8
LAYER01
  6
CONTINUOUS
 62
     7
 10
1322.7111150000001
 20
74.130216000000004
 30
0.0
  0
VERTEX
  5
A86
  8
LAYER01
  6
CONTINUOUS
 62
     7
 10
1322.7099040000001
 20
74.131243000000012
 30
0.0
  0
SEQEND
  5
A87
  8
LAYER01
  6
CONTINUOUS
 62
     7
  0
ARC
  5
4CF
  8
LAYER01
  6
CONTINUOUS
 62
     7
 10
1322.40094
 20
79.121685999999997
 30
0.0
 40
5.0000019999999994
 50
273.54278499999998
 51
357.00006200000001
  0
DIMENSION
  5
4D0
  8
LAYER01
 62
     7
  2
*D5
 10
1331.615395
 20
840.21506499999987
 30
0.0
 11
1082.11448
 21
910.21506499999998
 31
0.0
 13
831.61539500000003
 23
768.57900299999994
 33
0.0
 14
1331.615395
 24
768.57900299999994
 34
0.0
  0
DIMENSION
  5
4D1
  8
LAYER01
 62
     7
  2
*D6
 10
806.61539500000003
 20
969.08139900000003
 30
0.0
 11
1082.11448
 21
1039.0813989999999
 31
0.0
 13
1356.615395
 23
768.57900299999994
 33
0.0
 14
806.61539500000003
 24
768.57900299999994
 34
0.0
  0
LINE
  5
4D2
  8
LAYER01
  6
CONTINUOUS
 62
     7
 10
1326.6222479999999
 20
736.64022399999999
 30
0.0
 11
836.60854300000005
 21
736.64022399999999
 31
0.0
  0
LINE
  5
4D3
  8
LAYER01
  6
CONTINUOUS
 62
     7
 10
1326.615395
 20
761.64022399999999
 30
0.0
 11
836.61539500000015
 21
761.64022399999999
 31
0.0
  0
ARC
  5
4D4
  8
LAYER01
  6
CONTINUOUS
 62
     7
 10
836.61539500000015
 20
731.64022399999999
 30
0.0
 40
30.0
 50
90.0
 51
180.0
  0
LINE
  5
4D5
  8
LAYER01
  6
CONTINUOUS
 62
     7
 10
831.61539500000003
 20
731.64707699999985
 30
0.0
 11
831.61539500000003
 21
431.63337199999989
 31
0.0
  0
LINE
  5
4D6
  8
LAYER01
  6
CONTINUOUS
 62
     7
 10
806.61539500000003
 20
731.64022399999999
 30
0.0
 11
806.61539500000003
 21
431.64022399999999
 31
0.0
  0
POLYLINE
  5
4D7
  8
LAYER01
  6
CONTINUOUS
 62
     7
 66
     1
 10
0.0
 20
0.0
 30
0.0
  0
VERTEX
  5
A88
  8
LAYER01
  6
CONTINUOUS
 62
     7
 10
836.60854300000005
 20
736.64022399999999
 30
0.0
  0
VERTEX
  5
A89
  8
LAYER01
  6
CONTINUOUS
 62
     7
 10
835.63369999999986
 20
736.544353
 30
0.0
  0
VERTEX
  5
A8A
  8
LAYER01
  6
CONTINUOUS
 62
     7
 10
834.69671500000015
 20
736.26041100000009
 30
0.0
  0
VERTEX
  5
A8B
  8
LAYER01
  6
CONTINUOUS
 62
     7
 10
833.83347099999992
 20
735.79927099999986
 30
0.0
  0
VERTEX
  5
A8C
  8
LAYER01
  6
CONTINUOUS
 62
     7
 10
833.07702599999993
 20
735.17859399999998
 30
0.0
  0
VERTEX
  5
A8D
  8
LAYER01
  6
CONTINUOUS
 62
     7
 10
832.45634900000005
 20
734.42214899999988
 30
0.0
  0
VERTEX
  5
A8E
  8
LAYER01
  6
CONTINUOUS
 62
     7
 10
831.99520899999993
 20
733.55890399999998
 30
0.0
  0
VERTEX
  5
A8F
  8
LAYER01
  6
CONTINUOUS
 62
     7
 10
831.71126700000002
 20
732.62191900000005
 30
0.0
  0
VERTEX
  5
A90
  8
LAYER01
  6
CONTINUOUS
 62
     7
 10
831.61539500000003
 20
731.64707699999985
 30
0.0
  0
SEQEND
  5
A91
  8
LAYER01
  6
CONTINUOUS
 62
     7
  0
ARC
  5
4E2
  8
LAYER01
  6
CONTINUOUS
 62
     7
 10
1326.615395
 20
731.64022399999999
 30
0.0
 40
30.0
 50
0.0
 51
90.0
  0
LINE
  5
4E3
  8
LAYER01
  6
CONTINUOUS
 62
     7
 10
1331.615395
 20
731.64707699999985
 30
0.0
 11
1331.615395
 21
431.63337199999989
 31
0.0
  0
LINE
  5
4E4
  8
LAYER01
  6
CONTINUOUS
 62
     7
 10
1356.615395
 20
431.64022399999999
 30
0.0
 11
1356.615395
 21
731.64022399999999
 31
0.0
  0
ARC
  5
4E5
  8
LAYER01
  6
CONTINUOUS
 62
     7
 10
1081.615395
 20
581.64022399999999
 30
0.0
 40
23.0
 50
211.51271499999999
 51
328.48728499999999
  0
ARC
  5
4E6
  8
LAYER01
  6
CONTINUOUS
 62
     7
 10
1081.615395
 20
581.64022399999999
 30
0.0
 40
37.570495000000001
 50
211.51271499999999
 51
328.48728499999999
  0
INSERT
  5
4E7
  8
LAYER01
  2
VP315010-G8
 10
0.0
 20
0.0
 30
0.0
  0
ARC
  5
4E8
  8
LAYER01
  6
CONTINUOUS
 62
     7
 10
1081.615395
 20
581.64022399999999
 30
0.0
 40
23.0
 50
31.512715
 51
148.48728500000001
  0
ARC
  5
4E9
  8
LAYER01
  6
CONTINUOUS
 62
     7
 10
1081.615395
 20
581.64022399999999
 30
0.0
 40
23.0
 50
148.48728500000001
 51
211.51271499999999
  0
ARC
  5
4EA
  8
LAYER01
  6
CONTINUOUS
 62
     7
 10
1081.615395
 20
581.64022399999999
 30
0.0
 40
23.0
 50
328.48728499999999
 51
31.512715
  0
ARC
  5
4EB
  8
LAYER01
  6
CONTINUOUS
 62
     7
 10
1081.615395
 20
581.64022399999999
 30
0.0
 40
37.570495000000001
 50
328.48728499999999
 51
31.512715
  0
ARC
  5
4EC
  8
LAYER01
  6
CONTINUOUS
 62
     7
 10
1081.615395
 20
581.64022399999999
 30
0.0
 40
37.570495000000001
 50
31.512715
 51
148.48728500000001
  0
ARC
  5
4ED
  8
LAYER01
  6
CONTINUOUS
 62
     7
 10
1081.615395
 20
581.64022399999999
 30
0.0
 40
37.570495000000001
 50
148.48728500000001
 51
211.51271499999999
  0
POLYLINE
  5
4EE
  8
LAYER01
  6
CONTINUOUS
 62
     7
 66
     1
 10
0.0
 20
0.0
 30
0.0
  0
VERTEX
  5
A92
  8
LAYER01
  6
CONTINUOUS
 62
     7
 10
1331.615395
 20
731.64707699999985
 30
0.0
  0
VERTEX
  5
A93
  8
LAYER01
  6
CONTINUOUS
 62
     7
 10
1331.519524
 20
732.62191900000005
 30
0.0
  0
VERTEX
  5
A94
  8
LAYER01
  6
CONTINUOUS
 62
     7
 10
1331.235582
 20
733.55890399999998
 30
0.0
  0
VERTEX
  5
A95
  8
LAYER01
  6
CONTINUOUS
 62
     7
 10
1330.7744419999999
 20
734.42214899999988
 30
0.0
  0
VERTEX
  5
A96
  8
LAYER01
  6
CONTINUOUS
 62
     7
 10
1330.153765
 20
735.17859399999998
 30
0.0
  0
VERTEX
  5
A97
  8
LAYER01
  6
CONTINUOUS
 62
     7
 10
1329.39732
 20
735.79927099999986
 30
0.0
  0
VERTEX
  5
A98
  8
LAYER01
  6
CONTINUOUS
 62
     7
 10
1328.534075
 20
736.26041100000009
 30
0.0
  0
VERTEX
  5
A99
  8
LAYER01
  6
CONTINUOUS
 62
     7
 10
1327.59709
 20
736.544353
 30
0.0
  0
VERTEX
  5
A9A
  8
LAYER01
  6
CONTINUOUS
 62
     7
 10
1326.6222479999999
 20
736.64022399999999
 30
0.0
  0
SEQEND
  5
A9B
  8
LAYER01
  6
CONTINUOUS
 62
     7
  0
INSERT
  5
4F9
  8
LAYER01
  2
VP315010-G9
 10
0.0
 20
0.0
 30
0.0
  0
INSERT
  5
4FA
  8
LAYER01
  2
VP315010-G10
 10
0.0
 20
0.0
 30
0.0
  0
TEXT
  5
4FB
  8
LAYER01
  6
STRICHPUNKTIERT
 62
     7
 10
2313.60796717844
 20
-532.02091585268045
 30
0.0
 40
43.651061999999989
  1
http://www.mineralwerkstoff.de
  0
TEXT
  5
4FC
  8
LAYER01
  6
VERDECKT
 62
     1
 10
2993.0782810000001
 20
-758.874233
 30
0.0
 40
25.0
  1
A. Sprenger GmbH
  7
SIMPLEX
  0
TEXT
  5
4FD
  8
LAYER01
  6
CONTINUOUS
 62
     7
 10
2984.9681249999999
 20
-604.05256399999985
 30
0.0
 40
7.5
  1
Diese Zeichnung ist geistiges Eigentum der A. Sprenger GmbH
  7
SIMPLEX
  0
TEXT
  5
4FE
  8
LAYER01
  6
CONTINUOUS
 62
     7
 10
2984.9681249999999
 20
-616.90970700000003
 30
0.0
 40
7.5
  1
und urheberrechtlich geschützt. Ohne unsere Zustimmung darf 
  7
SIMPLEX
  0
TEXT
  5
4FF
  8
LAYER01
  6
CONTINUOUS
 62
     7
 10
2984.9681249999999
 20
-629.76684999999998
 30
0.0
 40
7.5
  1
sie in keiner Form verwendet oder Dritten zugänglich gemacht
  7
SIMPLEX
  0
TEXT
  5
500
  8
LAYER01
  6
CONTINUOUS
 62
     7
 10
2984.9681249999999
 20
-642.62399299999993
 30
0.0
 40
7.5
  1
werden. (§106 Urheberrecht)
  7
SIMPLEX
  0
TEXT
  5
501
  8
LAYER01
  6
VERDECKT
 62
     1
 10
3059.0220089999998
 20
-694.39592100000004
 30
0.0
 40
10.0
  1
1 : 10 (DIN A3)
  7
SIMPLEX
  0
TEXT
  5
502
  8
LAYER01
  6
VERDECKT
 62
     1
 10
2993.0782810000001
 20
-857.05711699999995
 30
0.0
 40
35.0
  1
VP-31-50-10
  7
SIMPLEX
  0
TEXT
  5
503
  8
LAYER01
  6
VERDECKT
 62
     1
 10
2857.5693740000002
 20
-816.795568
 30
0.0
 40
10.0
  1
b.s.
  7
SIMPLEX
  0
TEXT
  5
504
  8
LAYER01
  6
VERDECKT
 62
     1
 10
2761.4122179999999
 20
-816.75903099999994
 30
0.0
 40
10.0
  1
16.4.2021
  7
SIMPLEX
  0
TEXT
  5
505
  8
LAYER01
  6
VERDECKT
 62
     1
 10
3316.750603
 20
-694.39592100000004
 30
0.0
 40
10.0
  1
xxx.skd
  7
SIMPLEX
  0
DIMENSION
  5
506
  8
LAYER01
 62
     7
  2
*D11
 10
2188.1651019999999
 20
724.19383700000003
 30
0.0
 11
2034.214624
 21
794.19383700000003
 31
0.0
 13
1878.6278970000001
 23
663.603521
 33
0.0
 14
2188.1651019999999
 24
663.603521
 34
0.0
  0
LINE
  5
507
  8
LAYER01
  6
CONTINUOUS
 62
     7
 10
2184.351017
 20
663.603521
 30
0.0
 11
1884.3373260000001
 21
663.603521
 31
0.0
  0
INSERT
  5
508
  8
LAYER01
  2
VP315010-G13
 10
0.0
 20
0.0
 30
0.0
  0
ARC
  5
509
  8
LAYER01
  6
CONTINUOUS
 62
     7
 10
2082.3441720000001
 20
530.69765599999994
 30
0.0
 40
8.0
 50
95.0
 51
180.0
  0
LINE
  5
50A
  8
LAYER01
  6
CONTINUOUS
 62
     7
 10
2100.3441710000002
 20
552.34885199999985
 30
0.0
 11
2071.914667
 21
549.86158699999999
 31
0.0
  0
LINE
  5
50B
  8
LAYER01
  6
CONTINUOUS
 62
     7
 10
2011.3441720000001
 20
527.72418400000004
 30
0.0
 11
2028.2259140000001
 21
527.72418400000004
 31
0.0
  0
LINE
  5
50C
  8
LAYER01
  6
CONTINUOUS
 62
     7
 10
2027.7508009999999
 20
540.31457699999999
 30
0.0
 11
2040.9375419999999
 21
540.31457699999999
 31
0.0
  0
LINE
  5
50D
  8
LAYER01
  6
CONTINUOUS
 62
     7
 10
2043.5993229999999
 20
548.71083799999985
 30
0.0
 11
2025.0890199999999
 21
548.71083799999985
 31
0.0
  0
ARC
  5
50E
  8
LAYER01
  6
CONTINUOUS
 62
     7
 10
2006.3441720000001
 20
536.48435499999994
 30
0.0
 40
5.0
 50
0.0
 51
50.0
  0
LINE
  5
50F
  8
LAYER01
  6
CONTINUOUS
 62
     7
 10
2011.3441720000001
 20
527.72418400000004
 30
0.0
 11
1994.344173
 21
527.72418400000004
 31
0.0
  0
LINE
  5
510
  8
LAYER01
  6
CONTINUOUS
 62
     7
 10
2009.5581090000001
 20
540.31457699999999
 30
0.0
 11
2027.7508009999999
 21
540.31457699999999
 31
0.0
  0
LINE
  5
511
  8
LAYER01
  6
CONTINUOUS
 62
     7
 10
2025.0890199999999
 20
548.71083799999985
 30
0.0
 11
1999.5518380000001
 21
548.71083799999985
 31
0.0
  0
INSERT
  5
512
  8
LAYER01
  2
VP315010-G14
 10
0.0
 20
0.0
 30
0.0
  0
LINE
  5
513
  8
LAYER01
  6
CONTINUOUS
 62
     7
 10
1879.3441700000001
 20
663.603521
 30
0.0
 11
1854.3441640000001
 21
663.603521
 31
0.0
  0
LINE
  5
514
  8
LAYER01
  6
CONTINUOUS
 62
     7
 10
1860.3648740000001
 20
651.603521
 30
0.0
 11
1854.3441640000001
 21
651.603521
 31
0.0
  0
LINE
  5
515
  8
LAYER01
  6
CONTINUOUS
 62
     7
 10
1854.3441640000001
 20
651.603521
 30
0.0
 11
1854.3441640000001
 21
663.603521
 31
0.0
  0
LINE
  5
516
  8
LAYER01
  6
CONTINUOUS
 62
     7
 10
1871.6358
 20
581.40009599999985
 30
0.0
 11
1868.3539229999999
 21
644.02220899999986
 31
0.0
  0
ARC
  5
517
  8
LAYER01
  6
CONTINUOUS
 62
     7
 10
1860.3648800000001
 20
643.603521
 30
0.0
 40
8.0
 50
3.0
 51
90.0
  0
LINE
  5
518
  8
LAYER01
  6
CONTINUOUS
 62
     7
 10
1883.6193579999999
 20
582.02812800000004
 30
0.0
 11
1879.3441700000001
 21
663.603521
 31
0.0
  0
POLYLINE
  5
519
  8
LAYER01
  6
CONTINUOUS
 62
     7
 66
     1
 10
0.0
 20
0.0
 30
0.0
  0
VERTEX
  5
A9C
  8
LAYER01
  6
CONTINUOUS
 62
     7
 10
1965.911599
 20
540.51583300000004
 30
0.0
  0
VERTEX
  5
A9D
  8
LAYER01
  6
CONTINUOUS
 62
     7
 10
1965.1221539999999
 20
540.77577099999985
 30
0.0
  0
VERTEX
  5
A9E
  8
LAYER01
  6
CONTINUOUS
 62
     7
 10
1964.332615
 20
541.03540799999985
 30
0.0
  0
VERTEX
  5
A9F
  8
LAYER01
  6
CONTINUOUS
 62
     7
 10
1963.5429409999999
 20
541.2946139999998
 30
0.0
  0
VERTEX
  5
AA0
  8
LAYER01
  6
CONTINUOUS
 62
     7
 10
1962.7530899999999
 20
541.55325599999992
 30
0.0
  0
VERTEX
  5
AA1
  8
LAYER01
  6
CONTINUOUS
 62
     7
 10
1961.963021
 20
541.81120199999987
 30
0.0
  0
VERTEX
  5
AA2
  8
LAYER01
  6
CONTINUOUS
 62
     7
 10
1961.1726920000001
 20
542.06832099999986
 30
0.0
  0
VERTEX
  5
AA3
  8
LAYER01
  6
CONTINUOUS
 62
     7
 10
1960.382075
 20
542.32451900000001
 30
0.0
  0
VERTEX
  5
AA4
  8
LAYER01
  6
CONTINUOUS
 62
     7
 10
1959.591218
 20
542.57995199999993
 30
0.0
  0
VERTEX
  5
AA5
  8
LAYER01
  6
CONTINUOUS
 62
     7
 10
1958.8001369999999
 20
542.83467400000006
 30
0.0
  0
VERTEX
  5
AA6
  8
LAYER01
  6
CONTINUOUS
 62
     7
 10
1958.0088410000001
 20
543.08870499999989
 30
0.0
  0
VERTEX
  5
AA7
  8
LAYER01
  6
CONTINUOUS
 62
     7
 10
1957.2173339999999
 20
543.34206799999993
 30
0.0
  0
VERTEX
  5
AA8
  8
LAYER01
  6
CONTINUOUS
 62
     7
 10
1956.4256250000001
 20
543.5947819999999
 30
0.0
  0
VERTEX
  5
AA9
  8
LAYER01
  6
CONTINUOUS
 62
     7
 10
1955.6337189999999
 20
543.84687099999985
 30
0.0
  0
VERTEX
  5
AAA
  8
LAYER01
  6
CONTINUOUS
 62
     7
 10
1954.8416239999999
 20
544.09835499999986
 30
0.0
  0
VERTEX
  5
AAB
  8
LAYER01
  6
CONTINUOUS
 62
     7
 10
1954.0493449999999
 20
544.34925499999997
 30
0.0
  0
VERTEX
  5
AAC
  8
LAYER01
  6
CONTINUOUS
 62
     7
 10
1953.256889
 20
544.59958800000004
 30
0.0
  0
VERTEX
  5
AAD
  8
LAYER01
  6
CONTINUOUS
 62
     7
 10
1952.46426
 20
544.84937100000002
 30
0.0
  0
VERTEX
  5
AAE
  8
LAYER01
  6
CONTINUOUS
 62
     7
 10
1951.6714649999999
 20
545.09862199999986
 30
0.0
  0
VERTEX
  5
AAF
  8
LAYER01
  6
CONTINUOUS
 62
     7
 10
1950.878508
 20
545.34735799999987
 30
0.0
  0
VERTEX
  5
AB0
  8
LAYER01
  6
CONTINUOUS
 62
     7
 10
1950.0853950000001
 20
545.59559599999989
 30
0.0
  0
VERTEX
  5
AB1
  8
LAYER01
  6
CONTINUOUS
 62
     7
 10
1949.2921309999999
 20
545.84335299999987
 30
0.0
  0
VERTEX
  5
AB2
  8
LAYER01
  6
CONTINUOUS
 62
     7
 10
1948.498722
 20
546.0906480000001
 30
0.0
  0
VERTEX
  5
AB3
  8
LAYER01
  6
CONTINUOUS
 62
     7
 10
1947.7051730000001
 20
546.33749599999999
 30
0.0
  0
VERTEX
  5
AB4
  8
LAYER01
  6
CONTINUOUS
 62
     7
 10
1946.91149
 20
546.58391700000004
 30
0.0
  0
VERTEX
  5
AB5
  8
LAYER01
  6
CONTINUOUS
 62
     7
 10
1946.1176780000001
 20
546.829926
 30
0.0
  0
VERTEX
  5
AB6
  8
LAYER01
  6
CONTINUOUS
 62
     7
 10
1945.3237429999999
 20
547.07554100000004
 30
0.0
  0
VERTEX
  5
AB7
  8
LAYER01
  6
CONTINUOUS
 62
     7
 10
1944.5296900000001
 20
547.3207809999999
 30
0.0
  0
VERTEX
  5
AB8
  8
LAYER01
  6
CONTINUOUS
 62
     7
 10
1943.7355239999999
 20
547.56566199999986
 30
0.0
  0
VERTEX
  5
AB9
  8
LAYER01
  6
CONTINUOUS
 62
     7
 10
1942.941249
 20
547.81019600000002
 30
0.0
  0
VERTEX
  5
ABA
  8
LAYER01
  6
CONTINUOUS
 62
     7
 10
1942.1468689999999
 20
548.05439799999999
 30
0.0
  0
VERTEX
  5
ABB
  8
LAYER01
  6
CONTINUOUS
 62
     7
 10
1941.35239
 20
548.29827899999998
 30
0.0
  0
VERTEX
  5
ABC
  8
LAYER01
  6
CONTINUOUS
 62
     7
 10
1940.557814
 20
548.54185499999994
 30
0.0
  0
VERTEX
  5
ABD
  8
LAYER01
  6
CONTINUOUS
 62
     7
 10
1939.7631469999999
 20
548.78513799999985
 30
0.0
  0
VERTEX
  5
ABE
  8
LAYER01
  6
CONTINUOUS
 62
     7
 10
1938.968392
 20
549.02814100000001
 30
0.0
  0
VERTEX
  5
ABF
  8
LAYER01
  6
CONTINUOUS
 62
     7
 10
1938.1735530000001
 20
549.27087800000004
 30
0.0
  0
VERTEX
  5
AC0
  8
LAYER01
  6
CONTINUOUS
 62
     7
 10
1937.378635
 20
549.51336100000003
 30
0.0
  0
VERTEX
  5
AC1
  8
LAYER01
  6
CONTINUOUS
 62
     7
 10
1936.5836429999999
 20
549.75560599999994
 30
0.0
  0
VERTEX
  5
AC2
  8
LAYER01
  6
CONTINUOUS
 62
     7
 10
1935.788579
 20
549.99762399999986
 30
0.0
  0
VERTEX
  5
AC3
  8
LAYER01
  6
CONTINUOUS
 62
     7
 10
1934.9934490000001
 20
550.23942899999986
 30
0.0
  0
VERTEX
  5
AC4
  8
LAYER01
  6
CONTINUOUS
 62
     7
 10
1934.198257
 20
550.48103400000002
 30
0.0
  0
VERTEX
  5
AC5
  8
LAYER01
  6
CONTINUOUS
 62
     7
 10
1933.4030069999999
 20
550.72245299999997
 30
0.0
  0
VERTEX
  5
AC6
  8
LAYER01
  6
CONTINUOUS
 62
     7
 10
1932.6077029999999
 20
550.96369900000002
 30
0.0
  0
VERTEX
  5
AC7
  8
LAYER01
  6
CONTINUOUS
 62
     7
 10
1931.812349
 20
551.20478500000002
 30
0.0
  0
VERTEX
  5
AC8
  8
LAYER01
  6
CONTINUOUS
 62
     7
 10
1931.01695
 20
551.44572500000004
 30
0.0
  0
VERTEX
  5
AC9
  8
LAYER01
  6
CONTINUOUS
 62
     7
 10
1930.221509
 20
551.68653200000006
 30
0.0
  0
VERTEX
  5
ACA
  8
LAYER01
  6
CONTINUOUS
 62
     7
 10
1929.4260320000001
 20
551.92722000000003
 30
0.0
  0
VERTEX
  5
ACB
  8
LAYER01
  6
CONTINUOUS
 62
     7
 10
1928.6305219999999
 20
552.16780000000006
 30
0.0
  0
VERTEX
  5
ACC
  8
LAYER01
  6
CONTINUOUS
 62
     7
 10
1927.8349829999991
 20
552.40828799999986
 30
0.0
  0
VERTEX
  5
ACD
  8
LAYER01
  6
CONTINUOUS
 62
     7
 10
1927.0394200000001
 20
552.64869699999986
 30
0.0
  0
VERTEX
  5
ACE
  8
LAYER01
  6
CONTINUOUS
 62
     7
 10
1926.243837
 20
552.88903799999991
 30
0.0
  0
VERTEX
  5
ACF
  8
LAYER01
  6
CONTINUOUS
 62
     7
 10
1925.4482379999999
 20
553.12932699999988
 30
0.0
  0
VERTEX
  5
AD0
  8
LAYER01
  6
CONTINUOUS
 62
     7
 10
1924.6526269999999
 20
553.36957599999994
 30
0.0
  0
VERTEX
  5
AD1
  8
LAYER01
  6
CONTINUOUS
 62
     7
 10
1923.8570070000001
 20
553.60979499999985
 30
0.0
  0
VERTEX
  5
AD2
  8
LAYER01
  6
CONTINUOUS
 62
     7
 10
1923.0613800000001
 20
553.84999200000004
 30
0.0
  0
VERTEX
  5
AD3
  8
LAYER01
  6
CONTINUOUS
 62
     7
 10
1922.26575
 20
554.09018099999992
 30
0.0
  0
VERTEX
  5
AD4
  8
LAYER01
  6
CONTINUOUS
 62
     7
 10
1921.4701210000001
 20
554.33037399999989
 30
0.0
  0
VERTEX
  5
AD5
  8
LAYER01
  6
CONTINUOUS
 62
     7
 10
1920.6744960000001
 20
554.57058300000006
 30
0.0
  0
VERTEX
  5
AD6
  8
LAYER01
  6
CONTINUOUS
 62
     7
 10
1919.87888
 20
554.81082200000003
 30
0.0
  0
VERTEX
  5
AD7
  8
LAYER01
  6
CONTINUOUS
 62
     7
 10
1919.083277
 20
555.05110300000001
 30
0.0
  0
VERTEX
  5
AD8
  8
LAYER01
  6
CONTINUOUS
 62
     7
 10
1918.2876900000001
 20
555.29143799999986
 30
0.0
  0
VERTEX
  5
AD9
  8
LAYER01
  6
CONTINUOUS
 62
     7
 10
1917.492123
 20
555.53184099999987
 30
0.0
  0
VERTEX
  5
ADA
  8
LAYER01
  6
CONTINUOUS
 62
     7
 10
1916.6965809999999
 20
555.77232400000003
 30
0.0
  0
VERTEX
  5
ADB
  8
LAYER01
  6
CONTINUOUS
 62
     7
 10
1915.901067
 20
556.01289999999995
 30
0.0
  0
VERTEX
  5
ADC
  8
LAYER01
  6
CONTINUOUS
 62
     7
 10
1915.105585
 20
556.25358099999994
 30
0.0
  0
VERTEX
  5
ADD
  8
LAYER01
  6
CONTINUOUS
 62
     7
 10
1914.3101389999999
 20
556.49437899999998
 30
0.0
  0
VERTEX
  5
ADE
  8
LAYER01
  6
CONTINUOUS
 62
     7
 10
1913.5147340000001
 20
556.73530900000003
 30
0.0
  0
VERTEX
  5
ADF
  8
LAYER01
  6
CONTINUOUS
 62
     7
 10
1912.7193719999991
 20
556.97638199999994
 30
0.0
  0
VERTEX
  5
AE0
  8
LAYER01
  6
CONTINUOUS
 62
     7
 10
1911.9240569999999
 20
557.21760999999992
 30
0.0
  0
VERTEX
  5
AE1
  8
LAYER01
  6
CONTINUOUS
 62
     7
 10
1911.1287949999989
 20
557.45900800000004
 30
0.0
  0
VERTEX
  5
AE2
  8
LAYER01
  6
CONTINUOUS
 62
     7
 10
1910.333588
 20
557.70058600000004
 30
0.0
  0
VERTEX
  5
AE3
  8
LAYER01
  6
CONTINUOUS
 62
     7
 10
1909.53844
 20
557.94235900000001
 30
0.0
  0
VERTEX
  5
AE4
  8
LAYER01
  6
CONTINUOUS
 62
     7
 10
1908.7433559999999
 20
558.18433800000003
 30
0.0
  0
VERTEX
  5
AE5
  8
LAYER01
  6
CONTINUOUS
 62
     7
 10
1907.9483399999999
 20
558.42653700000005
 30
0.0
  0
VERTEX
  5
AE6
  8
LAYER01
  6
CONTINUOUS
 62
     7
 10
1907.1533939999999
 20
558.66896699999995
 30
0.0
  0
VERTEX
  5
AE7
  8
LAYER01
  6
CONTINUOUS
 62
     7
 10
1906.358524
 20
558.91164200000003
 30
0.0
  0
VERTEX
  5
AE8
  8
LAYER01
  6
CONTINUOUS
 62
     7
 10
1905.563732999999
 20
559.15457399999991
 30
0.0
  0
VERTEX
  5
AE9
  8
LAYER01
  6
CONTINUOUS
 62
     7
 10
1904.7690250000001
 20
559.39777600000002
 30
0.0
  0
VERTEX
  5
AEA
  8
LAYER01
  6
CONTINUOUS
 62
     7
 10
1903.9744029999999
 20
559.64126099999987
 30
0.0
  0
VERTEX
  5
AEB
  8
LAYER01
  6
CONTINUOUS
 62
     7
 10
1903.1798719999999
 20
559.88503600000001
 30
0.0
  0
VERTEX
  5
AEC
  8
LAYER01
  6
CONTINUOUS
 62
     7
 10
1902.385436
 20
560.12911199999985
 30
0.0
  0
VERTEX
  5
AED
  8
LAYER01
  6
CONTINUOUS
 62
     7
 10
1901.591099
 20
560.37350599999991
 30
0.0
  0
VERTEX
  5
AEE
  8
LAYER01
  6
CONTINUOUS
 62
     7
 10
1900.7968679999999
 20
560.61823499999991
 30
0.0
  0
VERTEX
  5
AEF
  8
LAYER01
  6
CONTINUOUS
 62
     7
 10
1900.0027480000001
 20
560.86331600000005
 30
0.0
  0
VERTEX
  5
AF0
  8
LAYER01
  6
CONTINUOUS
 62
     7
 10
1899.2087429999999
 20
561.10876599999995
 30
0.0
  0
VERTEX
  5
AF1
  8
LAYER01
  6
CONTINUOUS
 62
     7
 10
1898.414859
 20
561.354601
 30
0.0
  0
VERTEX
  5
AF2
  8
LAYER01
  6
CONTINUOUS
 62
     7
 10
1897.6211020000001
 20
561.60083899999995
 30
0.0
  0
VERTEX
  5
AF3
  8
LAYER01
  6
CONTINUOUS
 62
     7
 10
1896.8274759999999
 20
561.84749599999986
 30
0.0
  0
VERTEX
  5
AF4
  8
LAYER01
  6
CONTINUOUS
 62
     7
 10
1896.0339879999999
 20
562.09459000000004
 30
0.0
  0
VERTEX
  5
AF5
  8
LAYER01
  6
CONTINUOUS
 62
     7
 10
1895.240642
 20
562.34213699999987
 30
0.0
  0
VERTEX
  5
AF6
  8
LAYER01
  6
CONTINUOUS
 62
     7
 10
1894.447443
 20
562.59015399999998
 30
0.0
  0
VERTEX
  5
AF7
  8
LAYER01
  6
CONTINUOUS
 62
     7
 10
1893.6543979999999
 20
562.8386579999999
 30
0.0
  0
VERTEX
  5
AF8
  8
LAYER01
  6
CONTINUOUS
 62
     7
 10
1892.8615110000001
 20
563.08766600000001
 30
0.0
  0
VERTEX
  5
AF9
  8
LAYER01
  6
CONTINUOUS
 62
     7
 10
1892.0687869999999
 20
563.33719399999995
 30
0.0
  0
VERTEX
  5
AFA
  8
LAYER01
  6
CONTINUOUS
 62
     7
 10
1891.276233
 20
563.5872609999999
 30
0.0
  0
VERTEX
  5
AFB
  8
LAYER01
  6
CONTINUOUS
 62
     7
 10
1890.483853
 20
563.83788200000004
 30
0.0
  0
VERTEX
  5
AFC
  8
LAYER01
  6
CONTINUOUS
 62
     7
 10
1889.691652
 20
564.08907399999987
 30
0.0
  0
VERTEX
  5
AFD
  8
LAYER01
  6
CONTINUOUS
 62
     7
 10
1888.8996360000001
 20
564.34085500000003
 30
0.0
  0
VERTEX
  5
AFE
  8
LAYER01
  6
CONTINUOUS
 62
     7
 10
1888.10781
 20
564.59324100000003
 30
0.0
  0
VERTEX
  5
AFF
  8
LAYER01
  6
CONTINUOUS
 62
     7
 10
1887.31618
 20
564.84625000000005
 30
0.0
  0
VERTEX
  5
B00
  8
LAYER01
  6
CONTINUOUS
 62
     7
 10
1886.52475
 20
565.09989699999994
 30
0.0
  0
VERTEX
  5
B01
  8
LAYER01
  6
CONTINUOUS
 62
     7
 10
1885.7335270000001
 20
565.35420099999988
 30
0.0
  0
VERTEX
  5
B02
  8
LAYER01
  6
CONTINUOUS
 62
     7
 10
1884.942515
 20
565.60917699999993
 30
0.0
  0
VERTEX
  5
B03
  8
LAYER01
  6
CONTINUOUS
 62
     7
 10
1884.151719
 20
565.86484399999995
 30
0.0
  0
VERTEX
  5
B04
  8
LAYER01
  6
CONTINUOUS
 62
     7
 10
1883.361146
 20
566.12121699999989
 30
0.0
  0
SEQEND
  5
B05
  8
LAYER01
  6
CONTINUOUS
 62
     7
  0
ARC
  5
584
  8
LAYER01
  6
CONTINUOUS
 62
     7
 10
1888.6125050000001
 20
582.289804
 30
0.0
 40
5.0
 50
183.0
 51
252.00684000000001
  0
ARC
  5
585
  8
LAYER01
  6
CONTINUOUS
 62
     7
 10
1888.6125050000001
 20
582.289804
 30
0.0
 40
17.0
 50
183.0
 51
252.00684000000001
  0
POLYLINE
  5
586
  8
LAYER01
  6
CONTINUOUS
 62
     7
 66
     1
 10
0.0
 20
0.0
 30
0.0
  0
VERTEX
  5
B06
  8
LAYER01
  6
CONTINUOUS
 62
     7
 10
1968.3441069999999
 20
552.34884899999997
 30
0.0
  0
VERTEX
  5
B07
  8
LAYER01
  6
CONTINUOUS
 62
     7
 10
1965.1358729999999
 20
553.39824399999998
 30
0.0
  0
VERTEX
  5
B08
  8
LAYER01
  6
CONTINUOUS
 62
     7
 10
1961.884916
 20
554.44763899999987
 30
0.0
  0
VERTEX
  5
B09
  8
LAYER01
  6
CONTINUOUS
 62
     7
 10
1958.594947
 20
555.49703499999987
 30
0.0
  0
VERTEX
  5
B0A
  8
LAYER01
  6
CONTINUOUS
 62
     7
 10
1955.269679
 20
556.54642999999999
 30
0.0
  0
VERTEX
  5
B0B
  8
LAYER01
  6
CONTINUOUS
 62
     7
 10
1951.9128229999999
 20
557.59582499999999
 30
0.0
  0
VERTEX
  5
B0C
  8
LAYER01
  6
CONTINUOUS
 62
     7
 10
1948.5280929999999
 20
558.64522099999999
 30
0.0
  0
VERTEX
  5
B0D
  8
LAYER01
  6
CONTINUOUS
 62
     7
 10
1945.119199
 20
559.69461599999988
 30
0.0
  0
VERTEX
  5
B0E
  8
LAYER01
  6
CONTINUOUS
 62
     7
 10
1941.6898530000001
 20
560.74401199999988
 30
0.0
  0
VERTEX
  5
B0F
  8
LAYER01
  6
CONTINUOUS
 62
     7
 10
1938.2437689999999
 20
561.793407
 30
0.0
  0
VERTEX
  5
B10
  8
LAYER01
  6
CONTINUOUS
 62
     7
 10
1934.784656999999
 20
562.84280200000001
 30
0.0
  0
VERTEX
  5
B11
  8
LAYER01
  6
CONTINUOUS
 62
     7
 10
1931.3162299999999
 20
563.89219800000001
 30
0.0
  0
VERTEX
  5
B12
  8
LAYER01
  6
CONTINUOUS
 62
     7
 10
1927.8422009999999
 20
564.9415929999999
 30
0.0
  0
VERTEX
  5
B13
  8
LAYER01
  6
CONTINUOUS
 62
     7
 10
1924.36628
 20
565.9909879999999
 30
0.0
  0
VERTEX
  5
B14
  8
LAYER01
  6
CONTINUOUS
 62
     7
 10
1920.8921800000001
 20
567.04038400000002
 30
0.0
  0
VERTEX
  5
B15
  8
LAYER01
  6
CONTINUOUS
 62
     7
 10
1917.4236129999999
 20
568.08977900000002
 30
0.0
  0
VERTEX
  5
B16
  8
LAYER01
  6
CONTINUOUS
 62
     7
 10
1913.9642919999999
 20
569.13917400000003
 30
0.0
  0
VERTEX
  5
B17
  8
LAYER01
  6
CONTINUOUS
 62
     7
 10
1910.5179270000001
 20
570.18857000000003
 30
0.0
  0
VERTEX
  5
B18
  8
LAYER01
  6
CONTINUOUS
 62
     7
 10
1907.0882320000001
 20
571.23796500000003
 30
0.0
  0
VERTEX
  5
B19
  8
LAYER01
  6
CONTINUOUS
 62
     7
 10
1903.6789180000001
 20
572.28736100000003
 30
0.0
  0
VERTEX
  5
B1A
  8
LAYER01
  6
CONTINUOUS
 62
     7
 10
1900.2936970000001
 20
573.33675599999992
 30
0.0
  0
VERTEX
  5
B1B
  8
LAYER01
  6
CONTINUOUS
 62
     7
 10
1896.9362819999999
 20
574.38615099999993
 30
0.0
  0
VERTEX
  5
B1C
  8
LAYER01
  6
CONTINUOUS
 62
     7
 10
1893.6103840000001
 20
575.43554699999993
 30
0.0
  0
VERTEX
  5
B1D
  8
LAYER01
  6
CONTINUOUS
 62
     7
 10
1890.3197150000001
 20
576.48494200000005
 30
0.0
  0
VERTEX
  5
B1E
  8
LAYER01
  6
CONTINUOUS
 62
     7
 10
1887.0679869999999
 20
577.53433700000005
 30
0.0
  0
SEQEND
  5
B1F
  8
LAYER01
  6
CONTINUOUS
 62
     7
  0
LINE
  5
5A1
  8
LAYER01
  6
CONTINUOUS
 62
     7
 10
1996.773676
 20
549.86158699999999
 30
0.0
 11
1968.3441720000001
 21
552.34885199999985
 31
0.0
  0
LINE
  5
5A2
  8
LAYER01
  6
CONTINUOUS
 62
     7
 10
1994.344173
 20
527.72418400000004
 30
0.0
 11
1994.344173
 21
530.69765099999995
 31
0.0
  0
ARC
  5
5A3
  8
LAYER01
  6
CONTINUOUS
 62
     7
 10
1986.3441720000001
 20
530.69765599999994
 30
0.0
 40
8.0
 50
0.0
 51
85.0
  0
LINE
  5
5A4
  8
LAYER01
  6
CONTINUOUS
 62
     7
 10
1987.0414189999999
 20
538.66721600000005
 30
0.0
 11
1965.9116019999999
 21
540.51583200000005
 31
0.0
  0
ARC
  5
5A5
  8
LAYER01
  6
CONTINUOUS
 62
     7
 10
1996.337898
 20
544.88061600000003
 30
0.0
 40
5.0
 50
50.0
 51
85.0
  0
LINE
  5
5A6
  8
LAYER01
  6
CONTINUOUS
 62
     7
 10
2009.5581090000001
 20
540.31457699999999
 30
0.0
 11
1999.5518380000001
 21
548.71083799999985
 31
0.0
  0
LINE
  5
5A7
  8
LAYER01
  6
CONTINUOUS
 62
     7
 10
1879.3441700000001
 20
663.603521
 30
0.0
 11
1884.3373260000001
 21
663.603521
 31
0.0
  0
LINE
  5
5A8
  8
LAYER01
  6
CONTINUOUS
 62
     7
 10
2011.3441720000001
 20
527.72418400000004
 30
0.0
 11
2011.3441720000001
 21
536.48435300000006
 31
0.0
  0
LINE
  5
5A9
  8
LAYER01
  6
CONTINUOUS
 62
     7
 10
2074.3441710000002
 20
530.69765099999995
 30
0.0
 11
2074.3441710000002
 21
527.72418400000004
 31
0.0
  0
LINE
  5
5AA
  8
LAYER01
  6
CONTINUOUS
 62
     7
 10
2069.1365049999999
 20
548.71083799999985
 30
0.0
 11
2059.1302340000002
 21
540.31457699999999
 31
0.0
  0
LINE
  5
5AB
  8
LAYER01
  6
CONTINUOUS
 62
     7
 10
2074.3441710000002
 20
527.72418400000004
 30
0.0
 11
2057.3441720000001
 21
527.72418400000004
 31
0.0
  0
LINE
  5
5AC
  8
LAYER01
  6
CONTINUOUS
 62
     7
 10
2069.1365049999999
 20
548.71083799999985
 30
0.0
 11
2043.5993229999999
 21
548.71083799999985
 31
0.0
  0
LINE
  5
5AD
  8
LAYER01
  6
CONTINUOUS
 62
     7
 10
2057.3441720000001
 20
536.48435300000006
 30
0.0
 11
2057.3441720000001
 21
527.72418400000004
 31
0.0
  0
ARC
  5
5AE
  8
LAYER01
  6
CONTINUOUS
 62
     7
 10
2062.3441720000001
 20
536.48435499999994
 30
0.0
 40
5.0
 50
130.0
 51
180.0
  0
LINE
  5
5AF
  8
LAYER01
  6
CONTINUOUS
 62
     7
 10
2028.2259140000001
 20
527.72418400000004
 30
0.0
 11
2040.46243
 21
527.72418400000004
 31
0.0
  0
LINE
  5
5B0
  8
LAYER01
  6
CONTINUOUS
 62
     7
 10
2040.46243
 20
527.72418400000004
 30
0.0
 11
2057.3441720000001
 21
527.72418400000004
 31
0.0
  0
LINE
  5
5B1
  8
LAYER01
  6
CONTINUOUS
 62
     7
 10
2040.9375419999999
 20
540.31457699999999
 30
0.0
 11
2059.1302340000002
 21
540.31457699999999
 31
0.0
  0
ARC
  5
5B2
  8
LAYER01
  6
CONTINUOUS
 62
     7
 10
2072.350445
 20
544.88061600000003
 30
0.0
 40
5.0
 50
95.0
 51
130.0
  0
DIMENSION
  5
5B3
  8
LAYER01
 62
     7
  2
*D14
 10
2342.229988
 20
548.71083799999985
 30
0.0
 11
2272.229988
 21
605.362663
 31
0.0
 53
90.0
 13
2219.8068800000001
 23
663.603521
 33
0.0
 14
2219.8068800000001
 24
548.71083799999985
 34
0.0
 50
90.0
  0
DIMENSION
  5
5B4
  8
LAYER01
 62
     7
  2
*D15
 10
2484.0022880000001
 20
527.72418400000004
 30
0.0
 11
2414.0022880000001
 21
594.86933599999998
 31
0.0
 53
90.0
 13
2220.5672719999998
 23
663.603521
 33
0.0
 14
2220.5672719999998
 24
527.72418400000004
 34
0.0
 50
90.0
  0
LINE
  5
5B5
  8
LAYER01
  6
CONTINUOUS
 62
     7
 10
2102.7767410000001
 20
540.51583200000005
 30
0.0
 11
2081.6469240000001
 21
538.66721600000005
 31
0.0
  0
POLYLINE
  5
5B6
  8
LAYER01
  6
CONTINUOUS
 62
     7
 66
     1
 10
0.0
 20
0.0
 30
0.0
  0
VERTEX
  5
B20
  8
LAYER01
  6
CONTINUOUS
 62
     7
 10
2185.3271970000001
 20
566.12121699999989
 30
0.0
  0
VERTEX
  5
B21
  8
LAYER01
  6
CONTINUOUS
 62
     7
 10
2184.5365860000002
 20
565.86483099999998
 30
0.0
  0
VERTEX
  5
B22
  8
LAYER01
  6
CONTINUOUS
 62
     7
 10
2183.7457559999998
 20
565.60915399999999
 30
0.0
  0
VERTEX
  5
B23
  8
LAYER01
  6
CONTINUOUS
 62
     7
 10
2182.9547109999999
 20
565.35416699999996
 30
0.0
  0
VERTEX
  5
B24
  8
LAYER01
  6
CONTINUOUS
 62
     7
 10
2182.1634589999999
 20
565.09985400000005
 30
0.0
  0
VERTEX
  5
B25
  8
LAYER01
  6
CONTINUOUS
 62
     7
 10
2181.3720029999999
 20
564.84619799999996
 30
0.0
  0
VERTEX
  5
B26
  8
LAYER01
  6
CONTINUOUS
 62
     7
 10
2180.5803489999998
 20
564.59318199999996
 30
0.0
  0
VERTEX
  5
B27
  8
LAYER01
  6
CONTINUOUS
 62
     7
 10
2179.7885019999999
 20
564.34078899999986
 30
0.0
  0
VERTEX
  5
B28
  8
LAYER01
  6
CONTINUOUS
 62
     7
 10
2178.9964670000008
 20
564.08900300000005
 30
0.0
  0
VERTEX
  5
B29
  8
LAYER01
  6
CONTINUOUS
 62
     7
 10
2178.2042499999998
 20
563.837805
 30
0.0
  0
VERTEX
  5
B2A
  8
LAYER01
  6
CONTINUOUS
 62
     7
 10
2177.4118560000002
 20
563.58717999999999
 30
0.0
  0
VERTEX
  5
B2B
  8
LAYER01
  6
CONTINUOUS
 62
     7
 10
2176.619291
 20
563.33710999999994
 30
0.0
  0
VERTEX
  5
B2C
  8
LAYER01
  6
CONTINUOUS
 62
     7
 10
2175.8265580000002
 20
563.08757900000001
 30
0.0
  0
VERTEX
  5
B2D
  8
LAYER01
  6
CONTINUOUS
 62
     7
 10
2175.033664
 20
562.83856899999989
 30
0.0
  0
VERTEX
  5
B2E
  8
LAYER01
  6
CONTINUOUS
 62
     7
 10
2174.2406139999998
 20
562.59006399999998
 30
0.0
  0
VERTEX
  5
B2F
  8
LAYER01
  6
CONTINUOUS
 62
     7
 10
2173.4474129999999
 20
562.34204599999998
 30
0.0
  0
VERTEX
  5
B30
  8
LAYER01
  6
CONTINUOUS
 62
     7
 10
2172.6540660000001
 20
562.09449900000004
 30
0.0
  0
VERTEX
  5
B31
  8
LAYER01
  6
CONTINUOUS
 62
     7
 10
2171.8605790000001
 20
561.84740599999986
 30
0.0
  0
VERTEX
  5
B32
  8
LAYER01
  6
CONTINUOUS
 62
     7
 10
2171.066957
 20
561.60074999999995
 30
0.0
  0
VERTEX
  5
B33
  8
LAYER01
  6
CONTINUOUS
 62
     7
 10
2170.2732040000001
 20
561.35451399999999
 30
0.0
  0
VERTEX
  5
B34
  8
LAYER01
  6
CONTINUOUS
 62
     7
 10
2169.479327
 20
561.10868099999993
 30
0.0
  0
VERTEX
  5
B35
  8
LAYER01
  6
CONTINUOUS
 62
     7
 10
2168.6853310000001
 20
560.86323400000003
 30
0.0
  0
VERTEX
  5
B36
  8
LAYER01
  6
CONTINUOUS
 62
     7
 10
2167.89122
 20
560.618156
 30
0.0
  0
VERTEX
  5
B37
  8
LAYER01
  6
CONTINUOUS
 62
     7
 10
2167.0970000000002
 20
560.37343099999998
 30
0.0
  0
VERTEX
  5
B38
  8
LAYER01
  6
CONTINUOUS
 62
     7
 10
2166.3026759999998
 20
560.12904100000003
 30
0.0
  0
VERTEX
  5
B39
  8
LAYER01
  6
CONTINUOUS
 62
     7
 10
2165.5082539999999
 20
559.88496899999996
 30
0.0
  0
VERTEX
  5
B3A
  8
LAYER01
  6
CONTINUOUS
 62
     7
 10
2164.7137379999999
 20
559.64119900000003
 30
0.0
  0
VERTEX
  5
B3B
  8
LAYER01
  6
CONTINUOUS
 62
     7
 10
2163.9191329999999
 20
559.39771900000005
 30
0.0
  0
VERTEX
  5
B3C
  8
LAYER01
  6
CONTINUOUS
 62
     7
 10
2163.12444
 20
559.15452199999993
 30
0.0
  0
VERTEX
  5
B3D
  8
LAYER01
  6
CONTINUOUS
 62
     7
 10
2162.3296639999999
 20
558.91159400000004
 30
0.0
  0
VERTEX
  5
B3E
  8
LAYER01
  6
CONTINUOUS
 62
     7
 10
2161.5348079999999
 20
558.66892399999995
 30
0.0
  0
VERTEX
  5
B3F
  8
LAYER01
  6
CONTINUOUS
 62
     7
 10
2160.7398760000001
 20
558.42649800000004
 30
0.0
  0
VERTEX
  5
B40
  8
LAYER01
  6
CONTINUOUS
 62
     7
 10
2159.9448729999999
 20
558.18430299999989
 30
0.0
  0
VERTEX
  5
B41
  8
LAYER01
  6
CONTINUOUS
 62
     7
 10
2159.1498019999999
 20
557.94232799999986
 30
0.0
  0
VERTEX
  5
B42
  8
LAYER01
  6
CONTINUOUS
 62
     7
 10
2158.3546670000001
 20
557.70055999999988
 30
0.0
  0
VERTEX
  5
B43
  8
LAYER01
  6
CONTINUOUS
 62
     7
 10
2157.5594719999999
 20
557.45898499999987
 30
0.0
  0
VERTEX
  5
B44
  8
LAYER01
  6
CONTINUOUS
 62
     7
 10
2156.7642209999999
 20
557.21759099999986
 30
0.0
  0
VERTEX
  5
B45
  8
LAYER01
  6
CONTINUOUS
 62
     7
 10
2155.968918
 20
556.97636499999987
 30
0.0
  0
VERTEX
  5
B46
  8
LAYER01
  6
CONTINUOUS
 62
     7
 10
2155.1735669999998
 20
556.73529599999995
 30
0.0
  0
VERTEX
  5
B47
  8
LAYER01
  6
CONTINUOUS
 62
     7
 10
2154.3781710000012
 20
556.49436899999989
 30
0.0
  0
VERTEX
  5
B48
  8
LAYER01
  6
CONTINUOUS
 62
     7
 10
2153.582735
 20
556.25357399999996
 30
0.0
  0
VERTEX
  5
B49
  8
LAYER01
  6
CONTINUOUS
 62
     7
 10
2152.7872619999998
 20
556.01289599999996
 30
0.0
  0
VERTEX
  5
B4A
  8
LAYER01
  6
CONTINUOUS
 62
     7
 10
2151.9917570000011
 20
555.77232300000003
 30
0.0
  0
VERTEX
  5
B4B
  8
LAYER01
  6
CONTINUOUS
 62
     7
 10
2151.1962239999998
 20
555.53184199999987
 30
0.0
  0
VERTEX
  5
B4C
  8
LAYER01
  6
CONTINUOUS
 62
     7
 10
2150.4006650000001
 20
555.29144199999985
 30
0.0
  0
VERTEX
  5
B4D
  8
LAYER01
  6
CONTINUOUS
 62
     7
 10
2149.605086
 20
555.05110899999988
 30
0.0
  0
VERTEX
  5
B4E
  8
LAYER01
  6
CONTINUOUS
 62
     7
 10
2148.8094900000001
 20
554.8108299999999
 30
0.0
  0
VERTEX
  5
B4F
  8
LAYER01
  6
CONTINUOUS
 62
     7
 10
2148.0138809999999
 20
554.57059299999992
 30
0.0
  0
VERTEX
  5
B50
  8
LAYER01
  6
CONTINUOUS
 62
     7
 10
2147.2182630000002
 20
554.33038599999998
 30
0.0
  0
VERTEX
  5
B51
  8
LAYER01
  6
CONTINUOUS
 62
     7
 10
2146.4226389999999
 20
554.09019499999999
 30
0.0
  0
VERTEX
  5
B52
  8
LAYER01
  6
CONTINUOUS
 62
     7
 10
2145.627015
 20
553.850008
 30
0.0
  0
VERTEX
  5
B53
  8
LAYER01
  6
CONTINUOUS
 62
     7
 10
2144.8313929999999
 20
553.60981200000003
 30
0.0
  0
VERTEX
  5
B54
  8
LAYER01
  6
CONTINUOUS
 62
     7
 10
2144.0357779999999
 20
553.369595
 30
0.0
  0
VERTEX
  5
B55
  8
LAYER01
  6
CONTINUOUS
 62
     7
 10
2143.2401719999998
 20
553.12934699999994
 30
0.0
  0
VERTEX
  5
B56
  8
LAYER01
  6
CONTINUOUS
 62
     7
 10
2142.444579
 20
552.88905999999986
 30
0.0
  0
VERTEX
  5
B57
  8
LAYER01
  6
CONTINUOUS
 62
     7
 10
2141.6490020000001
 20
552.64872000000003
 30
0.0
  0
VERTEX
  5
B58
  8
LAYER01
  6
CONTINUOUS
 62
     7
 10
2140.8534460000001
 20
552.40831400000002
 30
0.0
  0
VERTEX
  5
B59
  8
LAYER01
  6
CONTINUOUS
 62
     7
 10
2140.057914
 20
552.16782799999987
 30
0.0
  0
VERTEX
  5
B5A
  8
LAYER01
  6
CONTINUOUS
 62
     7
 10
2139.262412
 20
551.92724999999984
 30
0.0
  0
VERTEX
  5
B5B
  8
LAYER01
  6
CONTINUOUS
 62
     7
 10
2138.466942
 20
551.68656499999997
 30
0.0
  0
VERTEX
  5
B5C
  8
LAYER01
  6
CONTINUOUS
 62
     7
 10
2137.6715100000001
 20
551.44576099999995
 30
0.0
  0
VERTEX
  5
B5D
  8
LAYER01
  6
CONTINUOUS
 62
     7
 10
2136.876119
 20
551.20482300000003
 30
0.0
  0
VERTEX
  5
B5E
  8
LAYER01
  6
CONTINUOUS
 62
     7
 10
2136.080774
 20
550.96374000000003
 30
0.0
  0
VERTEX
  5
B5F
  8
LAYER01
  6
CONTINUOUS
 62
     7
 10
2135.2854790000001
 20
550.72249599999998
 30
0.0
  0
VERTEX
  5
B60
  8
LAYER01
  6
CONTINUOUS
 62
     7
 10
2134.490237
 20
550.48108000000002
 30
0.0
  0
VERTEX
  5
B61
  8
LAYER01
  6
CONTINUOUS
 62
     7
 10
2133.6950539999998
 20
550.23947699999985
 30
0.0
  0
VERTEX
  5
B62
  8
LAYER01
  6
CONTINUOUS
 62
     7
 10
2132.8999330000001
 20
549.99767499999996
 30
0.0
  0
VERTEX
  5
B63
  8
LAYER01
  6
CONTINUOUS
 62
     7
 10
2132.1048780000001
 20
549.75565999999992
 30
0.0
  0
VERTEX
  5
B64
  8
LAYER01
  6
CONTINUOUS
 62
     7
 10
2131.309894
 20
549.51341799999989
 30
0.0
  0
VERTEX
  5
B65
  8
LAYER01
  6
CONTINUOUS
 62
     7
 10
2130.5149839999999
 20
549.270937
 30
0.0
  0
VERTEX
  5
B66
  8
LAYER01
  6
CONTINUOUS
 62
     7
 10
2129.7201530000002
 20
549.02820199999985
 30
0.0
  0
VERTEX
  5
B67
  8
LAYER01
  6
CONTINUOUS
 62
     7
 10
2128.9254059999998
 20
548.78520199999991
 30
0.0
  0
VERTEX
  5
B68
  8
LAYER01
  6
CONTINUOUS
 62
     7
 10
2128.1307449999999
 20
548.54192099999989
 30
0.0
  0
VERTEX
  5
B69
  8
LAYER01
  6
CONTINUOUS
 62
     7
 10
2127.3361759999998
 20
548.29834800000003
 30
0.0
  0
VERTEX
  5
B6A
  8
LAYER01
  6
CONTINUOUS
 62
     7
 10
2126.541702
 20
548.05446799999993
 30
0.0
  0
VERTEX
  5
B6B
  8
LAYER01
  6
CONTINUOUS
 62
     7
 10
2125.7473279999999
 20
547.81026799999995
 30
0.0
  0
VERTEX
  5
B6C
  8
LAYER01
  6
CONTINUOUS
 62
     7
 10
2124.9530580000001
 20
547.56573500000002
 30
0.0
  0
VERTEX
  5
B6D
  8
LAYER01
  6
CONTINUOUS
 62
     7
 10
2124.158895
 20
547.32085599999994
 30
0.0
  0
VERTEX
  5
B6E
  8
LAYER01
  6
CONTINUOUS
 62
     7
 10
2123.3648450000001
 20
547.07561699999985
 30
0.0
  0
VERTEX
  5
B6F
  8
LAYER01
  6
CONTINUOUS
 62
     7
 10
2122.5709120000001
 20
546.83000199999992
 30
0.0
  0
VERTEX
  5
B70
  8
LAYER01
  6
CONTINUOUS
 62
     7
 10
2121.777102
 20
546.58399400000008
 30
0.0
  0
VERTEX
  5
B71
  8
LAYER01
  6
CONTINUOUS
 62
     7
 10
2120.9834190000001
 20
546.33757400000002
 30
0.0
  0
VERTEX
  5
B72
  8
LAYER01
  6
CONTINUOUS
 62
     7
 10
2120.189871
 20
546.09072499999991
 30
0.0
  0
VERTEX
  5
B73
  8
LAYER01
  6
CONTINUOUS
 62
     7
 10
2119.3964609999998
 20
545.84343100000001
 30
0.0
  0
VERTEX
  5
B74
  8
LAYER01
  6
CONTINUOUS
 62
     7
 10
2118.603196
 20
545.59567300000003
 30
0.0
  0
VERTEX
  5
B75
  8
LAYER01
  6
CONTINUOUS
 62
     7
 10
2117.8100800000002
 20
545.34743500000002
 30
0.0
  0
VERTEX
  5
B76
  8
LAYER01
  6
CONTINUOUS
 62
     7
 10
2117.01712
 20
545.09869800000001
 30
0.0
  0
VERTEX
  5
B77
  8
LAYER01
  6
CONTINUOUS
 62
     7
 10
2116.2243199999998
 20
544.84944599999994
 30
0.0
  0
VERTEX
  5
B78
  8
LAYER01
  6
CONTINUOUS
 62
     7
 10
2115.4316869999998
 20
544.59966199999985
 30
0.0
  0
VERTEX
  5
B79
  8
LAYER01
  6
CONTINUOUS
 62
     7
 10
2114.639224
 20
544.3493269999999
 30
0.0
  0
VERTEX
  5
B7A
  8
LAYER01
  6
CONTINUOUS
 62
     7
 10
2113.846939
 20
544.09842500000002
 30
0.0
  0
VERTEX
  5
B7B
  8
LAYER01
  6
CONTINUOUS
 62
     7
 10
2113.0548359999998
 20
543.84693799999991
 30
0.0
  0
VERTEX
  5
B7C
  8
LAYER01
  6
CONTINUOUS
 62
     7
 10
2112.262921
 20
543.59484699999985
 30
0.0
  0
VERTEX
  5
B7D
  8
LAYER01
  6
CONTINUOUS
 62
     7
 10
2111.4712009999998
 20
543.342129
 30
0.0
  0
VERTEX
  5
B7E
  8
LAYER01
  6
CONTINUOUS
 62
     7
 10
2110.6796829999998
 20
543.08876299999986
 30
0.0
  0
VERTEX
  5
B7F
  8
LAYER01
  6
CONTINUOUS
 62
     7
 10
2109.8883740000001
 20
542.83472800000004
 30
0.0
  0
VERTEX
  5
B80
  8
LAYER01
  6
CONTINUOUS
 62
     7
 10
2109.09728
 20
542.58000199999992
 30
0.0
  0
VERTEX
  5
B81
  8
LAYER01
  6
CONTINUOUS
 62
     7
 10
2108.3064079999999
 20
542.32456400000001
 30
0.0
  0
VERTEX
  5
B82
  8
LAYER01
  6
CONTINUOUS
 62
     7
 10
2107.5157749999998
 20
542.06836099999998
 30
0.0
  0
VERTEX
  5
B83
  8
LAYER01
  6
CONTINUOUS
 62
     7
 10
2106.7254280000002
 20
541.81123700000001
 30
0.0
  0
VERTEX
  5
B84
  8
LAYER01
  6
CONTINUOUS
 62
     7
 10
2105.93534
 20
541.55328399999996
 30
0.0
  0
VERTEX
  5
B85
  8
LAYER01
  6
CONTINUOUS
 62
     7
 10
2105.1454680000002
 20
541.29463600000008
 30
0.0
  0
VERTEX
  5
B86
  8
LAYER01
  6
CONTINUOUS
 62
     7
 10
2104.3557730000002
 20
541.03542300000004
 30
0.0
  0
VERTEX
  5
B87
  8
LAYER01
  6
CONTINUOUS
 62
     7
 10
2103.5662120000002
 20
540.77577799999995
 30
0.0
  0
VERTEX
  5
B88
  8
LAYER01
  6
CONTINUOUS
 62
     7
 10
2102.7767439999998
 20
540.51583300000004
 30
0.0
  0
SEQEND
  5
B89
  8
LAYER01
  6
CONTINUOUS
 62
     7
  0
LINE
  5
621
  8
LAYER01
  6
CONTINUOUS
 62
     7
 10
2185.0689849999999
 20
582.02812800000004
 30
0.0
 11
2189.344173
 21
663.603521
 31
0.0
  0
LINE
  5
622
  8
LAYER01
  6
CONTINUOUS
 62
     7
 10
2197.0525440000001
 20
581.40009599999985
 30
0.0
 11
2200.3344200000001
 21
644.02220899999986
 31
0.0
  0
POLYLINE
  5
623
  8
LAYER01
  6
CONTINUOUS
 62
     7
 66
     1
 10
0.0
 20
0.0
 30
0.0
  0
VERTEX
  5
B8A
  8
LAYER01
  6
CONTINUOUS
 62
     7
 10
2181.6203559999999
 20
577.53433700000005
 30
0.0
  0
VERTEX
  5
B8B
  8
LAYER01
  6
CONTINUOUS
 62
     7
 10
2178.3686290000001
 20
576.48494200000005
 30
0.0
  0
VERTEX
  5
B8C
  8
LAYER01
  6
CONTINUOUS
 62
     7
 10
2175.0779600000001
 20
575.43554699999993
 30
0.0
  0
VERTEX
  5
B8D
  8
LAYER01
  6
CONTINUOUS
 62
     7
 10
2171.752062
 20
574.38615099999993
 30
0.0
  0
VERTEX
  5
B8E
  8
LAYER01
  6
CONTINUOUS
 62
     7
 10
2168.3946460000002
 20
573.33675599999992
 30
0.0
  0
VERTEX
  5
B8F
  8
LAYER01
  6
CONTINUOUS
 62
     7
 10
2165.0094250000002
 20
572.28736100000003
 30
0.0
  0
VERTEX
  5
B90
  8
LAYER01
  6
CONTINUOUS
 62
     7
 10
2161.6001110000002
 20
571.23796500000003
 30
0.0
  0
VERTEX
  5
B91
  8
LAYER01
  6
CONTINUOUS
 62
     7
 10
2158.1704159999999
 20
570.18857000000003
 30
0.0
  0
VERTEX
  5
B92
  8
LAYER01
  6
CONTINUOUS
 62
     7
 10
2154.724052
 20
569.13917400000003
 30
0.0
  0
VERTEX
  5
B93
  8
LAYER01
  6
CONTINUOUS
 62
     7
 10
2151.2647299999999
 20
568.08977900000002
 30
0.0
  0
VERTEX
  5
B94
  8
LAYER01
  6
CONTINUOUS
 62
     7
 10
2147.796163
 20
567.04038400000002
 30
0.0
  0
VERTEX
  5
B95
  8
LAYER01
  6
CONTINUOUS
 62
     7
 10
2144.3220630000001
 20
565.9909879999999
 30
0.0
  0
VERTEX
  5
B96
  8
LAYER01
  6
CONTINUOUS
 62
     7
 10
2140.8461430000002
 20
564.9415929999999
 30
0.0
  0
VERTEX
  5
B97
  8
LAYER01
  6
CONTINUOUS
 62
     7
 10
2137.3721129999999
 20
563.89219800000001
 30
0.0
  0
VERTEX
  5
B98
  8
LAYER01
  6
CONTINUOUS
 62
     7
 10
2133.9036860000001
 20
562.84280200000001
 30
0.0
  0
VERTEX
  5
B99
  8
LAYER01
  6
CONTINUOUS
 62
     7
 10
2130.4445740000001
 20
561.793407
 30
0.0
  0
VERTEX
  5
B9A
  8
LAYER01
  6
CONTINUOUS
 62
     7
 10
2126.9984899999999
 20
560.74401199999988
 30
0.0
  0
VERTEX
  5
B9B
  8
LAYER01
  6
CONTINUOUS
 62
     7
 10
2123.5691449999999
 20
559.69461599999988
 30
0.0
  0
VERTEX
  5
B9C
  8
LAYER01
  6
CONTINUOUS
 62
     7
 10
2120.1602510000012
 20
558.64522099999999
 30
0.0
  0
VERTEX
  5
B9D
  8
LAYER01
  6
CONTINUOUS
 62
     7
 10
2116.7755200000001
 20
557.59582499999999
 30
0.0
  0
VERTEX
  5
B9E
  8
LAYER01
  6
CONTINUOUS
 62
     7
 10
2113.4186640000012
 20
556.54642999999999
 30
0.0
  0
VERTEX
  5
B9F
  8
LAYER01
  6
CONTINUOUS
 62
     7
 10
2110.0933960000002
 20
555.49703499999987
 30
0.0
  0
VERTEX
  5
BA0
  8
LAYER01
  6
CONTINUOUS
 62
     7
 10
2106.8034269999998
 20
554.44763899999987
 30
0.0
  0
VERTEX
  5
BA1
  8
LAYER01
  6
CONTINUOUS
 62
     7
 10
2103.5524700000001
 20
553.39824399999998
 30
0.0
  0
VERTEX
  5
BA2
  8
LAYER01
  6
CONTINUOUS
 62
     7
 10
2100.3442359999999
 20
552.34884899999997
 30
0.0
  0
SEQEND
  5
BA3
  8
LAYER01
  6
CONTINUOUS
 62
     7
  0
ARC
  5
63E
  8
LAYER01
  6
CONTINUOUS
 62
     7
 10
2180.0758390000001
 20
582.289804
 30
0.0
 40
5.0
 50
287.99315999999999
 51
357.0
  0
ARC
  5
63F
  8
LAYER01
  6
CONTINUOUS
 62
     7
 10
2180.0758390000001
 20
582.289804
 30
0.0
 40
17.0
 50
287.99315999999999
 51
357.0
  0
LINE
  5
640
  8
LAYER01
  6
CONTINUOUS
 62
     7
 10
2214.3441790000002
 20
663.603521
 30
0.0
 11
2189.344173
 21
663.603521
 31
0.0
  0
LINE
  5
641
  8
LAYER01
  6
CONTINUOUS
 62
     7
 10
2214.3441790000002
 20
663.603521
 30
0.0
 11
2214.3441790000002
 21
651.603521
 31
0.0
  0
LINE
  5
642
  8
LAYER01
  6
CONTINUOUS
 62
     7
 10
2214.3441790000002
 20
651.603521
 30
0.0
 11
2208.3234689999999
 21
651.603521
 31
0.0
  0
ARC
  5
643
  8
LAYER01
  6
CONTINUOUS
 62
     7
 10
2208.3234630000002
 20
643.603521
 30
0.0
 40
8.0
 50
90.0
 51
177.0
  0
LINE
  5
644
  8
LAYER01
  6
CONTINUOUS
 62
     7
 10
2184.351017
 20
663.603521
 30
0.0
 11
2189.344173
 21
663.603521
 31
0.0
  0
ENDSEC
  0
EOF
