  0
SECTION
  2
HEADER
  9
$ACADVER
  1
AC1009
  9
$INSBASE
 10
10.44
 20
4.5949999999999989
 30
0.0
  9
$EXTMIN
 10
2667.1787680835041
 20
25.10189986763498
 30
-84.366799999999998
  9
$EXTMAX
 10
5305.284713025002
 20
2842.7922556487702
 30
88.290899999999979
  9
$LIMMIN
 10
4067.1160481924012
 20
0.2428004667399364
  9
$LIMMAX
 10
5278.2257461673307
 20
1383.6622667802519
  9
$ORTHOMODE
 70
     0
  9
$REGENMODE
 70
     1
  9
$FILLMODE
 70
     1
  9
$QTEXTMODE
 70
     0
  9
$MIRRTEXT
 70
     1
  9
$DRAGMODE
 70
     2
  9
$LTSCALE
 40
2.0
  9
$OSMODE
 70
    37
  9
$ATTMODE
 70
     1
  9
$TEXTSIZE
 40
0.2
  9
$TRACEWID
 40
0.05
  9
$TEXTSTYLE
  7
STANDARD
  9
$CLAYER
  8
KERA4
  9
$CELTYPE
  6
BYLAYER
  9
$CECOLOR
 62
   256
  9
$DIMSCALE
 40
1.0
  9
$DIMASZ
 40
50.0
  9
$DIMEXO
 40
20.0
  9
$DIMDLI
 40
20.0
  9
$DIMRND
 40
0.0
  9
$DIMDLE
 40
0.0
  9
$DIMEXE
 40
15.0
  9
$DIMTP
 40
0.0
  9
$DIMTM
 40
0.0
  9
$DIMTXT
 40
50.0
  9
$DIMCEN
 40
20.0
  9
$DIMTSZ
 40
0.0
  9
$DIMTOL
 70
     0
  9
$DIMLIM
 70
     0
  9
$DIMTIH
 70
     1
  9
$DIMTOH
 70
     1
  9
$DIMSE1
 70
     0
  9
$DIMSE2
 70
     0
  9
$DIMTAD
 70
     0
  9
$DIMZIN
 70
     0
  9
$DIMBLK
  1

  9
$DIMASO
 70
     1
  9
$DIMSHO
 70
     1
  9
$DIMPOST
  1

  9
$DIMAPOST
  1

  9
$DIMALT
 70
     0
  9
$DIMALTD
 70
     2
  9
$DIMALTF
 40
25.399999999999999
  9
$DIMLFAC
 40
1.0
  9
$DIMTOFL
 70
     0
  9
$DIMTVP
 40
0.0
  9
$DIMTIX
 70
     1
  9
$DIMSOXD
 70
     0
  9
$DIMSAH
 70
     0
  9
$DIMBLK1
  1

  9
$DIMBLK2
  1

  9
$DIMSTYLE
  2
STANDARD
  9
$DIMCLRD
 70
     0
  9
$DIMCLRE
 70
   256
  9
$DIMCLRT
 70
   256
  9
$DIMTFAC
 40
1.0
  9
$DIMGAP
 40
5.0
  9
$LUNITS
 70
     2
  9
$LUPREC
 70
     3
  9
$SKETCHINC
 40
0.1
  9
$FILLETRAD
 40
3.0
  9
$AUNITS
 70
     0
  9
$AUPREC
 70
     0
  9
$MENU
  1
ACAD
  9
$ELEVATION
 40
0.0
  9
$PELEVATION
 40
0.0
  9
$THICKNESS
 40
0.0
  9
$LIMCHECK
 70
     0
  9
$BLIPMODE
 70
     0
  9
$CHAMFERA
 40
0.0
  9
$CHAMFERB
 40
0.0
  9
$SKPOLY
 70
     0
  9
$TDCREATE
 40
2450012.604277662
  9
$TDUPDATE
 40
2455985.7317659729
  9
$TDINDWG
 40
0.6028164468
  9
$TDUSRTIMER
 40
0.6028164468
  9
$USRTIMER
 70
     1
  9
$ANGBASE
 50
0.0
  9
$ANGDIR
 70
     0
  9
$PDMODE
 70
     0
  9
$PDSIZE
 40
0.0
  9
$PLINEWID
 40
0.0
  9
$COORDS
 70
     1
  9
$SPLFRAME
 70
     0
  9
$SPLINETYPE
 70
     6
  9
$SPLINESEGS
 70
     8
  9
$ATTDIA
 70
     0
  9
$ATTREQ
 70
     1
  9
$HANDLING
 70
     1
  9
$HANDSEED
  5
77AA
  9
$SURFTAB1
 70
     2
  9
$SURFTAB2
 70
     2
  9
$SURFTYPE
 70
     6
  9
$SURFU
 70
     6
  9
$SURFV
 70
     6
  9
$UCSNAME
  2

  9
$UCSORG
 10
0.0
 20
0.0
 30
0.0
  9
$UCSXDIR
 10
1.0
 20
0.0
 30
0.0
  9
$UCSYDIR
 10
0.0
 20
1.0
 30
0.0
  9
$PUCSNAME
  2

  9
$PUCSORG
 10
0.0
 20
0.0
 30
0.0
  9
$PUCSXDIR
 10
1.0
 20
0.0
 30
0.0
  9
$PUCSYDIR
 10
0.0
 20
1.0
 30
0.0
  9
$USERI1
 70
     0
  9
$USERI2
 70
     0
  9
$USERI3
 70
     0
  9
$USERI4
 70
     0
  9
$USERI5
 70
     0
  9
$USERR1
 40
0.0
  9
$USERR2
 40
0.0
  9
$USERR3
 40
0.0
  9
$USERR4
 40
0.0
  9
$USERR5
 40
0.0
  9
$WORLDVIEW
 70
     1
  9
$SHADEDGE
 70
     3
  9
$SHADEDIF
 70
    70
  9
$TILEMODE
 70
     1
  9
$MAXACTVP
 70
    16
  9
$PLIMCHECK
 70
     0
  9
$PEXTMIN
 10
1.0000000000000000E+020
 20
1.0000000000000000E+020
 30
1.0000000000000000E+020
  9
$PEXTMAX
 10
-1.0000000000000000E+020
 20
-1.0000000000000000E+020
 30
-1.0000000000000000E+020
  9
$PLIMMIN
 10
0.0
 20
0.0
  9
$PLIMMAX
 10
12.0
 20
9.0
  9
$UNITMODE
 70
     0
  9
$VISRETAIN
 70
     0
  9
$PLINEGEN
 70
     0
  9
$PSLTSCALE
 70
     1
  0
ENDSEC
  0
SECTION
  2
TABLES
  0
TABLE
  2
VPORT
 70
     1
  0
VPORT
  2
*ACTIVE
 70
     0
 10
0.0
 20
0.0
 11
1.0
 21
1.0
 12
6954.0836843503366
 22
1528.4060726996929
 13
0.0
 23
0.0
 14
1.0
 24
1.0
 15
100.0
 25
100.0
 16
0.0
 26
0.0
 36
1.0
 17
0.0
 27
0.0
 37
0.0
 40
7727.1467262091392
 41
1.7480577136514981
 42
50.0
 43
0.0
 44
0.0
 50
0.0
 51
0.0
 71
     0
 72
   100
 73
     1
 74
     0
 75
     0
 76
     1
 77
     0
 78
     1
  0
ENDTAB
  0
TABLE
  2
LTYPE
 70
    20
  0
LTYPE
  2
CONTINUOUS
 70
     0
  3
Durchgezogene Linie
 72
    65
 73
     0
 40
0.0
  0
LTYPE
  2
ACAD_ISO10W100
 70
     0
  3
ISO Strichpunktlinie __ . __ . __ . __ . __ . _
 72
    65
 73
     4
 40
18.0
 49
12.0
 49
-3.0
 49
0.0
 49
-3.0
  0
LTYPE
  2
ACAD_ISO02W100
 70
     0
  3
ISO Strichlinie __ __ __ __ __ __ __ __ __ __ _
 72
    65
 73
     2
 40
15.0
 49
12.0
 49
-3.0
  0
LTYPE
  2
HIDDEN
 70
     0
  3
Verdeckt
 72
    65
 73
     2
 40
0.375
 49
0.25
 49
-0.125
  0
LTYPE
  2
PHANTOM2
 70
     0
  3
Phantom (.5x) ___ _ _ ___ _ _ ___ _ _ ___ _ _
 72
    65
 73
     6
 40
1.25
 49
0.625
 49
-0.125
 49
0.125
 49
-0.125
 49
0.125
 49
-0.125
  0
LTYPE
  2
CENTER
 70
     0
  3
Mitte ____ _ ____ _ ____ _ ____ _ ____ _ ____
 72
    65
 73
     4
 40
2.0
 49
1.25
 49
-0.25
 49
0.25
 49
-0.25
  0
LTYPE
  2
AM_ISO02W050
 70
     0
  3
__ __ __ __ __ __ __ __ __ __ __ __ __ __ __
 72
    65
 73
     2
 40
7.5
 49
6.0
 49
-1.5
  0
LTYPE
  2
AM_ISO08W050
 70
     0
  3
____ . ____ . ____ . ____ . ____ . ____ . ____
 72
    65
 73
     4
 40
18.0
 49
12.0
 49
-1.5
 49
3.0
 49
-1.5
  0
LTYPE
  2
AM_ISO09W050
 70
     0
  3
_____ . . _____ . . _____ . . ____ .. ____
 72
    65
 73
     6
 40
22.5
 49
12.0
 49
-1.5
 49
3.0
 49
-1.5
 49
3.0
 49
-1.5
  0
LTYPE
  2
AMCONSTR
 70
     0
  3
_______________________
 72
    65
 73
     2
 40
9999.0
 49
9999.0
 49
0.0
  0
LTYPE
  2
AM_ISO08W050X2
 70
     0
  3
__ . __ . __ . __ . __ . __
 72
    65
 73
     4
 40
9.0
 49
6.0
 49
-0.75
 49
1.5
 49
-0.75
  0
LTYPE
  2
AM_ISO02W050X2
 70
     0
  3
 _ _ _ _ _ _ _ _ _ _ _ _
 72
    65
 73
     2
 40
3.75
 49
3.0
 49
-0.75
  0
LTYPE
  2
AMZIGZAG
 70
     0
  3
/\/-/\/-/\/-/\/-/\/-/\/
 72
    65
 73
     2
 40
11.0001
 49
0.0001
 49
-11.0
  0
LTYPE
  2
CENTER2
 70
     0
  3
Center (.5x) ___ _ ___ _ ___ _ ___ _ ___ _ ___
 72
    65
 73
     4
 40
1.125
 49
0.75
 49
-0.125
 49
0.125
 49
-0.125
  0
LTYPE
  2
HIDDEN2
 70
     0
  3
Hidden (.5x) _ _ _ _ _ _ _ _ _ _ _ _ _ _ _ _ _
 72
    65
 73
     2
 40
0.1875
 49
0.125
 49
-0.0625
  0
LTYPE
  2
AMZIGZAG2
 70
     0
  3
/\/-/\/-/\/-/\/-/\/-/\/
 72
    65
 73
     2
 40
0.4401
 49
0.0001
 49
-0.4400000000000001
  0
LTYPE
  2
ACANSTGB
 70
     0
  3
__ . . __ . .
 72
    65
 73
     6
 40
0.35433070866
 49
0.15748031496
 49
-0.03937007874
 49
0.03937007874
 49
-0.03937007874
 49
0.03937007874
 49
-0.03937007874
  0
LTYPE
  2
ACANSTGL
 70
     0
  3
_ _ _ _ _
 72
    65
 73
     2
 40
0.11811023622
 49
0.07874015748
 49
-0.03937007874
  0
LTYPE
  2
STRICHPUNKT
 70
     0
  3
Strichpunkt __ . __ . __ . __ . __ . __ . __ . 
 72
    65
 73
     4
 40
25.399999999999999
 49
12.699999999999999
 49
-6.3499999999999988
 49
0.0
 49
-6.3499999999999988
  0
LTYPE
  2
VERDECKT2
 70
     0
  3
Verdeckt (.5x) _ _ _ _ _ _ _ _ _ _ _ _ _ _ _ _ 
 72
    65
 73
     2
 40
4.7624999999999993
 49
3.1749999999999989
 49
-1.587499999999999
  0
ENDTAB
  0
TABLE
  2
LAYER
 70
    14
  0
LAYER
  2
0
 70
     0
 62
     7
  6
CONTINUOUS
  0
LAYER
  2
KERA0
 70
     0
 62
     5
  6
CONTINUOUS
  0
LAYER
  2
KERA2
 70
     0
 62
     7
  6
ACAD_ISO10W100
  0
LAYER
  2
KERA4
 70
     0
 62
     1
  6
CONTINUOUS
  0
LAYER
  2
DEFPOINTS
 70
     0
 62
     7
  6
CONTINUOUS
  0
LAYER
  2
KERA5
 70
     0
 62
   252
  6
CONTINUOUS
  0
LAYER
  2
KERA1
 70
     0
 62
    10
  6
ACAD_ISO02W100
  0
LAYER
  2
AM_5
 70
     0
 62
    92
  6
CONTINUOUS
  0
LAYER
  2
AM_0
 70
     0
 62
     7
  6
CONTINUOUS
  0
LAYER
  2
AM_4
 70
     0
 62
    92
  6
CONTINUOUS
  0
LAYER
  2
AM_8
 70
     0
 62
     1
  6
CONTINUOUS
  0
LAYER
  2
KERA3
 70
     0
 62
   160
  6
CONTINUOUS
  0
LAYER
  2
KERA6
 70
     0
 62
    20
  6
CONTINUOUS
  0
LAYER
  2
KERA7
 70
     0
 62
    22
  6
CONTINUOUS
  0
ENDTAB
  0
TABLE
  2
STYLE
 70
     5
  0
STYLE
  2
STANDARD
 70
     0
 40
50.0
 41
1.0
 50
0.0
 71
     0
 42
0.2
  3
txt
  4

  0
STYLE
  2

 70
     1
 40
0.0
 41
1.0
 50
0.0
 71
     0
 42
0.2
  3
genltshp.shx
  4

  0
STYLE
  2
ACANSTS
 70
     0
 40
1.0
 41
1.0
 50
0.0
 71
     0
 42
0.2
  3
romans.shx
  4

  0
STYLE
  2
ACANSGDT
 70
     0
 40
0.0
 41
1.0
 50
0.0
 71
     0
 42
0.2
  3
amgdt.shx
  4

  0
STYLE
  2
ROMANS
 70
     0
 40
0.0
 41
1.0
 50
0.0
 71
     0
 42
0.2
  3
romans
  4

  0
ENDTAB
  0
TABLE
  2
VIEW
 70
     0
  0
ENDTAB
  0
TABLE
  2
UCS
 70
     0
  0
ENDTAB
  0
TABLE
  2
APPID
 70
    27
  0
APPID
  2
ACAD
 70
     0
  0
APPID
  2
DCO15
 70
     0
  0
APPID
  2
MCAD_NO_VIS
 70
     0
  0
APPID
  2
ACAD_TEMP_GRAPHIC
 70
     0
  0
APPID
  2
AD_DRAW
 70
     0
  0
APPID
  2
ACATTRIBSERVICES
 70
     0
  0
APPID
  2
DESIGNERASSEMBLIES
 70
     0
  0
APPID
  2
ACADM_DIM_EDIT
 70
     0
  0
APPID
  2
AMDT_DM_ADJ
 70
     0
  0
APPID
  2
ACAD_DSTYLE_DIMJAG
 70
     0
  0
APPID
  2
ACAD_DSTYLE_DIMBREAK
 70
     0
  0
APPID
  2
ACADANNOPO
 70
     0
  0
APPID
  2
ACAD_DSTYLE_DIMTALN
 70
     0
  0
APPID
  2
ACAD_EXEMPT_FROM_CAD_STANDARDS
 70
     0
  0
APPID
  2
ACAD_PSEXT
 70
     0
  0
APPID
  2
GENIUS_GENFIL_13
 70
     0
  0
APPID
  2
GENIUS_GENOBJ-N-CHA_13
 70
     0
  0
APPID
  2
GENIUS_GENODEF_13
 70
     0
  0
APPID
  2
ACAECLAYERSTANDARD
 70
     0
  0
APPID
  2
ACAD_DSTYLE_DIMINSPECT
 70
     0
  0
APPID
  2
GENIUS_GENDTOL_13
 70
     0
  0
APPID
  2
GENIUS_GENOBJ-N-HTC_13
 70
     0
  0
APPID
  2
GENIUS_GENHATCH_13
 70
     0
  0
APPID
  2
GENIUS_GENDIMSH_14
 70
     0
  0
APPID
  2
ACAD_NAV_VCDISPLAY
 70
     0
  0
APPID
  2
CONTENTBLOCKICON
 70
     0
  0
APPID
  2
ACAD_MLEADERVER
 70
     0
  0
ENDTAB
  0
TABLE
  2
DIMSTYLE
 70
     8
  0
DIMSTYLE
  2
STANDARD
 70
     0
  3

  4

  5

  6

  7

 40
1.0
 41
50.0
 42
20.0
 43
20.0
 44
15.0
 45
0.0
 46
0.0
 47
0.0
 48
0.0
140
50.0
141
20.0
142
0.0
143
25.399999999999999
144
1.0
145
0.0
146
1.0
147
5.0
 71
     0
 72
     0
 73
     1
 74
     1
 75
     0
 76
     0
 77
     0
 78
     0
170
     0
171
     2
172
     0
173
     0
174
     1
175
     0
176
     0
177
   256
178
   256
  0
DIMSTYLE
  2
AM_ANSI
 70
     0
  3

  4
mm
  5

  6

  7

 40
1.0
 41
0.12
 42
0.05
 43
0.5
 44
0.1
 45
0.0
 46
0.0
 47
0.1
 48
0.1
140
0.12
141
0.0
142
0.0
143
25.399999999999999
144
1.0
145
0.0
146
0.71
147
0.06
 71
     0
 72
     0
 73
     1
 74
     1
 75
     0
 76
     0
 77
     0
 78
     7
170
     0
171
     2
172
     0
173
     0
174
     0
175
     0
176
   256
177
   256
178
   140
  0
DIMSTYLE
  2
AM_ANSI$3
 70
     0
  3

  4
mm
  5

  6

  7

 40
1.0
 41
0.12
 42
0.05
 43
0.5
 44
0.1
 45
0.0
 46
0.0
 47
0.1
 48
0.1
140
0.12
141
0.0
142
0.0
143
25.399999999999999
144
1.0
145
0.0
146
0.71
147
0.06
 71
     0
 72
     0
 73
     1
 74
     1
 75
     0
 76
     0
 77
     0
 78
     7
170
     0
171
     2
172
     0
173
     0
174
     0
175
     0
176
   256
177
   256
178
   140
  0
DIMSTYLE
  2
AM_ANSI$4
 70
     0
  3

  4
mm
  5

  6

  7

 40
1.0
 41
0.12
 42
0.05
 43
0.5
 44
0.1
 45
0.0
 46
0.0
 47
0.1
 48
0.1
140
0.12
141
0.0
142
0.0
143
25.399999999999999
144
1.0
145
0.0
146
0.71
147
0.06
 71
     0
 72
     0
 73
     1
 74
     1
 75
     0
 76
     0
 77
     0
 78
     7
170
     0
171
     2
172
     0
173
     0
174
     0
175
     0
176
   256
177
   256
178
   140
  0
DIMSTYLE
  2
AM_ANSI$7
 70
     0
  3

  4
mm
  5

  6

  7

 40
1.0
 41
0.12
 42
0.05
 43
0.5
 44
0.1
 45
0.0
 46
0.0
 47
0.1
 48
0.1
140
0.12
141
0.0
142
0.0
143
25.399999999999999
144
1.0
145
0.0
146
0.71
147
0.06
 71
     0
 72
     0
 73
     1
 74
     1
 75
     0
 76
     0
 77
     0
 78
     7
170
     0
171
     2
172
     0
173
     0
174
     0
175
     0
176
   256
177
   256
178
   140
  0
DIMSTYLE
  2
AM_ANSI$SF
 70
     0
  3

  4
mm
  5

  6

  7

 40
1.0
 41
0.12
 42
0.05
 43
0.5
 44
0.1
 45
0.0
 46
0.0
 47
0.1
 48
0.1
140
0.12
141
0.0
142
0.0
143
25.399999999999999
144
1.0
145
0.0
146
0.71
147
0.06
 71
     0
 72
     0
 73
     1
 74
     1
 75
     1
 76
     1
 77
     0
 78
     7
170
     0
171
     2
172
     0
173
     0
174
     0
175
     0
176
   256
177
   256
178
   140
  0
DIMSTYLE
  2
AM_ANSI$SH
 70
     0
  3

  4
mm
  5

  6
GENAXEH
  7

 40
1.0
 41
0.12
 42
0.05
 43
0.5
 44
0.1
 45
0.0
 46
0.0
 47
0.1
 48
0.1
140
0.12
141
0.0
142
0.0
143
25.399999999999999
144
1.0
145
0.0
146
0.71
147
0.06
 71
     0
 72
     0
 73
     1
 74
     1
 75
     1
 76
     1
 77
     0
 78
     7
170
     0
171
     2
172
     0
173
     1
174
     0
175
     0
176
   256
177
   256
178
   140
  0
DIMSTYLE
  2
STANDARD$0
 70
     0
  3

  4

  5

  6

  7

 40
1.0
 41
50.0
 42
20.0
 43
20.0
 44
15.0
 45
0.0
 46
0.0
 47
0.0
 48
0.0
140
50.0
141
20.0
142
0.0
143
25.399999999999999
144
1.0
145
0.0
146
1.0
147
5.0
 71
     0
 72
     0
 73
     1
 74
     1
 75
     0
 76
     0
 77
     0
 78
     0
170
     0
171
     2
172
     0
173
     0
174
     1
175
     0
176
     0
177
   256
178
   256
  0
ENDTAB
  0
ENDSEC
  0
SECTION
  2
BLOCKS
  0
BLOCK
  8
0
  2
$MODEL_SPACE
 70
     0
 10
0.0
 20
0.0
 30
0.0
  3
$MODEL_SPACE
  1

  0
ENDBLK
  5
483A
  8
0
  0
BLOCK
 67
     1
  8
0
  2
$PAPER_SPACE
 70
     0
 10
0.0
 20
0.0
 30
0.0
  3
$PAPER_SPACE
  1

  0
ENDBLK
  5
4836
 67
     1
  8
0
  0
BLOCK
  8
0
  2
_DOTSMALL
 70
     0
 10
0.0
 20
0.0
 30
0.0
  3
_DOTSMALL
  1

  0
POLYLINE
  5
4DB3
  8
0
  6
BYBLOCK
 62
     0
 66
     1
 10
0.0
 20
0.0
 30
0.0
 70
     1
 40
0.5
 41
0.5
  0
VERTEX
  5
73FC
  8
0
  6
BYBLOCK
 62
     0
 10
-0.0625
 20
0.0
 30
0.0
 42
1.0
  0
VERTEX
  5
73FD
  8
0
  6
BYBLOCK
 62
     0
 10
0.0625
 20
0.0
 30
0.0
 42
1.0
  0
SEQEND
  5
73FE
  8
0
  6
BYBLOCK
 62
     0
  0
ENDBLK
  5
4DB5
  8
0
  0
BLOCK
  8
0
  2
*D1
 70
     1
 10
0.0
 20
0.0
 30
0.0
  3
*D1
  1

  0
LINE
  5
6BFB
  8
KERA4
  6
CONTINUOUS
 10
4508.3910366860946
 20
941.22864743049729
 30
0.0
 11
4216.5708777035661
 21
941.22864743049752
 31
0.0
  0
LINE
  5
6BFC
  8
KERA4
  6
CONTINUOUS
 10
4763.0086819558019
 20
736.2286474304974
 30
0.0
 11
4216.5708777035661
 21
736.2286474304974
 31
0.0
  0
LINE
  5
6BFD
  8
KERA4
  6
CONTINUOUS
 62
     0
 10
4231.570877703567
 20
891.22864743049752
 30
0.0
 11
4231.570877703567
 21
869.25729681658208
 31
0.0
  0
LINE
  5
6BFE
  8
KERA4
  6
CONTINUOUS
 62
     0
 10
4231.570877703567
 20
786.2286474304974
 30
0.0
 11
4231.570877703567
 21
808.19999804441295
 31
0.0
  0
SOLID
  5
6BFF
  8
KERA4
  6
CONTINUOUS
 62
     0
 10
4223.237544370234
 20
891.22864743049752
 30
0.0
 11
4239.9042110369001
 21
891.22864743049752
 31
0.0
 12
4231.570877703567
 22
941.22864743049752
 32
0.0
 13
4231.570877703567
 23
941.22864743049752
 33
0.0
  0
SOLID
  5
6C00
  8
KERA4
  6
CONTINUOUS
 62
     0
 10
4223.237544370234
 20
786.2286474304974
 30
0.0
 11
4239.9042110369001
 21
786.2286474304974
 31
0.0
 12
4231.570877703567
 22
736.2286474304974
 32
0.0
 13
4231.570877703567
 23
736.2286474304974
 33
0.0
  0
INSERT
  5
6C01
  8
KERA4
  2
*U40
 10
0.0
 20
0.0
 30
0.0
  0
POINT
  5
6C02
  8
DEFPOINTS
  6
CONTINUOUS
 62
     0
 10
4528.3910366860946
 20
941.22864743049729
 30
0.0
  0
POINT
  5
6C03
  8
DEFPOINTS
  6
CONTINUOUS
 62
     0
 10
4783.008681955801
 20
736.2286474304974
 30
0.0
  0
POINT
  5
6C04
  8
DEFPOINTS
  6
CONTINUOUS
 62
     0
 10
4231.570877703567
 20
736.2286474304974
 30
0.0
  0
ENDBLK
  5
5A9B
  8
0
  0
BLOCK
  8
0
  2
*D2
 70
     1
 10
0.0
 20
0.0
 30
0.0
  3
*D2
  1

  0
LINE
  5
6C05
  8
KERA4
  6
CONTINUOUS
 10
4820.0028724773174
 20
716.22864743049729
 30
0.0
 11
4820.0028724773174
 21
604.42260300272665
 31
0.0
  0
LINE
  5
6C06
  8
KERA4
  6
CONTINUOUS
 10
4866.0028724773156
 20
716.22864743049729
 30
0.0
 11
4866.0028724773156
 21
604.42260300272665
 31
0.0
  0
LINE
  5
6C07
  8
KERA4
  6
CONTINUOUS
 62
     0
 10
4916.0028724773156
 20
619.42260300272665
 30
0.0
 11
4966.0028724773156
 21
619.42260300272665
 31
0.0
  0
LINE
  5
6C08
  8
KERA4
  6
CONTINUOUS
 62
     0
 10
4770.0028724773156
 20
619.42260300272665
 30
0.0
 11
4720.0028724773174
 21
619.42260300272665
 31
0.0
  0
SOLID
  5
6C09
  8
KERA4
  6
CONTINUOUS
 62
     0
 10
4916.0028724773156
 20
627.75593633606002
 30
0.0
 11
4916.0028724773156
 21
611.08926966939316
 31
0.0
 12
4866.0028724773156
 22
619.42260300272665
 32
0.0
 13
4866.0028724773156
 23
619.42260300272665
 33
0.0
  0
SOLID
  5
6C0A
  8
KERA4
  6
CONTINUOUS
 62
     0
 10
4770.0028724773156
 20
627.75593633606002
 30
0.0
 11
4770.0028724773156
 21
611.08926966939316
 31
0.0
 12
4820.0028724773174
 22
619.42260300272665
 32
0.0
 13
4820.0028724773174
 23
619.42260300272665
 33
0.0
  0
INSERT
  5
6C0B
  8
KERA4
  2
*U41
 10
0.0
 20
0.0
 30
0.0
  0
POINT
  5
6C0C
  8
DEFPOINTS
  6
CONTINUOUS
 62
     0
 10
4820.0028724773174
 20
736.2286474304974
 30
0.0
  0
POINT
  5
6C0D
  8
DEFPOINTS
  6
CONTINUOUS
 62
     0
 10
4866.0028724773156
 20
736.2286474304974
 30
0.0
  0
POINT
  5
6C0E
  8
DEFPOINTS
  6
CONTINUOUS
 62
     0
 10
4866.0028724773156
 20
619.42260300272665
 30
0.0
  0
ENDBLK
  5
5AC1
  8
0
  0
BLOCK
  8
0
  2
*D3
 70
     1
 10
0.0
 20
0.0
 30
0.0
  3
*D3
  1

  0
LINE
  5
6DC9
  8
KERA4
  6
CONTINUOUS
 10
4543.3910366860946
 20
956.2286474304974
 30
0.0
 11
4543.3910366860946
 21
1237.8920859249729
 31
0.0
  0
LINE
  5
6DCA
  8
KERA4
  6
CONTINUOUS
 10
5123.0028724773156
 20
991.22864743049774
 30
0.0
 11
5123.0028724773156
 21
1237.8920859249729
 31
0.0
  0
LINE
  5
6DCB
  8
KERA4
  6
CONTINUOUS
 62
     0
 10
4593.3910366860946
 20
1222.8920859249729
 30
0.0
 11
4772.9616203388678
 21
1222.8920859249729
 31
0.0
  0
LINE
  5
6DCC
  8
KERA4
  6
CONTINUOUS
 62
     0
 10
5073.0028724773156
 20
1222.8920859249729
 30
0.0
 11
4893.4322888245451
 21
1222.8920859249729
 31
0.0
  0
SOLID
  5
6DCD
  8
KERA4
  6
CONTINUOUS
 62
     0
 10
4593.3910366860946
 20
1231.2254192583059
 30
0.0
 11
4593.3910366860946
 21
1214.5587525916401
 31
0.0
 12
4543.3910366860946
 22
1222.8920859249729
 32
0.0
 13
4543.3910366860946
 23
1222.8920859249729
 33
0.0
  0
SOLID
  5
6DCE
  8
KERA4
  6
CONTINUOUS
 62
     0
 10
5073.0028724773156
 20
1231.2254192583059
 30
0.0
 11
5073.0028724773156
 21
1214.5587525916401
 31
0.0
 12
5123.0028724773156
 22
1222.8920859249729
 32
0.0
 13
5123.0028724773156
 23
1222.8920859249729
 33
0.0
  0
INSERT
  5
6DCF
  8
KERA4
  2
*U47
 10
0.0
 20
0.0
 30
0.0
  0
POINT
  5
6DD0
  8
DEFPOINTS
  6
CONTINUOUS
 62
     0
 10
4543.3910366860946
 20
936.2286474304974
 30
0.0
  0
POINT
  5
6DD1
  8
DEFPOINTS
  6
CONTINUOUS
 62
     0
 10
5123.0028724773156
 20
971.22864743049774
 30
0.0
  0
POINT
  5
6DD2
  8
DEFPOINTS
  6
CONTINUOUS
 62
     0
 10
5123.0028724773156
 20
1222.8920859249729
 30
0.0
  0
ENDBLK
  5
6630
  8
0
  0
BLOCK
  8
0
  2
*D4
 70
     1
 10
0.0
 20
0.0
 30
0.0
  3
*D4
  1

  0
LINE
  5
6C2D
  8
KERA4
  6
CONTINUOUS
 10
4721.0028724773156
 20
781.22864743049706
 30
0.0
 11
4328.5173290900666
 21
781.22864743049729
 31
0.0
  0
LINE
  5
6C2E
  8
KERA4
  6
CONTINUOUS
 10
4508.3910366860946
 20
941.22864743049729
 30
0.0
 11
4328.5173290900666
 21
941.22864743049752
 31
0.0
  0
LINE
  5
6C2F
  8
KERA4
  6
CONTINUOUS
 62
     0
 10
4343.5173290900684
 20
731.22864743049729
 30
0.0
 11
4343.5173290900684
 21
681.22864743049729
 31
0.0
  0
LINE
  5
6C30
  8
KERA4
  6
CONTINUOUS
 62
     0
 10
4343.5173290900684
 20
991.22864743049752
 30
0.0
 11
4343.5173290900684
 21
1041.2286474304969
 31
0.0
  0
SOLID
  5
6C31
  8
KERA4
  6
CONTINUOUS
 62
     0
 10
4335.1839957567336
 20
731.22864743049729
 30
0.0
 11
4351.8506624234014
 21
731.22864743049729
 31
0.0
 12
4343.5173290900684
 22
781.22864743049729
 32
0.0
 13
4343.5173290900684
 23
781.22864743049729
 33
0.0
  0
SOLID
  5
6C32
  8
KERA4
  6
CONTINUOUS
 62
     0
 10
4335.1839957567336
 20
991.22864743049752
 30
0.0
 11
4351.8506624234014
 21
991.22864743049752
 31
0.0
 12
4343.5173290900684
 22
941.22864743049752
 32
0.0
 13
4343.5173290900684
 23
941.22864743049752
 33
0.0
  0
INSERT
  5
6C33
  8
KERA4
  2
*U42
 10
0.0
 20
0.0
 30
0.0
  0
POINT
  5
6C34
  8
DEFPOINTS
  6
CONTINUOUS
 62
     0
 10
4741.0028724773156
 20
781.22864743049706
 30
0.0
  0
POINT
  5
6C35
  8
DEFPOINTS
  6
CONTINUOUS
 62
     0
 10
4528.3910366860946
 20
941.22864743049729
 30
0.0
  0
POINT
  5
6C36
  8
DEFPOINTS
  6
CONTINUOUS
 62
     0
 10
4343.5173290900684
 20
941.22864743049752
 30
0.0
  0
ENDBLK
  5
671E
  8
0
  0
BLOCK
  8
0
  2
*D5
 70
     1
 10
0.0
 20
0.0
 30
0.0
  3
*D5
  1

  0
LINE
  5
6C37
  8
KERA4
  6
CONTINUOUS
 10
4795.5086819558019
 20
716.22864743049752
 30
0.0
 11
4795.5086819558019
 21
519.93025896690824
 31
0.0
  0
LINE
  5
6C38
  8
KERA4
  6
CONTINUOUS
 10
4890.497062998832
 20
716.22864743050002
 30
0.0
 11
4890.497062998832
 21
519.93025896690824
 31
0.0
  0
LINE
  5
6C39
  8
KERA4
  6
CONTINUOUS
 62
     0
 10
4940.497062998832
 20
534.93025896690824
 30
0.0
 11
4990.497062998832
 21
534.93025896690824
 31
0.0
  0
LINE
  5
6C3A
  8
KERA4
  6
CONTINUOUS
 62
     0
 10
4745.5086819558019
 20
534.93025896690824
 30
0.0
 11
4695.5086819558028
 21
534.93025896690824
 31
0.0
  0
SOLID
  5
6C3B
  8
KERA4
  6
CONTINUOUS
 62
     0
 10
4940.497062998832
 20
543.26359230024161
 30
0.0
 11
4940.497062998832
 21
526.59692563357487
 31
0.0
 12
4890.497062998832
 22
534.93025896690824
 32
0.0
 13
4890.497062998832
 23
534.93025896690824
 33
0.0
  0
SOLID
  5
6C3C
  8
KERA4
  6
CONTINUOUS
 62
     0
 10
4745.5086819558019
 20
543.26359230024161
 30
0.0
 11
4745.5086819558019
 21
526.59692563357487
 31
0.0
 12
4795.5086819558019
 22
534.93025896690824
 32
0.0
 13
4795.5086819558019
 23
534.93025896690824
 33
0.0
  0
INSERT
  5
6C3D
  8
KERA4
  2
*U43
 10
0.0
 20
0.0
 30
0.0
  0
POINT
  5
6C3E
  8
DEFPOINTS
  6
CONTINUOUS
 62
     0
 10
4795.5086819558019
 20
736.2286474304974
 30
0.0
  0
POINT
  5
6C3F
  8
DEFPOINTS
  6
CONTINUOUS
 62
     0
 10
4890.497062998832
 20
736.22864743050002
 30
0.0
  0
POINT
  5
6C40
  8
DEFPOINTS
  6
CONTINUOUS
 62
     0
 10
4890.497062998832
 20
534.93025896690824
 30
0.0
  0
ENDBLK
  5
672D
  8
0
  0
BLOCK
  8
0
  2
B1
 70
     0
 10
0.0
 20
0.0
 30
0.0
  3
B1
  1

  0
LINE
  5
6A0D
  8
KERA0
  6
CONTINUOUS
 10
4556.4698231545626
 20
901.38032512115024
 30
0.0
 11
4556.6823558398637
 21
927.06924393425174
 31
0.0
  0
LINE
  5
6A0E
  8
KERA0
  6
CONTINUOUS
 10
4543.3910366860946
 20
901.38032512115001
 30
0.0
 11
4543.3910366860946
 21
936.2286474304974
 31
0.0
  0
LINE
  5
6A10
  8
KERA0
  6
CONTINUOUS
 10
4543.3910366860946
 20
901.38032512115001
 30
0.0
 11
4556.4698231545626
 21
901.38032512115024
 31
0.0
  0
ARC
  5
6A11
  8
KERA0
  6
CONTINUOUS
 10
4566.7752739180487
 20
927.05269785743803
 30
0.0
 40
2.0
 50
40.000000000002487
 51
90.0
  0
LINE
  5
6A12
  8
KERA0
  6
CONTINUOUS
 10
4548.3910366860946
 20
941.22864743049729
 30
0.0
 11
4573.1559419103596
 21
941.22864743049718
 31
0.0
  0
ARC
  5
6A13
  8
KERA0
  6
CONTINUOUS
 10
4548.3910366860946
 20
936.2286474304974
 30
0.0
 40
5.0
 50
90.0
 51
180.0
  0
LINE
  5
6A14
  8
KERA0
  6
CONTINUOUS
 10
4558.6822873955289
 20
929.05269785743803
 30
0.0
 11
4566.7752739180487
 21
929.05269785743803
 31
0.0
  0
ARC
  5
6A15
  8
KERA0
  6
CONTINUOUS
 10
4558.6822873955289
 20
927.05269785743803
 30
0.0
 40
2.0
 50
89.999999999999091
 51
179.5259844082436
  0
LINE
  5
6A16
  8
KERA0
  6
CONTINUOUS
 10
4573.1559419103596
 20
941.22864743049718
 30
0.0
 11
4590.6399674982231
 21
920.39199712315474
 31
0.0
  0
LINE
  5
6A17
  8
KERA0
  6
CONTINUOUS
 10
4568.3073628042866
 20
928.33827307681122
 30
0.0
 11
4578.9895131648746
 21
915.60778200795244
 31
0.0
  0
ARC
  5
6A18
  8
KERA0
  6
CONTINUOUS
 10
4577.4574242786357
 20
914.32220678857936
 30
0.0
 40
2.0
 50
10.07160726563591
 51
39.999999999997598
  0
ARC
  5
6A19
  8
KERA0
  6
CONTINUOUS
 10
4753.549941003821
 20
945.59903854893105
 30
0.0
 40
176.84858023360621
 50
190.07160726563589
 51
265.6348426191613
  0
ARC
  5
6A1A
  8
KERA0
  6
CONTINUOUS
 10
4753.549941003821
 20
945.59903854893105
 30
0.0
 40
164.84858023360621
 50
188.79561900339959
 51
265.6348426191613
  0
LINE
  5
6A1B
  8
KERA0
  6
CONTINUOUS
 10
4805.7018293661858
 20
781.2286474304974
 30
0.0
 11
4741.0028724773156
 21
781.2286474304974
 31
0.0
  0
LINE
  5
6A1C
  8
KERA0
  6
CONTINUOUS
 10
4792.508681955801
 20
769.2286474304974
 30
0.0
 11
4739.9767732810842
 21
769.27259789733228
 31
0.0
  0
LINE
  5
6A1D
  8
KERA0
  6
CONTINUOUS
 10
4820.0028724773174
 20
736.22864743049763
 30
0.0
 11
4820.0028724773174
 21
769.2286474304974
 31
0.0
  0
LINE
  5
6A1E
  8
KERA0
  6
CONTINUOUS
 10
4795.5086819558019
 20
736.2286474304974
 30
0.0
 11
4795.508681955801
 21
766.22864743049752
 31
0.0
  0
ARC
  5
6A1F
  8
KERA0
  6
CONTINUOUS
 10
4792.508681955801
 20
766.22864743049729
 30
0.0
 40
3.0
 50
0.000000000001374
 51
90.0
  0
LINE
  5
6A20
  8
KERA0
  6
CONTINUOUS
 10
4820.0028724773174
 20
769.2286474304974
 30
0.0
 11
4805.7018293661858
 21
781.2286474304974
 31
0.0
  0
LINE
  5
6A7C
  8
KERA0
  6
CONTINUOUS
 10
4795.5086819558019
 20
736.2286474304974
 30
0.0
 11
4820.0028724773174
 21
736.22864743049763
 31
0.0
  0
ENDBLK
  5
6A0C
  8
0
  0
BLOCK
  8
0
  2
*D7
 70
     1
 10
0.0
 20
0.0
 30
0.0
  3
*D7
  1

  0
LINE
  5
6D09
  8
KERA4
 10
4930.6399474361051
 20
940.39199712315462
 30
0.0
 11
4930.6399474361051
 21
1164.093624203754
 31
0.0
  0
LINE
  5
6D0A
  8
KERA4
 10
5123.0028724773147
 20
1011.2286474304969
 30
0.0
 11
5123.0028724773147
 21
1164.093624203754
 31
0.0
  0
LINE
  5
6D0B
  8
KERA4
 62
     0
 10
4880.6399474361051
 20
1149.093624203754
 30
0.0
 11
4830.6399474361051
 21
1149.093624203754
 31
0.0
  0
LINE
  5
6D0C
  8
KERA4
 62
     0
 10
5173.0028724773147
 20
1149.093624203754
 30
0.0
 11
5223.0028724773156
 21
1149.093624203754
 31
0.0
  0
SOLID
  5
6D0D
  8
KERA4
 62
     0
 10
4880.6399474361051
 20
1157.426957537087
 30
0.0
 11
4880.6399474361051
 21
1140.7602908704209
 31
0.0
 12
4930.6399474361051
 22
1149.093624203754
 32
0.0
 13
4930.6399474361051
 23
1149.093624203754
 33
0.0
  0
SOLID
  5
6D0E
  8
KERA4
 62
     0
 10
5173.0028724773147
 20
1157.426957537087
 30
0.0
 11
5173.0028724773147
 21
1140.7602908704209
 31
0.0
 12
5123.0028724773147
 22
1149.093624203754
 32
0.0
 13
5123.0028724773147
 23
1149.093624203754
 33
0.0
  0
INSERT
  5
6D0F
  8
KERA4
  2
*U44
 10
0.0
 20
0.0
 30
0.0
  0
POINT
  5
6D10
  8
DEFPOINTS
 62
     0
 10
4930.6399474361051
 20
920.39199712315474
 30
0.0
  0
POINT
  5
6D11
  8
DEFPOINTS
 62
     0
 10
5123.0028724773147
 20
991.22864743049752
 30
0.0
  0
POINT
  5
6D12
  8
DEFPOINTS
 62
     0
 10
5123.0028724773147
 20
1149.093624203754
 30
0.0
  0
ENDBLK
  5
6AF8
  8
0
  0
BLOCK
  8
0
  2
*U8
 70
     1
 10
0.0
 20
0.0
 30
0.0
  3
*U8
  1

  0
ENDBLK
  5
6BAF
  8
0
  0
BLOCK
  8
0
  2
GENAXEH
 70
     0
 10
0.0
 20
0.0
 30
0.0
  3
GENAXEH
  1

  0
LINE
  5
6BE6
  8
0
 10
-1.0
 20
0.0
 30
0.0
 11
1.0
 21
0.0
 31
0.0
  0
ENDBLK
  5
6BE8
  8
0
  0
BLOCK
  8
0
  2
*D10
 70
     1
 10
0.0
 20
0.0
 30
0.0
  3
*D10
  1

  0
LINE
  5
6D4C
  8
KERA4
 10
5003.0028724773174
 20
968.03185275863768
 30
0.0
 11
5003.0028724773174
 21
1069.71474646501
 31
0.0
  0
LINE
  5
6D4D
  8
KERA4
 10
5123.0028724773147
 20
968.03185275863768
 30
0.0
 11
5123.0028724773147
 21
1069.71474646501
 31
0.0
  0
LINE
  5
6D4E
  8
KERA4
 62
     0
 10
4953.0028724773156
 20
1054.71474646501
 30
0.0
 11
4903.0028724773156
 21
1054.71474646501
 31
0.0
  0
LINE
  5
6D4F
  8
KERA4
 62
     0
 10
5173.0028724773147
 20
1054.71474646501
 30
0.0
 11
5223.0028724773156
 21
1054.71474646501
 31
0.0
  0
SOLID
  5
6D50
  8
KERA4
 62
     0
 10
4953.0028724773156
 20
1063.048079798343
 30
0.0
 11
4953.0028724773156
 21
1046.3814131316769
 31
0.0
 12
5003.0028724773174
 22
1054.71474646501
 32
0.0
 13
5003.0028724773174
 23
1054.71474646501
 33
0.0
  0
SOLID
  5
6D51
  8
KERA4
 62
     0
 10
5173.0028724773147
 20
1063.048079798343
 30
0.0
 11
5173.0028724773147
 21
1046.3814131316769
 31
0.0
 12
5123.0028724773147
 22
1054.71474646501
 32
0.0
 13
5123.0028724773147
 23
1054.71474646501
 33
0.0
  0
INSERT
  5
6D52
  8
KERA4
  2
*U45
 10
0.0
 20
0.0
 30
0.0
  0
POINT
  5
6D53
  8
DEFPOINTS
 62
     0
 10
5003.0028724773174
 20
948.0318527586378
 30
0.0
  0
POINT
  5
6D54
  8
DEFPOINTS
 62
     0
 10
5123.0028724773147
 20
948.0318527586378
 30
0.0
  0
POINT
  5
6D55
  8
DEFPOINTS
 62
     0
 10
5123.0028724773147
 20
1054.71474646501
 30
0.0
  0
ENDBLK
  5
6D18
  8
0
  0
BLOCK
  8
0
  2
*D11
 70
     1
 10
0.0
 20
0.0
 30
0.0
  3
*D11
  1

  0
LINE
  5
6DF6
  8
KERA4
 10
-59.251783386074692
 20
-1753.72
 30
0.0
 11
214.99999999999989
 21
-1753.72
 31
0.0
  0
LINE
  5
6DF7
  8
KERA4
 10
-347.44998338607468
 20
-1103.72
 30
0.0
 11
215.0
 21
-1103.72
 31
0.0
  0
LINE
  5
6DF8
  8
KERA4
 10
199.99999999999989
 20
-1703.72
 30
0.0
 11
199.99999999999989
 21
-1469.248649386084
 31
0.0
  0
LINE
  5
6DF9
  8
KERA4
 10
200.0
 20
-1153.72
 30
0.0
 11
199.99999999999989
 21
-1388.1913506139149
 31
0.0
  0
SOLID
  5
6DFA
  8
KERA4
 10
191.66666666666649
 20
-1703.72
 30
0.0
 11
208.3333333333332
 21
-1703.72
 31
0.0
 12
199.9999999999998
 22
-1753.72
 32
0.0
 13
199.9999999999998
 23
-1753.72
 33
0.0
  0
SOLID
  5
6DFB
  8
KERA4
 10
191.6666666666666
 20
-1153.72
 30
0.0
 11
208.33333333333329
 21
-1153.72
 31
0.0
 12
200.0
 22
-1103.72
 32
0.0
 13
200.0
 23
-1103.72
 33
0.0
  0
INSERT
  5
6DFC
  8
KERA4
  2
*U48
 10
0.0
 20
0.0
 30
0.0
  0
POINT
  5
6DFD
  8
DEFPOINTS
 62
     0
 10
-79.251783386074692
 20
-1753.72
 30
0.0
  0
POINT
  5
6DFE
  8
DEFPOINTS
 62
     0
 10
-367.44998338607468
 20
-1103.72
 30
0.0
  0
POINT
  5
6DFF
  8
DEFPOINTS
 62
     0
 10
200.0
 20
-1103.72
 30
0.0
  0
ENDBLK
  5
6E00
  8
0
  0
BLOCK
  8
0
  2
*D12
 70
     1
 10
0.0
 20
0.0
 30
0.0
  3
*D12
  1

  0
LINE
  5
6E03
  8
KERA4
 10
-59.251783386074692
 20
-1753.72
 30
0.0
 11
314.99999999999989
 21
-1753.72
 31
0.0
  0
LINE
  5
6E04
  8
KERA4
 10
-20.733783386074411
 20
-903.72299999999996
 30
0.0
 11
315.0
 21
-903.72299999999996
 31
0.0
  0
LINE
  5
6E05
  8
KERA4
 10
299.99999999999977
 20
-1703.72
 30
0.0
 11
300.0
 21
-1369.2501493860841
 31
0.0
  0
LINE
  5
6E06
  8
KERA4
 10
300.0
 20
-953.72299999999996
 30
0.0
 11
300.0
 21
-1288.192850613915
 31
0.0
  0
SOLID
  5
6E07
  8
KERA4
 10
291.66666666666652
 20
-1703.72
 30
0.0
 11
308.3333333333332
 21
-1703.72
 31
0.0
 12
299.99999999999977
 22
-1753.72
 32
0.0
 13
299.99999999999977
 23
-1753.72
 33
0.0
  0
SOLID
  5
6E08
  8
KERA4
 10
291.66666666666669
 20
-953.72299999999996
 30
0.0
 11
308.33333333333331
 21
-953.72299999999996
 31
0.0
 12
300.0
 22
-903.72299999999996
 32
0.0
 13
300.0
 23
-903.72299999999996
 33
0.0
  0
INSERT
  5
6E09
  8
KERA4
  2
*U49
 10
0.0
 20
0.0
 30
0.0
  0
POINT
  5
6E0A
  8
DEFPOINTS
 62
     0
 10
-79.251783386074692
 20
-1753.72
 30
0.0
  0
POINT
  5
6E0B
  8
DEFPOINTS
 62
     0
 10
-40.7337833860744
 20
-903.72299999999996
 30
0.0
  0
POINT
  5
6E0C
  8
DEFPOINTS
 62
     0
 10
300.0
 20
-903.72299999999996
 30
0.0
  0
ENDBLK
  5
6E0D
  8
0
  0
BLOCK
  8
0
  2
*D13
 70
     1
 10
0.0
 20
0.0
 30
0.0
  3
*D13
  1

  0
LINE
  5
6E10
  8
KERA4
 10
-194.68078338607461
 20
-1213.72
 30
0.0
 11
113.7708074958464
 21
-1213.72
 31
0.0
  0
LINE
  5
6E11
  8
KERA4
 10
-59.251783386074692
 20
-1753.72
 30
0.0
 11
113.7708074958462
 21
-1753.72
 31
0.0
  0
LINE
  5
6E12
  8
KERA4
 10
98.770807495846384
 20
-1263.72
 30
0.0
 11
98.770807495846356
 21
-1500.4629127717881
 31
0.0
  0
LINE
  5
6E13
  8
KERA4
 10
98.770807495846284
 20
-1703.72
 30
0.0
 11
98.770807495846313
 21
-1581.520211543957
 31
0.0
  0
SOLID
  5
6E14
  8
KERA4
 10
90.437474162513055
 20
-1263.72
 30
0.0
 11
107.1041408291797
 21
-1263.72
 31
0.0
 12
98.770807495846398
 22
-1213.72
 32
0.0
 13
98.770807495846398
 23
-1213.72
 33
0.0
  0
SOLID
  5
6E15
  8
KERA4
 10
90.437474162512956
 20
-1703.72
 30
0.0
 11
107.1041408291796
 21
-1703.72
 31
0.0
 12
98.770807495846284
 22
-1753.72
 32
0.0
 13
98.770807495846284
 23
-1753.72
 33
0.0
  0
INSERT
  5
6E16
  8
KERA4
  2
*U50
 10
0.0
 20
0.0
 30
0.0
  0
POINT
  5
6E17
  8
DEFPOINTS
 62
     0
 10
-214.68078338607461
 20
-1213.72
 30
0.0
  0
POINT
  5
6E18
  8
DEFPOINTS
 62
     0
 10
-79.251783386074692
 20
-1753.72
 30
0.0
  0
POINT
  5
6E19
  8
DEFPOINTS
 62
     0
 10
98.770807495846284
 20
-1753.72
 30
0.0
  0
ENDBLK
  5
6E1A
  8
0
  0
BLOCK
  8
0
  2
*D14
 70
     1
 10
0.0
 20
0.0
 30
0.0
  3
*D14
  1

  0
LINE
  5
6E1D
  8
KERA4
 10
-825.79479301556739
 20
-903.72299999999996
 30
0.0
 11
-926.95674258855786
 21
-903.72299999999996
 31
0.0
  0
LINE
  5
6E1E
  8
KERA4
 10
-476.82708338607461
 20
-1054.741
 30
0.0
 11
-926.95674258855786
 21
-1054.7409999999991
 31
0.0
  0
LINE
  5
6E1F
  8
KERA4
 10
-911.95674258855786
 20
-853.72299999999996
 30
0.0
 11
-911.95674258855786
 21
-803.72299999999996
 31
0.0
  0
LINE
  5
6E20
  8
KERA4
 10
-911.95674258855786
 20
-1104.7409999999991
 30
0.0
 11
-911.95674258855786
 21
-1154.741
 31
0.0
  0
LINE
  5
6E21
  8
KERA4
 10
-911.95674258855786
 20
-903.72299999999996
 30
0.0
 11
-911.95674258855786
 21
-938.7033506139154
 31
0.0
  0
LINE
  5
6E22
  8
KERA4
 10
-911.95674258855786
 20
-1054.7409999999991
 30
0.0
 11
-911.95674258855786
 21
-1019.760649386084
 31
0.0
  0
SOLID
  5
6E23
  8
KERA4
 10
-920.29007592189134
 20
-853.72299999999996
 30
0.0
 11
-903.62340925522471
 21
-853.72299999999996
 31
0.0
 12
-911.95674258855786
 22
-903.72299999999996
 32
0.0
 13
-911.95674258855786
 23
-903.72299999999996
 33
0.0
  0
SOLID
  5
6E24
  8
KERA4
 10
-920.29007592189134
 20
-1104.7409999999991
 30
0.0
 11
-903.62340925522471
 21
-1104.7409999999991
 31
0.0
 12
-911.95674258855786
 22
-1054.7409999999991
 32
0.0
 13
-911.95674258855786
 23
-1054.7409999999991
 33
0.0
  0
INSERT
  5
6E25
  8
KERA4
  2
*U51
 10
0.0
 20
0.0
 30
0.0
  0
POINT
  5
6E26
  8
DEFPOINTS
 62
     0
 10
-805.79479301556728
 20
-903.72299999999996
 30
0.0
  0
POINT
  5
6E27
  8
DEFPOINTS
 62
     0
 10
-456.82708338607461
 20
-1054.741
 30
0.0
  0
POINT
  5
6E28
  8
DEFPOINTS
 62
     0
 10
-911.95674258855786
 20
-1054.7409999999991
 30
0.0
  0
ENDBLK
  5
6E29
  8
0
  0
BLOCK
  8
0
  2
*D15
 70
     1
 10
0.0
 20
0.0
 30
0.0
  3
*D15
  1

  0
LINE
  5
6E2C
  8
KERA4
 10
-595.73378338607472
 20
-2601.2869474392828
 30
0.0
 11
-595.73378338607472
 21
-2907.1481103627621
 31
0.0
  0
LINE
  5
6E2D
  8
KERA4
 10
-255.73378338607469
 20
-2601.2869474392828
 30
0.0
 11
-255.73378338607469
 21
-2907.1481103627621
 31
0.0
  0
LINE
  5
6E2E
  8
KERA4
 10
-545.73378338607472
 20
-2892.1481103627621
 30
0.0
 11
-495.86679839289587
 21
-2892.1481103627621
 31
0.0
  0
LINE
  5
6E2F
  8
KERA4
 10
-305.73378338607472
 20
-2892.1481103627621
 30
0.0
 11
-355.60076837925351
 21
-2892.1481103627621
 31
0.0
  0
SOLID
  5
6E30
  8
KERA4
 10
-545.73378338607472
 20
-2883.8147770294281
 30
0.0
 11
-545.73378338607472
 21
-2900.481443696096
 31
0.0
 12
-595.73378338607472
 22
-2892.1481103627621
 32
0.0
 13
-595.73378338607472
 23
-2892.1481103627621
 33
0.0
  0
SOLID
  5
6E31
  8
KERA4
 10
-305.73378338607472
 20
-2883.8147770294281
 30
0.0
 11
-305.73378338607472
 21
-2900.481443696096
 31
0.0
 12
-255.73378338607469
 22
-2892.1481103627621
 32
0.0
 13
-255.73378338607469
 23
-2892.1481103627621
 33
0.0
  0
INSERT
  5
6E32
  8
KERA4
  2
*U52
 10
0.0
 20
0.0
 30
0.0
  0
POINT
  5
6E33
  8
DEFPOINTS
 62
     0
 10
-595.73378338607472
 20
-2581.2869474392828
 30
0.0
  0
POINT
  5
6E34
  8
DEFPOINTS
 62
     0
 10
-255.73378338607469
 20
-2581.2869474392828
 30
0.0
  0
POINT
  5
6E35
  8
DEFPOINTS
 62
     0
 10
-255.73378338607469
 20
-2892.1481103627621
 30
0.0
  0
ENDBLK
  5
6E36
  8
0
  0
BLOCK
  8
0
  2
*D16
 70
     1
 10
0.0
 20
0.0
 30
0.0
  3
*D16
  1

  0
LINE
  5
6E39
  8
KERA4
 10
-445.61698338607488
 20
-2221.7869474392842
 30
0.0
 11
-1164.1037626219249
 21
-2221.7869474392828
 31
0.0
  0
LINE
  5
6E3A
  8
KERA4
 10
-445.61698338607482
 20
-2798.7869474392842
 30
0.0
 11
-1164.1037626219261
 21
-2798.7869474392828
 31
0.0
  0
LINE
  5
6E3B
  8
KERA4
 10
-1149.1037626219249
 20
-2271.7869474392828
 30
0.0
 11
-1149.1037626219249
 21
-2469.860617289215
 31
0.0
  0
LINE
  5
6E3C
  8
KERA4
 10
-1149.1037626219261
 20
-2748.7869474392828
 30
0.0
 11
-1149.1037626219249
 21
-2550.713277589351
 31
0.0
  0
SOLID
  5
6E3D
  8
KERA4
 10
-1157.4370959552591
 20
-2271.7869474392828
 30
0.0
 11
-1140.7704292885919
 21
-2271.7869474392828
 31
0.0
 12
-1149.1037626219249
 22
-2221.7869474392828
 32
0.0
 13
-1149.1037626219249
 23
-2221.7869474392828
 33
0.0
  0
SOLID
  5
6E3E
  8
KERA4
 10
-1157.4370959552591
 20
-2748.7869474392828
 30
0.0
 11
-1140.7704292885919
 21
-2748.7869474392828
 31
0.0
 12
-1149.1037626219261
 22
-2798.7869474392828
 32
0.0
 13
-1149.1037626219261
 23
-2798.7869474392828
 33
0.0
  0
INSERT
  5
6E3F
  8
KERA4
  2
*U53
 10
0.0
 20
0.0
 30
0.0
  0
POINT
  5
6E40
  8
DEFPOINTS
 62
     0
 10
-425.61698338607488
 20
-2221.7869474392842
 30
0.0
  0
POINT
  5
6E41
  8
DEFPOINTS
 62
     0
 10
-425.61698338607488
 20
-2798.7869474392842
 30
0.0
  0
POINT
  5
6E42
  8
DEFPOINTS
 62
     0
 10
-1149.1037626219261
 20
-2798.7869474392828
 30
0.0
  0
ENDBLK
  5
6E43
  8
0
  0
BLOCK
  8
0
  2
*D17
 70
     1
 10
0.0
 20
0.0
 30
0.0
  3
*D17
  1

  0
LINE
  5
6E46
  8
KERA4
 10
878.37075772915773
 20
-1277.5599999999999
 30
0.0
 11
878.37075772915773
 21
-1548.216586000091
 31
0.0
  0
LINE
  5
6E47
  8
KERA4
 10
681.23645820216007
 20
-1533.4837245841529
 30
0.0
 11
681.23645820216007
 21
-1518.216586000091
 31
0.0
  0
LINE
  5
6E48
  8
KERA4
 10
928.37075772915773
 20
-1533.216586000091
 30
0.0
 11
978.37075772915773
 21
-1533.216586000091
 31
0.0
  0
LINE
  5
6E49
  8
KERA4
 10
631.23645820216007
 20
-1533.216586000091
 30
0.0
 11
581.23645820215995
 21
-1533.216586000091
 31
0.0
  0
LINE
  5
6E4A
  8
KERA4
 10
878.37075772915773
 20
-1533.216586000091
 30
0.0
 11
850.38000632855096
 21
-1533.216586000091
 31
0.0
  0
LINE
  5
6E4B
  8
KERA4
 10
681.23645820216007
 20
-1533.216586000091
 30
0.0
 11
709.22720960276672
 21
-1533.216586000091
 31
0.0
  0
SOLID
  5
6E4C
  8
KERA4
 10
928.37075772915773
 20
-1524.8832526667579
 30
0.0
 11
928.37075772915773
 21
-1541.5499193334249
 31
0.0
 12
878.37075772915773
 22
-1533.216586000091
 32
0.0
 13
878.37075772915773
 23
-1533.216586000091
 33
0.0
  0
SOLID
  5
6E4D
  8
KERA4
 10
631.23645820216007
 20
-1524.8832526667579
 30
0.0
 11
631.23645820216007
 21
-1541.5499193334249
 31
0.0
 12
681.23645820216007
 22
-1533.216586000091
 32
0.0
 13
681.23645820216007
 23
-1533.216586000091
 33
0.0
  0
INSERT
  5
6E4E
  8
KERA4
  2
*U54
 10
0.0
 20
0.0
 30
0.0
  0
POINT
  5
6E4F
  8
DEFPOINTS
 62
     0
 10
878.37075772915773
 20
-1257.5599999999999
 30
0.0
  0
POINT
  5
6E50
  8
DEFPOINTS
 62
     0
 10
681.23645820216007
 20
-1553.4837245841529
 30
0.0
  0
POINT
  5
6E51
  8
DEFPOINTS
 62
     0
 10
681.23645820216007
 20
-1533.216586000091
 30
0.0
  0
ENDBLK
  5
6E52
  8
0
  0
BLOCK
  8
0
  2
*D18
 70
     1
 10
0.0
 20
0.0
 30
0.0
  3
*D18
  1

  0
LINE
  5
6E55
  8
KERA4
 10
-820.73378338607529
 20
-2596.7869474392842
 30
0.0
 11
-1047.3824420543931
 21
-2596.7869474392828
 31
0.0
  0
LINE
  5
6E56
  8
KERA4
 10
-820.73378338607495
 20
-2221.7869474392828
 30
0.0
 11
-1047.3824420543931
 21
-2221.7869474392819
 31
0.0
  0
LINE
  5
6E57
  8
KERA4
 10
-1032.3824420543931
 20
-2546.7869474392828
 30
0.0
 11
-1032.3824420543931
 21
-2449.8326500313701
 31
0.0
  0
LINE
  5
6E58
  8
KERA4
 10
-1032.3824420543931
 20
-2271.7869474392828
 30
0.0
 11
-1032.3824420543931
 21
-2368.741244847195
 31
0.0
  0
SOLID
  5
6E59
  8
KERA4
 10
-1040.7157753877259
 20
-2546.7869474392828
 30
0.0
 11
-1024.0491087210601
 21
-2546.7869474392828
 31
0.0
 12
-1032.3824420543931
 22
-2596.7869474392828
 32
0.0
 13
-1032.3824420543931
 23
-2596.7869474392828
 33
0.0
  0
SOLID
  5
6E5A
  8
KERA4
 10
-1040.7157753877259
 20
-2271.7869474392828
 30
0.0
 11
-1024.0491087210601
 21
-2271.7869474392828
 31
0.0
 12
-1032.3824420543931
 22
-2221.7869474392819
 32
0.0
 13
-1032.3824420543931
 23
-2221.7869474392819
 33
0.0
  0
INSERT
  5
6E5B
  8
KERA4
  2
*U55
 10
0.0
 20
0.0
 30
0.0
  0
POINT
  5
6E5C
  8
DEFPOINTS
 62
     0
 10
-800.7337833860754
 20
-2596.7869474392842
 30
0.0
  0
POINT
  5
6E5D
  8
DEFPOINTS
 62
     0
 10
-800.73378338607495
 20
-2221.7869474392828
 30
0.0
  0
POINT
  5
6E5E
  8
DEFPOINTS
 62
     0
 10
-1032.3824420543931
 20
-2221.7869474392819
 30
0.0
  0
ENDBLK
  5
6E5F
  8
0
  0
BLOCK
  8
0
  2
*D19
 70
     1
 10
0.0
 20
0.0
 30
0.0
  3
*D19
  1

  0
LINE
  5
6E62
  8
KERA4
 10
-805.79479301556728
 20
-2621.8479570687769
 30
0.0
 11
-805.79479301556728
 21
-3001.3486560706951
 31
0.0
  0
LINE
  5
6E63
  8
KERA4
 10
-45.672773756581243
 20
-2621.8479570687759
 30
0.0
 11
-45.672773756581272
 21
-3001.3486560706951
 31
0.0
  0
LINE
  5
6E64
  8
KERA4
 10
-755.79479301556728
 20
-2986.3486560706938
 30
0.0
 11
-495.67921312686548
 21
-2986.3486560706938
 31
0.0
  0
LINE
  5
6E65
  8
KERA4
 10
-95.672773756581265
 20
-2986.3486560706938
 30
0.0
 11
-355.788353645283
 21
-2986.3486560706938
 31
0.0
  0
SOLID
  5
6E66
  8
KERA4
 10
-755.79479301556728
 20
-2978.0153227373612
 30
0.0
 11
-755.79479301556728
 21
-2994.6819894040282
 31
0.0
 12
-805.79479301556728
 22
-2986.3486560706938
 32
0.0
 13
-805.79479301556728
 23
-2986.3486560706938
 33
0.0
  0
SOLID
  5
6E67
  8
KERA4
 10
-95.672773756581265
 20
-2978.0153227373612
 30
0.0
 11
-95.672773756581265
 21
-2994.6819894040282
 31
0.0
 12
-45.672773756581272
 22
-2986.3486560706938
 32
0.0
 13
-45.672773756581272
 23
-2986.3486560706938
 33
0.0
  0
INSERT
  5
6E68
  8
KERA4
  2
*U56
 10
0.0
 20
0.0
 30
0.0
  0
POINT
  5
6E69
  8
DEFPOINTS
 62
     0
 10
-805.79479301556728
 20
-2601.8479570687759
 30
0.0
  0
POINT
  5
6E6A
  8
DEFPOINTS
 62
     0
 10
-45.672773756581243
 20
-2601.8479570687759
 30
0.0
  0
POINT
  5
6E6B
  8
DEFPOINTS
 62
     0
 10
-45.672773756581272
 20
-2986.3486560706938
 30
0.0
  0
ENDBLK
  5
6E6C
  8
0
  0
BLOCK
  8
0
  2
*D20
 70
     1
 10
0.0
 20
0.0
 30
0.0
  3
*D20
  1

  0
LINE
  5
6E6F
  8
KERA4
 10
-411.59164776234383
 20
-2207.6448118155522
 30
0.0
 11
-291.75547116809378
 21
-2087.8086352213022
 31
0.0
  0
LINE
  5
6E70
  8
KERA4
 10
-31.530638132850299
 20
-2587.7058214450449
 30
0.0
 11
88.305538461399678
 21
-2467.8696448507949
 31
0.0
  0
LINE
  5
6E71
  8
KERA4
 10
-267.0067338265647
 20
-2133.7705759984269
 30
0.0
 11
-152.86021745722971
 21
-2247.9170923677621
 31
0.0
  0
LINE
  5
6E72
  8
KERA4
 10
42.343597684274073
 20
-2443.1209075092661
 30
0.0
 11
-71.802918685060376
 21
-2328.974391139931
 31
0.0
  0
SOLID
  5
6E73
  8
KERA4
 10
-261.11417731667689
 20
-2127.8780194885398
 30
0.0
 11
-272.8992903364524
 21
-2139.6631325083149
 31
0.0
 12
-302.36207288589202
 22
-2098.4152369390999
 32
0.0
 13
-302.36207288589202
 23
-2098.4152369390999
 33
0.0
  0
SOLID
  5
6E74
  8
KERA4
 10
48.23615419416182
 20
-2437.2283509993781
 30
0.0
 11
36.451041174386319
 21
-2449.0134640191541
 31
0.0
 12
77.698936743601507
 22
-2478.4762465685931
 32
0.0
 13
77.698936743601507
 23
-2478.4762465685931
 33
0.0
  0
INSERT
  5
6E75
  8
KERA4
  2
*U57
 10
0.0
 20
0.0
 30
0.0
  0
POINT
  5
6E76
  8
DEFPOINTS
 62
     0
 10
-425.73378338607461
 20
-2221.7869474392842
 30
0.0
  0
POINT
  5
6E77
  8
DEFPOINTS
 62
     0
 10
-45.672773756581137
 20
-2601.8479570687759
 30
0.0
  0
POINT
  5
6E78
  8
DEFPOINTS
 62
     0
 10
77.698936743601507
 20
-2478.4762465685931
 30
0.0
  0
ENDBLK
  5
6E79
  8
0
  0
BLOCK
  8
0
  2
*D21
 70
     1
 10
0.0
 20
0.0
 30
0.0
  3
*D21
  1

  0
LINE
  5
6E7C
  8
KERA4
 10
-351.4583713614872
 20
-2267.7780882164088
 30
0.0
 11
-280.93368134656379
 21
-2197.2533982014852
 31
0.0
  0
LINE
  5
6E7D
  8
KERA4
 10
-411.59164776234383
 20
-2207.6448118155522
 30
0.0
 11
-341.0669577474203
 21
-2137.120121800629
 31
0.0
  0
LINE
  5
6E7E
  8
KERA4
 10
-256.18494400503482
 20
-2243.2153389786108
 30
0.0
 11
-220.82960494570759
 21
-2278.5706780379392
 31
0.0
  0
LINE
  5
6E7F
  8
KERA4
 10
-387.02889852454621
 20
-2112.3713844591002
 30
0.0
 11
-422.38423758387353
 21
-2077.0160453997728
 31
0.0
  0
SOLID
  5
6E80
  8
KERA4
 10
-250.2923874951469
 20
-2237.3227824687242
 30
0.0
 11
-262.07750051492258
 21
-2249.1078954884988
 31
0.0
 12
-291.54028306436231
 22
-2207.8599999192838
 32
0.0
 13
-291.54028306436231
 23
-2207.8599999192838
 33
0.0
  0
SOLID
  5
6E81
  8
KERA4
 10
-381.13634201465823
 20
-2106.4788279492118
 30
0.0
 11
-392.92145503443402
 21
-2118.2639409689882
 31
0.0
 12
-351.67355946521877
 22
-2147.7267235184272
 32
0.0
 13
-351.67355946521877
 23
-2147.7267235184272
 33
0.0
  0
INSERT
  5
6E82
  8
KERA4
  2
*U58
 10
0.0
 20
0.0
 30
0.0
  0
POINT
  5
6E83
  8
DEFPOINTS
 62
     0
 10
-365.60050698521809
 20
-2281.9202238401399
 30
0.0
  0
POINT
  5
6E84
  8
DEFPOINTS
 62
     0
 10
-425.73378338607461
 20
-2221.7869474392828
 30
0.0
  0
POINT
  5
6E85
  8
DEFPOINTS
 62
     0
 10
-351.67355946521877
 20
-2147.7267235184272
 30
0.0
  0
ENDBLK
  5
6E86
  8
0
  0
BLOCK
  8
0
  2
*D23
 70
     1
 10
0.0
 20
0.0
 30
0.0
  3
*D23
  1

  0
LINE
  5
7343
  8
KERA4
 10
3815.1651265826572
 20
1587.6200284805641
 30
0.0
 11
4089.4169099687319
 21
1587.6200284805641
 31
0.0
  0
LINE
  5
7344
  8
KERA4
 10
3526.9669265826569
 20
2237.6200284805641
 30
0.0
 11
4089.4169099687319
 21
2237.6200284805641
 31
0.0
  0
LINE
  5
7345
  8
KERA4
 10
4074.416909968731
 20
1637.620028480563
 30
0.0
 11
4074.416909968731
 21
1872.091379094479
 31
0.0
  0
LINE
  5
7346
  8
KERA4
 10
4074.416909968731
 20
2187.6200284805641
 30
0.0
 11
4074.416909968731
 21
1953.1486778666481
 31
0.0
  0
SOLID
  5
7347
  8
KERA4
 10
4066.083576635398
 20
1637.620028480563
 30
0.0
 11
4082.7502433020641
 21
1637.620028480563
 31
0.0
 12
4074.416909968731
 22
1587.6200284805641
 32
0.0
 13
4074.416909968731
 23
1587.6200284805641
 33
0.0
  0
SOLID
  5
7348
  8
KERA4
 10
4066.083576635398
 20
2187.6200284805641
 30
0.0
 11
4082.7502433020641
 21
2187.6200284805641
 31
0.0
 12
4074.416909968731
 22
2237.6200284805641
 32
0.0
 13
4074.416909968731
 23
2237.6200284805641
 33
0.0
  0
INSERT
  5
7349
  8
KERA4
  2
*U79
 10
0.0
 20
0.0
 30
0.0
  0
POINT
  5
734A
  8
DEFPOINTS
 62
     0
 10
3795.1651265826572
 20
1587.6200284805641
 30
0.0
  0
POINT
  5
734B
  8
DEFPOINTS
 62
     0
 10
3506.9669265826569
 20
2237.6200284805641
 30
0.0
  0
POINT
  5
734C
  8
DEFPOINTS
 62
     0
 10
4074.416909968731
 20
2237.6200284805641
 30
0.0
  0
ENDBLK
  5
72B2
  8
0
  0
BLOCK
  8
0
  2
*D24
 70
     1
 10
0.0
 20
0.0
 30
0.0
  3
*D24
  1

  0
LINE
  5
734D
  8
KERA4
 10
3815.1651265826572
 20
1587.6200284805641
 30
0.0
 11
4189.4169099687297
 21
1587.6200284805641
 31
0.0
  0
LINE
  5
734E
  8
KERA4
 10
3853.6831265826572
 20
2437.6170284805639
 30
0.0
 11
4189.4169099687306
 21
2437.6170284805639
 31
0.0
  0
LINE
  5
734F
  8
KERA4
 10
4174.4169099687297
 20
1637.620028480563
 30
0.0
 11
4174.4169099687297
 21
1972.0898790944791
 31
0.0
  0
LINE
  5
7350
  8
KERA4
 10
4174.4169099687324
 20
2387.6170284805639
 30
0.0
 11
4174.4169099687324
 21
2053.1471778666478
 31
0.0
  0
SOLID
  5
7351
  8
KERA4
 10
4166.0835766353966
 20
1637.620028480563
 30
0.0
 11
4182.7502433020627
 21
1637.620028480563
 31
0.0
 12
4174.4169099687297
 22
1587.6200284805641
 32
0.0
 13
4174.4169099687297
 23
1587.6200284805641
 33
0.0
  0
SOLID
  5
7352
  8
KERA4
 10
4166.0835766353975
 20
2387.6170284805639
 30
0.0
 11
4182.7502433020654
 21
2387.6170284805639
 31
0.0
 12
4174.4169099687324
 22
2437.6170284805639
 32
0.0
 13
4174.4169099687324
 23
2437.6170284805639
 33
0.0
  0
INSERT
  5
7353
  8
KERA4
  2
*U80
 10
0.0
 20
0.0
 30
0.0
  0
POINT
  5
7354
  8
DEFPOINTS
 62
     0
 10
3795.1651265826572
 20
1587.6200284805641
 30
0.0
  0
POINT
  5
7355
  8
DEFPOINTS
 62
     0
 10
3833.6831265826572
 20
2437.6170284805639
 30
0.0
  0
POINT
  5
7356
  8
DEFPOINTS
 62
     0
 10
4174.4169099687324
 20
2437.6170284805639
 30
0.0
  0
ENDBLK
  5
72BF
  8
0
  0
BLOCK
  8
0
  2
*D25
 70
     1
 10
0.0
 20
0.0
 30
0.0
  3
*D25
  1

  0
LINE
  5
7357
  8
KERA4
 10
3679.7361265826571
 20
2127.6200284805632
 30
0.0
 11
3988.1877174645788
 21
2127.6200284805632
 31
0.0
  0
LINE
  5
7358
  8
KERA4
 10
3815.1651265826572
 20
1587.6200284805641
 30
0.0
 11
3988.1877174645788
 21
1587.6200284805641
 31
0.0
  0
LINE
  5
7359
  8
KERA4
 10
3973.1877174645779
 20
2077.6200284805641
 30
0.0
 11
3973.1877174645779
 21
1840.8771157087749
 31
0.0
  0
LINE
  5
735A
  8
KERA4
 10
3973.1877174645779
 20
1637.620028480563
 30
0.0
 11
3973.1877174645779
 21
1759.8198169366051
 31
0.0
  0
SOLID
  5
735B
  8
KERA4
 10
3964.8543841312448
 20
2077.6200284805641
 30
0.0
 11
3981.5210507979118
 21
2077.6200284805641
 31
0.0
 12
3973.1877174645779
 22
2127.6200284805632
 32
0.0
 13
3973.1877174645779
 23
2127.6200284805632
 33
0.0
  0
SOLID
  5
735C
  8
KERA4
 10
3964.8543841312448
 20
1637.620028480563
 30
0.0
 11
3981.5210507979118
 21
1637.620028480563
 31
0.0
 12
3973.1877174645779
 22
1587.6200284805641
 32
0.0
 13
3973.1877174645779
 23
1587.6200284805641
 33
0.0
  0
INSERT
  5
735D
  8
KERA4
  2
*U81
 10
0.0
 20
0.0
 30
0.0
  0
POINT
  5
735E
  8
DEFPOINTS
 62
     0
 10
3659.7361265826571
 20
2127.6200284805632
 30
0.0
  0
POINT
  5
735F
  8
DEFPOINTS
 62
     0
 10
3795.1651265826572
 20
1587.6200284805641
 30
0.0
  0
POINT
  5
7360
  8
DEFPOINTS
 62
     0
 10
3973.1877174645779
 20
1587.6200284805641
 30
0.0
  0
ENDBLK
  5
72CC
  8
0
  0
BLOCK
  8
0
  2
*D26
 70
     1
 10
0.0
 20
0.0
 30
0.0
  3
*D26
  1

  0
LINE
  5
7361
  8
KERA4
 10
3048.6221169531641
 20
2437.6170284805639
 30
0.0
 11
2947.460167380174
 21
2437.6170284805639
 31
0.0
  0
LINE
  5
7362
  8
KERA4
 10
3397.5898265826559
 20
2286.5990284805639
 30
0.0
 11
2947.460167380174
 21
2286.5990284805639
 31
0.0
  0
LINE
  5
7363
  8
KERA4
 10
2962.460167380174
 20
2487.6170284805639
 30
0.0
 11
2962.460167380174
 21
2537.6170284805639
 31
0.0
  0
LINE
  5
7364
  8
KERA4
 10
2962.460167380174
 20
2236.5990284805648
 30
0.0
 11
2962.460167380174
 21
2186.5990284805639
 31
0.0
  0
LINE
  5
7365
  8
KERA4
 10
2962.460167380174
 20
2437.6170284805639
 30
0.0
 11
2962.460167380174
 21
2402.6366778666488
 31
0.0
  0
LINE
  5
7366
  8
KERA4
 10
2962.460167380174
 20
2286.5990284805639
 30
0.0
 11
2962.460167380174
 21
2321.5793790944799
 31
0.0
  0
SOLID
  5
7367
  8
KERA4
 10
2954.12683404684
 20
2487.6170284805639
 30
0.0
 11
2970.793500713507
 21
2487.6170284805639
 31
0.0
 12
2962.460167380174
 22
2437.6170284805639
 32
0.0
 13
2962.460167380174
 23
2437.6170284805639
 33
0.0
  0
SOLID
  5
7368
  8
KERA4
 10
2954.12683404684
 20
2236.5990284805648
 30
0.0
 11
2970.793500713507
 21
2236.5990284805648
 31
0.0
 12
2962.460167380174
 22
2286.5990284805639
 32
0.0
 13
2962.460167380174
 23
2286.5990284805639
 33
0.0
  0
INSERT
  5
7369
  8
KERA4
  2
*U82
 10
0.0
 20
0.0
 30
0.0
  0
POINT
  5
736A
  8
DEFPOINTS
 62
     0
 10
3068.6221169531641
 20
2437.6170284805639
 30
0.0
  0
POINT
  5
736B
  8
DEFPOINTS
 62
     0
 10
3417.5898265826572
 20
2286.5990284805639
 30
0.0
  0
POINT
  5
736C
  8
DEFPOINTS
 62
     0
 10
2962.460167380174
 20
2286.5990284805639
 30
0.0
  0
ENDBLK
  5
72D9
  8
0
  0
BLOCK
  8
0
  2
*D27
 70
     1
 10
0.0
 20
0.0
 30
0.0
  3
*D27
  1

  0
LINE
  5
736D
  8
KERA4
 10
3278.6831265826572
 20
740.05308104128062
 30
0.0
 11
3278.6831265826572
 21
434.19191811780178
 31
0.0
  0
LINE
  5
736E
  8
KERA4
 10
3618.6831265826572
 20
740.05308104128062
 30
0.0
 11
3618.6831265826572
 21
434.19191811780178
 31
0.0
  0
LINE
  5
736F
  8
KERA4
 10
3328.6831265826572
 20
449.19191811780178
 30
0.0
 11
3378.5501115758361
 21
449.19191811780178
 31
0.0
  0
LINE
  5
7370
  8
KERA4
 10
3568.6831265826572
 20
449.19191811780178
 30
0.0
 11
3518.8161415894779
 21
449.19191811780178
 31
0.0
  0
SOLID
  5
7371
  8
KERA4
 10
3328.6831265826572
 20
457.52525145113509
 30
0.0
 11
3328.6831265826572
 21
440.85858478446852
 31
0.0
 12
3278.6831265826572
 22
449.19191811780178
 32
0.0
 13
3278.6831265826572
 23
449.19191811780178
 33
0.0
  0
SOLID
  5
7372
  8
KERA4
 10
3568.6831265826572
 20
457.52525145113509
 30
0.0
 11
3568.6831265826572
 21
440.85858478446852
 31
0.0
 12
3618.6831265826572
 22
449.19191811780178
 32
0.0
 13
3618.6831265826572
 23
449.19191811780178
 33
0.0
  0
INSERT
  5
7373
  8
KERA4
  2
*U83
 10
0.0
 20
0.0
 30
0.0
  0
POINT
  5
7374
  8
DEFPOINTS
 62
     0
 10
3278.6831265826572
 20
760.05308104128062
 30
0.0
  0
POINT
  5
7375
  8
DEFPOINTS
 62
     0
 10
3618.6831265826572
 20
760.05308104128062
 30
0.0
  0
POINT
  5
7376
  8
DEFPOINTS
 62
     0
 10
3618.6831265826572
 20
449.19191811780178
 30
0.0
  0
ENDBLK
  5
72E8
  8
0
  0
BLOCK
  8
0
  2
*D28
 70
     1
 10
0.0
 20
0.0
 30
0.0
  3
*D28
  1

  0
LINE
  5
7377
  8
KERA4
 10
3428.7999265826561
 20
1119.5530810412811
 30
0.0
 11
2710.3131473468061
 21
1119.5530810412811
 31
0.0
  0
LINE
  5
7378
  8
KERA4
 10
3428.7999265826561
 20
542.55308104128062
 30
0.0
 11
2710.3131473468061
 21
542.55308104128085
 31
0.0
  0
LINE
  5
7379
  8
KERA4
 10
2725.313147346807
 20
1069.5530810412799
 30
0.0
 11
2725.3131473468061
 21
871.47941119134885
 31
0.0
  0
LINE
  5
737A
  8
KERA4
 10
2725.3131473468061
 20
592.55308104128085
 30
0.0
 11
2725.3131473468061
 21
790.62675089121251
 31
0.0
  0
SOLID
  5
737B
  8
KERA4
 10
2716.9798140134731
 20
1069.5530810412799
 30
0.0
 11
2733.6464806801391
 21
1069.5530810412799
 31
0.0
 12
2725.313147346807
 22
1119.5530810412811
 32
0.0
 13
2725.313147346807
 23
1119.5530810412811
 33
0.0
  0
SOLID
  5
737C
  8
KERA4
 10
2716.9798140134722
 20
592.55308104128085
 30
0.0
 11
2733.6464806801391
 21
592.55308104128085
 31
0.0
 12
2725.3131473468061
 22
542.55308104128085
 32
0.0
 13
2725.3131473468061
 23
542.55308104128085
 33
0.0
  0
INSERT
  5
737D
  8
KERA4
  2
*U84
 10
0.0
 20
0.0
 30
0.0
  0
POINT
  5
737E
  8
DEFPOINTS
 62
     0
 10
3448.799926582657
 20
1119.5530810412811
 30
0.0
  0
POINT
  5
737F
  8
DEFPOINTS
 62
     0
 10
3448.799926582657
 20
542.55308104128062
 30
0.0
  0
POINT
  5
7380
  8
DEFPOINTS
 62
     0
 10
2725.3131473468061
 20
542.55308104128085
 30
0.0
  0
ENDBLK
  5
72F5
  8
0
  0
BLOCK
  8
0
  2
*D29
 70
     1
 10
0.0
 20
0.0
 30
0.0
  3
*D29
  1

  0
LINE
  5
7381
  8
KERA4
 10
4752.7876676978904
 20
2063.7800284805639
 30
0.0
 11
4752.7876676978904
 21
1793.123442480472
 31
0.0
  0
LINE
  5
7382
  8
KERA4
 10
4555.6533681708906
 20
1807.856303896411
 30
0.0
 11
4555.6533681708906
 21
1823.123442480472
 31
0.0
  0
LINE
  5
7383
  8
KERA4
 10
4802.7876676978904
 20
1808.1234424804729
 30
0.0
 11
4852.7876676978904
 21
1808.1234424804729
 31
0.0
  0
LINE
  5
7384
  8
KERA4
 10
4505.6533681708906
 20
1808.1234424804729
 30
0.0
 11
4455.6533681708906
 21
1808.1234424804729
 31
0.0
  0
LINE
  5
7385
  8
KERA4
 10
4752.7876676978904
 20
1808.1234424804729
 30
0.0
 11
4724.7969162972822
 21
1808.1234424804729
 31
0.0
  0
LINE
  5
7386
  8
KERA4
 10
4555.6533681708906
 20
1808.1234424804729
 30
0.0
 11
4583.6441195714979
 21
1808.1234424804729
 31
0.0
  0
SOLID
  5
7387
  8
KERA4
 10
4802.7876676978904
 20
1816.456775813806
 30
0.0
 11
4802.7876676978904
 21
1799.790109147139
 31
0.0
 12
4752.7876676978904
 22
1808.1234424804729
 32
0.0
 13
4752.7876676978904
 23
1808.1234424804729
 33
0.0
  0
SOLID
  5
7388
  8
KERA4
 10
4505.6533681708906
 20
1816.456775813806
 30
0.0
 11
4505.6533681708906
 21
1799.790109147139
 31
0.0
 12
4555.6533681708906
 22
1808.1234424804729
 32
0.0
 13
4555.6533681708906
 23
1808.1234424804729
 33
0.0
  0
INSERT
  5
7389
  8
KERA4
  2
*U85
 10
0.0
 20
0.0
 30
0.0
  0
POINT
  5
738A
  8
DEFPOINTS
 62
     0
 10
4752.7876676978904
 20
2083.7800284805639
 30
0.0
  0
POINT
  5
738B
  8
DEFPOINTS
 62
     0
 10
4555.6533681708906
 20
1787.8563038964101
 30
0.0
  0
POINT
  5
738C
  8
DEFPOINTS
 62
     0
 10
4555.6533681708906
 20
1808.1234424804729
 30
0.0
  0
ENDBLK
  5
7302
  8
0
  0
BLOCK
  8
0
  2
*D30
 70
     1
 10
0.0
 20
0.0
 30
0.0
  3
*D30
  1

  0
LINE
  5
738D
  8
KERA4
 10
3053.6831265826559
 20
744.55308104128051
 30
0.0
 11
2827.0344679143382
 21
744.55308104128051
 31
0.0
  0
LINE
  5
738E
  8
KERA4
 10
3053.6831265826572
 20
1119.5530810412811
 30
0.0
 11
2827.0344679143382
 21
1119.5530810412811
 31
0.0
  0
LINE
  5
738F
  8
KERA4
 10
2842.0344679143382
 20
794.55308104128051
 30
0.0
 11
2842.0344679143382
 21
891.50737844919354
 31
0.0
  0
LINE
  5
7390
  8
KERA4
 10
2842.0344679143382
 20
1069.5530810412811
 30
0.0
 11
2842.0344679143382
 21
972.59878363336804
 31
0.0
  0
SOLID
  5
7391
  8
KERA4
 10
2833.7011345810051
 20
794.55308104128051
 30
0.0
 11
2850.3678012476712
 21
794.55308104128051
 31
0.0
 12
2842.0344679143382
 22
744.55308104128051
 32
0.0
 13
2842.0344679143382
 23
744.55308104128051
 33
0.0
  0
SOLID
  5
7392
  8
KERA4
 10
2833.7011345810051
 20
1069.5530810412811
 30
0.0
 11
2850.3678012476721
 21
1069.5530810412811
 31
0.0
 12
2842.0344679143382
 22
1119.5530810412811
 32
0.0
 13
2842.0344679143382
 23
1119.5530810412811
 33
0.0
  0
INSERT
  5
7393
  8
KERA4
  2
*U86
 10
0.0
 20
0.0
 30
0.0
  0
POINT
  5
7394
  8
DEFPOINTS
 62
     0
 10
3073.6831265826559
 20
744.55308104128051
 30
0.0
  0
POINT
  5
7395
  8
DEFPOINTS
 62
     0
 10
3073.6831265826559
 20
1119.5530810412811
 30
0.0
  0
POINT
  5
7396
  8
DEFPOINTS
 62
     0
 10
2842.0344679143382
 20
1119.5530810412811
 30
0.0
  0
ENDBLK
  5
7311
  8
0
  0
BLOCK
  8
0
  2
*D31
 70
     1
 10
0.0
 20
0.0
 30
0.0
  3
*D31
  1

  0
LINE
  5
7397
  8
KERA4
 10
3068.6221169531641
 20
719.49207141178738
 30
0.0
 11
3068.6221169531641
 21
339.99137240986971
 31
0.0
  0
LINE
  5
7398
  8
KERA4
 10
3828.7441362121508
 20
719.49207141178795
 30
0.0
 11
3828.7441362121508
 21
339.99137240986971
 31
0.0
  0
LINE
  5
7399
  8
KERA4
 10
3118.6221169531641
 20
354.99137240986971
 30
0.0
 11
3378.7376968418662
 21
354.99137240986971
 31
0.0
  0
LINE
  5
739A
  8
KERA4
 10
3778.7441362121499
 20
354.99137240986971
 30
0.0
 11
3518.6285563234492
 21
354.99137240986971
 31
0.0
  0
SOLID
  5
739B
  8
KERA4
 10
3118.6221169531641
 20
363.32470574320303
 30
0.0
 11
3118.6221169531641
 21
346.6580390765364
 31
0.0
 12
3068.6221169531641
 22
354.99137240986971
 32
0.0
 13
3068.6221169531641
 23
354.99137240986971
 33
0.0
  0
SOLID
  5
739C
  8
KERA4
 10
3778.7441362121499
 20
363.32470574320303
 30
0.0
 11
3778.7441362121499
 21
346.6580390765364
 31
0.0
 12
3828.7441362121508
 22
354.99137240986971
 32
0.0
 13
3828.7441362121508
 23
354.99137240986971
 33
0.0
  0
INSERT
  5
739D
  8
KERA4
  2
*U87
 10
0.0
 20
0.0
 30
0.0
  0
POINT
  5
739E
  8
DEFPOINTS
 62
     0
 10
3068.6221169531641
 20
739.49207141178738
 30
0.0
  0
POINT
  5
739F
  8
DEFPOINTS
 62
     0
 10
3828.7441362121508
 20
739.49207141178795
 30
0.0
  0
POINT
  5
73A0
  8
DEFPOINTS
 62
     0
 10
3828.7441362121508
 20
354.99137240986971
 30
0.0
  0
ENDBLK
  5
731E
  8
0
  0
BLOCK
  8
0
  2
*D32
 70
     1
 10
0.0
 20
0.0
 30
0.0
  3
*D32
  1

  0
LINE
  5
73A1
  8
KERA4
 10
3462.8252622063878
 20
1133.6952166650119
 30
0.0
 11
3582.6614388006378
 21
1253.5313932592619
 31
0.0
  0
LINE
  5
73A2
  8
KERA4
 10
3842.8862718358819
 20
753.63420703551867
 30
0.0
 11
3962.722448430131
 21
873.47038362976878
 31
0.0
  0
LINE
  5
73A3
  8
KERA4
 10
3607.4101761421671
 20
1207.5694524821361
 30
0.0
 11
3721.5566925115022
 21
1093.4229361128021
 31
0.0
  0
LINE
  5
73A4
  8
KERA4
 10
3916.7605076530049
 20
898.21912097129791
 30
0.0
 11
3802.6139912836711
 21
1012.365637340632
 31
0.0
  0
SOLID
  5
73A5
  8
KERA4
 10
3613.3027326520551
 20
1213.462008992024
 30
0.0
 11
3601.5176196322791
 21
1201.6768959722481
 31
0.0
 12
3572.0548370828392
 22
1242.9247915414639
 32
0.0
 13
3572.0548370828392
 23
1242.9247915414639
 33
0.0
  0
SOLID
  5
73A6
  8
KERA4
 10
3922.6530641628942
 20
904.11167748118589
 30
0.0
 11
3910.8679511431178
 21
892.32656446141004
 31
0.0
 12
3952.1158467123332
 22
862.86378191197059
 32
0.0
 13
3952.1158467123332
 23
862.86378191197059
 33
0.0
  0
INSERT
  5
73A7
  8
KERA4
  2
*U88
 10
0.0
 20
0.0
 30
0.0
  0
POINT
  5
73A8
  8
DEFPOINTS
 62
     0
 10
3448.6831265826572
 20
1119.5530810412811
 30
0.0
  0
POINT
  5
73A9
  8
DEFPOINTS
 62
     0
 10
3828.7441362121508
 20
739.49207141178772
 30
0.0
  0
POINT
  5
73AA
  8
DEFPOINTS
 62
     0
 10
3952.1158467123332
 20
862.86378191197059
 30
0.0
  0
ENDBLK
  5
732B
  8
0
  0
BLOCK
  8
0
  2
*D33
 70
     1
 10
0.0
 20
0.0
 30
0.0
  3
*D33
  1

  0
LINE
  5
73AB
  8
KERA4
 10
3522.9585386072449
 20
1073.5619402641551
 30
0.0
 11
3593.483228622169
 21
1144.086630279078
 31
0.0
  0
LINE
  5
73AC
  8
KERA4
 10
3462.8252622063878
 20
1133.695216665011
 30
0.0
 11
3533.3499522213119
 21
1204.2199066799351
 31
0.0
  0
LINE
  5
73AD
  8
KERA4
 10
3618.2319659636969
 20
1098.1246895019531
 30
0.0
 11
3653.5873050230239
 21
1062.769350442625
 31
0.0
  0
LINE
  5
73AE
  8
KERA4
 10
3487.3880114441849
 20
1228.9686440214639
 30
0.0
 11
3452.032672384858
 21
1264.3239830807911
 31
0.0
  0
SOLID
  5
73AF
  8
KERA4
 10
3624.1245224735858
 20
1104.0172460118411
 30
0.0
 11
3612.3394094538089
 21
1092.2321329920651
 31
0.0
 12
3582.8766269043699
 22
1133.4800285612801
 32
0.0
 13
3582.8766269043699
 23
1133.4800285612801
 33
0.0
  0
SOLID
  5
73B0
  8
KERA4
 10
3493.2805679540738
 20
1234.8612005313521
 30
0.0
 11
3481.4954549342979
 21
1223.0760875115759
 31
0.0
 12
3522.7433505035128
 22
1193.6133049621369
 32
0.0
 13
3522.7433505035128
 23
1193.6133049621369
 33
0.0
  0
INSERT
  5
73B1
  8
KERA4
  2
*U89
 10
0.0
 20
0.0
 30
0.0
  0
POINT
  5
73B2
  8
DEFPOINTS
 62
     0
 10
3508.8164029835139
 20
1059.4198046404231
 30
0.0
  0
POINT
  5
73B3
  8
DEFPOINTS
 62
     0
 10
3448.6831265826572
 20
1119.5530810412799
 30
0.0
  0
POINT
  5
73B4
  8
DEFPOINTS
 62
     0
 10
3522.7433505035128
 20
1193.6133049621369
 30
0.0
  0
ENDBLK
  5
7338
  8
0
  0
BLOCK
  8
0
  2
*U34
 70
     1
 10
0.0
 20
0.0
 30
0.0
  3
*U34
  1

  0
TEXT
  5
7400
  8
KERA4
 10
4408.6432437618514
 20
1050.9701851828779
 30
0.0
 40
50.0
  1
40
  0
ENDBLK
  5
7402
  8
0
  0
BLOCK
  8
0
  2
*U35
 70
     1
 10
0.0
 20
0.0
 30
0.0
  3
*U35
  1

  0
TEXT
  5
7404
  8
KERA4
 10
5227.5903064765698
 20
787.38272912775017
 30
0.0
 40
50.0
  1
30
  0
ENDBLK
  5
7406
  8
0
  0
BLOCK
  8
0
  2
*X36
 70
     1
 10
0.0
 20
0.0
 30
0.0
  3
*X36
  1

  0
LINE
  5
7409
  8
0
 62
     0
 10
4819.7703087828104
 20
736.22864743049774
 30
0.0
 11
4820.0028724773174
 21
736.46121112500396
 31
0.0
  0
LINE
  5
740A
  8
0
 62
     0
 10
4809.1637070650122
 20
736.22864743049774
 30
0.0
 11
4820.0028724773174
 21
747.06781284280214
 31
0.0
  0
LINE
  5
740B
  8
0
 62
     0
 10
4798.557105347214
 20
736.22864743049774
 30
0.0
 11
4820.0028724773174
 21
757.67441456060033
 31
0.0
  0
LINE
  5
740C
  8
0
 62
     0
 10
4795.508681955801
 20
743.7868257568847
 30
0.0
 11
4820.0028724773174
 21
768.28101627839851
 31
0.0
  0
LINE
  5
740D
  8
0
 62
     0
 10
4795.508681955801
 20
754.39342747468197
 30
0.0
 11
4814.7508619815517
 21
773.63560750043268
 31
0.0
  0
LINE
  5
740E
  8
0
 62
     0
 10
4795.508681955801
 20
765.00002919248016
 30
0.0
 11
4808.9835824182319
 21
778.47492965491028
 31
0.0
  0
LINE
  5
740F
  8
0
 62
     0
 10
4789.1335222805819
 20
769.23147123505976
 30
0.0
 11
4801.1306984760186
 21
781.2286474304974
 31
0.0
  0
LINE
  5
7410
  8
0
 62
     0
 10
4778.5357870864063
 20
769.24033775868202
 30
0.0
 11
4790.5240967582213
 21
781.22864743049695
 31
0.0
  0
LINE
  5
7411
  8
0
 62
     0
 10
4767.9380518922299
 20
769.24920428230405
 30
0.0
 11
4779.9174950404231
 21
781.22864743049695
 31
0.0
  0
LINE
  5
7412
  8
0
 62
     0
 10
4757.3403166980543
 20
769.25807080592585
 30
0.0
 11
4769.310893322624
 21
781.22864743049695
 31
0.0
  0
LINE
  5
7413
  8
0
 62
     0
 10
4746.7425815038787
 20
769.26693732954823
 30
0.0
 11
4758.7042916048267
 21
781.22864743049706
 31
0.0
  0
LINE
  5
7414
  8
0
 62
     0
 10
4736.4483235592552
 20
769.57928110272326
 30
0.0
 11
4748.0976898870276
 21
781.22864743049706
 31
0.0
  0
LINE
  5
7415
  8
0
 62
     0
 10
4727.0149356512993
 20
770.75249491256466
 30
0.0
 11
4737.7699046760199
 21
781.50746393728673
 31
0.0
  0
LINE
  5
7416
  8
0
 62
     0
 10
4718.0134837408041
 20
772.35764471986954
 30
0.0
 11
4728.344635478119
 21
782.68879645718437
 31
0.0
  0
LINE
  5
7417
  8
0
 62
     0
 10
4709.3994636512707
 20
774.35022634813345
 30
0.0
 11
4719.3799674052234
 21
784.33073010208614
 31
0.0
  0
LINE
  5
7418
  8
0
 62
     0
 10
4701.1380957122246
 20
776.69546012688647
 30
0.0
 11
4710.8257811721796
 21
786.38314558684056
 31
0.0
  0
LINE
  5
7419
  8
0
 62
     0
 10
4693.2017528872839
 20
779.36571901974287
 30
0.0
 11
4702.6435204900145
 21
788.80748662247345
 31
0.0
  0
LINE
  5
741A
  8
0
 62
     0
 10
4685.5682276071684
 20
782.3387954574257
 30
0.0
 11
4694.8029865965209
 21
791.5735544467791
 31
0.0
  0
LINE
  5
741B
  8
0
 62
     0
 10
4678.2195278131248
 20
785.59669738118066
 30
0.0
 11
4687.2802267076477
 21
794.65739627570315
 31
0.0
  0
LINE
  5
741C
  8
0
 62
     0
 10
4671.1410199726188
 20
789.12479125847335
 30
0.0
 11
4680.0560957110574
 21
798.03986699691006
 31
0.0
  0
LINE
  5
741D
  8
0
 62
     0
 10
4664.3208073546111
 20
792.91118035826344
 30
0.0
 11
4673.1152503323938
 21
801.70562333604653
 31
0.0
  0
LINE
  5
741E
  8
0
 62
     0
 10
4657.7492727548297
 20
796.94624747628109
 30
0.0
 11
4666.4454317275049
 21
805.64240644895585
 31
0.0
  0
LINE
  5
741F
  8
0
 62
     0
 10
4651.4187395435783
 20
801.22231598282792
 30
0.0
 11
4660.0369471467884
 21
809.84052358603697
 31
0.0
  0
LINE
  5
7420
  8
0
 62
     0
 10
4645.3232203442849
 20
805.73339850133129
 30
0.0
 11
4653.8822936360402
 21
814.29247179308618
 31
0.0
  0
LINE
  5
7421
  8
0
 62
     0
 10
4639.4582326367772
 20
810.4750125116218
 30
0.0
 11
4647.9758866171996
 21
818.9926664920456
 31
0.0
  0
LINE
  5
7422
  8
0
 62
     0
 10
4633.8206672668466
 20
815.44404885948973
 30
0.0
 11
4642.3138689109574
 21
823.93725050360081
 31
0.0
  0
LINE
  5
7423
  8
0
 62
     0
 10
4628.4087005011243
 20
820.63868381156578
 30
0.0
 11
4636.8939842561922
 21
829.12396756663429
 31
0.0
  0
LINE
  5
7424
  8
0
 62
     0
 10
4623.2217436724977
 20
826.058328700738
 30
0.0
 11
4631.7155053587467
 21
834.55209038698615
 31
0.0
  0
LINE
  5
7425
  8
0
 62
     0
 10
4618.2604271199498
 20
831.70361386598779
 30
0.0
 11
4626.7792110163
 21
840.22239776233801
 31
0.0
  0
LINE
  5
7426
  8
0
 62
     0
 10
4613.5266173891896
 20
837.57640585302613
 30
0.0
 11
4622.0874106192668
 21
846.13719908310395
 31
0.0
  0
LINE
  5
7427
  8
0
 62
     0
 10
4609.0234688014407
 20
843.67985898307586
 30
0.0
 11
4617.6440178492567
 21
852.30040803089184
 31
0.0
  0
LINE
  5
7428
  8
0
 62
     0
 10
4604.7555127689311
 20
850.01850466836356
 30
0.0
 11
4613.4546791663852
 21
858.71767106581774
 31
0.0
  0
LINE
  5
7429
  8
0
 62
     0
 10
4600.7287909134047
 20
856.59838453063503
 30
0.0
 11
4609.5269672280174
 21
865.39656084524802
 31
0.0
  0
LINE
  5
742A
  8
0
 62
     0
 10
4596.951041483404
 20
863.42723681843245
 30
0.0
 11
4605.8706554247647
 21
872.34685075979348
 31
0.0
  0
LINE
  5
742B
  8
0
 62
     0
 10
4593.43195327788
 20
870.51475033070665
 30
0.0
 11
4602.4980983235992
 21
879.58089537642661
 31
0.0
  0
LINE
  5
742C
  8
0
 62
     0
 10
4590.1835080592882
 20
877.87290682991352
 30
0.0
 11
4599.424755713062
 21
887.11415448368768
 31
0.0
  0
LINE
  5
742D
  8
0
 62
     0
 10
4587.2204425688524
 20
885.51644305727575
 30
0.0
 11
4596.6699181438589
 21
894.96591863228332
 31
0.0
  0
LINE
  5
742E
  8
0
 62
     0
 10
4584.5608769326682
 20
893.46347913888985
 30
0.0
 11
4594.2577247392619
 21
903.16032694548346
 31
0.0
  0
LINE
  5
742F
  8
0
 62
     0
 10
4582.2271813432008
 20
901.73638526722061
 30
0.0
 11
4592.2186197745141
 21
911.72782369853405
 31
0.0
  0
LINE
  5
7430
  8
0
 62
     0
 10
4580.2471945425659
 20
910.36300018438362
 30
0.0
 11
4590.4739926285492
 21
920.58979827036762
 31
0.0
  0
LINE
  5
7431
  8
0
 62
     0
 10
4577.1169767034726
 20
917.83938406309005
 30
0.0
 11
4585.6346704740708
 21
926.35707783368798
 31
0.0
  0
LINE
  5
7432
  8
0
 62
     0
 10
4572.2776545489942
 20
923.60666362640904
 30
0.0
 11
4580.7953483195924
 21
932.12435739700743
 31
0.0
  0
LINE
  5
7433
  8
0
 62
     0
 10
4550.0513160437349
 20
901.38032512115024
 30
0.0
 11
4556.5233685257572
 21
907.85237760317125
 31
0.0
  0
LINE
  5
7434
  8
0
 62
     0
 10
4567.0918698406131
 20
929.02748063582544
 30
0.0
 11
4575.956026165115
 21
937.89163696032722
 31
0.0
  0
LINE
  5
7435
  8
0
 62
     0
 10
4543.3910366860937
 20
905.32664748130776
 30
0.0
 11
4556.6118524077992
 21
918.54746320301251
 31
0.0
  0
LINE
  5
7436
  8
0
 62
     0
 10
4543.3910366860937
 20
915.93324919910594
 30
0.0
 11
4568.6864349174866
 21
941.22864743049718
 31
0.0
  0
LINE
  5
7437
  8
0
 62
     0
 10
4543.3910366860937
 20
926.53985091690424
 30
0.0
 11
4558.0798331996893
 21
941.22864743049797
 31
0.0
  0
LINE
  5
7438
  8
0
 62
     0
 10
4543.4969608640276
 20
937.25237681263513
 30
0.0
 11
4547.3673073039581
 21
941.12272325256549
 31
0.0
  0
ENDBLK
  5
743A
  8
0
  0
BLOCK
  8
0
  2
*X37
 70
     1
 10
0.0
 20
0.0
 30
0.0
  3
*X37
  1

  0
LINE
  5
743C
  8
0
 62
     0
 10
4883.4099190896004
 20
736.22864743049774
 30
0.0
 11
4890.4970629988311
 21
743.31579133972946
 31
0.0
  0
LINE
  5
743D
  8
0
 62
     0
 10
4872.8033173718013
 20
736.22864743049774
 30
0.0
 11
4889.3033173718013
 21
752.7286474304982
 31
0.0
  0
LINE
  5
743E
  8
0
 62
     0
 10
4866.0028724773156
 20
740.03480425381122
 30
0.0
 11
4878.6967156540031
 21
752.72864743049774
 31
0.0
  0
LINE
  5
743F
  8
0
 62
     0
 10
4866.0028724773156
 20
750.64140597160929
 30
0.0
 11
4868.090113936204
 21
752.72864743049774
 31
0.0
  0
ENDBLK
  5
7441
  8
0
  0
BLOCK
  8
0
  2
*X38
 70
     1
 10
0.0
 20
0.0
 30
0.0
  3
*X38
  1

  0
LINE
  5
7443
  8
0
 62
     0
 10
4900.8289820646232
 20
774.86091384111751
 30
0.0
 11
4917.2273415294621
 21
791.25927330595766
 31
0.0
  0
LINE
  5
7444
  8
0
 62
     0
 10
4880.0901139362049
 20
764.72864743049831
 30
0.0
 11
4922.3544799662732
 21
806.99301346056552
 31
0.0
  0
LINE
  5
7445
  8
0
 62
     0
 10
4909.2157445399198
 20
804.4608797520126
 30
0.0
 11
4924.6921928049824
 21
819.93732801707336
 31
0.0
  0
LINE
  5
7446
  8
0
 62
     0
 10
4869.4835122184068
 20
764.72864743049774
 30
0.0
 11
4887.0871422350192
 21
782.33227744711121
 31
0.0
  0
LINE
  5
7447
  8
0
 62
     0
 10
4912.1481775438624
 20
817.99991447375157
 30
0.0
 11
4927.0299056436916
 21
832.88164257358164
 31
0.0
  0
LINE
  5
7448
  8
0
 62
     0
 10
4914.4858903825716
 20
830.94422903025998
 30
0.0
 11
4929.3676184824017
 21
845.82595713008914
 31
0.0
  0
LINE
  5
7449
  8
0
 62
     0
 10
4916.8236032212808
 20
843.88854358676781
 30
0.0
 11
4931.7053313211109
 21
858.77027168659743
 31
0.0
  0
LINE
  5
744A
  8
0
 62
     0
 10
4919.1613160599918
 20
856.83285814327564
 30
0.0
 11
4934.0430441598219
 21
871.7145862431056
 31
0.0
  0
LINE
  5
744B
  8
0
 62
     0
 10
4921.499028898701
 20
869.77717269978348
 30
0.0
 11
4936.3807569985311
 21
884.65890079961355
 31
0.0
  0
LINE
  5
744C
  8
0
 62
     0
 10
4923.8367417374111
 20
882.72148725629165
 30
0.0
 11
4938.7184698372412
 21
897.60321535612184
 31
0.0
  0
LINE
  5
744D
  8
0
 62
     0
 10
4926.1744545761212
 20
895.66580181280005
 30
0.0
 11
4928.9006498864755
 21
898.39199712315485
 31
0.0
  0
ENDBLK
  5
744F
  8
0
  0
BLOCK
  8
0
  2
*X39
 70
     1
 10
0.0
 20
0.0
 30
0.0
  3
*X39
  1

  0
LINE
  5
7451
  8
0
 62
     0
 10
4981.0544678761962
 20
929.33261167727824
 30
0.0
 11
4985.5028724773156
 21
933.7810162783984
 31
0.0
  0
LINE
  5
7452
  8
0
 62
     0
 10
4970.447866158398
 20
929.33261167727824
 30
0.0
 11
4982.3439019116158
 21
941.22864743049729
 31
0.0
  0
LINE
  5
7453
  8
0
 62
     0
 10
4959.8412644405998
 20
929.33261167727824
 30
0.0
 11
4971.7373001938204
 21
941.2286474304982
 31
0.0
  0
LINE
  5
7454
  8
0
 62
     0
 10
4940.9006498864755
 20
910.39199712315474
 30
0.0
 11
4941.0667638348459
 21
910.55811107152522
 31
0.0
  0
LINE
  5
7455
  8
0
 62
     0
 10
4930.2940481686783
 20
910.39199712315474
 30
0.0
 11
4961.1306984760213
 21
941.2286474304982
 31
0.0
  0
LINE
  5
7456
  8
0
 62
     0
 10
4935.6072649832731
 20
926.3118156555488
 30
0.0
 11
4950.5240967582231
 21
941.2286474304982
 31
0.0
  0
ENDBLK
  5
7458
  8
0
  0
BLOCK
  8
0
  2
*U40
 70
     1
 10
0.0
 20
0.0
 30
0.0
  3
*U40
  1

  0
TEXT
  5
7485
  8
KERA4
 10
4173.6752433243037
 20
814.15497758056642
 30
0.0
 40
50.0
  1
205
  0
ENDBLK
  5
7487
  8
0
  0
BLOCK
  8
0
  2
*U41
 70
     1
 10
0.0
 20
0.0
 30
0.0
  3
*U41
  1

  0
TEXT
  5
7489
  8
KERA4
 10
4586.1829543327049
 20
595.42874215688755
 30
0.0
 40
50.0
  1
Ø46
  0
ENDBLK
  5
748B
  8
0
  0
BLOCK
  8
0
  2
*U42
 70
     1
 10
0.0
 20
0.0
 30
0.0
  3
*U42
  1

  0
TEXT
  5
748D
  8
KERA4
 10
4283.1148734284034
 20
840.93806459181758
 30
0.0
 40
50.0
  1
160
  0
ENDBLK
  5
748F
  8
0
  0
BLOCK
  8
0
  2
*U43
 70
     1
 10
0.0
 20
0.0
 30
0.0
  3
*U43
  1

  0
TEXT
  5
7491
  8
KERA4
 10
4561.2794868671263
 20
510.9363981210692
 30
0.0
 40
50.0
  1
Ø95
  0
ENDBLK
  5
7493
  8
0
  0
BLOCK
  8
0
  2
*U44
 70
     1
 10
0.0
 20
0.0
 30
0.0
  3
*U44
  1

  0
TEXT
  5
7495
  8
KERA4
 10
4968.4924391482537
 20
1124.519954353822
 30
0.0
 40
50.0
  1
190
  0
ENDBLK
  5
7497
  8
0
  0
BLOCK
  8
0
  2
*U45
 70
     1
 10
0.0
 20
0.0
 30
0.0
  3
*U45
  1

  0
TEXT
  5
7499
  8
KERA4
 10
5002.6004168156533
 20
1030.1410766150791
 30
0.0
 40
50.0
  1
120
  0
ENDBLK
  5
749B
  8
0
  0
BLOCK
  8
0
  2
*X46
 70
     1
 10
0.0
 20
0.0
 30
0.0
  3
*X46
  1

  0
LINE
  5
749D
  8
0
 62
     0
 10
5119.809286356819
 20
930.20160782652317
 30
0.0
 11
5122.1626110406496
 21
932.55493251035568
 31
0.0
  0
LINE
  5
749E
  8
0
 62
     0
 10
5110.9704515919857
 20
930.20160782652295
 30
0.0
 11
5121.4407698136056
 21
940.67192604814272
 31
0.0
  0
LINE
  5
749F
  8
0
 62
     0
 10
5102.1316168271542
 20
930.20160782652317
 30
0.0
 11
5112.6019350487732
 21
940.67192604814181
 31
0.0
  0
LINE
  5
74A0
  8
0
 62
     0
 10
5093.2927820623199
 20
930.20160782652295
 30
0.0
 11
5103.7631002839407
 21
940.67192604814215
 31
0.0
  0
LINE
  5
74A1
  8
0
 62
     0
 10
5084.4539472974902
 20
930.20160782652295
 30
0.0
 11
5094.9242655191101
 21
940.67192604814272
 31
0.0
  0
LINE
  5
74A2
  8
0
 62
     0
 10
5075.6151125326578
 20
930.20160782652226
 30
0.0
 11
5086.0854307542777
 21
940.67192604814181
 31
0.0
  0
LINE
  5
74A3
  8
0
 62
     0
 10
5066.7762777678254
 20
930.20160782652295
 30
0.0
 11
5077.2465959894453
 21
940.67192604814215
 31
0.0
  0
LINE
  5
74A4
  8
0
 62
     0
 10
5057.9374430029948
 20
930.20160782652295
 30
0.0
 11
5068.4077612246138
 21
940.67192604814215
 31
0.0
  0
LINE
  5
74A5
  8
0
 62
     0
 10
5049.0986082381623
 20
930.20160782652295
 30
0.0
 11
5059.5689264597822
 21
940.67192604814215
 31
0.0
  0
LINE
  5
74A6
  8
0
 62
     0
 10
5040.2597734733299
 20
930.20160782652295
 30
0.0
 11
5050.7300916949498
 21
940.67192604814215
 31
0.0
  0
LINE
  5
74A7
  8
0
 62
     0
 10
5031.4209387084993
 20
930.20160782652226
 30
0.0
 11
5041.8912569301183
 21
940.67192604814215
 31
0.0
  0
LINE
  5
74A8
  8
0
 62
     0
 10
5022.582103943666
 20
930.20160782652249
 30
0.0
 11
5033.0524221652859
 21
940.67192604814204
 31
0.0
  0
LINE
  5
74A9
  8
0
 62
     0
 10
5021.0764516820018
 20
937.5347903296896
 30
0.0
 11
5024.2135874004543
 21
940.67192604814215
 31
0.0
  0
ENDBLK
  5
74AB
  8
0
  0
BLOCK
  8
0
  2
*U47
 70
     1
 10
0.0
 20
0.0
 30
0.0
  3
*U47
  1

  0
TEXT
  5
74AD
  8
KERA4
 10
4775.0625753184049
 20
1198.3184160750409
 30
0.0
 40
50.0
  1
577
  0
ENDBLK
  5
74AF
  8
0
  0
BLOCK
  8
0
  2
*U48
 70
     1
 10
0.0
 20
0.0
 30
0.0
  3
*U48
  1

  0
TEXT
  5
74BF
  8
KERA4
 10
142.0873124147341
 20
-1453.2936698499309
 30
0.0
 40
50.0
  1
650
  0
ENDBLK
  5
74C1
  8
0
  0
BLOCK
  8
0
  2
*U49
 70
     1
 10
0.0
 20
0.0
 30
0.0
  3
*U49
  1

  0
TEXT
  5
74C3
  8
KERA4
 10
241.98499317871779
 20
-1353.295169849931
 30
0.0
 40
50.0
  1
850
  0
ENDBLK
  5
74C5
  8
0
  0
BLOCK
  8
0
  2
*U50
 70
     1
 10
0.0
 20
0.0
 30
0.0
  3
*U50
  1

  0
TEXT
  5
74C7
  8
KERA4
 10
40.721694262558707
 20
-1565.5652320078041
 30
0.0
 40
50.0
  1
540
  0
ENDBLK
  5
74C9
  8
0
  0
BLOCK
  8
0
  2
*U51
 70
     1
 10
0.0
 20
0.0
 30
0.0
  3
*U51
  1

  0
TEXT
  5
74CB
  8
KERA4
 10
-972.35919825022245
 20
-1003.805669849932
 30
0.0
 40
50.0
  1
150
  0
ENDBLK
  5
74CD
  8
0
  0
BLOCK
  8
0
  2
*U52
 70
     1
 10
0.0
 20
0.0
 30
0.0
  3
*U52
  1

  0
TEXT
  5
74CF
  8
KERA4
 10
-483.79994982536522
 20
-2916.7047270066919
 30
0.0
 40
50.0
  1
340
  0
ENDBLK
  5
74D1
  8
0
  0
BLOCK
  8
0
  2
*U53
 70
     1
 10
0.0
 20
0.0
 30
0.0
  3
*U53
  1

  0
TEXT
  5
74D3
  8
KERA4
 10
-1207.238141885226
 20
-2534.860617289215
 30
0.0
 40
50.0
  1
577
  0
ENDBLK
  5
74D5
  8
0
  0
BLOCK
  8
0
  2
*U54
 70
     1
 10
0.0
 20
0.0
 30
0.0
  3
*U54
  1

  0
TEXT
  5
74D7
  8
KERA4
 10
722.18082488243931
 20
-1557.790255850023
 30
0.0
 40
50.0
  1
200
  0
ENDBLK
  5
74D9
  8
0
  0
BLOCK
  8
0
  2
*U55
 70
     1
 10
0.0
 20
0.0
 30
0.0
  3
*U55
  1

  0
TEXT
  5
74DB
  8
KERA4
 10
-1090.7214597897271
 20
-2433.8435640832131
 30
0.0
 40
50.0
  1
375
  0
ENDBLK
  5
74DD
  8
0
  0
BLOCK
  8
0
  2
*U56
 70
     1
 10
0.0
 20
0.0
 30
0.0
  3
*U56
  1

  0
TEXT
  5
74DF
  8
KERA4
 10
-483.98753509139488
 20
-3010.922325920626
 30
0.0
 40
50.0
  1
760
  0
ENDBLK
  5
74E1
  8
0
  0
BLOCK
  8
0
  2
*U57
 70
     1
 10
0.0
 20
0.0
 30
0.0
  3
*U57
  1

  0
TEXT
  5
74E3
  8
KERA4
 10
-170.3806813044331
 20
-2313.0194116037792
 30
0.0
 40
50.0
  1
540
  0
ENDBLK
  5
74E5
  8
0
  0
BLOCK
  8
0
  2
*U58
 70
     1
 10
0.0
 20
0.0
 30
0.0
  3
*U58
  1

  0
TEXT
  5
74E7
  8
KERA4
 10
-360.47117774500867
 20
-2202.3670315687882
 30
0.0
 40
50.0
  1
85
  0
ENDBLK
  5
74E9
  8
0
  0
BLOCK
  8
0
  2
*U59
 70
     1
 10
0.0
 20
0.0
 30
0.0
  3
*U59
  1

  0
TEXT
  5
74EB
  8
KERA4
 10
1370.8497664633619
 20
2502.7095214141509
 30
0.0
 40
50.0
  1
40
  0
ENDBLK
  5
74ED
  8
0
  0
BLOCK
  8
0
  2
*U60
 70
     1
 10
0.0
 20
0.0
 30
0.0
  3
*U60
  1

  0
TEXT
  5
74EF
  8
KERA4
 10
1269.7142655893399
 20
2102.9444601587752
 30
0.0
 40
50.0
  1
50
  0
ENDBLK
  5
74F1
  8
0
  0
BLOCK
  8
0
  2
*U61
 70
     1
 10
0.0
 20
0.0
 30
0.0
  3
*U61
  1

  0
TEXT
  5
74F3
  8
KERA4
 10
60.960431072278944
 20
48.936809784140671
 30
0.0
 40
60.0
  1
"A"
  0
ENDBLK
  5
74F5
  8
0
  0
BLOCK
  8
0
  2
*U62
 70
     1
 10
0.0
 20
0.0
 30
0.0
  3
*U62
  1

  0
TEXT
  5
74F7
  8
KERA4
 10
2064.8711530235978
 20
2741.8104117471721
 30
0.0
 40
60.0
  1
"A"
  0
ENDBLK
  5
74F9
  8
0
  0
BLOCK
  8
0
  2
*X63
 70
     1
 10
0.0
 20
0.0
 30
0.0
  3
*X63
  1

  0
LINE
  5
74FB
  8
0
 62
     0
 10
1825.2729942920239
 20
1562.518130008707
 30
0.0
 11
1890.805427891833
 21
1628.050563608517
 31
0.0
  0
LINE
  5
74FC
  8
0
 62
     0
 10
1763.21249381951
 20
1567.809550444211
 30
0.0
 11
1890.805427891833
 21
1695.402484516535
 31
0.0
  0
LINE
  5
74FD
  8
0
 62
     0
 10
1763.21249381951
 20
1635.1614713522299
 30
0.0
 11
1890.805427891833
 21
1762.7544054245541
 31
0.0
  0
LINE
  5
74FE
  8
0
 62
     0
 10
1763.21249381951
 20
1702.513392260249
 30
0.0
 11
1890.805427891833
 21
1830.106326332573
 31
0.0
  0
LINE
  5
74FF
  8
0
 62
     0
 10
1763.21249381951
 20
1769.865313168267
 30
0.0
 11
1890.805427891833
 21
1897.4582472405909
 31
0.0
  0
LINE
  5
7500
  8
0
 62
     0
 10
1763.21249381951
 20
1837.2172340762861
 30
0.0
 11
1890.805427891833
 21
1964.8101681486089
 31
0.0
  0
LINE
  5
7501
  8
0
 62
     0
 10
1763.21249381951
 20
1904.569154984305
 30
0.0
 11
1890.805427891833
 21
2032.162089056628
 31
0.0
  0
LINE
  5
7502
  8
0
 62
     0
 10
1763.21249381951
 20
1971.921075892323
 30
0.0
 11
1890.805427891833
 21
2099.5140099646469
 31
0.0
  0
LINE
  5
7503
  8
0
 62
     0
 10
1763.21249381951
 20
2039.2729968003421
 30
0.0
 11
1890.805427891833
 21
2166.865930872666
 31
0.0
  0
LINE
  5
7504
  8
0
 62
     0
 10
1763.21249381951
 20
2106.624917708361
 30
0.0
 11
1890.805427891833
 21
2234.2178517806842
 31
0.0
  0
LINE
  5
7505
  8
0
 62
     0
 10
1763.21249381951
 20
2173.9768386163801
 30
0.0
 11
1890.805427891833
 21
2301.5697726887029
 31
0.0
  0
LINE
  5
7506
  8
0
 62
     0
 10
1763.21249381951
 20
2241.3287595243978
 30
0.0
 11
1890.805427891833
 21
2368.921693596722
 31
0.0
  0
LINE
  5
7507
  8
0
 62
     0
 10
1763.21249381951
 20
2308.6806804324169
 30
0.0
 11
1890.805427891833
 21
2436.2736145047402
 31
0.0
  0
LINE
  5
7508
  8
0
 62
     0
 10
1763.21249381951
 20
2376.032601340436
 30
0.0
 11
1890.805427891833
 21
2503.6255354127588
 31
0.0
  0
LINE
  5
7509
  8
0
 62
     0
 10
1763.21249381951
 20
2443.3845222484538
 30
0.0
 11
1890.805427891833
 21
2570.9774563207779
 31
0.0
  0
LINE
  5
750A
  8
0
 62
     0
 10
1763.21249381951
 20
2510.7364431564729
 30
0.0
 11
1873.837211056614
 21
2621.361160393576
 31
0.0
  0
LINE
  5
750B
  8
0
 62
     0
 10
1763.21249381951
 20
2578.088364064492
 30
0.0
 11
1820.256229672543
 21
2635.132099917525
 31
0.0
  0
LINE
  5
750C
  8
0
 62
     0
 10
1763.21249381951
 20
2645.4402849725102
 30
0.0
 11
1766.6752482884731
 21
2648.9030394414731
 31
0.0
  0
ENDBLK
  5
750E
  8
0
  0
BLOCK
  8
0
  2
*U64
 70
     1
 10
0.0
 20
0.0
 30
0.0
  3
*U64
  1

  0
TEXT
  5
7510
  8
KERA4
 10
1892.23467022567
 20
1962.0959171835691
 30
0.0
 40
50.0
  1
80
  0
ENDBLK
  5
7512
  8
0
  0
BLOCK
  8
0
  2
*U65
 70
     1
 10
0.0
 20
0.0
 30
0.0
  3
*U65
  1

  0
TEXT
  5
7514
  8
KERA4
 10
1972.2553177436801
 20
1861.3823317619019
 30
0.0
 40
50.0
  1
80
  0
ENDBLK
  5
7516
  8
0
  0
BLOCK
  8
0
  2
*U66
 70
     1
 10
0.0
 20
0.0
 30
0.0
  3
*U66
  1

  0
SOLID
  5
7518
  8
KERA4
  6
CONTINUOUS
 10
293.1639652660798
 20
983.36023520204265
 30
0.0
 11
286.7171274779929
 21
980.6898675557976
 31
0.0
 12
299.61080305416669
 22
980.6898675557976
 32
0.0
 13
299.61080305416669
 23
980.6898675557976
 33
0.0
210
0.0
220
0.0
230
1.0
  0
SOLID
  5
7519
  8
KERA4
  6
CONTINUOUS
 10
286.7171274779929
 20
980.6898675557976
 30
0.0
 11
284.04675983174792
 21
974.2430297677106
 31
0.0
 12
302.28117070041168
 22
974.2430297677106
 32
0.0
 13
302.28117070041168
 23
974.2430297677106
 33
0.0
210
0.0
220
0.0
230
1.0
  0
SOLID
  5
751A
  8
KERA4
  6
CONTINUOUS
 10
-286.7171274779929
 20
980.6898675557976
 30
0.0
 11
-299.61080305416669
 21
980.6898675557976
 31
0.0
 12
-302.28117070041168
 22
974.2430297677106
 32
0.0
 13
-302.28117070041168
 23
974.2430297677106
 33
0.0
210
0.0
220
0.0
230
-1.0
  0
SOLID
  5
751B
  8
KERA4
  6
CONTINUOUS
 10
-286.71712747799307
 20
967.79619197962347
 30
0.0
 11
-299.61080305416669
 21
967.79619197962347
 31
0.0
 12
-293.1639652660798
 22
965.12582433337866
 32
0.0
 13
-293.1639652660798
 23
965.12582433337866
 33
0.0
210
0.0
220
0.0
230
-1.0
  0
SOLID
  5
751C
  8
KERA4
  6
CONTINUOUS
 10
284.04675983174792
 20
974.2430297677106
 30
0.0
 11
286.7171274779929
 21
967.79619197962347
 31
0.0
 12
299.61080305416669
 22
967.79619197962347
 32
0.0
 13
299.61080305416669
 23
967.79619197962347
 33
0.0
210
0.0
220
0.0
230
1.0
  0
SOLID
  5
751D
  8
KERA4
  6
CONTINUOUS
 10
-284.04675983174792
 20
974.2430297677106
 30
0.0
 11
-302.28117070041168
 21
974.2430297677106
 31
0.0
 12
-299.61080305416669
 22
967.79619197962347
 32
0.0
 13
-299.61080305416669
 23
967.79619197962347
 33
0.0
210
0.0
220
0.0
230
-1.0
  0
LINE
  5
751E
  8
KERA4
  6
CONTINUOUS
 10
293.1639652660798
 20
983.36023520204265
 30
0.0
 11
286.7171274779929
 21
980.6898675557976
 31
0.0
  0
LINE
  5
751F
  8
KERA4
  6
CONTINUOUS
 10
299.61080305416669
 20
980.6898675557976
 30
0.0
 11
293.1639652660798
 21
983.36023520204265
 31
0.0
  0
LINE
  5
7520
  8
KERA4
  6
CONTINUOUS
 10
286.7171274779929
 20
980.6898675557976
 30
0.0
 11
284.04675983174792
 21
974.2430297677106
 31
0.0
  0
LINE
  5
7521
  8
KERA4
  6
CONTINUOUS
 10
299.61080305416669
 20
980.6898675557976
 30
0.0
 11
302.28117070041168
 21
974.2430297677106
 31
0.0
  0
LINE
  5
7522
  8
KERA4
  6
CONTINUOUS
 10
299.61080305416669
 20
967.79619197962347
 30
0.0
 11
293.1639652660798
 21
965.12582433337866
 31
0.0
  0
LINE
  5
7523
  8
KERA4
  6
CONTINUOUS
 10
293.1639652660798
 20
965.12582433337866
 30
0.0
 11
286.71712747799307
 21
967.79619197962347
 31
0.0
  0
LINE
  5
7524
  8
KERA4
  6
CONTINUOUS
 10
284.04675983174792
 20
974.2430297677106
 30
0.0
 11
286.7171274779929
 21
967.79619197962347
 31
0.0
  0
LINE
  5
7525
  8
KERA4
  6
CONTINUOUS
 10
302.28117070041168
 20
974.2430297677106
 30
0.0
 11
299.61080305416669
 21
967.79619197962347
 31
0.0
  0
ENDBLK
  5
7527
  8
0
  0
BLOCK
  8
0
  2
*U67
 70
     1
 10
0.0
 20
0.0
 30
0.0
  3
*U67
  1

  0
TEXT
  5
7529
  8
KERA4
 10
232.76150960441581
 20
1009.773436318636
 30
0.0
 40
50.0
  1
120
  0
ENDBLK
  5
752B
  8
0
  0
BLOCK
  8
0
  2
*U68
 70
     1
 10
0.0
 20
0.0
 30
0.0
  3
*U68
  1

  0
TEXT
  5
752D
  8
KERA4
 10
254.58022615555211
 20
914.92111708261893
 30
0.0
 40
50.0
  1
70
  0
ENDBLK
  5
752F
  8
0
  0
BLOCK
  8
0
  2
*U69
 70
     1
 10
0.0
 20
0.0
 30
0.0
  3
*U69
  1

  0
TEXT
  5
7531
  8
KERA4
 10
4035.69770674242
 20
2527.811419886008
 30
0.0
 40
50.0
  1
40
  0
ENDBLK
  5
7533
  8
0
  0
BLOCK
  8
0
  2
*U70
 70
     1
 10
0.0
 20
0.0
 30
0.0
  3
*U70
  1

  0
TEXT
  5
7535
  8
KERA4
 10
3934.562205868398
 20
2128.0463586306319
 30
0.0
 40
50.0
  1
50
  0
ENDBLK
  5
7537
  8
0
  0
BLOCK
  8
0
  2
*U71
 70
     1
 10
0.0
 20
0.0
 30
0.0
  3
*U71
  1

  0
TEXT
  5
7539
  8
KERA4
 10
2725.808371351337
 20
74.038708255997335
 30
0.0
 40
60.0
  1
"A"
  0
ENDBLK
  5
753B
  8
0
  0
BLOCK
  8
0
  2
*U72
 70
     1
 10
0.0
 20
0.0
 30
0.0
  3
*U72
  1

  0
TEXT
  5
753D
  8
KERA4
 10
4729.7190933026541
 20
2766.9123102190292
 30
0.0
 40
60.0
  1
"A"
  0
ENDBLK
  5
753F
  8
0
  0
BLOCK
  8
0
  2
*X73
 70
     1
 10
0.0
 20
0.0
 30
0.0
  3
*X73
  1

  0
LINE
  5
7541
  8
0
 62
     0
 10
4490.1209345710822
 20
1587.6200284805641
 30
0.0
 11
4555.6533681708906
 21
1653.152462080373
 31
0.0
  0
LINE
  5
7542
  8
0
 62
     0
 10
4428.0604340985683
 20
1592.911448916069
 30
0.0
 11
4555.6533681708906
 21
1720.5043829883921
 31
0.0
  0
LINE
  5
7543
  8
0
 62
     0
 10
4428.0604340985683
 20
1660.263369824087
 30
0.0
 11
4555.6533681708906
 21
1787.8563038964101
 31
0.0
  0
LINE
  5
7544
  8
0
 62
     0
 10
4428.0604340985683
 20
1727.6152907321059
 30
0.0
 11
4555.6533681708906
 21
1855.2082248044289
 31
0.0
  0
LINE
  5
7545
  8
0
 62
     0
 10
4428.0604340985683
 20
1794.9672116401241
 30
0.0
 11
4555.6533681708906
 21
1922.560145712448
 31
0.0
  0
LINE
  5
7546
  8
0
 62
     0
 10
4428.0604340985683
 20
1862.319132548143
 30
0.0
 11
4555.6533681708906
 21
1989.9120666204669
 31
0.0
  0
LINE
  5
7547
  8
0
 62
     0
 10
4428.0604340985683
 20
1929.6710534561621
 30
0.0
 11
4555.6533681708906
 21
2057.2639875284849
 31
0.0
  0
LINE
  5
7548
  8
0
 62
     0
 10
4428.0604340985683
 20
1997.0229743641801
 30
0.0
 11
4555.6533681708906
 21
2124.615908436504
 31
0.0
  0
LINE
  5
7549
  8
0
 62
     0
 10
4428.0604340985683
 20
2064.374895272199
 30
0.0
 11
4555.6533681708906
 21
2191.9678293445231
 31
0.0
  0
LINE
  5
754A
  8
0
 62
     0
 10
4428.0604340985683
 20
2131.7268161802181
 30
0.0
 11
4555.6533681708906
 21
2259.3197502525409
 31
0.0
  0
LINE
  5
754B
  8
0
 62
     0
 10
4428.0604340985683
 20
2199.0787370882358
 30
0.0
 11
4555.6533681708906
 21
2326.67167116056
 31
0.0
  0
LINE
  5
754C
  8
0
 62
     0
 10
4428.0604340985683
 20
2266.4306579962549
 30
0.0
 11
4555.6533681708906
 21
2394.0235920685782
 31
0.0
  0
LINE
  5
754D
  8
0
 62
     0
 10
4428.0604340985683
 20
2333.782578904274
 30
0.0
 11
4555.6533681708906
 21
2461.3755129765968
 31
0.0
  0
LINE
  5
754E
  8
0
 62
     0
 10
4428.0604340985683
 20
2401.1344998122918
 30
0.0
 11
4555.6533681708906
 21
2528.7274338846159
 31
0.0
  0
LINE
  5
754F
  8
0
 62
     0
 10
4428.0604340985683
 20
2468.4864207203109
 30
0.0
 11
4555.6533681708906
 21
2596.0793547926341
 31
0.0
  0
LINE
  5
7550
  8
0
 62
     0
 10
4428.0604340985683
 20
2535.83834162833
 30
0.0
 11
4538.6851513356723
 21
2646.4630588654331
 31
0.0
  0
LINE
  5
7551
  8
0
 62
     0
 10
4428.0604340985683
 20
2603.1902625363482
 30
0.0
 11
4485.1041699515999
 21
2660.2339983893821
 31
0.0
  0
LINE
  5
7552
  8
0
 62
     0
 10
4428.0604340985683
 20
2670.5421834443669
 30
0.0
 11
4431.5231885675303
 21
2674.0049379133302
 31
0.0
  0
ENDBLK
  5
7554
  8
0
  0
BLOCK
  8
0
  2
*U74
 70
     1
 10
0.0
 20
0.0
 30
0.0
  3
*U74
  1

  0
TEXT
  5
7556
  8
KERA4
 10
4557.0826105047272
 20
1987.197815655426
 30
0.0
 40
50.0
  1
80
  0
ENDBLK
  5
7558
  8
0
  0
BLOCK
  8
0
  2
*U75
 70
     1
 10
0.0
 20
0.0
 30
0.0
  3
*U75
  1

  0
TEXT
  5
755A
  8
KERA4
 10
4637.1032580227384
 20
1886.484230233759
 30
0.0
 40
50.0
  1
80
  0
ENDBLK
  5
755C
  8
0
  0
BLOCK
  8
0
  2
*U76
 70
     1
 10
0.0
 20
0.0
 30
0.0
  3
*U76
  1

  0
SOLID
  5
755E
  8
KERA4
  6
CONTINUOUS
 10
2958.0119055451378
 20
1008.462133673899
 30
0.0
 11
2951.5650677570511
 21
1005.791766027654
 31
0.0
 12
2964.4587433332249
 22
1005.791766027654
 32
0.0
 13
2964.4587433332249
 23
1005.791766027654
 33
0.0
210
0.0
220
0.0
230
1.0
  0
SOLID
  5
755F
  8
KERA4
  6
CONTINUOUS
 10
2951.5650677570511
 20
1005.791766027654
 30
0.0
 11
2948.8947001108058
 21
999.34492823956725
 31
0.0
 12
2967.1291109794702
 22
999.34492823956725
 32
0.0
 13
2967.1291109794702
 23
999.34492823956725
 33
0.0
210
0.0
220
0.0
230
1.0
  0
SOLID
  5
7560
  8
KERA4
  6
CONTINUOUS
 10
-2951.5650677570511
 20
1005.791766027654
 30
0.0
 11
-2964.4587433332249
 21
1005.791766027654
 31
0.0
 12
-2967.1291109794702
 22
999.34492823956725
 32
0.0
 13
-2967.1291109794702
 23
999.34492823956725
 33
0.0
210
0.0
220
0.0
230
-1.0
  0
SOLID
  5
7561
  8
KERA4
  6
CONTINUOUS
 10
-2951.5650677570511
 20
992.89809045148013
 30
0.0
 11
-2964.4587433332249
 21
992.89809045148013
 31
0.0
 12
-2958.0119055451378
 22
990.22772280523532
 32
0.0
 13
-2958.0119055451378
 23
990.22772280523532
 33
0.0
210
0.0
220
0.0
230
-1.0
  0
SOLID
  5
7562
  8
KERA4
  6
CONTINUOUS
 10
2948.8947001108058
 20
999.34492823956725
 30
0.0
 11
2951.5650677570511
 21
992.89809045148013
 31
0.0
 12
2964.4587433332249
 22
992.89809045148013
 32
0.0
 13
2964.4587433332249
 23
992.89809045148013
 33
0.0
210
0.0
220
0.0
230
1.0
  0
SOLID
  5
7563
  8
KERA4
  6
CONTINUOUS
 10
-2948.8947001108058
 20
999.34492823956725
 30
0.0
 11
-2967.1291109794702
 21
999.34492823956725
 31
0.0
 12
-2964.4587433332249
 22
992.89809045148013
 32
0.0
 13
-2964.4587433332249
 23
992.89809045148013
 33
0.0
210
0.0
220
0.0
230
-1.0
  0
LINE
  5
7564
  8
KERA4
  6
CONTINUOUS
 10
2958.0119055451378
 20
1008.462133673899
 30
0.0
 11
2951.5650677570511
 21
1005.791766027654
 31
0.0
  0
LINE
  5
7565
  8
KERA4
  6
CONTINUOUS
 10
2964.4587433332249
 20
1005.791766027654
 30
0.0
 11
2958.0119055451378
 21
1008.462133673899
 31
0.0
  0
LINE
  5
7566
  8
KERA4
  6
CONTINUOUS
 10
2951.5650677570511
 20
1005.791766027654
 30
0.0
 11
2948.8947001108058
 21
999.34492823956725
 31
0.0
  0
LINE
  5
7567
  8
KERA4
  6
CONTINUOUS
 10
2964.4587433332249
 20
1005.791766027654
 30
0.0
 11
2967.1291109794702
 21
999.34492823956725
 31
0.0
  0
LINE
  5
7568
  8
KERA4
  6
CONTINUOUS
 10
2964.4587433332249
 20
992.89809045148013
 30
0.0
 11
2958.0119055451378
 21
990.22772280523532
 31
0.0
  0
LINE
  5
7569
  8
KERA4
  6
CONTINUOUS
 10
2958.0119055451378
 20
990.22772280523532
 30
0.0
 11
2951.5650677570511
 21
992.89809045148013
 31
0.0
  0
LINE
  5
756A
  8
KERA4
  6
CONTINUOUS
 10
2948.8947001108058
 20
999.34492823956725
 30
0.0
 11
2951.5650677570511
 21
992.89809045148013
 31
0.0
  0
LINE
  5
756B
  8
KERA4
  6
CONTINUOUS
 10
2967.1291109794702
 20
999.34492823956725
 30
0.0
 11
2964.4587433332249
 21
992.89809045148013
 31
0.0
  0
ENDBLK
  5
756D
  8
0
  0
BLOCK
  8
0
  2
*U77
 70
     1
 10
0.0
 20
0.0
 30
0.0
  3
*U77
  1

  0
TEXT
  5
756F
  8
KERA4
 10
2897.6094498834741
 20
1034.8753347904931
 30
0.0
 40
50.0
  1
120
  0
ENDBLK
  5
7571
  8
0
  0
BLOCK
  8
0
  2
*U78
 70
     1
 10
0.0
 20
0.0
 30
0.0
  3
*U78
  1

  0
TEXT
  5
7573
  8
KERA4
 10
2919.4281664346099
 20
940.02301555447582
 30
0.0
 40
50.0
  1
70
  0
ENDBLK
  5
7575
  8
0
  0
BLOCK
  8
0
  2
*U79
 70
     1
 10
0.0
 20
0.0
 30
0.0
  3
*U79
  1

  0
TEXT
  5
7577
  8
KERA4
 10
4016.5042223834639
 20
1888.046358630633
 30
0.0
 40
50.0
  1
650
  0
ENDBLK
  5
7579
  8
0
  0
BLOCK
  8
0
  2
*U80
 70
     1
 10
0.0
 20
0.0
 30
0.0
  3
*U80
  1

  0
TEXT
  5
757B
  8
KERA4
 10
4116.4019031474481
 20
1988.0448586306329
 30
0.0
 40
50.0
  1
850
  0
ENDBLK
  5
757D
  8
0
  0
BLOCK
  8
0
  2
*U81
 70
     1
 10
0.0
 20
0.0
 30
0.0
  3
*U81
  1

  0
TEXT
  5
757F
  8
KERA4
 10
3915.1386042312902
 20
1775.7747964727589
 30
0.0
 40
50.0
  1
540
  0
ENDBLK
  5
7581
  8
0
  0
BLOCK
  8
0
  2
*U82
 70
     1
 10
0.0
 20
0.0
 30
0.0
  3
*U82
  1

  0
TEXT
  5
7583
  8
KERA4
 10
2902.0577117185089
 20
2337.5343586306321
 30
0.0
 40
50.0
  1
150
  0
ENDBLK
  5
7585
  8
0
  0
BLOCK
  8
0
  2
*U83
 70
     1
 10
0.0
 20
0.0
 30
0.0
  3
*U83
  1

  0
TEXT
  5
7587
  8
KERA4
 10
3390.6169601433662
 20
424.6353014738728
 30
0.0
 40
50.0
  1
340
  0
ENDBLK
  5
7589
  8
0
  0
BLOCK
  8
0
  2
*U84
 70
     1
 10
0.0
 20
0.0
 30
0.0
  3
*U84
  1

  0
TEXT
  5
758B
  8
KERA4
 10
2667.1787680835041
 20
806.47941119134941
 30
0.0
 40
50.0
  1
577
  0
ENDBLK
  5
758D
  8
0
  0
BLOCK
  8
0
  2
*U85
 70
     1
 10
0.0
 20
0.0
 30
0.0
  3
*U85
  1

  0
TEXT
  5
758F
  8
KERA4
 10
4596.5977348511706
 20
1783.5497726305409
 30
0.0
 40
50.0
  1
200
  0
ENDBLK
  5
7591
  8
0
  0
BLOCK
  8
0
  2
*U86
 70
     1
 10
0.0
 20
0.0
 30
0.0
  3
*U86
  1

  0
TEXT
  5
7593
  8
KERA4
 10
2783.6954501790028
 20
907.49646439735216
 30
0.0
 40
50.0
  1
375
  0
ENDBLK
  5
7595
  8
0
  0
BLOCK
  8
0
  2
*U87
 70
     1
 10
0.0
 20
0.0
 30
0.0
  3
*U87
  1

  0
TEXT
  5
7597
  8
KERA4
 10
3390.4293748773371
 20
330.41770255993788
 30
0.0
 40
50.0
  1
760
  0
ENDBLK
  5
7599
  8
0
  0
BLOCK
  8
0
  2
*U88
 70
     1
 10
0.0
 20
0.0
 30
0.0
  3
*U88
  1

  0
TEXT
  5
759B
  8
KERA4
 10
3704.0362286642981
 20
1028.3206168767849
 30
0.0
 40
50.0
  1
540
  0
ENDBLK
  5
759D
  8
0
  0
BLOCK
  8
0
  2
*U89
 70
     1
 10
0.0
 20
0.0
 30
0.0
  3
*U89
  1

  0
TEXT
  5
759F
  8
KERA4
 10
3513.9457322237231
 20
1138.972996911777
 30
0.0
 40
50.0
  1
85
  0
ENDBLK
  5
75A1
  8
0
  0
ENDSEC
  0
SECTION
  2
ENTITIES
  0
DIMENSION
  5
5A8E
  8
KERA4
  6
CONTINUOUS
  2
*D1
 10
4231.570877703567
 20
736.2286474304974
 30
0.0
 11
4231.570877703567
 21
838.7286474304982
 31
0.0
 70
     0
 13
4528.3910366860946
 23
941.22864743049729
 33
0.0
 14
4783.008681955801
 24
736.2286474304974
 34
0.0
 50
90.0
  0
DIMENSION
  5
5AB4
  8
KERA4
  6
CONTINUOUS
  2
*D2
 10
4866.0028724773156
 20
619.42260300272665
 30
0.0
 11
4652.0083295032373
 21
619.42260300272665
 31
0.0
 70
   128
  1
%%c<>
 13
4820.0028724773174
 23
736.2286474304974
 33
0.0
 14
4866.0028724773156
 24
736.2286474304974
 34
0.0
  0
LINE
  5
5E51
  8
KERA2
 10
4843.0028724773156
 20
501.42733410765089
 30
0.0
 11
4843.0028724773174
 21
785.64095845679913
 31
0.0
  0
LINE
  5
5FB2
  8
KERA0
  6
CONTINUOUS
 10
4866.0028724773156
 20
736.2286474304974
 30
0.0
 11
4866.0028724773156
 21
769.2286474304974
 31
0.0
  0
ARC
  5
5FB4
  8
KERA0
  6
CONTINUOUS
 10
4880.5283512654269
 20
811.20893068616544
 30
0.0
 40
30.0
 50
270.0
 51
354.21325966598749
  0
LINE
  5
5FC7
  8
KERA0
  6
CONTINUOUS
 10
4880.5283512654269
 20
781.20893068616544
 30
0.0
 11
4880.2813524500916
 21
781.20971470942527
 31
0.0
  0
LINE
  5
5FFD
  8
KERA0
  6
CONTINUOUS
 10
4985.5028724773156
 20
929.33261167727744
 30
0.0
 11
4985.5028724773156
 21
941.22864743049729
 31
0.0
  0
LINE
  5
5FFE
  8
KERA2
 10
5003.0028724773174
 20
918.09280139849443
 30
0.0
 11
5003.0028724773174
 21
948.0318527586378
 31
0.0
  0
LINE
  5
65D9
  8
KERA4
  6
CONTINUOUS
 10
5123.0028724773156
 20
1004.156488679797
 30
0.0
 11
5123.0028724773156
 21
1080.9544777893691
 31
0.0
  0
DIMENSION
  5
661C
  8
KERA4
  6
CONTINUOUS
  2
*D3
 10
5123.0028724773156
 20
1222.8920859249729
 30
0.0
 11
4833.1969545817074
 21
1222.8920859249729
 31
0.0
 70
     0
  1
577
 13
4543.3910366860946
 23
936.2286474304974
 33
0.0
 14
5123.0028724773156
 24
971.22864743049774
 34
0.0
1001
ACAD_DSTYLE_DIMINSPECT
1070
   396
1000
100%
1070
   395
1000

1070
   394
1070
    33
1070
   393
1070
     0
  0
LINE
  5
661D
  8
KERA0
  6
CONTINUOUS
 10
5020.5028724773174
 20
929.33261167727744
 30
0.0
 11
5020.5028724773156
 21
941.22864743049729
 31
0.0
  0
LINE
  5
661E
  8
KERA0
  6
CONTINUOUS
 10
5123.0028724773147
 20
929.33261167727733
 30
0.0
 11
5123.0028724773147
 21
941.22864743049718
 31
0.0
  0
LINE
  5
6622
  8
KERA0
  6
CONTINUOUS
 10
5123.0028724773147
 20
929.33261167727733
 30
0.0
 11
4954.7395165992657
 21
929.33261167727755
 31
0.0
  0
LINE
  5
6623
  8
KERA0
  6
CONTINUOUS
 10
5123.0028724773147
 20
941.22864743049718
 30
0.0
 11
4949.0565883402769
 21
941.22864743049752
 31
0.0
1001
GENIUS_GENFIL_13
1070
     0
1040
0.0
1040
0.0
1040
0.0
1040
0.0
1002
{
1002
}
1001
GENIUS_GENOBJ-N-CHA_13
1002
{
1000
OWNER
1000
GEN
1002
}
1001
GENIUS_GENODEF_13
1002
{
1000
HIER
1070
     0
1002
}
1002
{
1000
MANEDIT
1070
     0
1002
}
1002
{
1000
NOSEL
1070
     0
1002
}
1002
{
1000
BEHIND
1070
     0
1002
}
1002
{
1000
OTHER
1070
     0
1002
}
1002
{
1000
REACTOR
1002
}
  0
LINE
  5
667A
  8
KERA0
  6
CONTINUOUS
 10
4890.497062998832
 20
736.22864743049763
 30
0.0
 11
4890.4970629988311
 21
770.4091171280586
 31
0.0
  0
ARC
  5
66CD
  8
KERA0
  6
CONTINUOUS
 10
4880.5283512654269
 20
811.20893068616544
 30
0.0
 40
42.0
 50
283.73020430259572
 51
354.21325966598749
  0
LINE
  5
66D0
  8
KERA0
  6
CONTINUOUS
 10
4820.0028724773174
 20
769.2286474304974
 30
0.0
 11
4866.0028724773156
 21
769.2286474304974
 31
0.0
  0
LINE
  5
66D2
  8
KERA0
  6
CONTINUOUS
 10
4866.0028724773156
 20
769.2286474304974
 30
0.0
 11
4880.2813524500934
 21
781.20971470942527
 31
0.0
  0
DIMENSION
  5
6711
  8
KERA4
  6
CONTINUOUS
  2
*D4
 10
4343.5173290900684
 20
941.22864743049752
 30
0.0
 11
4343.5173290900684
 21
865.51173444174935
 31
0.0
 70
   128
 13
4741.0028724773156
 23
781.22864743049706
 33
0.0
 14
4528.3910366860946
 24
941.22864743049729
 34
0.0
 50
90.0
  0
DIMENSION
  5
6720
  8
KERA4
  6
CONTINUOUS
  2
*D5
 10
4890.497062998832
 20
534.93025896690824
 30
0.0
 11
4627.3095005096911
 21
534.93025896690824
 31
0.0
 70
   128
  1
%%c<>
 13
4795.5086819558019
 23
736.2286474304974
 33
0.0
 14
4890.497062998832
 24
736.22864743050002
 34
0.0
  0
LINE
  5
676C
  8
KERA4
  6
CONTINUOUS
 10
4528.3910366860946
 20
941.22864743049729
 30
0.0
 11
4431.2626162038696
 21
941.22864743049729
 31
0.0
  0
LINE
  5
676D
  8
KERA4
  6
CONTINUOUS
 10
4523.3910366860946
 20
901.38032512115001
 30
0.0
 11
4431.2626162038696
 21
901.38032512115001
 31
0.0
  0
LINE
  5
676E
  8
KERA4
  6
CONTINUOUS
 10
4446.2626162038696
 20
991.22864743049729
 30
0.0
 11
4446.2626162038696
 21
1041.2286474304969
 31
0.0
  0
LINE
  5
676F
  8
KERA4
  6
CONTINUOUS
 10
4446.2626162038696
 20
851.38032512115001
 30
0.0
 11
4446.2626162038696
 21
801.38032512115001
 31
0.0
  0
SOLID
  5
6770
  8
KERA4
  6
CONTINUOUS
 10
4437.9292828705366
 20
991.22864743049729
 30
0.0
 11
4454.5959495372026
 21
991.22864743049729
 31
0.0
 12
4446.2626162038696
 22
941.22864743049729
 32
0.0
 13
4446.2626162038696
 23
941.22864743049729
 33
0.0
  0
SOLID
  5
6771
  8
KERA4
  6
CONTINUOUS
 10
4437.9292828705366
 20
851.38032512115001
 30
0.0
 11
4454.5959495372026
 21
851.38032512115001
 31
0.0
 12
4446.2626162038696
 22
901.38032512115001
 32
0.0
 13
4446.2626162038696
 23
901.38032512115001
 33
0.0
  0
INSERT
  5
6772
  8
KERA4
  2
*U34
 10
0.0
 20
0.0
 30
0.0
  0
LINE
  5
69D4
  8
KERA1
 10
4590.6399674982231
 20
920.39199712315474
 30
0.0
 11
4930.6399474361051
 21
920.39199712315474
 31
0.0
  0
LINE
  5
69D6
  8
KERA0
  6
CONTINUOUS
 10
4947.524499454039
 20
940.5142226498707
 30
0.0
 11
4930.9815664442749
 21
920.79912280343888
 31
0.0
  0
LINE
  5
69D7
  8
KERA0
  6
CONTINUOUS
 10
4930.5454940977706
 20
919.86899288496215
 30
0.0
 11
4910.3754733391243
 21
808.18414905474344
 31
0.0
  0
LINE
  5
69D8
  8
KERA0
  6
CONTINUOUS
 10
4928.833970898293
 20
910.39199712315474
 30
0.0
 11
4941.3022283899036
 21
910.39199712315474
 31
0.0
  0
LINE
  5
69D9
  8
KERA0
  6
CONTINUOUS
 10
4926.6667990529204
 20
898.39199712315462
 30
0.0
 11
4938.8609219737127
 21
898.39199712315497
 31
0.0
  0
LINE
  5
69DA
  8
KERA0
  6
CONTINUOUS
 10
4941.7877414642144
 20
914.59829565042958
 30
0.0
 11
4922.2603458867898
 21
806.47177701307567
 31
0.0
  0
LINE
  5
69DB
  8
KERA0
  6
CONTINUOUS
 10
4953.2074277130278
 20
928.61818689665063
 30
0.0
 11
4942.2238138107186
 21
915.52842556890641
 31
0.0
  0
ARC
  5
69DD
  8
KERA0
  6
CONTINUOUS
 10
4949.0565883402769
 20
939.22864743049763
 30
0.0
 40
2.0
 50
89.999999999999801
 51
139.99999999999929
  0
ARC
  5
69DE
  8
KERA0
  6
CONTINUOUS
 10
4932.5136553305128
 20
919.51354758406592
 30
0.0
 40
2.0
 50
139.9999999999992
 51
169.7628613541722
  0
ARC
  5
69DF
  8
KERA0
  6
CONTINUOUS
 10
4954.7395165992657
 20
927.33261167727767
 30
0.0
 40
2.0
 50
89.999999999999844
 51
139.99999999999929
  0
ARC
  5
69E0
  8
KERA0
  6
CONTINUOUS
 10
4943.7559026969557
 20
914.24285034953334
 30
0.0
 40
2.0
 50
139.99999999999889
 51
169.7628613541722
  0
LINE
  5
69E6
  8
KERA0
  6
CONTINUOUS
 10
4964.7722625700508
 20
929.33261167727744
 30
0.0
 11
4942.0473234698129
 21
803.50074938861303
 31
0.0
  0
ARC
  5
69E7
  8
KERA0
  6
CONTINUOUS
 10
4880.5283512654269
 20
811.20893068616544
 30
0.0
 40
62.0
 50
279.25250242815321
 51
352.85819378648262
  0
LINE
  5
69EE
  8
KERA0
 10
4866.0028724773156
 20
764.7286474304974
 30
0.0
 11
4890.4970629988311
 21
764.72864743049809
 31
0.0
  0
LINE
  5
69EF
  8
KERA0
 10
4866.0028724773156
 20
752.7286474304974
 30
0.0
 11
4890.4970629988311
 21
752.72864743049809
 31
0.0
  0
LINE
  5
69F0
  8
KERA0
 10
4805.7018293661858
 20
781.2286474304974
 30
0.0
 11
4880.5283512654269
 21
781.20893068616544
 31
0.0
  0
LINE
  5
69F2
  8
KERA0
 10
4573.1559419103596
 20
941.22864743049718
 30
0.0
 11
4949.0565883402769
 21
941.22864743049752
 31
0.0
  0
LINE
  5
6A03
  8
KERA4
 10
5125.8463529765913
 20
941.22864743049718
 30
0.0
 11
5281.232871278753
 21
941.22864743049718
 31
0.0
  0
LINE
  5
6A04
  8
KERA4
 10
5143.0028724773156
 20
971.2286474304974
 30
0.0
 11
5281.232871278753
 21
971.2286474304974
 31
0.0
  0
LINE
  5
6A05
  8
KERA4
 10
5266.232871278753
 20
891.22864743049718
 30
0.0
 11
5266.232871278753
 21
841.22864743049718
 31
0.0
  0
LINE
  5
6A06
  8
KERA4
 10
5266.232871278753
 20
1021.2286474304969
 30
0.0
 11
5266.232871278753
 21
1071.2286474304969
 31
0.0
  0
SOLID
  5
6A07
  8
KERA4
 10
5257.8995379454191
 20
891.22864743049718
 30
0.0
 11
5274.566204612086
 21
891.22864743049718
 31
0.0
 12
5266.232871278753
 22
941.22864743049718
 32
0.0
 13
5266.232871278753
 23
941.22864743049718
 33
0.0
  0
SOLID
  5
6A08
  8
KERA4
 10
5257.8995379454191
 20
1021.2286474304969
 30
0.0
 11
5274.566204612086
 21
1021.2286474304969
 31
0.0
 12
5266.232871278753
 22
971.2286474304974
 32
0.0
 13
5266.232871278753
 23
971.2286474304974
 33
0.0
  0
INSERT
  5
6A09
  8
KERA4
  2
*U35
 10
0.0
 20
0.0
 30
0.0
  0
INSERT
  5
6A21
  8
KERA5
  2
B1
 10
0.0
 20
0.0
 30
0.0
1001
ACAD
1000
ASC_BOUNDS
1002
{
1070
    19
1005
6ACB
1002
}
  0
INSERT
  5
6ACB
  8
KERA5
  6
CONTINUOUS
  2
*X36
 10
0.0
 20
0.0
 30
0.0
1001
ACAD
1000
HATCH
1002
{
1070
    19
1000
ANSI31
1040
60.0
1040
0.0
1000
ASC_BOUNDS
1070
    20
1070
     2
1070
     0
1070
     2
1070
     0
1070
     2
1070
     0
1070
     2
1070
     0
1070
     2
1070
     0
1070
     2
1070
     0
1070
     2
1070
     0
1070
     2
1070
     0
1070
     2
1070
     0
1070
     2
1070
     0
1070
     2
1070
     0
1070
     2
1070
     0
1070
     2
1070
     0
1070
     2
1070
     0
1070
     2
1070
     0
1070
     2
1070
     0
1070
     2
1070
     0
1070
     2
1070
     0
1070
     2
1070
     0
1070
     2
1070
     1
1005
6A21
1000
ASC_SEEDPOINT
1011
0.0
1021
0.0
1031
0.0
1021
0.0
1031
0.0
1000
R14_HATCH_DATA
1000
6ACB
1011
1.0
1021
0.0
1031
0.0
1021
0.0
1031
0.0
1011
0.0
1021
0.0
1031
0.0
1021
1.0
1031
0.0
1011
0.0
1021
0.0
1031
0.0
1021
0.0
1031
1.0
1040
0.0
1010
0.0
1020
0.0
1030
1.0
1000
ANSI31
1070
     0
1070
     1
1071
       20
1071
       33
1071
        1
1070
     1
1040
4556.4698231545626
1040
901.38032512115024
1040
4556.6823558398637
1040
927.06924393425174
1071
        1
1005
6A21
1071
       33
1071
        1
1070
     1
1040
4543.3910366860946
1040
901.38032512115001
1040
4543.3910366860946
1040
936.2286474304974
1071
        0
1071
       33
1071
        1
1070
     1
1040
4543.3910366860946
1040
901.38032512115001
1040
4556.4698231545626
1040
901.38032512115024
1071
        0
1071
       33
1071
        1
1070
     2
1040
4566.7752739180487
1040
927.05269785743803
1040
2.0
1040
0.6981317007977754
1040
1.5707963267948959
1070
     1
1071
        0
1071
       33
1071
        1
1070
     1
1040
4548.3910366860946
1040
941.22864743049729
1040
4573.1559419103596
1040
941.22864743049718
1071
        0
1071
       33
1071
        1
1070
     2
1040
4548.3910366860946
1040
936.2286474304974
1040
5.0
1040
1.5707963267948959
1040
3.1415926535897931
1070
     1
1071
        0
1071
       33
1071
        1
1070
     1
1040
4558.6822873955289
1040
929.05269785743803
1040
4566.7752739180487
1040
929.05269785743803
1071
        0
1071
       33
1071
        1
1070
     2
1040
4558.6822873955289
1040
927.05269785743803
1040
2.0
1040
1.5707963267948799
1040
3.1333195208078548
1070
     1
1071
        0
1071
       33
1071
        1
1070
     1
1040
4573.1559419103596
1040
941.22864743049718
1040
4590.6399674982231
1040
920.39199712315474
1071
        0
1071
       33
1071
        1
1070
     1
1040
4568.3073628042866
1040
928.33827307681122
1040
4578.9895131648746
1040
915.60778200795244
1071
        0
1071
       33
1071
        1
1070
     2
1040
4577.4574242786357
1040
914.32220678857936
1040
2.0
1040
0.1757827077531298
1040
0.6981317007976901
1070
     1
1071
        0
1071
       33
1071
        1
1070
     2
1040
4753.549941003821
1040
945.59903854893105
1040
176.84858023360621
1040
3.3173753613429229
1040
4.6362026117213224
1070
     1
1071
        0
1071
       33
1071
        1
1070
     2
1040
4753.549941003821
1040
945.59903854893105
1040
164.84858023360621
1040
3.295105164950098
1040
4.6362026117213224
1070
     1
1071
        0
1071
       33
1071
        1
1070
     1
1040
4805.7018293661858
1040
781.2286474304974
1040
4741.0028724773156
1040
781.2286474304974
1071
        0
1071
       33
1071
        1
1070
     1
1040
4792.508681955801
1040
769.2286474304974
1040
4739.9767732810842
1040
769.27259789733228
1071
        0
1071
       33
1071
        1
1070
     1
1040
4820.0028724773174
1040
736.22864743049763
1040
4820.0028724773174
1040
769.2286474304974
1071
        0
1071
       33
1071
        1
1070
     1
1040
4795.5086819558019
1040
736.2286474304974
1040
4795.508681955801
1040
766.22864743049752
1071
        0
1071
       33
1071
        1
1070
     2
1040
4792.508681955801
1040
766.22864743049729
1040
3.0
1040
0.000000000000024
1040
1.5707963267948959
1070
     1
1071
        0
1071
       33
1071
        1
1070
     1
1040
4820.0028724773174
1040
769.2286474304974
1040
4805.7018293661858
1040
781.2286474304974
1071
        0
1071
       33
1071
        1
1070
     1
1040
4795.5086819558019
1040
736.2286474304974
1040
4820.0028724773174
1040
736.22864743049763
1071
        0
1070
     0
1070
     1
1040
0.0
1040
60.0
1070
     0
1070
     1
1040
0.7853981633974483
1040
0.0
1040
0.0
1040
-5.3033008588991049
1040
5.3033008588991057
1070
     0
1071
        1
1040
0.0
1040
0.0
1040
0.0
1002
}
  0
LINE
  5
6ACC
  8
KERA0
 10
4556.4698231545626
 20
901.38032512115024
 30
0.0
 11
4582.318735572585
 21
901.38032512115001
 31
0.0
  0
LINE
  5
6ACD
  8
KERA0
 10
4866.0028724773156
 20
736.2286474304974
 30
0.0
 11
4890.497062998832
 21
736.22864743049763
 31
0.0
  0
INSERT
  5
6AD0
  8
KERA5
  6
CONTINUOUS
  2
*X37
 10
0.0
 20
0.0
 30
0.0
1001
ACAD
1000
HATCH
1002
{
1070
    19
1000
ANSI31
1040
60.0
1040
0.0
1000
R14_HATCH_DATA
1000
6AD0
1011
1.0
1021
0.0
1031
0.0
1021
0.0
1031
0.0
1011
0.0
1021
0.0
1031
0.0
1021
1.0
1031
0.0
1011
0.0
1021
0.0
1031
0.0
1021
0.0
1031
1.0
1040
0.0
1010
0.0
1020
0.0
1030
1.0
1000
ANSI31
1070
     0
1070
     0
1071
        1
1071
        1
1071
        4
1070
     1
1040
4866.0028724773156
1040
752.7286474304974
1040
4890.4970629988311
1040
752.72864743049809
1070
     1
1040
4890.4970629988311
1040
752.72864743049809
1040
4890.4970629988311
1040
736.22864743049763
1070
     1
1040
4890.4970629988311
1040
736.22864743049763
1040
4866.0028724773156
1040
736.22864743049763
1070
     1
1040
4866.0028724773156
1040
736.22864743049763
1040
4866.0028724773156
1040
752.7286474304974
1071
        0
1070
     0
1070
     1
1040
0.0
1040
60.0
1070
     0
1070
     1
1040
0.7853981633974483
1040
0.0
1040
0.0
1040
-5.3033008588991049
1040
5.3033008588991057
1070
     0
1071
        1
1040
0.0
1040
0.0
1040
0.0
1002
}
  0
LINE
  5
6AD2
  8
KERA0
  6
CONTINUOUS
 10
4819.7703087828104
 20
736.22864743049763
 30
0.0
 11
4866.0028724773156
 21
736.2286474304974
 31
0.0
  0
INSERT
  5
6AE5
  8
KERA5
  6
CONTINUOUS
  2
*X38
 10
0.0
 20
0.0
 30
0.0
1001
ACAD
1000
HATCH
1002
{
1070
    19
1000
ANSI31
1040
60.0
1040
0.0
1000
R14_HATCH_DATA
1000
6AE5
1011
1.0
1021
0.0
1031
0.0
1021
0.0
1031
0.0
1011
0.0
1021
0.0
1031
0.0
1021
1.0
1031
0.0
1011
0.0
1021
0.0
1031
0.0
1021
0.0
1031
1.0
1040
0.0
1010
0.0
1020
0.0
1030
1.0
1000
ANSI31
1070
     0
1070
     0
1071
        1
1071
        1
1071
       15
1070
     1
1040
4880.2804959206687
1040
781.20899599590246
1040
4866.0028724773156
1040
769.2286474304974
1070
     1
1040
4866.0028724773156
1040
769.2286474304974
1040
4866.0028724773156
1040
764.7286474304974
1070
     1
1040
4866.0028724773156
1040
764.7286474304974
1040
4890.4970629988311
1040
764.72864743049809
1070
     1
1040
4890.4970629988311
1040
764.72864743049809
1040
4890.4970629988311
1040
770.40911712805848
1070
     1
1040
4890.4970629988311
1040
770.40911712805848
1040
4903.3355787179426
1040
775.94095121569933
1070
     1
1040
4903.3355787179426
1040
775.94095121569933
1040
4912.2125552255366
1040
783.63881607969154
1070
     1
1040
4912.2125552255366
1040
783.63881607969154
1040
4918.3840452489967
1040
793.01699750075989
1070
     1
1040
4918.3840452489967
1040
793.01699750075989
1040
4922.2603458867898
1040
806.47177701307476
1070
     1
1040
4922.2603458867898
1040
806.47177701307476
1040
4938.8609219737127
1040
898.39199712315497
1070
     1
1040
4938.8609219737127
1040
898.39199712315497
1040
4926.6667990529204
1040
898.39199712315462
1070
     1
1040
4926.6667990529204
1040
898.39199712315462
1040
4910.3754733391243
1040
808.18414905474344
1070
     1
1040
4910.3754733391243
1040
808.18414905474344
1040
4906.8137846598138
1040
796.74947041721907
1070
     1
1040
4906.8137846598138
1040
796.74947041721907
1040
4900.0567472302619
1040
788.43522323567367
1070
     1
1040
4900.0567472302619
1040
788.43522323567367
1040
4890.3966264859228
1040
782.87843220533171
1070
     1
1040
4890.3966264859228
1040
782.87843220533171
1040
4880.2804959206687
1040
781.20899599590246
1071
        0
1070
     0
1070
     1
1040
0.0
1040
60.0
1070
     0
1070
     1
1040
0.7853981633974483
1040
0.0
1040
0.0
1040
-5.3033008588991049
1040
5.3033008588991057
1070
     0
1071
        1
1040
0.0
1040
0.0
1040
0.0
1002
}
  0
INSERT
  5
6AE7
  8
KERA5
  6
CONTINUOUS
  2
*X39
 10
0.0
 20
0.0
 30
0.0
1001
ACAD
1000
HATCH
1002
{
1070
    19
1000
ANSI31
1040
60.0
1040
0.0
1000
R14_HATCH_DATA
1000
6AE7
1011
1.0
1021
0.0
1031
0.0
1021
0.0
1031
0.0
1011
0.0
1021
0.0
1031
0.0
1021
1.0
1031
0.0
1011
0.0
1021
0.0
1031
0.0
1021
0.0
1031
1.0
1040
0.0
1010
0.0
1020
0.0
1030
1.0
1000
ANSI31
1070
     0
1070
     0
1071
        1
1071
        1
1071
       10
1070
     1
1040
4928.8339708982958
1040
910.39199712315474
1040
4930.9815664442749
1040
920.79912280343888
1070
     1
1040
4930.9815664442749
1040
920.79912280343888
1040
4947.524499454039
1040
940.5142226498707
1070
     1
1040
4947.524499454039
1040
940.5142226498707
1040
4949.0565883402769
1040
941.22864743049752
1070
     1
1040
4949.0565883402769
1040
941.22864743049752
1040
4985.5028724773156
1040
941.22864743049729
1070
     1
1040
4985.5028724773156
1040
941.22864743049729
1040
4985.5028724773156
1040
929.33261167727744
1070
     1
1040
4985.5028724773156
1040
929.33261167727744
1040
4954.7395165992657
1040
929.33261167727755
1070
     1
1040
4954.7395165992657
1040
929.33261167727755
1040
4953.2074277130278
1040
928.61818689665063
1070
     1
1040
4953.2074277130278
1040
928.61818689665063
1040
4942.2238138107186
1040
915.52842556890641
1070
     1
1040
4942.2238138107186
1040
915.52842556890641
1040
4941.0280938190854
1040
910.39199712315474
1070
     1
1040
4941.0280938190854
1040
910.39199712315474
1040
4928.8339708982958
1040
910.39199712315474
1071
        0
1070
     0
1070
     1
1040
0.0
1040
60.0
1070
     0
1070
     1
1040
0.7853981633974483
1040
0.0
1040
0.0
1040
-5.3033008588991049
1040
5.3033008588991057
1070
     0
1071
        1
1040
0.0
1040
0.0
1040
0.0
1002
}
  0
DIMENSION
  5
6AEB
  8
KERA4
  2
*D7
 10
5123.0028724773147
 20
1149.093624203754
 30
0.0
 11
5028.8948948099169
 21
1149.093624203754
 31
0.0
 70
   128
  1
190
 13
4930.6399474361051
 23
920.39199712315474
 33
0.0
 14
5123.0028724773147
 24
991.22864743049752
 34
0.0
1001
ACAD_DSTYLE_DIMINSPECT
1070
   396
1000
100%
1070
   395
1000

1070
   394
1070
    33
1070
   393
1070
     0
  0
DIMENSION
  5
6D15
  8
KERA4
  2
*D10
 10
5123.0028724773147
 20
1054.71474646501
 30
0.0
 11
5063.0028724773174
 21
1054.71474646501
 31
0.0
 70
     0
 13
5003.0028724773174
 23
948.0318527586378
 33
0.0
 14
5123.0028724773147
 24
948.0318527586378
 34
0.0
1001
ACAD_DSTYLE_DIMINSPECT
1070
   396
1000
100%
1070
   395
1000

1070
   394
1070
    33
1070
   393
1070
     0
  0
INSERT
  5
6D87
  8
KERA5
  6
CONTINUOUS
  2
*X46
 10
0.0
 20
0.0
 30
0.0
1001
GENIUS_GENOBJ-N-HTC_13
1002
{
1000
OWNER
1000
GEN
1002
}
1001
GENIUS_GENODEF_13
1002
{
1000
HIER
1070
     0
1002
}
1002
{
1000
MANEDIT
1070
     0
1002
}
1002
{
1000
NOSEL
1070
     0
1002
}
1002
{
1000
BEHIND
1070
     0
1002
}
1002
{
1000
OTHER
1070
     0
1002
}
1002
{
1000
REACTOR
1002
}
1001
GENIUS_GENHATCH_13
1002
{
1000
DATA
1040
0.0
1042
2.5
1000
ANSI31
1070
     0
1011
5038.6432560596731
1021
0.0
1031
0.0
1021
934.51291470052092
1031
0.0
1002
}
1002
{
1000
UCS
1010
0.0
1020
0.0
1030
0.0
1010
1.0
1020
0.0
1030
0.0
1010
0.0
1020
1.0
1030
0.0
1002
}
1001
ACAD
1000
HATCH
1002
{
1070
    19
1000
ANSI31
1040
50.0
1040
0.0
1000
R14_HATCH_DATA
1000
6D87
1011
1.0
1021
0.0
1031
0.0
1021
0.0
1031
0.0
1011
0.0
1021
0.0
1031
0.0
1021
1.0
1031
0.0
1011
0.0
1021
0.0
1031
0.0
1021
0.0
1031
1.0
1040
0.0
1010
0.0
1020
0.0
1030
1.0
1000
ANSI31
1070
     0
1070
     0
1071
        1
1071
        1
1071
        4
1070
     1
1040
5122.1626110406496
1040
940.67192604814215
1040
5021.0764516820018
1040
940.67192604814215
1070
     1
1040
5021.0764516820018
1040
940.67192604814215
1040
5021.0764516820018
1040
930.20160782652295
1070
     1
1040
5021.0764516820018
1040
930.20160782652295
1040
5122.1626110406496
1040
930.20160782652295
1070
     1
1040
5122.1626110406496
1040
930.20160782652295
1040
5122.1626110406496
1040
940.67192604814215
1071
        0
1070
     0
1070
     1
1040
0.0
1040
50.0
1070
     0
1070
     1
1040
0.7853981633974483
1040
0.0
1040
0.0
1040
-4.4194173824159213
1040
4.4194173824159222
1070
     0
1071
        1
1040
0.0
1040
0.0
1040
0.0
1002
}
  0
LINE
  5
70A2
  8
KERA6
 10
3454.908456582657
 20
1587.8900284805641
 30
-84.366799999999998
 11
3454.908456582657
 21
1587.8900284805641
 31
88.290899999999979
  0
LINE
  5
70A3
  8
KERA0
 10
3825.3118162121491
 20
2437.6170284805639
 30
0.0
 11
3068.6221169531641
 21
2437.6170284805639
 31
0.0
  0
LINE
  5
70A4
  8
KERA0
 10
3068.6221169531641
 20
2437.6170284805639
 30
0.0
 11
3068.6221169531641
 21
2397.6170284805639
 31
0.0
  0
ARC
  5
70A5
  8
KERA0
 10
3417.5898265826572
 20
2431.4780284805638
 30
0.0
 40
156.87899999999999
 50
192.46490142666121
 51
263.36629376877318
  0
LINE
  5
70A6
  8
KERA0
 10
3448.6831265826572
 20
1119.5530810412811
 30
0.0
 11
3068.6221169531641
 21
739.49207141178738
 31
0.0
  0
ARC
  5
70A7
  8
KERA0
 10
-3476.3441265826568
 20
2431.4780284805638
 30
0.0
 40
156.87899999999999
210
0.0
220
0.0
230
-1.0
 50
192.46490142666121
 51
263.36633053723642
  0
LINE
  5
70A8
  8
KERA0
 10
3494.4669265826569
 20
2275.6278004342639
 30
0.0
 11
3399.4669265826578
 21
2275.6278004342639
 31
0.0
  0
LINE
  5
70A9
  8
KERA0
 10
3494.4669265826569
 20
2237.6200284805641
 30
0.0
 11
3399.4669265826578
 21
2237.6200284805641
 31
0.0
  0
LINE
  5
70AA
  8
KERA2
 10
3503.5361265826568
 20
839.55308104128062
 30
0.0
 11
3391.4101265826571
 21
839.55308104128062
 31
0.0
  0
LINE
  5
70AB
  8
KERA2
 10
3585.4904115725039
 20
2177.6200284805641
 30
0.0
 11
3537.524411572505
 21
2177.6200284805641
 31
0.0
  0
CIRCLE
  5
70AC
  8
KERA0
 10
3448.6831265826572
 20
839.55308104128062
 30
0.0
 40
35.0
  0
LINE
  5
70AD
  8
KERA2
 10
3448.6831265826572
 20
896.75708104128068
 30
0.0
 11
3448.6831265826572
 21
785.43708104128018
 31
0.0
  0
LINE
  5
70AE
  8
KERA6
 10
3580.9601265826568
 20
1681.250028480564
 30
0.0
 11
3571.9671265826569
 21
1681.250028480564
 31
0.0
  0
LINE
  5
70AF
  8
KERA6
 10
3580.9601265826568
 20
1671.2100284805631
 30
0.0
 11
3571.9671265826569
 21
1671.2100284805631
 31
0.0
  0
TEXT
  5
70B0
  8
KERA6
 10
3590.673126582657
 20
1661.950028480564
 30
0.0
 40
35.0
  1
0 = OKFFB
 41
0.6642000000000007
  7
ROMANS
 72
     5
 11
3795.4681265826571
 21
1661.950028480564
 31
0.0
  0
LINE
  5
70B1
  8
KERA6
 10
3522.7779265826571
 20
1655.490028480564
 30
0.0
 11
3799.4331265826572
 21
1655.490028480564
 31
0.0
  0
LINE
  5
70B2
  8
KERA6
 10
3495.040726582657
 20
1627.750028480564
 30
0.0
 11
3522.7779265826571
 21
1655.490028480564
 31
0.0
  0
LINE
  5
70B3
  8
KERA6
 10
3576.4641265826572
 20
1676.750028480564
 30
0.0
 11
3576.4641265826572
 21
1686.000028480564
 31
0.0
  0
LINE
  5
70B4
  8
KERA0
 10
3446.9669665826568
 20
2237.6200284805641
 30
0.0
 11
3446.9669665826568
 21
1694.7800284805639
 31
0.0
  0
LINE
  5
70B5
  8
KERA2
 10
3587.9111265826568
 20
2169.8000284805639
 30
0.0
 11
3587.9111265826568
 21
2083.7800284805639
 31
0.0
  0
LINE
  5
70B6
  8
KERA0
 10
3446.9669665826568
 20
2642.1020284805641
 30
0.0
 11
3446.9669665826568
 21
2437.6170284805639
 31
0.0
  0
LINE
  5
70B7
  8
KERA2
 10
3619.2141265826572
 20
2127.6200284805632
 30
0.0
 11
3553.0541265826569
 21
2127.6200284805632
 31
0.0
  0
LINE
  5
70B8
  8
KERA2
 10
3534.8006265826571
 20
2177.6200284805641
 30
0.0
 11
3483.526326582657
 21
2177.6200284805641
 31
0.0
  0
LINE
  5
70B9
  8
KERA2
 10
3506.4164265826571
 20
2204.6400284805641
 30
0.0
 11
3506.4164265826571
 21
2148.9100284805641
 31
0.0
  0
LINE
  5
70BA
  8
KERA2
 10
3561.8494115725048
 20
2202.6300284805639
 30
0.0
 11
3561.8494115725048
 21
2148.9100284805641
 31
0.0
  0
LINE
  5
70BB
  8
KERA2
 10
3416.8720265826569
 20
999.34492823956725
 30
0.0
 11
3480.6110265826569
 21
999.34492823956725
 31
0.0
  0
CIRCLE
  5
70BC
  8
KERA0
 10
3448.799926582657
 20
999.34492823956725
 30
0.0
 40
17.5
  0
LINE
  5
70BD
  8
KERA2
 10
3448.799926582657
 20
1034.7748282395669
 30
0.0
 11
3448.799926582657
 21
962.98202823956774
 31
0.0
  0
LINE
  5
70BE
  8
KERA0
 10
3448.6831265826572
 20
1119.5530810412811
 30
0.0
 11
3828.7441362121499
 21
739.49207141178795
 31
0.0
  0
LINE
  5
70BF
  8
KERA6
 10
3454.908456582657
 20
1604.8600284805641
 30
0.0
 11
3477.7940265826569
 21
1627.750028480564
 31
0.0
  0
LINE
  5
70C0
  8
KERA6
 10
3454.908456582657
 20
1605.1500284805629
 30
0.0
 11
3477.5111265826572
 21
1627.750028480564
 31
0.0
  0
LINE
  5
70C1
  8
KERA6
 10
3454.908456582657
 20
1605.4300284805629
 30
0.0
 11
3477.2283265826568
 21
1627.750028480564
 31
0.0
  0
LINE
  5
70C2
  8
KERA6
 10
3454.908456582657
 20
1605.710028480564
 30
0.0
 11
3476.945426582658
 21
1627.750028480564
 31
0.0
  0
LINE
  5
70C3
  8
KERA6
 10
3454.908456582657
 20
1606.000028480564
 30
0.0
 11
3476.6626265826571
 21
1627.750028480564
 31
0.0
  0
LINE
  5
70C4
  8
KERA6
 10
3454.908456582657
 20
1606.2800284805639
 30
0.0
 11
3476.379726582657
 21
1627.750028480564
 31
0.0
  0
LINE
  5
70C5
  8
KERA6
 10
3454.908456582657
 20
1606.5600284805639
 30
0.0
 11
3476.0969265826579
 21
1627.750028480564
 31
0.0
  0
LINE
  5
70C6
  8
KERA6
 10
3454.908456582657
 20
1606.8400284805639
 30
0.0
 11
3475.8141265826571
 21
1627.750028480564
 31
0.0
  0
LINE
  5
70C7
  8
KERA6
 10
3454.908456582657
 20
1607.1300284805641
 30
0.0
 11
3475.5312265826569
 21
1627.750028480564
 31
0.0
  0
LINE
  5
70C8
  8
KERA6
 10
3454.908456582657
 20
1607.4100284805641
 30
0.0
 11
3475.2484265826579
 21
1627.750028480564
 31
0.0
  0
LINE
  5
70C9
  8
KERA6
 10
3454.908456582657
 20
1607.690028480564
 30
0.0
 11
3474.9655265826568
 21
1627.750028480564
 31
0.0
  0
LINE
  5
70CA
  8
KERA6
 10
3454.908456582657
 20
1607.980028480564
 30
0.0
 11
3474.6827265826569
 21
1627.750028480564
 31
0.0
  0
LINE
  5
70CB
  8
KERA6
 10
3454.908456582657
 20
1608.260028480564
 30
0.0
 11
3474.3999265826569
 21
1627.750028480564
 31
0.0
  0
LINE
  5
70CC
  8
KERA6
 10
3454.908456582657
 20
1608.5400284805639
 30
0.0
 11
3474.1170265826572
 21
1627.750028480564
 31
0.0
  0
LINE
  5
70CD
  8
KERA6
 10
3454.908456582657
 20
1608.8200284805639
 30
0.0
 11
3473.8342265826568
 21
1627.750028480564
 31
0.0
  0
LINE
  5
70CE
  8
KERA6
 10
3454.908456582657
 20
1609.950028480564
 30
0.0
 11
3472.7028265826571
 21
1627.750028480564
 31
0.0
  0
LINE
  5
70CF
  8
KERA6
 10
3454.908456582657
 20
1610.240028480564
 30
0.0
 11
3472.4200265826571
 21
1627.750028480564
 31
0.0
  0
LINE
  5
70D0
  8
KERA6
 10
3454.908456582657
 20
1610.520028480564
 30
0.0
 11
3472.1371265826569
 21
1627.750028480564
 31
0.0
  0
LINE
  5
70D1
  8
KERA6
 10
3454.908456582657
 20
1610.8000284805639
 30
0.0
 11
3471.854326582657
 21
1627.750028480564
 31
0.0
  0
LINE
  5
70D2
  8
KERA6
 10
3454.908456582657
 20
1611.0900284805639
 30
0.0
 11
3471.5714265826568
 21
1627.750028480564
 31
0.0
  0
LINE
  5
70D3
  8
KERA6
 10
3454.908456582657
 20
1611.3700284805641
 30
0.0
 11
3471.2886265826569
 21
1627.750028480564
 31
0.0
  0
LINE
  5
70D4
  8
KERA6
 10
3454.908456582657
 20
1611.6500284805641
 30
0.0
 11
3471.0057265826572
 21
1627.750028480564
 31
0.0
  0
LINE
  5
70D5
  8
KERA6
 10
3454.908456582657
 20
1611.930028480564
 30
0.0
 11
3470.7229265826568
 21
1627.750028480564
 31
0.0
  0
LINE
  5
70D6
  8
KERA6
 10
3454.908456582657
 20
1612.220028480564
 30
0.0
 11
3470.4401265826568
 21
1627.750028480564
 31
0.0
  0
LINE
  5
70D7
  8
KERA6
 10
3454.908456582657
 20
1612.500028480564
 30
0.0
 11
3470.1572265826571
 21
1627.750028480564
 31
0.0
  0
LINE
  5
70D8
  8
KERA6
 10
3454.908456582657
 20
1612.7800284805639
 30
0.0
 11
3469.8744265826572
 21
1627.750028480564
 31
0.0
  0
LINE
  5
70D9
  8
KERA6
 10
3454.908456582657
 20
1613.0700284805639
 30
0.0
 11
3469.591526582657
 21
1627.750028480564
 31
0.0
  0
LINE
  5
70DA
  8
KERA6
 10
3454.908456582657
 20
1613.3500284805641
 30
0.0
 11
3469.3087265826571
 21
1627.750028480564
 31
0.0
  0
LINE
  5
70DB
  8
KERA6
 10
3454.908456582657
 20
1613.6300284805641
 30
0.0
 11
3469.0258265826569
 21
1627.750028480564
 31
0.0
  0
LINE
  5
70DC
  8
KERA6
 10
3454.908456582657
 20
1609.1100284805641
 30
0.0
 11
3473.5513265826571
 21
1627.750028480564
 31
0.0
  0
LINE
  5
70DD
  8
KERA6
 10
3454.908456582657
 20
1609.3900284805641
 30
0.0
 11
3473.2685265826572
 21
1627.750028480564
 31
0.0
  0
LINE
  5
70DE
  8
KERA6
 10
3454.908456582657
 20
1609.670028480564
 30
0.0
 11
3472.985626582657
 21
1627.750028480564
 31
0.0
  0
LINE
  5
70DF
  8
KERA6
 10
3454.908456582657
 20
1613.9100284805641
 30
0.0
 11
3468.743026582657
 21
1627.750028480564
 31
0.0
  0
LINE
  5
70E0
  8
KERA6
 10
3454.908456582657
 20
1614.200028480564
 30
0.0
 11
3468.460226582657
 21
1627.750028480564
 31
0.0
  0
LINE
  5
70E1
  8
KERA6
 10
3454.908456582657
 20
1614.480028480564
 30
0.0
 11
3468.1773265826569
 21
1627.750028480564
 31
0.0
  0
LINE
  5
70E2
  8
KERA6
 10
3454.908456582657
 20
1614.760028480564
 30
0.0
 11
3467.8945265826569
 21
1627.750028480564
 31
0.0
  0
LINE
  5
70E3
  8
KERA6
 10
3454.908456582657
 20
1615.050028480563
 30
0.0
 11
3467.6116265826572
 21
1627.750028480564
 31
0.0
  0
LINE
  5
70E4
  8
KERA6
 10
3454.908456582657
 20
1615.3300284805639
 30
0.0
 11
3467.3288265826568
 21
1627.750028480564
 31
0.0
  0
LINE
  5
70E5
  8
KERA6
 10
3454.908456582657
 20
1615.6100284805641
 30
0.0
 11
3467.0459265826562
 21
1627.750028480564
 31
0.0
  0
LINE
  5
70E6
  8
KERA6
 10
3454.908456582657
 20
1615.8900284805641
 30
0.0
 11
3466.7631265826572
 21
1627.750028480564
 31
0.0
  0
LINE
  5
70E7
  8
KERA6
 10
3454.908456582657
 20
1616.180028480564
 30
0.0
 11
3466.4803265826572
 21
1627.750028480564
 31
0.0
  0
LINE
  5
70E8
  8
KERA6
 10
3454.908456582657
 20
1616.4600284805631
 30
0.0
 11
3466.1974265826561
 21
1627.750028480564
 31
0.0
  0
LINE
  5
70E9
  8
KERA6
 10
3454.908456582657
 20
1616.740028480564
 30
0.0
 11
3465.9146265826571
 21
1627.750028480564
 31
0.0
  0
LINE
  5
70EA
  8
KERA6
 10
3454.908456582657
 20
1617.0300284805639
 30
0.0
 11
3465.6317265826569
 21
1627.750028480564
 31
0.0
  0
LINE
  5
70EB
  8
KERA6
 10
3454.908456582657
 20
1617.3100284805639
 30
0.0
 11
3465.3489265826561
 21
1627.750028480564
 31
0.0
  0
LINE
  5
70EC
  8
KERA6
 10
3454.908456582657
 20
1617.5900284805639
 30
0.0
 11
3465.0660265826568
 21
1627.750028480564
 31
0.0
  0
LINE
  5
70ED
  8
KERA6
 10
3454.908456582657
 20
1599.770028480564
 30
0.0
 11
3482.885126582657
 21
1627.750028480564
 31
0.0
  0
LINE
  5
70EE
  8
KERA6
 10
3454.908456582657
 20
1600.0600284805639
 30
0.0
 11
3482.602326582657
 21
1627.750028480564
 31
0.0
  0
LINE
  5
70EF
  8
KERA6
 10
3454.908456582657
 20
1600.3400284805639
 30
0.0
 11
3482.3194265826578
 21
1627.750028480564
 31
0.0
  0
LINE
  5
70F0
  8
KERA6
 10
3454.908456582657
 20
1600.6200284805641
 30
0.0
 11
3482.0366265826569
 21
1627.750028480564
 31
0.0
  0
LINE
  5
70F1
  8
KERA6
 10
3454.908456582657
 20
1600.9000284805641
 30
0.0
 11
3481.753826582657
 21
1627.750028480564
 31
0.0
  0
LINE
  5
70F2
  8
KERA6
 10
3454.908456582657
 20
1601.190028480564
 30
0.0
 11
3481.4709265826568
 21
1627.750028480564
 31
0.0
  0
LINE
  5
70F3
  8
KERA6
 10
3454.908456582657
 20
1601.470028480564
 30
0.0
 11
3481.1881265826569
 21
1627.750028480564
 31
0.0
  0
LINE
  5
70F4
  8
KERA6
 10
3454.908456582657
 20
1601.750028480564
 30
0.0
 11
3480.9052265826558
 21
1627.750028480564
 31
0.0
  0
LINE
  5
70F5
  8
KERA6
 10
3454.908456582657
 20
1602.0400284805639
 30
0.0
 11
3480.6224265826572
 21
1627.750028480564
 31
0.0
  0
LINE
  5
70F6
  8
KERA6
 10
3454.908456582657
 20
1602.3200284805639
 30
0.0
 11
3480.3395265826571
 21
1627.750028480564
 31
0.0
  0
LINE
  5
70F7
  8
KERA6
 10
3454.908456582657
 20
1602.6000284805641
 30
0.0
 11
3480.0567265826562
 21
1627.750028480564
 31
0.0
  0
LINE
  5
70F8
  8
KERA6
 10
3454.908456582657
 20
1602.8800284805629
 30
0.0
 11
3479.7739265826572
 21
1627.750028480564
 31
0.0
  0
LINE
  5
70F9
  8
KERA6
 10
3454.908456582657
 20
1603.170028480564
 30
0.0
 11
3479.491026582657
 21
1627.750028480564
 31
0.0
  0
LINE
  5
70FA
  8
KERA6
 10
3454.908456582657
 20
1603.450028480564
 30
0.0
 11
3479.2082265826562
 21
1627.750028480564
 31
0.0
  0
LINE
  5
70FB
  8
KERA6
 10
3454.908456582657
 20
1603.730028480564
 30
0.0
 11
3478.9253265826569
 21
1627.750028480564
 31
0.0
  0
LINE
  5
70FC
  8
KERA6
 10
3454.908456582657
 20
1604.020028480564
 30
0.0
 11
3478.642526582657
 21
1627.750028480564
 31
0.0
  0
LINE
  5
70FD
  8
KERA6
 10
3454.908456582657
 20
1604.3000284805639
 30
0.0
 11
3478.3596265826568
 21
1627.750028480564
 31
0.0
  0
LINE
  5
70FE
  8
KERA6
 10
3454.908456582657
 20
1604.5800284805639
 30
0.0
 11
3478.0768265826568
 21
1627.750028480564
 31
0.0
  0
LINE
  5
70FF
  8
KERA6
 10
3454.908456582657
 20
1587.6200284805641
 30
0.0
 11
3454.908456582657
 21
1627.750028480564
 31
0.0
  0
LINE
  5
7100
  8
KERA6
 10
3454.908456582657
 20
1627.750028480564
 30
0.0
 11
3414.7762265826568
 21
1627.750028480564
 31
0.0
  0
LINE
  5
7101
  8
KERA6
 10
3414.7762265826568
 20
1627.750028480564
 30
0.0
 11
3454.908456582657
 21
1587.6200284805641
 31
0.0
  0
LINE
  5
7102
  8
KERA6
 10
3454.908456582657
 20
1587.8900284805641
 30
0.0
 11
3494.7645265826568
 21
1627.750028480564
 31
0.0
  0
LINE
  5
7103
  8
KERA6
 10
3454.908456582657
 20
1588.180028480564
 30
0.0
 11
3494.4817265826568
 21
1627.750028480564
 31
0.0
  0
LINE
  5
7104
  8
KERA6
 10
3454.908456582657
 20
1588.460028480564
 30
0.0
 11
3494.1988265826571
 21
1627.750028480564
 31
0.0
  0
LINE
  5
7105
  8
KERA6
 10
3454.908456582657
 20
1588.740028480564
 30
0.0
 11
3493.9160265826558
 21
1627.750028480564
 31
0.0
  0
LINE
  5
7106
  8
KERA6
 10
3454.908456582657
 20
1589.020028480564
 30
0.0
 11
3493.6332265826568
 21
1627.750028480564
 31
0.0
  0
LINE
  5
7107
  8
KERA6
 10
3454.908456582657
 20
1589.3100284805639
 30
0.0
 11
3493.3503265826571
 21
1627.750028480564
 31
0.0
  0
LINE
  5
7108
  8
KERA6
 10
3454.908456582657
 20
1589.5900284805639
 30
0.0
 11
3493.0675265826558
 21
1627.750028480564
 31
0.0
  0
LINE
  5
7109
  8
KERA6
 10
3454.908456582657
 20
1589.8700284805641
 30
0.0
 11
3492.784626582657
 21
1627.750028480564
 31
0.0
  0
LINE
  5
710A
  8
KERA6
 10
3454.908456582657
 20
1590.1600284805641
 30
0.0
 11
3492.501826582657
 21
1627.750028480564
 31
0.0
  0
LINE
  5
710B
  8
KERA6
 10
3454.908456582657
 20
1590.4400284805629
 30
0.0
 11
3492.2189265826569
 21
1627.750028480564
 31
0.0
  0
LINE
  5
710C
  8
KERA6
 10
3454.908456582657
 20
1590.720028480564
 30
0.0
 11
3491.9361265826578
 21
1627.750028480564
 31
0.0
  0
LINE
  5
710D
  8
KERA6
 10
3454.908456582657
 20
1591.000028480564
 30
0.0
 11
3491.653326582657
 21
1627.750028480564
 31
0.0
  0
LINE
  5
710E
  8
KERA6
 10
3454.908456582657
 20
1591.2900284805639
 30
0.0
 11
3491.3704265826568
 21
1627.750028480564
 31
0.0
  0
LINE
  5
710F
  8
KERA6
 10
3454.908456582657
 20
1591.5700284805639
 30
0.0
 11
3491.0876265826569
 21
1627.750028480564
 31
0.0
  0
LINE
  5
7110
  8
KERA6
 10
3454.908456582657
 20
1591.8500284805641
 30
0.0
 11
3490.8047265826572
 21
1627.750028480564
 31
0.0
  0
LINE
  5
7111
  8
KERA6
 10
3454.908456582657
 20
1592.1400284805641
 30
0.0
 11
3490.5219265826572
 21
1627.750028480564
 31
0.0
  0
LINE
  5
7112
  8
KERA6
 10
3454.908456582657
 20
1592.420028480564
 30
0.0
 11
3490.2390265826571
 21
1627.750028480564
 31
0.0
  0
LINE
  5
7113
  8
KERA6
 10
3454.908456582657
 20
1592.700028480564
 30
0.0
 11
3489.956226582658
 21
1627.750028480564
 31
0.0
  0
LINE
  5
7114
  8
KERA6
 10
3454.908456582657
 20
1592.980028480564
 30
0.0
 11
3489.6734265826572
 21
1627.750028480564
 31
0.0
  0
LINE
  5
7115
  8
KERA6
 10
3454.908456582657
 20
1593.270028480564
 30
0.0
 11
3489.390526582657
 21
1627.750028480564
 31
0.0
  0
LINE
  5
7116
  8
KERA6
 10
3454.908456582657
 20
1593.5500284805639
 30
0.0
 11
3489.107726582658
 21
1627.750028480564
 31
0.0
  0
LINE
  5
7117
  8
KERA6
 10
3454.908456582657
 20
1593.8300284805639
 30
0.0
 11
3488.8248265826569
 21
1627.750028480564
 31
0.0
  0
LINE
  5
7118
  8
KERA6
 10
3454.908456582657
 20
1594.1200284805641
 30
0.0
 11
3488.5420265826569
 21
1627.750028480564
 31
0.0
  0
LINE
  5
7119
  8
KERA6
 10
3454.908456582657
 20
1595.250028480564
 30
0.0
 11
3487.4106265826572
 21
1627.750028480564
 31
0.0
  0
LINE
  5
711A
  8
KERA6
 10
3454.908456582657
 20
1594.4000284805641
 30
0.0
 11
3488.2591265826568
 21
1627.750028480564
 31
0.0
  0
LINE
  5
711B
  8
KERA6
 10
3454.908456582657
 20
1599.490028480564
 30
0.0
 11
3483.1680265826571
 21
1627.750028480564
 31
0.0
  0
LINE
  5
711C
  8
KERA6
 10
3454.908456582657
 20
1599.210028480564
 30
0.0
 11
3483.4508265826571
 21
1627.750028480564
 31
0.0
  0
LINE
  5
711D
  8
KERA6
 10
3454.908456582657
 20
1598.920028480564
 30
0.0
 11
3483.7337265826568
 21
1627.750028480564
 31
0.0
  0
LINE
  5
711E
  8
KERA6
 10
3454.908456582657
 20
1598.6400284805641
 30
0.0
 11
3484.0165265826572
 21
1627.750028480564
 31
0.0
  0
LINE
  5
711F
  8
KERA6
 10
3454.908456582657
 20
1598.3600284805641
 30
0.0
 11
3484.2993265826572
 21
1627.750028480564
 31
0.0
  0
LINE
  5
7120
  8
KERA6
 10
3454.908456582657
 20
1598.0800284805639
 30
0.0
 11
3484.5822265826569
 21
1627.750028480564
 31
0.0
  0
LINE
  5
7121
  8
KERA6
 10
3454.908456582657
 20
1597.7900284805639
 30
0.0
 11
3484.8650265826568
 21
1627.750028480564
 31
0.0
  0
LINE
  5
7122
  8
KERA6
 10
3454.908456582657
 20
1597.510028480564
 30
0.0
 11
3485.147926582657
 21
1627.750028480564
 31
0.0
  0
LINE
  5
7123
  8
KERA6
 10
3454.908456582657
 20
1597.230028480564
 30
0.0
 11
3485.4307265826569
 21
1627.750028480564
 31
0.0
  0
LINE
  5
7124
  8
KERA6
 10
3454.908456582657
 20
1596.940028480564
 30
0.0
 11
3485.7136265826571
 21
1627.750028480564
 31
0.0
  0
LINE
  5
7125
  8
KERA6
 10
3454.908456582657
 20
1596.6600284805641
 30
0.0
 11
3485.996426582657
 21
1627.750028480564
 31
0.0
  0
LINE
  5
7126
  8
KERA6
 10
3454.908456582657
 20
1596.3800284805641
 30
0.0
 11
3486.2792265826561
 21
1627.750028480564
 31
0.0
  0
LINE
  5
7127
  8
KERA6
 10
3454.908456582657
 20
1596.1000284805641
 30
0.0
 11
3486.5621265826571
 21
1627.750028480564
 31
0.0
  0
LINE
  5
7128
  8
KERA6
 10
3454.908456582657
 20
1595.8100284805639
 30
0.0
 11
3486.8449265826571
 21
1627.750028480564
 31
0.0
  0
LINE
  5
7129
  8
KERA6
 10
3454.908456582657
 20
1595.5300284805639
 30
0.0
 11
3487.1278265826568
 21
1627.750028480564
 31
0.0
  0
LINE
  5
712A
  8
KERA6
 10
3454.908456582657
 20
1594.680028480564
 30
0.0
 11
3487.9763265826568
 21
1627.750028480564
 31
0.0
  0
LINE
  5
712B
  8
KERA6
 10
3454.908456582657
 20
1594.960028480564
 30
0.0
 11
3487.6935265826569
 21
1627.750028480564
 31
0.0
  0
LINE
  5
712C
  8
KERA6
 10
3454.908456582657
 20
1587.6200284805641
 30
0.0
 11
3454.908456582657
 21
1627.750028480564
 31
0.0
  0
LINE
  5
712D
  8
KERA6
 10
3454.908456582657
 20
1627.750028480564
 30
0.0
 11
3495.040726582657
 21
1627.750028480564
 31
0.0
  0
LINE
  5
712E
  8
KERA6
 10
3495.040726582657
 20
1627.750028480564
 30
0.0
 11
3454.908456582657
 21
1587.6200284805641
 31
0.0
  0
LINE
  5
712F
  8
KERA6
 10
3454.908456582657
 20
1617.8700284805641
 30
0.0
 11
3464.7832265826569
 21
1627.750028480564
 31
0.0
  0
LINE
  5
7130
  8
KERA6
 10
3454.908456582657
 20
1618.1600284805641
 30
0.0
 11
3464.5004265826569
 21
1627.750028480564
 31
0.0
  0
LINE
  5
7131
  8
KERA6
 10
3454.908456582657
 20
1618.440028480564
 30
0.0
 11
3464.2175265826568
 21
1627.750028480564
 31
0.0
  0
LINE
  5
7132
  8
KERA6
 10
3454.908456582657
 20
1618.720028480564
 30
0.0
 11
3463.9347265826568
 21
1627.750028480564
 31
0.0
  0
LINE
  5
7133
  8
KERA6
 10
3454.908456582657
 20
1619.010028480564
 30
0.0
 11
3463.6518265826571
 21
1627.750028480564
 31
0.0
  0
LINE
  5
7134
  8
KERA6
 10
3454.908456582657
 20
1619.2900284805639
 30
0.0
 11
3463.3690265826572
 21
1627.750028480564
 31
0.0
  0
LINE
  5
7135
  8
KERA6
 10
3454.908456582657
 20
1619.5700284805639
 30
0.0
 11
3463.0861265826579
 21
1627.750028480564
 31
0.0
  0
LINE
  5
7136
  8
KERA6
 10
3454.908456582657
 20
1619.8500284805641
 30
0.0
 11
3462.8033265826571
 21
1627.750028480564
 31
0.0
  0
LINE
  5
7137
  8
KERA6
 10
3454.908456582657
 20
1620.1400284805641
 30
0.0
 11
3462.5205265826571
 21
1627.750028480564
 31
0.0
  0
LINE
  5
7138
  8
KERA6
 10
3454.908456582657
 20
1620.420028480564
 30
0.0
 11
3462.237626582657
 21
1627.750028480564
 31
0.0
  0
LINE
  5
7139
  8
KERA6
 10
3454.908456582657
 20
1620.700028480564
 30
0.0
 11
3461.954826582657
 21
1627.750028480564
 31
0.0
  0
LINE
  5
713A
  8
KERA6
 10
3454.908456582657
 20
1620.990028480564
 30
0.0
 11
3461.6719265826569
 21
1627.750028480564
 31
0.0
  0
LINE
  5
713B
  8
KERA6
 10
3454.908456582657
 20
1621.270028480564
 30
0.0
 11
3461.3891265826569
 21
1627.750028480564
 31
0.0
  0
LINE
  5
713C
  8
KERA6
 10
3454.908456582657
 20
1621.5500284805639
 30
0.0
 11
3461.1062265826572
 21
1627.750028480564
 31
0.0
  0
LINE
  5
713D
  8
KERA6
 10
3454.908456582657
 20
1621.8300284805639
 30
0.0
 11
3460.8234265826568
 21
1627.750028480564
 31
0.0
  0
LINE
  5
713E
  8
KERA6
 10
3454.908456582657
 20
1622.1200284805641
 30
0.0
 11
3460.5406265826568
 21
1627.750028480564
 31
0.0
  0
LINE
  5
713F
  8
KERA6
 10
3454.908456582657
 20
1622.4000284805629
 30
0.0
 11
3460.2577265826571
 21
1627.750028480564
 31
0.0
  0
LINE
  5
7140
  8
KERA6
 10
3454.908456582657
 20
1622.680028480564
 30
0.0
 11
3459.9749265826572
 21
1627.750028480564
 31
0.0
  0
LINE
  5
7141
  8
KERA6
 10
3454.908456582657
 20
1622.970028480564
 30
0.0
 11
3459.692026582657
 21
1627.750028480564
 31
0.0
  0
LINE
  5
7142
  8
KERA6
 10
3454.908456582657
 20
1623.250028480564
 30
0.0
 11
3459.4092265826571
 21
1627.750028480564
 31
0.0
  0
LINE
  5
7143
  8
KERA6
 10
3454.908456582657
 20
1623.5300284805639
 30
0.0
 11
3459.1263265826569
 21
1627.750028480564
 31
0.0
  0
LINE
  5
7144
  8
KERA6
 10
3454.908456582657
 20
1623.8100284805639
 30
0.0
 11
3458.843526582657
 21
1627.750028480564
 31
0.0
  0
LINE
  5
7145
  8
KERA6
 10
3454.908456582657
 20
1624.1000284805641
 30
0.0
 11
3458.5606865826571
 21
1627.750028480564
 31
0.0
  0
LINE
  5
7146
  8
KERA6
 10
3454.908456582657
 20
1624.3800284805641
 30
0.0
 11
3458.2778465826568
 21
1627.750028480564
 31
0.0
  0
LINE
  5
7147
  8
KERA6
 10
3454.908456582657
 20
1624.6600284805641
 30
0.0
 11
3457.9949965826572
 21
1627.750028480564
 31
0.0
  0
LINE
  5
7148
  8
KERA6
 10
3454.908456582657
 20
1624.9500284805631
 30
0.0
 11
3457.7121565826569
 21
1627.750028480564
 31
0.0
  0
LINE
  5
7149
  8
KERA6
 10
3454.908456582657
 20
1625.230028480564
 30
0.0
 11
3457.4293165826571
 21
1627.750028480564
 31
0.0
  0
LINE
  5
714A
  8
KERA6
 10
3454.908456582657
 20
1625.510028480564
 30
0.0
 11
3457.1464765826572
 21
1627.750028480564
 31
0.0
  0
LINE
  5
714B
  8
KERA6
 10
3454.908456582657
 20
1625.7900284805639
 30
0.0
 11
3456.8636265826572
 21
1627.750028480564
 31
0.0
  0
LINE
  5
714C
  8
KERA6
 10
3454.908456582657
 20
1626.0800284805639
 30
0.0
 11
3456.5807865826569
 21
1627.750028480564
 31
0.0
  0
LINE
  5
714D
  8
KERA6
 10
3454.908456582657
 20
1626.3600284805641
 30
0.0
 11
3456.297946582657
 21
1627.750028480564
 31
0.0
  0
LINE
  5
714E
  8
KERA6
 10
3454.908456582657
 20
1626.6400284805629
 30
0.0
 11
3456.015096582657
 21
1627.750028480564
 31
0.0
  0
LINE
  5
714F
  8
KERA6
 10
3454.908456582657
 20
1626.930028480564
 30
0.0
 11
3455.732256582658
 21
1627.750028480564
 31
0.0
  0
LINE
  5
7150
  8
KERA6
 10
3454.908456582657
 20
1627.210028480564
 30
0.0
 11
3455.4494165826568
 21
1627.750028480564
 31
0.0
  0
LINE
  5
7151
  8
KERA6
 10
3454.908456582657
 20
1627.490028480564
 30
0.0
 11
3455.1665765826569
 21
1627.750028480564
 31
0.0
  0
LINE
  5
7152
  8
KERA0
 10
3506.0141265826578
 20
2165.4200284805638
 30
0.0
 11
3504.8306265826568
 21
2165.5600284805641
 31
0.0
  0
LINE
  5
7153
  8
KERA0
 10
3504.8306265826568
 20
2165.5600284805641
 30
0.0
 11
3503.5857265826562
 21
2166.0200284805642
 31
0.0
  0
LINE
  5
7154
  8
KERA0
 10
3503.5857265826562
 20
2166.0200284805642
 30
0.0
 11
3502.3290265826572
 21
2166.8500284805641
 31
0.0
  0
LINE
  5
7155
  8
KERA0
 10
3502.3290265826572
 20
2166.8500284805641
 30
0.0
 11
3501.1257265826571
 21
2168.070028480563
 31
0.0
  0
LINE
  5
7156
  8
KERA0
 10
3501.1257265826571
 20
2168.070028480563
 30
0.0
 11
3500.0494265826569
 21
2169.680028480564
 31
0.0
  0
LINE
  5
7157
  8
KERA0
 10
3500.0494265826569
 20
2169.680028480564
 30
0.0
 11
3499.1703265826568
 21
2171.610028480563
 31
0.0
  0
LINE
  5
7158
  8
KERA0
 10
3499.1703265826568
 20
2171.610028480563
 30
0.0
 11
3498.4499265826571
 21
2174.2100284805638
 31
0.0
  0
LINE
  5
7159
  8
KERA0
 10
3498.4499265826571
 20
2174.2100284805638
 30
0.0
 11
3498.130826582656
 21
2176.9400284805629
 31
0.0
  0
LINE
  5
715A
  8
KERA0
 10
3498.130826582656
 20
2176.9400284805629
 30
0.0
 11
3498.1927265826571
 21
2179.570028480563
 31
0.0
  0
LINE
  5
715B
  8
KERA0
 10
3498.1927265826571
 20
2179.570028480563
 30
0.0
 11
3498.5687265826568
 21
2181.950028480564
 31
0.0
  0
LINE
  5
715C
  8
KERA0
 10
3498.5687265826568
 20
2181.950028480564
 30
0.0
 11
3499.1703265826568
 21
2183.990028480564
 31
0.0
  0
LINE
  5
715D
  8
KERA0
 10
3499.1703265826568
 20
2183.990028480564
 30
0.0
 11
3499.8393265826571
 21
2185.5200284805642
 31
0.0
  0
LINE
  5
715E
  8
KERA0
 10
3499.8393265826571
 20
2185.5200284805642
 30
0.0
 11
3500.7157265826572
 21
2186.9800284805642
 31
0.0
  0
LINE
  5
715F
  8
KERA0
 10
3500.7157265826572
 20
2186.9800284805642
 30
0.0
 11
3501.8026265826561
 21
2188.2700284805642
 31
0.0
  0
LINE
  5
7160
  8
KERA0
 10
3501.8026265826561
 20
2188.2700284805642
 30
0.0
 11
3503.0811265826569
 21
2189.3000284805639
 31
0.0
  0
LINE
  5
7161
  8
KERA0
 10
3503.0811265826569
 20
2189.3000284805639
 30
0.0
 11
3504.507226582657
 21
2189.950028480564
 31
0.0
  0
LINE
  5
7162
  8
KERA0
 10
3504.507226582657
 20
2189.950028480564
 30
0.0
 11
3506.0141265826578
 21
2190.1800284805631
 31
0.0
  0
LINE
  5
7163
  8
KERA0
 10
3506.0141265826578
 20
2190.1800284805631
 30
0.0
 11
3507.5210265826572
 21
2189.950028480564
 31
0.0
  0
LINE
  5
7164
  8
KERA0
 10
3507.5210265826572
 20
2189.950028480564
 30
0.0
 11
3508.947626582657
 21
2189.3000284805639
 31
0.0
  0
LINE
  5
7165
  8
KERA0
 10
3508.947626582657
 20
2189.3000284805639
 30
0.0
 11
3510.2256265826568
 21
2188.2700284805642
 31
0.0
  0
LINE
  5
7166
  8
KERA0
 10
3510.2256265826568
 20
2188.2700284805642
 30
0.0
 11
3511.3126265826568
 21
2186.9800284805642
 31
0.0
  0
LINE
  5
7167
  8
KERA0
 10
3511.3126265826568
 20
2186.9800284805642
 30
0.0
 11
3512.188626582657
 21
2185.5200284805642
 31
0.0
  0
LINE
  5
7168
  8
KERA0
 10
3512.188626582657
 20
2185.5200284805642
 30
0.0
 11
3512.8576265826568
 21
2183.990028480564
 31
0.0
  0
LINE
  5
7169
  8
KERA0
 10
3512.8576265826568
 20
2183.990028480564
 30
0.0
 11
3513.4596265826572
 21
2181.950028480564
 31
0.0
  0
LINE
  5
716A
  8
KERA0
 10
3513.4596265826572
 20
2181.950028480564
 30
0.0
 11
3513.8356265826578
 21
2179.570028480563
 31
0.0
  0
LINE
  5
716B
  8
KERA0
 10
3513.8356265826578
 20
2179.570028480563
 30
0.0
 11
3513.8976265826568
 21
2176.9400284805629
 31
0.0
  0
LINE
  5
716C
  8
KERA0
 10
3513.8976265826568
 20
2176.9400284805629
 30
0.0
 11
3513.5786265826569
 21
2174.2100284805638
 31
0.0
  0
LINE
  5
716D
  8
KERA0
 10
3513.5786265826569
 20
2174.2100284805638
 30
0.0
 11
3512.8576265826568
 21
2171.610028480563
 31
0.0
  0
LINE
  5
716E
  8
KERA0
 10
3512.8576265826568
 20
2171.610028480563
 30
0.0
 11
3511.9786265826569
 21
2169.680028480564
 31
0.0
  0
LINE
  5
716F
  8
KERA0
 10
3511.9786265826569
 20
2169.680028480564
 30
0.0
 11
3510.9026265826569
 21
2168.070028480563
 31
0.0
  0
LINE
  5
7170
  8
KERA0
 10
3510.9026265826569
 20
2168.070028480563
 30
0.0
 11
3509.6996265826569
 21
2166.8500284805641
 31
0.0
  0
LINE
  5
7171
  8
KERA0
 10
3509.6996265826569
 20
2166.8500284805641
 30
0.0
 11
3508.4426265826569
 21
2166.0200284805642
 31
0.0
  0
LINE
  5
7172
  8
KERA0
 10
3508.4426265826569
 20
2166.0200284805642
 30
0.0
 11
3507.197626582657
 21
2165.5600284805641
 31
0.0
  0
LINE
  5
7173
  8
KERA0
 10
3507.197626582657
 20
2165.5600284805641
 30
0.0
 11
3506.0141265826578
 21
2165.4200284805638
 31
0.0
  0
LINE
  5
7174
  8
KERA0
 10
3506.0141265826578
 20
2165.4200284805638
 30
0.0
 11
3506.0141265826578
 21
2165.4200284805638
 31
0.0
  0
LINE
  5
7175
  8
KERA0
 10
3562.2514115725048
 20
2165.4200284805638
 30
0.0
 11
3563.435411572505
 21
2165.5600284805641
 31
0.0
  0
LINE
  5
7176
  8
KERA0
 10
3563.435411572505
 20
2165.5600284805641
 30
0.0
 11
3564.6804115725049
 21
2166.0200284805642
 31
0.0
  0
LINE
  5
7177
  8
KERA0
 10
3564.6804115725049
 20
2166.0200284805642
 30
0.0
 11
3565.9364115725052
 21
2166.8500284805641
 31
0.0
  0
LINE
  5
7178
  8
KERA0
 10
3565.9364115725052
 20
2166.8500284805641
 30
0.0
 11
3567.1404115725049
 21
2168.070028480563
 31
0.0
  0
LINE
  5
7179
  8
KERA0
 10
3567.1404115725049
 20
2168.070028480563
 30
0.0
 11
3568.216411572505
 21
2169.680028480564
 31
0.0
  0
LINE
  5
717A
  8
KERA0
 10
3568.216411572505
 20
2169.680028480564
 30
0.0
 11
3569.095411572504
 21
2171.610028480563
 31
0.0
  0
LINE
  5
717B
  8
KERA0
 10
3569.095411572504
 20
2171.610028480563
 30
0.0
 11
3569.8154115725051
 21
2174.2100284805638
 31
0.0
  0
LINE
  5
717C
  8
KERA0
 10
3569.8154115725051
 20
2174.2100284805638
 30
0.0
 11
3570.1354115725048
 21
2176.9400284805629
 31
0.0
  0
LINE
  5
717D
  8
KERA0
 10
3570.1354115725048
 20
2176.9400284805629
 30
0.0
 11
3570.0734115725049
 21
2179.570028480563
 31
0.0
  0
LINE
  5
717E
  8
KERA0
 10
3570.0734115725049
 20
2179.570028480563
 30
0.0
 11
3569.6974115725038
 21
2181.950028480564
 31
0.0
  0
LINE
  5
717F
  8
KERA0
 10
3569.6974115725038
 20
2181.950028480564
 30
0.0
 11
3569.095411572504
 21
2183.990028480564
 31
0.0
  0
LINE
  5
7180
  8
KERA0
 10
3569.095411572504
 20
2183.990028480564
 30
0.0
 11
3568.426411572505
 21
2185.5200284805642
 31
0.0
  0
LINE
  5
7181
  8
KERA0
 10
3568.426411572505
 20
2185.5200284805642
 30
0.0
 11
3567.5504115725048
 21
2186.9800284805642
 31
0.0
  0
LINE
  5
7182
  8
KERA0
 10
3567.5504115725048
 20
2186.9800284805642
 30
0.0
 11
3566.4634115725048
 21
2188.2700284805642
 31
0.0
  0
LINE
  5
7183
  8
KERA0
 10
3566.4634115725048
 20
2188.2700284805642
 30
0.0
 11
3565.1844115725048
 21
2189.3000284805639
 31
0.0
  0
LINE
  5
7184
  8
KERA0
 10
3565.1844115725048
 20
2189.3000284805639
 30
0.0
 11
3563.7584115725049
 21
2189.950028480564
 31
0.0
  0
LINE
  5
7185
  8
KERA0
 10
3563.7584115725049
 20
2189.950028480564
 30
0.0
 11
3562.2514115725048
 21
2190.1800284805631
 31
0.0
  0
LINE
  5
7186
  8
KERA0
 10
3562.2514115725048
 20
2190.1800284805631
 30
0.0
 11
3560.7444115725052
 21
2189.950028480564
 31
0.0
  0
LINE
  5
7187
  8
KERA0
 10
3560.7444115725052
 20
2189.950028480564
 30
0.0
 11
3559.3184115725048
 21
2189.3000284805639
 31
0.0
  0
LINE
  5
7188
  8
KERA0
 10
3559.3184115725048
 20
2189.3000284805639
 30
0.0
 11
3558.040411572505
 21
2188.2700284805642
 31
0.0
  0
LINE
  5
7189
  8
KERA0
 10
3558.040411572505
 20
2188.2700284805642
 30
0.0
 11
3556.953411572505
 21
2186.9800284805642
 31
0.0
  0
LINE
  5
718A
  8
KERA0
 10
3556.953411572505
 20
2186.9800284805642
 30
0.0
 11
3556.0764115725042
 21
2185.5200284805642
 31
0.0
  0
LINE
  5
718B
  8
KERA0
 10
3556.0764115725042
 20
2185.5200284805642
 30
0.0
 11
3555.4074115725052
 21
2183.990028480564
 31
0.0
  0
LINE
  5
718C
  8
KERA0
 10
3555.4074115725052
 20
2183.990028480564
 30
0.0
 11
3554.8064115725051
 21
2181.950028480564
 31
0.0
  0
LINE
  5
718D
  8
KERA0
 10
3554.8064115725051
 20
2181.950028480564
 30
0.0
 11
3554.4304115725049
 21
2179.570028480563
 31
0.0
  0
LINE
  5
718E
  8
KERA0
 10
3554.4304115725049
 20
2179.570028480563
 30
0.0
 11
3554.368411572505
 21
2176.9400284805629
 31
0.0
  0
LINE
  5
718F
  8
KERA0
 10
3554.368411572505
 20
2176.9400284805629
 30
0.0
 11
3554.687411572505
 21
2174.2100284805638
 31
0.0
  0
LINE
  5
7190
  8
KERA0
 10
3554.687411572505
 20
2174.2100284805638
 30
0.0
 11
3555.4074115725052
 21
2171.610028480563
 31
0.0
  0
LINE
  5
7191
  8
KERA0
 10
3555.4074115725052
 20
2171.610028480563
 30
0.0
 11
3556.2864115725042
 21
2169.680028480564
 31
0.0
  0
LINE
  5
7192
  8
KERA0
 10
3556.2864115725042
 20
2169.680028480564
 30
0.0
 11
3557.3634115725049
 21
2168.070028480563
 31
0.0
  0
LINE
  5
7193
  8
KERA0
 10
3557.3634115725049
 20
2168.070028480563
 30
0.0
 11
3558.5664115725049
 21
2166.8500284805641
 31
0.0
  0
LINE
  5
7194
  8
KERA0
 10
3558.5664115725049
 20
2166.8500284805641
 30
0.0
 11
3559.8234115725049
 21
2166.0200284805642
 31
0.0
  0
LINE
  5
7195
  8
KERA0
 10
3559.8234115725049
 20
2166.0200284805642
 30
0.0
 11
3561.0684115725048
 21
2165.5600284805641
 31
0.0
  0
LINE
  5
7196
  8
KERA0
 10
3561.0684115725048
 20
2165.5600284805641
 30
0.0
 11
3562.2514115725048
 21
2165.4200284805638
 31
0.0
  0
LINE
  5
7197
  8
KERA0
 10
3562.2514115725048
 20
2165.4200284805638
 30
0.0
 11
3562.2514115725048
 21
2165.4200284805638
 31
0.0
  0
POINT
  5
7198
  8
DEFPOINTS
  6
BYBLOCK
 62
     0
 10
3519.1831265826572
 20
1049.0530810412799
 30
0.0
  0
POINT
  5
7199
  8
DEFPOINTS
  6
BYBLOCK
 62
     0
 10
3575.6831265826572
 20
992.55308104128005
 30
0.0
  0
POINT
  5
719A
  8
DEFPOINTS
  6
BYBLOCK
 62
     0
 10
3519.1831265826572
 20
1049.0530810412811
 30
0.0
  0
POINT
  5
719B
  8
DEFPOINTS
  6
BYBLOCK
 62
     0
 10
3619.2141265826572
 20
2127.6200284805632
 30
0.0
  0
POINT
  5
719C
  8
DEFPOINTS
  6
BYBLOCK
 62
     0
 10
3585.4904115725039
 20
2177.6200284805641
 30
0.0
  0
DIMENSION
  5
719D
  8
KERA4
  2
*D23
 10
4074.416909968731
 20
2237.6200284805641
 30
0.0
 11
4074.416909968731
 21
1912.6200284805641
 31
0.0
 70
     0
 13
3795.1651265826572
 23
1587.6200284805641
 33
0.0
 14
3506.9669265826569
 24
2237.6200284805641
 34
0.0
 50
90.0
1001
ACAD
1000
DSTYLE
1002
{
1070
    78
1070
     8
1070
   140
1040
50.0
1070
   172
1070
     1
1070
   272
1070
     0
1070
   147
1040
15.0
1070
    42
1040
20.0
1070
    44
1040
15.0
1070
    43
1040
100.0
1070
   271
1070
     0
1070
   178
1070
   256
1070
   177
1070
   256
1070
   176
1070
   256
1070
   141
1040
4.0
1070
    41
1040
50.0
1070
   273
1070
     8
1070
   274
1070
     4
1070
   143
1040
0.0394
1070
   171
1070
     4
1002
}
1001
ACAD_DSTYLE_DIMINSPECT
1070
   396
1000
100%
1070
   395
1000

1070
   394
1070
    33
1070
   393
1070
     0
  0
DIMENSION
  5
719E
  8
KERA4
  2
*D24
 10
4174.4169099687324
 20
2437.6170284805639
 30
0.0
 11
4174.4169099687297
 21
2012.618528480564
 31
0.0
 70
     0
 13
3795.1651265826572
 23
1587.6200284805641
 33
0.0
 14
3833.6831265826572
 24
2437.6170284805639
 34
0.0
 50
90.0
1001
ACAD
1000
DSTYLE
1002
{
1070
    78
1070
     8
1070
   140
1040
50.0
1070
   172
1070
     1
1070
   272
1070
     0
1070
   147
1040
15.0
1070
    42
1040
20.0
1070
    44
1040
15.0
1070
    43
1040
100.0
1070
   271
1070
     0
1070
   178
1070
   256
1070
   177
1070
   256
1070
   176
1070
   256
1070
   141
1040
4.0
1070
    41
1040
50.0
1070
   273
1070
     8
1070
   274
1070
     4
1070
   143
1040
0.0394
1070
   171
1070
     4
1002
}
1001
ACAD_DSTYLE_DIMINSPECT
1070
   396
1000
100%
1070
   395
1000

1070
   394
1070
    33
1070
   393
1070
     0
  0
CIRCLE
  5
719F
  8
KERA0
 10
3448.6831265826572
 20
760.05308104128062
 30
0.0
 40
170.0
  0
CIRCLE
  5
71A0
  8
KERA0
 10
3448.6831265826572
 20
760.05308104128062
 30
0.0
 40
187.5
  0
ARC
  5
71A1
  8
KERA0
 10
3448.6831265826572
 20
760.05308104128062
 30
0.0
 40
217.5
 50
186.73292132684679
 51
353.26707867315309
  0
LINE
  5
71A2
  8
KERA0
 10
3823.805145841643
 20
734.55308104128096
 30
0.0
 11
3664.6831265826572
 21
734.55308104128062
 31
0.0
  0
LINE
  5
71A3
  8
KERA0
 10
3232.6831265826572
 20
734.55308104128062
 30
0.0
 11
3073.561107323671
 21
734.55308104128005
 31
0.0
  0
CIRCLE
  5
71A4
  8
KERA0
 10
3448.6831265826572
 20
839.55308104128062
 30
0.0
 40
22.0
  0
ARC
  5
71A5
  8
KERA1
 10
3417.5898265826572
 20
2431.4780284805638
 30
0.0
 40
144.87899999999999
 50
193.51613440812929
 51
270.0
  0
LINE
  5
71A6
  8
KERA0
 10
3232.6831265826572
 20
2397.6170284805639
 30
0.0
 11
3232.6831265826572
 21
2437.6170284805639
 31
0.0
  0
LINE
  5
71A7
  8
KERA0
 10
3664.6831265826572
 20
2397.6170284805639
 30
0.0
 11
3664.6831265826572
 21
2437.6170284805639
 31
0.0
  0
LINE
  5
71A8
  8
KERA0
 10
3399.4669265826578
 20
2275.6278004342639
 30
0.0
 11
3399.4669265826578
 21
2237.6200284805641
 31
0.0
  0
LINE
  5
71A9
  8
KERA0
 10
3494.4669265826569
 20
2275.6278004342639
 30
0.0
 11
3494.4669265826569
 21
2237.6200284805641
 31
0.0
  0
DIMENSION
  5
71AA
  8
KERA4
  2
*D25
 10
3973.1877174645779
 20
1587.6200284805641
 30
0.0
 11
3973.1877174645779
 21
1800.3484663226909
 31
0.0
 70
   128
 13
3659.7361265826571
 23
2127.6200284805632
 33
0.0
 14
3795.1651265826572
 24
1587.6200284805641
 34
0.0
 50
90.0
1001
ACAD
1000
DSTYLE
1002
{
1070
    41
1040
50.0
1070
    42
1040
20.0
1070
    43
1040
100.0
1070
    44
1040
15.0
1070
    78
1070
     8
1070
   140
1040
50.0
1070
   141
1040
4.0
1070
   143
1040
0.0394
1070
   147
1040
15.0
1070
   171
1070
     4
1070
   172
1070
     1
1070
   176
1070
   256
1070
   177
1070
   256
1070
   178
1070
   256
1070
   271
1070
     0
1070
   272
1070
     0
1070
   273
1070
     8
1070
   274
1070
     4
1002
}
1001
ACAD_DSTYLE_DIMINSPECT
1070
   396
1000
100%
1070
   395
1000

1070
   394
1070
    33
1070
   393
1070
     0
  0
LINE
  5
71AB
  8
KERA0
 10
3825.3118162121491
 20
2397.6170284805639
 30
0.0
 11
3068.6221169531641
 21
2397.6170284805639
 31
0.0
  0
DIMENSION
  5
71AC
  8
KERA4
  2
*D26
 10
2962.460167380174
 20
2286.5990284805639
 30
0.0
 11
2962.4601673801731
 21
2362.1080284805648
 31
0.0
 70
     0
  1
150
 13
3068.6221169531641
 23
2437.6170284805639
 33
0.0
 14
3417.5898265826572
 24
2286.5990284805639
 34
0.0
 50
90.0
1001
ACAD
1000
DSTYLE
1002
{
1070
    41
1040
50.0
1070
    42
1040
20.0
1070
    43
1040
100.0
1070
    44
1040
15.0
1070
    78
1070
     8
1070
   140
1040
50.0
1070
   141
1040
4.0
1070
   143
1040
0.0394
1070
   147
1040
15.0
1070
   171
1070
     4
1070
   172
1070
     1
1070
   174
1070
     1
1070
   176
1070
   256
1070
   177
1070
   256
1070
   178
1070
   256
1070
   271
1070
     0
1070
   272
1070
     0
1070
   273
1070
     8
1070
   274
1070
     4
1002
}
1001
ACAD_DSTYLE_DIMINSPECT
1070
   396
1000
100%
1070
   395
1000

1070
   394
1070
    33
1070
   393
1070
     0
  0
LINE
  5
71AD
  8
KERA4
 10
3853.6831265826572
 20
2397.6170284805639
 30
0.0
 11
4089.4169099687319
 21
2397.6170284805639
 31
0.0
  0
LINE
  5
71AE
  8
KERA4
 10
3853.6831265826572
 20
2437.6170284805639
 30
0.0
 11
4089.4169099687319
 21
2437.6170284805639
 31
0.0
  0
LINE
  5
71AF
  8
KERA4
 10
4074.416909968731
 20
2347.6170284805639
 30
0.0
 11
4074.416909968731
 21
2297.6170284805639
 31
0.0
  0
LINE
  5
71B0
  8
KERA4
 10
4074.416909968731
 20
2487.6170284805639
 30
0.0
 11
4074.416909968731
 21
2537.6170284805639
 31
0.0
  0
LINE
  5
71B1
  8
KERA4
 10
4074.416909968731
 20
2397.6170284805639
 30
0.0
 11
4074.416909968731
 21
2437.6170284805639
 31
0.0
  0
SOLID
  5
71B2
  8
KERA4
 10
4066.083576635398
 20
2347.6170284805639
 30
0.0
 11
4082.7502433020641
 21
2347.6170284805639
 31
0.0
 12
4074.416909968731
 22
2397.6170284805639
 32
0.0
 13
4074.416909968731
 23
2397.6170284805639
 33
0.0
  0
SOLID
  5
71B3
  8
KERA4
 10
4066.083576635398
 20
2487.6170284805639
 30
0.0
 11
4082.7502433020641
 21
2487.6170284805639
 31
0.0
 12
4074.416909968731
 22
2437.6170284805639
 32
0.0
 13
4074.416909968731
 23
2437.6170284805639
 33
0.0
  0
INSERT
  5
71B4
  8
KERA4
  2
*U69
 10
0.0
 20
0.0
 30
0.0
  0
LINE
  5
71B5
  8
KERA4
 10
3699.7361265826571
 20
2127.6200284805632
 30
0.0
 11
3988.1877174645779
 21
2127.6200284805632
 31
0.0
  0
LINE
  5
71B6
  8
KERA4
 10
3620.768104701312
 20
2177.6200284805641
 30
0.0
 11
3988.1877174645779
 21
2177.6200284805641
 31
0.0
  0
LINE
  5
71B7
  8
KERA4
 10
3973.1877174645779
 20
2077.6200284805641
 30
0.0
 11
3973.1877174645779
 21
2027.6200284805641
 31
0.0
  0
LINE
  5
71B8
  8
KERA4
 10
3973.1877174645779
 20
2227.6200284805641
 30
0.0
 11
3973.1877174645779
 21
2277.6200284805641
 31
0.0
  0
SOLID
  5
71B9
  8
KERA4
 10
3964.8543841312448
 20
2077.6200284805641
 30
0.0
 11
3981.5210507979109
 21
2077.6200284805641
 31
0.0
 12
3973.1877174645779
 22
2127.6200284805632
 32
0.0
 13
3973.1877174645779
 23
2127.6200284805632
 33
0.0
  0
SOLID
  5
71BA
  8
KERA4
 10
3964.8543841312448
 20
2227.6200284805641
 30
0.0
 11
3981.5210507979109
 21
2227.6200284805641
 31
0.0
 12
3973.1877174645779
 22
2177.6200284805641
 32
0.0
 13
3973.1877174645779
 23
2177.6200284805641
 33
0.0
  0
INSERT
  5
71BB
  8
KERA4
  2
*U70
 10
0.0
 20
0.0
 30
0.0
  0
LINE
  5
71BC
  8
KERA7
 10
3815.1651265826572
 20
1587.6200284805641
 30
0.0
 11
3054.9301965762652
 21
1587.6200284805641
 31
0.0
  0
DIMENSION
  5
71BD
  8
KERA4
  2
*D27
 10
3618.6831265826572
 20
449.19191811780178
 30
0.0
 11
3448.6831265826572
 21
449.19191811780178
 31
0.0
 70
     0
 13
3278.6831265826572
 23
760.05308104128062
 33
0.0
 14
3618.6831265826572
 24
760.05308104128062
 34
0.0
1001
ACAD
1000
DSTYLE
1002
{
1070
    41
1040
50.0
1070
    42
1040
20.0
1070
    43
1040
100.0
1070
    44
1040
15.0
1070
    78
1070
     8
1070
   140
1040
50.0
1070
   141
1040
4.0
1070
   143
1040
0.0394
1070
   147
1040
15.0
1070
   171
1070
     4
1070
   172
1070
     1
1070
   174
1070
     1
1070
   176
1070
   256
1070
   177
1070
   256
1070
   178
1070
   256
1070
   271
1070
     0
1070
   272
1070
     0
1070
   273
1070
     8
1070
   274
1070
     4
1002
}
1001
ACAD_DSTYLE_DIMINSPECT
1070
   396
1000
100%
1070
   395
1000

1070
   394
1070
    33
1070
   393
1070
     0
  0
DIMENSION
  5
71BE
  8
KERA4
  2
*D28
 10
2725.3131473468061
 20
542.55308104128085
 30
0.0
 11
2725.3131473468061
 21
831.05308104128119
 31
0.0
 70
     0
 13
3448.799926582657
 23
1119.5530810412811
 33
0.0
 14
3448.799926582657
 24
542.55308104128062
 34
0.0
 50
90.0
1001
ACAD
1000
DSTYLE
1002
{
1070
    41
1040
50.0
1070
    42
1040
20.0
1070
    43
1040
100.0
1070
    44
1040
15.0
1070
    78
1070
     8
1070
   140
1040
50.0
1070
   141
1040
4.0
1070
   143
1040
0.0394
1070
   147
1040
15.0
1070
   171
1070
     4
1070
   172
1070
     1
1070
   174
1070
     1
1070
   176
1070
   256
1070
   177
1070
   256
1070
   178
1070
   256
1070
   271
1070
     0
1070
   272
1070
     0
1070
   273
1070
     8
1070
   274
1070
     4
1002
}
1001
ACAD_DSTYLE_DIMINSPECT
1070
   396
1000
100%
1070
   395
1000

1070
   394
1070
    33
1070
   393
1070
     0
  0
LINE
  5
71BF
  8
KERA7
 10
4555.6533681708906
 20
2642.1020284805641
 30
0.0
 11
4555.6533681708906
 21
1587.6200284805641
 31
0.0
  0
LINE
  5
71C0
  8
KERA7
 10
4415.7715250670753
 20
1587.6200284805641
 30
0.0
 11
5130.6423962627978
 21
1587.6200284805641
 31
0.0
  0
LINE
  5
71C1
  8
KERA2
 10
3274.7198065826569
 20
2127.6200284805632
 30
0.0
 11
3340.8798065826568
 21
2127.6200284805632
 31
0.0
  0
LINE
  5
71C2
  8
KERA2
 10
3359.1332265826568
 20
2177.6200284805641
 30
0.0
 11
3410.4075265826568
 21
2177.6200284805641
 31
0.0
  0
LINE
  5
71C3
  8
KERA2
 10
3387.5174265826572
 20
2204.6400284805641
 30
0.0
 11
3387.5174265826572
 21
2148.9100284805641
 31
0.0
  0
LINE
  5
71C4
  8
KERA2
 10
3308.4435215928102
 20
2177.6200284805641
 30
0.0
 11
3356.4095215928091
 21
2177.6200284805641
 31
0.0
  0
LINE
  5
71C5
  8
KERA2
 10
3332.0845215928098
 20
2202.6300284805639
 30
0.0
 11
3332.0845215928098
 21
2148.9100284805641
 31
0.0
  0
POINT
  5
71C6
  8
DEFPOINTS
  6
BYBLOCK
 62
     0
 10
3348.9656015928099
 20
2177.6200284805641
 30
0.0
  0
LINE
  5
71C7
  8
KERA2
 10
3306.0228065826568
 20
2169.8000284805639
 30
0.0
 11
3306.0228065826568
 21
2083.7800284805639
 31
0.0
  0
POINT
  5
71C8
  8
DEFPOINTS
  6
BYBLOCK
 62
     0
 10
3274.7198065826569
 20
2127.6200284805632
 30
0.0
  0
POLYLINE
  5
71C9
  8
KERA1
 10
3306.0228065826568
 20
2152.9189713620644
 30
0.0
 66
     1
 70
     8
  0
VERTEX
  8
KERA1
  5
75A2
 10
3306.02
 20
2152.92
 30
0.000000
  70
    32
  0
VERTEX
  8
KERA1
  5
75A3
 10
3305.27
 20
2152.90
 30
0.000000
  70
    32
  0
VERTEX
  8
KERA1
  5
75A4
 10
3304.52
 20
2152.81
 30
0.000000
  70
    32
  0
VERTEX
  8
KERA1
  5
75A5
 10
3303.77
 20
2152.67
 30
0.000000
  70
    32
  0
VERTEX
  8
KERA1
  5
75A6
 10
3303.02
 20
2152.47
 30
0.000000
  70
    32
  0
VERTEX
  8
KERA1
  5
75A7
 10
3302.28
 20
2152.20
 30
0.000000
  70
    32
  0
VERTEX
  8
KERA1
  5
75A8
 10
3301.55
 20
2151.88
 30
0.000000
  70
    32
  0
VERTEX
  8
KERA1
  5
75A9
 10
3300.83
 20
2151.50
 30
0.000000
  70
    32
  0
VERTEX
  8
KERA1
  5
75AA
 10
3300.13
 20
2151.06
 30
0.000000
  70
    32
  0
VERTEX
  8
KERA1
  5
75AB
 10
3299.43
 20
2150.57
 30
0.000000
  70
    32
  0
VERTEX
  8
KERA1
  5
75AC
 10
3298.75
 20
2150.02
 30
0.000000
  70
    32
  0
VERTEX
  8
KERA1
  5
75AD
 10
3298.09
 20
2149.41
 30
0.000000
  70
    32
  0
VERTEX
  8
KERA1
  5
75AE
 10
3297.44
 20
2148.75
 30
0.000000
  70
    32
  0
VERTEX
  8
KERA1
  5
75AF
 10
3296.82
 20
2148.05
 30
0.000000
  70
    32
  0
VERTEX
  8
KERA1
  5
75B0
 10
3296.22
 20
2147.29
 30
0.000000
  70
    32
  0
VERTEX
  8
KERA1
  5
75B1
 10
3295.64
 20
2146.49
 30
0.000000
  70
    32
  0
VERTEX
  8
KERA1
  5
75B2
 10
3295.08
 20
2145.64
 30
0.000000
  70
    32
  0
VERTEX
  8
KERA1
  5
75B3
 10
3294.55
 20
2144.74
 30
0.000000
  70
    32
  0
VERTEX
  8
KERA1
  5
75B4
 10
3294.05
 20
2143.81
 30
0.000000
  70
    32
  0
VERTEX
  8
KERA1
  5
75B5
 10
3293.57
 20
2142.83
 30
0.000000
  70
    32
  0
VERTEX
  8
KERA1
  5
75B6
 10
3293.13
 20
2141.82
 30
0.000000
  70
    32
  0
VERTEX
  8
KERA1
  5
75B7
 10
3292.71
 20
2140.78
 30
0.000000
  70
    32
  0
VERTEX
  8
KERA1
  5
75B8
 10
3292.33
 20
2139.70
 30
0.000000
  70
    32
  0
VERTEX
  8
KERA1
  5
75B9
 10
3291.98
 20
2138.60
 30
0.000000
  70
    32
  0
VERTEX
  8
KERA1
  5
75BA
 10
3291.66
 20
2137.47
 30
0.000000
  70
    32
  0
VERTEX
  8
KERA1
  5
75BB
 10
3291.37
 20
2136.31
 30
0.000000
  70
    32
  0
VERTEX
  8
KERA1
  5
75BC
 10
3291.12
 20
2135.14
 30
0.000000
  70
    32
  0
VERTEX
  8
KERA1
  5
75BD
 10
3290.91
 20
2133.94
 30
0.000000
  70
    32
  0
VERTEX
  8
KERA1
  5
75BE
 10
3290.73
 20
2132.73
 30
0.000000
  70
    32
  0
VERTEX
  8
KERA1
  5
75BF
 10
3290.59
 20
2131.51
 30
0.000000
  70
    32
  0
VERTEX
  8
KERA1
  5
75C0
 10
3290.48
 20
2130.28
 30
0.000000
  70
    32
  0
VERTEX
  8
KERA1
  5
75C1
 10
3290.41
 20
2129.04
 30
0.000000
  70
    32
  0
VERTEX
  8
KERA1
  5
75C2
 10
3290.38
 20
2127.80
 30
0.000000
  70
    32
  0
VERTEX
  8
KERA1
  5
75C3
 10
3290.38
 20
2126.56
 30
0.000000
  70
    32
  0
VERTEX
  8
KERA1
  5
75C4
 10
3290.42
 20
2125.32
 30
0.000000
  70
    32
  0
VERTEX
  8
KERA1
  5
75C5
 10
3290.50
 20
2124.09
 30
0.000000
  70
    32
  0
VERTEX
  8
KERA1
  5
75C6
 10
3290.62
 20
2122.86
 30
0.000000
  70
    32
  0
VERTEX
  8
KERA1
  5
75C7
 10
3290.77
 20
2121.65
 30
0.000000
  70
    32
  0
VERTEX
  8
KERA1
  5
75C8
 10
3290.96
 20
2120.45
 30
0.000000
  70
    32
  0
VERTEX
  8
KERA1
  5
75C9
 10
3291.18
 20
2119.27
 30
0.000000
  70
    32
  0
VERTEX
  8
KERA1
  5
75CA
 10
3291.44
 20
2118.11
 30
0.000000
  70
    32
  0
VERTEX
  8
KERA1
  5
75CB
 10
3291.73
 20
2116.97
 30
0.000000
  70
    32
  0
VERTEX
  8
KERA1
  5
75CC
 10
3292.05
 20
2115.86
 30
0.000000
  70
    32
  0
VERTEX
  8
KERA1
  5
75CD
 10
3292.41
 20
2114.77
 30
0.000000
  70
    32
  0
VERTEX
  8
KERA1
  5
75CE
 10
3292.80
 20
2113.72
 30
0.000000
  70
    32
  0
VERTEX
  8
KERA1
  5
75CF
 10
3293.23
 20
2112.70
 30
0.000000
  70
    32
  0
VERTEX
  8
KERA1
  5
75D0
 10
3293.68
 20
2111.71
 30
0.000000
  70
    32
  0
VERTEX
  8
KERA1
  5
75D1
 10
3294.16
 20
2110.77
 30
0.000000
  70
    32
  0
VERTEX
  8
KERA1
  5
75D2
 10
3294.67
 20
2109.86
 30
0.000000
  70
    32
  0
VERTEX
  8
KERA1
  5
75D3
 10
3295.21
 20
2109.00
 30
0.000000
  70
    32
  0
VERTEX
  8
KERA1
  5
75D4
 10
3295.77
 20
2108.18
 30
0.000000
  70
    32
  0
VERTEX
  8
KERA1
  5
75D5
 10
3296.35
 20
2107.41
 30
0.000000
  70
    32
  0
VERTEX
  8
KERA1
  5
75D6
 10
3296.96
 20
2106.69
 30
0.000000
  70
    32
  0
VERTEX
  8
KERA1
  5
75D7
 10
3297.59
 20
2106.02
 30
0.000000
  70
    32
  0
VERTEX
  8
KERA1
  5
75D8
 10
3298.24
 20
2105.40
 30
0.000000
  70
    32
  0
VERTEX
  8
KERA1
  5
75D9
 10
3298.90
 20
2104.83
 30
0.000000
  70
    32
  0
VERTEX
  8
KERA1
  5
75DA
 10
3299.59
 20
2104.32
 30
0.000000
  70
    32
  0
VERTEX
  8
KERA1
  5
75DB
 10
3300.28
 20
2103.87
 30
0.000000
  70
    32
  0
VERTEX
  8
KERA1
  5
75DC
 10
3301.00
 20
2103.47
 30
0.000000
  70
    32
  0
VERTEX
  8
KERA1
  5
75DD
 10
3301.72
 20
2103.13
 30
0.000000
  70
    32
  0
VERTEX
  8
KERA1
  5
75DE
 10
3302.45
 20
2102.85
 30
0.000000
  70
    32
  0
VERTEX
  8
KERA1
  5
75DF
 10
3303.19
 20
2102.63
 30
0.000000
  70
    32
  0
VERTEX
  8
KERA1
  5
75E0
 10
3303.94
 20
2102.47
 30
0.000000
  70
    32
  0
VERTEX
  8
KERA1
  5
75E1
 10
3304.69
 20
2102.37
 30
0.000000
  70
    32
  0
VERTEX
  8
KERA1
  5
75E2
 10
3305.44
 20
2102.33
 30
0.000000
  70
    32
  0
VERTEX
  8
KERA1
  5
75E3
 10
3306.19
 20
2102.35
 30
0.000000
  70
    32
  0
VERTEX
  8
KERA1
  5
75E4
 10
3306.95
 20
2102.43
 30
0.000000
  70
    32
  0
VERTEX
  8
KERA1
  5
75E5
 10
3307.70
 20
2102.58
 30
0.000000
  70
    32
  0
VERTEX
  8
KERA1
  5
75E6
 10
3308.44
 20
2102.78
 30
0.000000
  70
    32
  0
VERTEX
  8
KERA1
  5
75E7
 10
3309.18
 20
2103.05
 30
0.000000
  70
    32
  0
VERTEX
  8
KERA1
  5
75E8
 10
3309.91
 20
2103.37
 30
0.000000
  70
    32
  0
VERTEX
  8
KERA1
  5
75E9
 10
3310.63
 20
2103.75
 30
0.000000
  70
    32
  0
VERTEX
  8
KERA1
  5
75EA
 10
3311.34
 20
2104.19
 30
0.000000
  70
    32
  0
VERTEX
  8
KERA1
  5
75EB
 10
3312.03
 20
2104.68
 30
0.000000
  70
    32
  0
VERTEX
  8
KERA1
  5
75EC
 10
3312.71
 20
2105.23
 30
0.000000
  70
    32
  0
VERTEX
  8
KERA1
  5
75ED
 10
3313.37
 20
2105.84
 30
0.000000
  70
    32
  0
VERTEX
  8
KERA1
  5
75EE
 10
3314.02
 20
2106.49
 30
0.000000
  70
    32
  0
VERTEX
  8
KERA1
  5
75EF
 10
3314.64
 20
2107.20
 30
0.000000
  70
    32
  0
VERTEX
  8
KERA1
  5
75F0
 10
3315.25
 20
2107.96
 30
0.000000
  70
    32
  0
VERTEX
  8
KERA1
  5
75F1
 10
3315.83
 20
2108.76
 30
0.000000
  70
    32
  0
VERTEX
  8
KERA1
  5
75F2
 10
3316.38
 20
2109.61
 30
0.000000
  70
    32
  0
VERTEX
  8
KERA1
  5
75F3
 10
3316.91
 20
2110.51
 30
0.000000
  70
    32
  0
VERTEX
  8
KERA1
  5
75F4
 10
3317.41
 20
2111.44
 30
0.000000
  70
    32
  0
VERTEX
  8
KERA1
  5
75F5
 10
3317.89
 20
2112.41
 30
0.000000
  70
    32
  0
VERTEX
  8
KERA1
  5
75F6
 10
3318.33
 20
2113.42
 30
0.000000
  70
    32
  0
VERTEX
  8
KERA1
  5
75F7
 10
3318.75
 20
2114.47
 30
0.000000
  70
    32
  0
VERTEX
  8
KERA1
  5
75F8
 10
3319.13
 20
2115.54
 30
0.000000
  70
    32
  0
VERTEX
  8
KERA1
  5
75F9
 10
3319.48
 20
2116.65
 30
0.000000
  70
    32
  0
VERTEX
  8
KERA1
  5
75FA
 10
3319.80
 20
2117.78
 30
0.000000
  70
    32
  0
VERTEX
  8
KERA1
  5
75FB
 10
3320.09
 20
2118.94
 30
0.000000
  70
    32
  0
VERTEX
  8
KERA1
  5
75FC
 10
3320.34
 20
2120.11
 30
0.000000
  70
    32
  0
VERTEX
  8
KERA1
  5
75FD
 10
3320.55
 20
2121.31
 30
0.000000
  70
    32
  0
VERTEX
  8
KERA1
  5
75FE
 10
3320.73
 20
2122.52
 30
0.000000
  70
    32
  0
VERTEX
  8
KERA1
  5
75FF
 10
3320.87
 20
2123.74
 30
0.000000
  70
    32
  0
VERTEX
  8
KERA1
  5
7600
 10
3320.98
 20
2124.97
 30
0.000000
  70
    32
  0
VERTEX
  8
KERA1
  5
7601
 10
3321.05
 20
2126.21
 30
0.000000
  70
    32
  0
VERTEX
  8
KERA1
  5
7602
 10
3321.08
 20
2127.45
 30
0.000000
  70
    32
  0
VERTEX
  8
KERA1
  5
7603
 10
3321.08
 20
2128.69
 30
0.000000
  70
    32
  0
VERTEX
  8
KERA1
  5
7604
 10
3321.04
 20
2129.93
 30
0.000000
  70
    32
  0
VERTEX
  8
KERA1
  5
7605
 10
3320.96
 20
2131.16
 30
0.000000
  70
    32
  0
VERTEX
  8
KERA1
  5
7606
 10
3320.85
 20
2132.39
 30
0.000000
  70
    32
  0
VERTEX
  8
KERA1
  5
7607
 10
3320.69
 20
2133.60
 30
0.000000
  70
    32
  0
VERTEX
  8
KERA1
  5
7608
 10
3320.51
 20
2134.80
 30
0.000000
  70
    32
  0
VERTEX
  8
KERA1
  5
7609
 10
3320.28
 20
2135.98
 30
0.000000
  70
    32
  0
VERTEX
  8
KERA1
  5
760A
 10
3320.03
 20
2137.14
 30
0.000000
  70
    32
  0
VERTEX
  8
KERA1
  5
760B
 10
3319.73
 20
2138.28
 30
0.000000
  70
    32
  0
VERTEX
  8
KERA1
  5
760C
 10
3319.41
 20
2139.39
 30
0.000000
  70
    32
  0
VERTEX
  8
KERA1
  5
760D
 10
3319.05
 20
2140.48
 30
0.000000
  70
    32
  0
VERTEX
  8
KERA1
  5
760E
 10
3318.66
 20
2141.53
 30
0.000000
  70
    32
  0
VERTEX
  8
KERA1
  5
760F
 10
3318.24
 20
2142.55
 30
0.000000
  70
    32
  0
VERTEX
  8
KERA1
  5
7610
 10
3317.78
 20
2143.53
 30
0.000000
  70
    32
  0
VERTEX
  8
KERA1
  5
7611
 10
3317.30
 20
2144.48
 30
0.000000
  70
    32
  0
VERTEX
  8
KERA1
  5
7612
 10
3316.79
 20
2145.39
 30
0.000000
  70
    32
  0
VERTEX
  8
KERA1
  5
7613
 10
3316.26
 20
2146.25
 30
0.000000
  70
    32
  0
VERTEX
  8
KERA1
  5
7614
 10
3315.70
 20
2147.07
 30
0.000000
  70
    32
  0
VERTEX
  8
KERA1
  5
7615
 10
3315.11
 20
2147.84
 30
0.000000
  70
    32
  0
VERTEX
  8
KERA1
  5
7616
 10
3314.50
 20
2148.56
 30
0.000000
  70
    32
  0
VERTEX
  8
KERA1
  5
7617
 10
3313.87
 20
2149.23
 30
0.000000
  70
    32
  0
VERTEX
  8
KERA1
  5
7618
 10
3313.23
 20
2149.85
 30
0.000000
  70
    32
  0
VERTEX
  8
KERA1
  5
7619
 10
3312.56
 20
2150.41
 30
0.000000
  70
    32
  0
VERTEX
  8
KERA1
  5
761A
 10
3311.88
 20
2150.93
 30
0.000000
  70
    32
  0
VERTEX
  8
KERA1
  5
761B
 10
3311.18
 20
2151.38
 30
0.000000
  70
    32
  0
VERTEX
  8
KERA1
  5
761C
 10
3310.47
 20
2151.78
 30
0.000000
  70
    32
  0
VERTEX
  8
KERA1
  5
761D
 10
3309.74
 20
2152.12
 30
0.000000
  70
    32
  0
VERTEX
  8
KERA1
  5
761E
 10
3309.01
 20
2152.40
 30
0.000000
  70
    32
  0
VERTEX
  8
KERA1
  5
761F
 10
3308.27
 20
2152.62
 30
0.000000
  70
    32
  0
VERTEX
  8
KERA1
  5
7620
 10
3307.53
 20
2152.78
 30
0.000000
  70
    32
  0
VERTEX
  8
KERA1
  5
7621
 10
3306.78
 20
2152.88
 30
0.000000
  70
    32
  0
VERTEX
  8
KERA1
  5
7622
 10
3306.02
 20
2152.92
 30
0.000000
  70
    32
  0
SEQEND
  8
KERA1
  5
7623
  0
POLYLINE
  5
71CA
  8
KERA1
 10
3332.0845215928098
 20
2190.1186747977495
 30
0.0
 66
     1
 70
     8
  0
VERTEX
  8
KERA1
  5
7624
 10
3332.08
 20
2190.12
 30
0.000000
  70
    32
  0
VERTEX
  8
KERA1
  5
7625
 10
3331.72
 20
2190.10
 30
0.000000
  70
    32
  0
VERTEX
  8
KERA1
  5
7626
 10
3331.35
 20
2190.06
 30
0.000000
  70
    32
  0
VERTEX
  8
KERA1
  5
7627
 10
3330.99
 20
2189.99
 30
0.000000
  70
    32
  0
VERTEX
  8
KERA1
  5
7628
 10
3330.63
 20
2189.88
 30
0.000000
  70
    32
  0
VERTEX
  8
KERA1
  5
7629
 10
3330.27
 20
2189.75
 30
0.000000
  70
    32
  0
VERTEX
  8
KERA1
  5
762A
 10
3329.92
 20
2189.59
 30
0.000000
  70
    32
  0
VERTEX
  8
KERA1
  5
762B
 10
3329.57
 20
2189.40
 30
0.000000
  70
    32
  0
VERTEX
  8
KERA1
  5
762C
 10
3329.23
 20
2189.18
 30
0.000000
  70
    32
  0
VERTEX
  8
KERA1
  5
762D
 10
3328.89
 20
2188.94
 30
0.000000
  70
    32
  0
VERTEX
  8
KERA1
  5
762E
 10
3328.56
 20
2188.66
 30
0.000000
  70
    32
  0
VERTEX
  8
KERA1
  5
762F
 10
3328.25
 20
2188.37
 30
0.000000
  70
    32
  0
VERTEX
  8
KERA1
  5
7630
 10
3327.94
 20
2188.04
 30
0.000000
  70
    32
  0
VERTEX
  8
KERA1
  5
7631
 10
3327.64
 20
2187.69
 30
0.000000
  70
    32
  0
VERTEX
  8
KERA1
  5
7632
 10
3327.35
 20
2187.32
 30
0.000000
  70
    32
  0
VERTEX
  8
KERA1
  5
7633
 10
3327.07
 20
2186.93
 30
0.000000
  70
    32
  0
VERTEX
  8
KERA1
  5
7634
 10
3326.80
 20
2186.51
 30
0.000000
  70
    32
  0
VERTEX
  8
KERA1
  5
7635
 10
3326.55
 20
2186.07
 30
0.000000
  70
    32
  0
VERTEX
  8
KERA1
  5
7636
 10
3326.31
 20
2185.61
 30
0.000000
  70
    32
  0
VERTEX
  8
KERA1
  5
7637
 10
3326.09
 20
2185.14
 30
0.000000
  70
    32
  0
VERTEX
  8
KERA1
  5
7638
 10
3325.88
 20
2184.64
 30
0.000000
  70
    32
  0
VERTEX
  8
KERA1
  5
7639
 10
3325.68
 20
2184.13
 30
0.000000
  70
    32
  0
VERTEX
  8
KERA1
  5
763A
 10
3325.50
 20
2183.60
 30
0.000000
  70
    32
  0
VERTEX
  8
KERA1
  5
763B
 10
3325.33
 20
2183.06
 30
0.000000
  70
    32
  0
VERTEX
  8
KERA1
  5
763C
 10
3325.19
 20
2182.51
 30
0.000000
  70
    32
  0
VERTEX
  8
KERA1
  5
763D
 10
3325.05
 20
2181.95
 30
0.000000
  70
    32
  0
VERTEX
  8
KERA1
  5
763E
 10
3324.94
 20
2181.37
 30
0.000000
  70
    32
  0
VERTEX
  8
KERA1
  5
763F
 10
3324.84
 20
2180.79
 30
0.000000
  70
    32
  0
VERTEX
  8
KERA1
  5
7640
 10
3324.76
 20
2180.20
 30
0.000000
  70
    32
  0
VERTEX
  8
KERA1
  5
7641
 10
3324.70
 20
2179.60
 30
0.000000
  70
    32
  0
VERTEX
  8
KERA1
  5
7642
 10
3324.65
 20
2179.00
 30
0.000000
  70
    32
  0
VERTEX
  8
KERA1
  5
7643
 10
3324.63
 20
2178.40
 30
0.000000
  70
    32
  0
VERTEX
  8
KERA1
  5
7644
 10
3324.62
 20
2177.79
 30
0.000000
  70
    32
  0
VERTEX
  8
KERA1
  5
7645
 10
3324.63
 20
2177.19
 30
0.000000
  70
    32
  0
VERTEX
  8
KERA1
  5
7646
 10
3324.65
 20
2176.59
 30
0.000000
  70
    32
  0
VERTEX
  8
KERA1
  5
7647
 10
3324.70
 20
2175.98
 30
0.000000
  70
    32
  0
VERTEX
  8
KERA1
  5
7648
 10
3324.76
 20
2175.39
 30
0.000000
  70
    32
  0
VERTEX
  8
KERA1
  5
7649
 10
3324.84
 20
2174.80
 30
0.000000
  70
    32
  0
VERTEX
  8
KERA1
  5
764A
 10
3324.94
 20
2174.22
 30
0.000000
  70
    32
  0
VERTEX
  8
KERA1
  5
764B
 10
3325.05
 20
2173.64
 30
0.000000
  70
    32
  0
VERTEX
  8
KERA1
  5
764C
 10
3325.19
 20
2173.08
 30
0.000000
  70
    32
  0
VERTEX
  8
KERA1
  5
764D
 10
3325.33
 20
2172.52
 30
0.000000
  70
    32
  0
VERTEX
  8
KERA1
  5
764E
 10
3325.50
 20
2171.98
 30
0.000000
  70
    32
  0
VERTEX
  8
KERA1
  5
764F
 10
3325.68
 20
2171.46
 30
0.000000
  70
    32
  0
VERTEX
  8
KERA1
  5
7650
 10
3325.88
 20
2170.95
 30
0.000000
  70
    32
  0
VERTEX
  8
KERA1
  5
7651
 10
3326.09
 20
2170.45
 30
0.000000
  70
    32
  0
VERTEX
  8
KERA1
  5
7652
 10
3326.31
 20
2169.97
 30
0.000000
  70
    32
  0
VERTEX
  8
KERA1
  5
7653
 10
3326.55
 20
2169.52
 30
0.000000
  70
    32
  0
VERTEX
  8
KERA1
  5
7654
 10
3326.80
 20
2169.08
 30
0.000000
  70
    32
  0
VERTEX
  8
KERA1
  5
7655
 10
3327.07
 20
2168.66
 30
0.000000
  70
    32
  0
VERTEX
  8
KERA1
  5
7656
 10
3327.35
 20
2168.27
 30
0.000000
  70
    32
  0
VERTEX
  8
KERA1
  5
7657
 10
3327.64
 20
2167.89
 30
0.000000
  70
    32
  0
VERTEX
  8
KERA1
  5
7658
 10
3327.94
 20
2167.54
 30
0.000000
  70
    32
  0
VERTEX
  8
KERA1
  5
7659
 10
3328.25
 20
2167.22
 30
0.000000
  70
    32
  0
VERTEX
  8
KERA1
  5
765A
 10
3328.56
 20
2166.92
 30
0.000000
  70
    32
  0
VERTEX
  8
KERA1
  5
765B
 10
3328.89
 20
2166.65
 30
0.000000
  70
    32
  0
VERTEX
  8
KERA1
  5
765C
 10
3329.23
 20
2166.41
 30
0.000000
  70
    32
  0
VERTEX
  8
KERA1
  5
765D
 10
3329.57
 20
2166.19
 30
0.000000
  70
    32
  0
VERTEX
  8
KERA1
  5
765E
 10
3329.92
 20
2166.00
 30
0.000000
  70
    32
  0
VERTEX
  8
KERA1
  5
765F
 10
3330.27
 20
2165.84
 30
0.000000
  70
    32
  0
VERTEX
  8
KERA1
  5
7660
 10
3330.63
 20
2165.70
 30
0.000000
  70
    32
  0
VERTEX
  8
KERA1
  5
7661
 10
3330.99
 20
2165.60
 30
0.000000
  70
    32
  0
VERTEX
  8
KERA1
  5
7662
 10
3331.35
 20
2165.53
 30
0.000000
  70
    32
  0
VERTEX
  8
KERA1
  5
7663
 10
3331.72
 20
2165.48
 30
0.000000
  70
    32
  0
VERTEX
  8
KERA1
  5
7664
 10
3332.08
 20
2165.47
 30
0.000000
  70
    32
  0
VERTEX
  8
KERA1
  5
7665
 10
3332.45
 20
2165.48
 30
0.000000
  70
    32
  0
VERTEX
  8
KERA1
  5
7666
 10
3332.82
 20
2165.53
 30
0.000000
  70
    32
  0
VERTEX
  8
KERA1
  5
7667
 10
3333.18
 20
2165.60
 30
0.000000
  70
    32
  0
VERTEX
  8
KERA1
  5
7668
 10
3333.54
 20
2165.70
 30
0.000000
  70
    32
  0
VERTEX
  8
KERA1
  5
7669
 10
3333.90
 20
2165.84
 30
0.000000
  70
    32
  0
VERTEX
  8
KERA1
  5
766A
 10
3334.25
 20
2166.00
 30
0.000000
  70
    32
  0
VERTEX
  8
KERA1
  5
766B
 10
3334.60
 20
2166.19
 30
0.000000
  70
    32
  0
VERTEX
  8
KERA1
  5
766C
 10
3334.94
 20
2166.41
 30
0.000000
  70
    32
  0
VERTEX
  8
KERA1
  5
766D
 10
3335.28
 20
2166.65
 30
0.000000
  70
    32
  0
VERTEX
  8
KERA1
  5
766E
 10
3335.60
 20
2166.92
 30
0.000000
  70
    32
  0
VERTEX
  8
KERA1
  5
766F
 10
3335.92
 20
2167.22
 30
0.000000
  70
    32
  0
VERTEX
  8
KERA1
  5
7670
 10
3336.23
 20
2167.54
 30
0.000000
  70
    32
  0
VERTEX
  8
KERA1
  5
7671
 10
3336.53
 20
2167.89
 30
0.000000
  70
    32
  0
VERTEX
  8
KERA1
  5
7672
 10
3336.82
 20
2168.27
 30
0.000000
  70
    32
  0
VERTEX
  8
KERA1
  5
7673
 10
3337.10
 20
2168.66
 30
0.000000
  70
    32
  0
VERTEX
  8
KERA1
  5
7674
 10
3337.36
 20
2169.08
 30
0.000000
  70
    32
  0
VERTEX
  8
KERA1
  5
7675
 10
3337.62
 20
2169.52
 30
0.000000
  70
    32
  0
VERTEX
  8
KERA1
  5
7676
 10
3337.86
 20
2169.97
 30
0.000000
  70
    32
  0
VERTEX
  8
KERA1
  5
7677
 10
3338.08
 20
2170.45
 30
0.000000
  70
    32
  0
VERTEX
  8
KERA1
  5
7678
 10
3338.29
 20
2170.95
 30
0.000000
  70
    32
  0
VERTEX
  8
KERA1
  5
7679
 10
3338.49
 20
2171.46
 30
0.000000
  70
    32
  0
VERTEX
  8
KERA1
  5
767A
 10
3338.67
 20
2171.98
 30
0.000000
  70
    32
  0
VERTEX
  8
KERA1
  5
767B
 10
3338.83
 20
2172.52
 30
0.000000
  70
    32
  0
VERTEX
  8
KERA1
  5
767C
 10
3338.98
 20
2173.08
 30
0.000000
  70
    32
  0
VERTEX
  8
KERA1
  5
767D
 10
3339.12
 20
2173.64
 30
0.000000
  70
    32
  0
VERTEX
  8
KERA1
  5
767E
 10
3339.23
 20
2174.22
 30
0.000000
  70
    32
  0
VERTEX
  8
KERA1
  5
767F
 10
3339.33
 20
2174.80
 30
0.000000
  70
    32
  0
VERTEX
  8
KERA1
  5
7680
 10
3339.41
 20
2175.39
 30
0.000000
  70
    32
  0
VERTEX
  8
KERA1
  5
7681
 10
3339.47
 20
2175.98
 30
0.000000
  70
    32
  0
VERTEX
  8
KERA1
  5
7682
 10
3339.52
 20
2176.59
 30
0.000000
  70
    32
  0
VERTEX
  8
KERA1
  5
7683
 10
3339.54
 20
2177.19
 30
0.000000
  70
    32
  0
VERTEX
  8
KERA1
  5
7684
 10
3339.55
 20
2177.79
 30
0.000000
  70
    32
  0
VERTEX
  8
KERA1
  5
7685
 10
3339.54
 20
2178.40
 30
0.000000
  70
    32
  0
VERTEX
  8
KERA1
  5
7686
 10
3339.52
 20
2179.00
 30
0.000000
  70
    32
  0
VERTEX
  8
KERA1
  5
7687
 10
3339.47
 20
2179.60
 30
0.000000
  70
    32
  0
VERTEX
  8
KERA1
  5
7688
 10
3339.41
 20
2180.20
 30
0.000000
  70
    32
  0
VERTEX
  8
KERA1
  5
7689
 10
3339.33
 20
2180.79
 30
0.000000
  70
    32
  0
VERTEX
  8
KERA1
  5
768A
 10
3339.23
 20
2181.37
 30
0.000000
  70
    32
  0
VERTEX
  8
KERA1
  5
768B
 10
3339.12
 20
2181.95
 30
0.000000
  70
    32
  0
VERTEX
  8
KERA1
  5
768C
 10
3338.98
 20
2182.51
 30
0.000000
  70
    32
  0
VERTEX
  8
KERA1
  5
768D
 10
3338.83
 20
2183.06
 30
0.000000
  70
    32
  0
VERTEX
  8
KERA1
  5
768E
 10
3338.67
 20
2183.60
 30
0.000000
  70
    32
  0
VERTEX
  8
KERA1
  5
768F
 10
3338.49
 20
2184.13
 30
0.000000
  70
    32
  0
VERTEX
  8
KERA1
  5
7690
 10
3338.29
 20
2184.64
 30
0.000000
  70
    32
  0
VERTEX
  8
KERA1
  5
7691
 10
3338.08
 20
2185.14
 30
0.000000
  70
    32
  0
VERTEX
  8
KERA1
  5
7692
 10
3337.86
 20
2185.61
 30
0.000000
  70
    32
  0
VERTEX
  8
KERA1
  5
7693
 10
3337.62
 20
2186.07
 30
0.000000
  70
    32
  0
VERTEX
  8
KERA1
  5
7694
 10
3337.36
 20
2186.51
 30
0.000000
  70
    32
  0
VERTEX
  8
KERA1
  5
7695
 10
3337.10
 20
2186.93
 30
0.000000
  70
    32
  0
VERTEX
  8
KERA1
  5
7696
 10
3336.82
 20
2187.32
 30
0.000000
  70
    32
  0
VERTEX
  8
KERA1
  5
7697
 10
3336.53
 20
2187.69
 30
0.000000
  70
    32
  0
VERTEX
  8
KERA1
  5
7698
 10
3336.23
 20
2188.04
 30
0.000000
  70
    32
  0
VERTEX
  8
KERA1
  5
7699
 10
3335.92
 20
2188.37
 30
0.000000
  70
    32
  0
VERTEX
  8
KERA1
  5
769A
 10
3335.60
 20
2188.66
 30
0.000000
  70
    32
  0
VERTEX
  8
KERA1
  5
769B
 10
3335.28
 20
2188.94
 30
0.000000
  70
    32
  0
VERTEX
  8
KERA1
  5
769C
 10
3334.94
 20
2189.18
 30
0.000000
  70
    32
  0
VERTEX
  8
KERA1
  5
769D
 10
3334.60
 20
2189.40
 30
0.000000
  70
    32
  0
VERTEX
  8
KERA1
  5
769E
 10
3334.25
 20
2189.59
 30
0.000000
  70
    32
  0
VERTEX
  8
KERA1
  5
769F
 10
3333.90
 20
2189.75
 30
0.000000
  70
    32
  0
VERTEX
  8
KERA1
  5
76A0
 10
3333.54
 20
2189.88
 30
0.000000
  70
    32
  0
VERTEX
  8
KERA1
  5
76A1
 10
3333.18
 20
2189.99
 30
0.000000
  70
    32
  0
VERTEX
  8
KERA1
  5
76A2
 10
3332.82
 20
2190.06
 30
0.000000
  70
    32
  0
VERTEX
  8
KERA1
  5
76A3
 10
3332.45
 20
2190.10
 30
0.000000
  70
    32
  0
VERTEX
  8
KERA1
  5
76A4
 10
3332.08
 20
2190.12
 30
0.000000
  70
    32
  0
SEQEND
  8
KERA1
  5
76A5
  0
POLYLINE
  5
71CB
  8
KERA1
 10
3387.5174265826572
 20
2189.2736747977506
 30
0.0
 66
     1
 70
     8
  0
VERTEX
  8
KERA1
  5
76A6
 10
3387.52
 20
2189.27
 30
0.000000
  70
    32
  0
VERTEX
  8
KERA1
  5
76A7
 10
3387.15
 20
2189.26
 30
0.000000
  70
    32
  0
VERTEX
  8
KERA1
  5
76A8
 10
3386.79
 20
2189.21
 30
0.000000
  70
    32
  0
VERTEX
  8
KERA1
  5
76A9
 10
3386.42
 20
2189.14
 30
0.000000
  70
    32
  0
VERTEX
  8
KERA1
  5
76AA
 10
3386.06
 20
2189.04
 30
0.000000
  70
    32
  0
VERTEX
  8
KERA1
  5
76AB
 10
3385.70
 20
2188.90
 30
0.000000
  70
    32
  0
VERTEX
  8
KERA1
  5
76AC
 10
3385.35
 20
2188.74
 30
0.000000
  70
    32
  0
VERTEX
  8
KERA1
  5
76AD
 10
3385.00
 20
2188.55
 30
0.000000
  70
    32
  0
VERTEX
  8
KERA1
  5
76AE
 10
3384.66
 20
2188.34
 30
0.000000
  70
    32
  0
VERTEX
  8
KERA1
  5
76AF
 10
3384.32
 20
2188.09
 30
0.000000
  70
    32
  0
VERTEX
  8
KERA1
  5
76B0
 10
3384.00
 20
2187.82
 30
0.000000
  70
    32
  0
VERTEX
  8
KERA1
  5
76B1
 10
3383.68
 20
2187.52
 30
0.000000
  70
    32
  0
VERTEX
  8
KERA1
  5
76B2
 10
3383.37
 20
2187.20
 30
0.000000
  70
    32
  0
VERTEX
  8
KERA1
  5
76B3
 10
3383.07
 20
2186.85
 30
0.000000
  70
    32
  0
VERTEX
  8
KERA1
  5
76B4
 10
3382.78
 20
2186.48
 30
0.000000
  70
    32
  0
VERTEX
  8
KERA1
  5
76B5
 10
3382.50
 20
2186.08
 30
0.000000
  70
    32
  0
VERTEX
  8
KERA1
  5
76B6
 10
3382.24
 20
2185.66
 30
0.000000
  70
    32
  0
VERTEX
  8
KERA1
  5
76B7
 10
3381.98
 20
2185.23
 30
0.000000
  70
    32
  0
VERTEX
  8
KERA1
  5
76B8
 10
3381.75
 20
2184.77
 30
0.000000
  70
    32
  0
VERTEX
  8
KERA1
  5
76B9
 10
3381.52
 20
2184.29
 30
0.000000
  70
    32
  0
VERTEX
  8
KERA1
  5
76BA
 10
3381.31
 20
2183.80
 30
0.000000
  70
    32
  0
VERTEX
  8
KERA1
  5
76BB
 10
3381.11
 20
2183.28
 30
0.000000
  70
    32
  0
VERTEX
  8
KERA1
  5
76BC
 10
3380.93
 20
2182.76
 30
0.000000
  70
    32
  0
VERTEX
  8
KERA1
  5
76BD
 10
3380.77
 20
2182.22
 30
0.000000
  70
    32
  0
VERTEX
  8
KERA1
  5
76BE
 10
3380.62
 20
2181.66
 30
0.000000
  70
    32
  0
VERTEX
  8
KERA1
  5
76BF
 10
3380.49
 20
2181.10
 30
0.000000
  70
    32
  0
VERTEX
  8
KERA1
  5
76C0
 10
3380.37
 20
2180.53
 30
0.000000
  70
    32
  0
VERTEX
  8
KERA1
  5
76C1
 10
3380.27
 20
2179.94
 30
0.000000
  70
    32
  0
VERTEX
  8
KERA1
  5
76C2
 10
3380.19
 20
2179.35
 30
0.000000
  70
    32
  0
VERTEX
  8
KERA1
  5
76C3
 10
3380.13
 20
2178.76
 30
0.000000
  70
    32
  0
VERTEX
  8
KERA1
  5
76C4
 10
3380.09
 20
2178.16
 30
0.000000
  70
    32
  0
VERTEX
  8
KERA1
  5
76C5
 10
3380.06
 20
2177.55
 30
0.000000
  70
    32
  0
VERTEX
  8
KERA1
  5
76C6
 10
3380.05
 20
2176.95
 30
0.000000
  70
    32
  0
VERTEX
  8
KERA1
  5
76C7
 10
3380.06
 20
2176.34
 30
0.000000
  70
    32
  0
VERTEX
  8
KERA1
  5
76C8
 10
3380.09
 20
2175.74
 30
0.000000
  70
    32
  0
VERTEX
  8
KERA1
  5
76C9
 10
3380.13
 20
2175.14
 30
0.000000
  70
    32
  0
VERTEX
  8
KERA1
  5
76CA
 10
3380.19
 20
2174.54
 30
0.000000
  70
    32
  0
VERTEX
  8
KERA1
  5
76CB
 10
3380.27
 20
2173.95
 30
0.000000
  70
    32
  0
VERTEX
  8
KERA1
  5
76CC
 10
3380.37
 20
2173.37
 30
0.000000
  70
    32
  0
VERTEX
  8
KERA1
  5
76CD
 10
3380.49
 20
2172.80
 30
0.000000
  70
    32
  0
VERTEX
  8
KERA1
  5
76CE
 10
3380.62
 20
2172.23
 30
0.000000
  70
    32
  0
VERTEX
  8
KERA1
  5
76CF
 10
3380.77
 20
2171.68
 30
0.000000
  70
    32
  0
VERTEX
  8
KERA1
  5
76D0
 10
3380.93
 20
2171.14
 30
0.000000
  70
    32
  0
VERTEX
  8
KERA1
  5
76D1
 10
3381.11
 20
2170.61
 30
0.000000
  70
    32
  0
VERTEX
  8
KERA1
  5
76D2
 10
3381.31
 20
2170.10
 30
0.000000
  70
    32
  0
VERTEX
  8
KERA1
  5
76D3
 10
3381.52
 20
2169.61
 30
0.000000
  70
    32
  0
VERTEX
  8
KERA1
  5
76D4
 10
3381.75
 20
2169.13
 30
0.000000
  70
    32
  0
VERTEX
  8
KERA1
  5
76D5
 10
3381.98
 20
2168.67
 30
0.000000
  70
    32
  0
VERTEX
  8
KERA1
  5
76D6
 10
3382.24
 20
2168.23
 30
0.000000
  70
    32
  0
VERTEX
  8
KERA1
  5
76D7
 10
3382.50
 20
2167.82
 30
0.000000
  70
    32
  0
VERTEX
  8
KERA1
  5
76D8
 10
3382.78
 20
2167.42
 30
0.000000
  70
    32
  0
VERTEX
  8
KERA1
  5
76D9
 10
3383.07
 20
2167.05
 30
0.000000
  70
    32
  0
VERTEX
  8
KERA1
  5
76DA
 10
3383.37
 20
2166.70
 30
0.000000
  70
    32
  0
VERTEX
  8
KERA1
  5
76DB
 10
3383.68
 20
2166.38
 30
0.000000
  70
    32
  0
VERTEX
  8
KERA1
  5
76DC
 10
3384.00
 20
2166.08
 30
0.000000
  70
    32
  0
VERTEX
  8
KERA1
  5
76DD
 10
3384.32
 20
2165.81
 30
0.000000
  70
    32
  0
VERTEX
  8
KERA1
  5
76DE
 10
3384.66
 20
2165.56
 30
0.000000
  70
    32
  0
VERTEX
  8
KERA1
  5
76DF
 10
3385.00
 20
2165.34
 30
0.000000
  70
    32
  0
VERTEX
  8
KERA1
  5
76E0
 10
3385.35
 20
2165.15
 30
0.000000
  70
    32
  0
VERTEX
  8
KERA1
  5
76E1
 10
3385.70
 20
2164.99
 30
0.000000
  70
    32
  0
VERTEX
  8
KERA1
  5
76E2
 10
3386.06
 20
2164.86
 30
0.000000
  70
    32
  0
VERTEX
  8
KERA1
  5
76E3
 10
3386.42
 20
2164.76
 30
0.000000
  70
    32
  0
VERTEX
  8
KERA1
  5
76E4
 10
3386.79
 20
2164.68
 30
0.000000
  70
    32
  0
VERTEX
  8
KERA1
  5
76E5
 10
3387.15
 20
2164.64
 30
0.000000
  70
    32
  0
VERTEX
  8
KERA1
  5
76E6
 10
3387.52
 20
2164.62
 30
0.000000
  70
    32
  0
VERTEX
  8
KERA1
  5
76E7
 10
3387.88
 20
2164.64
 30
0.000000
  70
    32
  0
VERTEX
  8
KERA1
  5
76E8
 10
3388.25
 20
2164.68
 30
0.000000
  70
    32
  0
VERTEX
  8
KERA1
  5
76E9
 10
3388.61
 20
2164.76
 30
0.000000
  70
    32
  0
VERTEX
  8
KERA1
  5
76EA
 10
3388.97
 20
2164.86
 30
0.000000
  70
    32
  0
VERTEX
  8
KERA1
  5
76EB
 10
3389.33
 20
2164.99
 30
0.000000
  70
    32
  0
VERTEX
  8
KERA1
  5
76EC
 10
3389.68
 20
2165.15
 30
0.000000
  70
    32
  0
VERTEX
  8
KERA1
  5
76ED
 10
3390.03
 20
2165.34
 30
0.000000
  70
    32
  0
VERTEX
  8
KERA1
  5
76EE
 10
3390.37
 20
2165.56
 30
0.000000
  70
    32
  0
VERTEX
  8
KERA1
  5
76EF
 10
3390.71
 20
2165.81
 30
0.000000
  70
    32
  0
VERTEX
  8
KERA1
  5
76F0
 10
3391.04
 20
2166.08
 30
0.000000
  70
    32
  0
VERTEX
  8
KERA1
  5
76F1
 10
3391.36
 20
2166.38
 30
0.000000
  70
    32
  0
VERTEX
  8
KERA1
  5
76F2
 10
3391.67
 20
2166.70
 30
0.000000
  70
    32
  0
VERTEX
  8
KERA1
  5
76F3
 10
3391.97
 20
2167.05
 30
0.000000
  70
    32
  0
VERTEX
  8
KERA1
  5
76F4
 10
3392.25
 20
2167.42
 30
0.000000
  70
    32
  0
VERTEX
  8
KERA1
  5
76F5
 10
3392.53
 20
2167.82
 30
0.000000
  70
    32
  0
VERTEX
  8
KERA1
  5
76F6
 10
3392.80
 20
2168.23
 30
0.000000
  70
    32
  0
VERTEX
  8
KERA1
  5
76F7
 10
3393.05
 20
2168.67
 30
0.000000
  70
    32
  0
VERTEX
  8
KERA1
  5
76F8
 10
3393.29
 20
2169.13
 30
0.000000
  70
    32
  0
VERTEX
  8
KERA1
  5
76F9
 10
3393.51
 20
2169.61
 30
0.000000
  70
    32
  0
VERTEX
  8
KERA1
  5
76FA
 10
3393.73
 20
2170.10
 30
0.000000
  70
    32
  0
VERTEX
  8
KERA1
  5
76FB
 10
3393.92
 20
2170.61
 30
0.000000
  70
    32
  0
VERTEX
  8
KERA1
  5
76FC
 10
3394.10
 20
2171.14
 30
0.000000
  70
    32
  0
VERTEX
  8
KERA1
  5
76FD
 10
3394.27
 20
2171.68
 30
0.000000
  70
    32
  0
VERTEX
  8
KERA1
  5
76FE
 10
3394.42
 20
2172.23
 30
0.000000
  70
    32
  0
VERTEX
  8
KERA1
  5
76FF
 10
3394.55
 20
2172.80
 30
0.000000
  70
    32
  0
VERTEX
  8
KERA1
  5
7700
 10
3394.66
 20
2173.37
 30
0.000000
  70
    32
  0
VERTEX
  8
KERA1
  5
7701
 10
3394.76
 20
2173.95
 30
0.000000
  70
    32
  0
VERTEX
  8
KERA1
  5
7702
 10
3394.84
 20
2174.54
 30
0.000000
  70
    32
  0
VERTEX
  8
KERA1
  5
7703
 10
3394.90
 20
2175.14
 30
0.000000
  70
    32
  0
VERTEX
  8
KERA1
  5
7704
 10
3394.95
 20
2175.74
 30
0.000000
  70
    32
  0
VERTEX
  8
KERA1
  5
7705
 10
3394.98
 20
2176.34
 30
0.000000
  70
    32
  0
VERTEX
  8
KERA1
  5
7706
 10
3394.98
 20
2176.95
 30
0.000000
  70
    32
  0
VERTEX
  8
KERA1
  5
7707
 10
3394.98
 20
2177.55
 30
0.000000
  70
    32
  0
VERTEX
  8
KERA1
  5
7708
 10
3394.95
 20
2178.16
 30
0.000000
  70
    32
  0
VERTEX
  8
KERA1
  5
7709
 10
3394.90
 20
2178.76
 30
0.000000
  70
    32
  0
VERTEX
  8
KERA1
  5
770A
 10
3394.84
 20
2179.35
 30
0.000000
  70
    32
  0
VERTEX
  8
KERA1
  5
770B
 10
3394.76
 20
2179.94
 30
0.000000
  70
    32
  0
VERTEX
  8
KERA1
  5
770C
 10
3394.66
 20
2180.53
 30
0.000000
  70
    32
  0
VERTEX
  8
KERA1
  5
770D
 10
3394.55
 20
2181.10
 30
0.000000
  70
    32
  0
VERTEX
  8
KERA1
  5
770E
 10
3394.42
 20
2181.66
 30
0.000000
  70
    32
  0
VERTEX
  8
KERA1
  5
770F
 10
3394.27
 20
2182.22
 30
0.000000
  70
    32
  0
VERTEX
  8
KERA1
  5
7710
 10
3394.10
 20
2182.76
 30
0.000000
  70
    32
  0
VERTEX
  8
KERA1
  5
7711
 10
3393.92
 20
2183.28
 30
0.000000
  70
    32
  0
VERTEX
  8
KERA1
  5
7712
 10
3393.73
 20
2183.80
 30
0.000000
  70
    32
  0
VERTEX
  8
KERA1
  5
7713
 10
3393.51
 20
2184.29
 30
0.000000
  70
    32
  0
VERTEX
  8
KERA1
  5
7714
 10
3393.29
 20
2184.77
 30
0.000000
  70
    32
  0
VERTEX
  8
KERA1
  5
7715
 10
3393.05
 20
2185.23
 30
0.000000
  70
    32
  0
VERTEX
  8
KERA1
  5
7716
 10
3392.80
 20
2185.66
 30
0.000000
  70
    32
  0
VERTEX
  8
KERA1
  5
7717
 10
3392.53
 20
2186.08
 30
0.000000
  70
    32
  0
VERTEX
  8
KERA1
  5
7718
 10
3392.25
 20
2186.48
 30
0.000000
  70
    32
  0
VERTEX
  8
KERA1
  5
7719
 10
3391.97
 20
2186.85
 30
0.000000
  70
    32
  0
VERTEX
  8
KERA1
  5
771A
 10
3391.67
 20
2187.20
 30
0.000000
  70
    32
  0
VERTEX
  8
KERA1
  5
771B
 10
3391.36
 20
2187.52
 30
0.000000
  70
    32
  0
VERTEX
  8
KERA1
  5
771C
 10
3391.04
 20
2187.82
 30
0.000000
  70
    32
  0
VERTEX
  8
KERA1
  5
771D
 10
3390.71
 20
2188.09
 30
0.000000
  70
    32
  0
VERTEX
  8
KERA1
  5
771E
 10
3390.37
 20
2188.34
 30
0.000000
  70
    32
  0
VERTEX
  8
KERA1
  5
771F
 10
3390.03
 20
2188.55
 30
0.000000
  70
    32
  0
VERTEX
  8
KERA1
  5
7720
 10
3389.68
 20
2188.74
 30
0.000000
  70
    32
  0
VERTEX
  8
KERA1
  5
7721
 10
3389.33
 20
2188.90
 30
0.000000
  70
    32
  0
VERTEX
  8
KERA1
  5
7722
 10
3388.97
 20
2189.04
 30
0.000000
  70
    32
  0
VERTEX
  8
KERA1
  5
7723
 10
3388.61
 20
2189.14
 30
0.000000
  70
    32
  0
VERTEX
  8
KERA1
  5
7724
 10
3388.25
 20
2189.21
 30
0.000000
  70
    32
  0
VERTEX
  8
KERA1
  5
7725
 10
3387.88
 20
2189.26
 30
0.000000
  70
    32
  0
VERTEX
  8
KERA1
  5
7726
 10
3387.52
 20
2189.27
 30
0.000000
  70
    32
  0
SEQEND
  8
KERA1
  5
7727
  0
LINE
  5
71CC
  8
KERA0
 10
4555.6533681708906
 20
2437.6170284805639
 30
0.0
 11
5100.1255896845323
 21
2437.6170284805639
 31
0.0
  0
LINE
  5
71CD
  8
KERA0
 10
4555.6533681708906
 20
2397.6170284805639
 30
0.0
 11
5100.1255896845323
 21
2397.6170284805639
 31
0.0
  0
LINE
  5
71CE
  8
KERA0
 10
5100.1255896845323
 20
2437.6170284805639
 30
0.0
 11
5100.1255896845323
 21
2397.6170284805639
 31
0.0
  0
LINE
  5
71CF
  8
KERA0
 10
4800.2876676978894
 20
2275.6278004342639
 30
0.0
 11
4705.2876676978904
 21
2275.6278004342639
 31
0.0
  0
LINE
  5
71D0
  8
KERA0
 10
4800.2876676978894
 20
2237.6200284805641
 30
0.0
 11
4705.2876676978876
 21
2237.6200284805641
 31
0.0
  0
LINE
  5
71D1
  8
KERA0
 10
4705.2876676978904
 20
2275.6278004342639
 30
0.0
 11
4705.2876676978876
 21
2237.6200284805641
 31
0.0
  0
LINE
  5
71D2
  8
KERA0
 10
4800.2876676978894
 20
2275.6278004342639
 30
0.0
 11
4800.2876676978894
 21
2237.6200284805641
 31
0.0
  0
LINE
  5
71D3
  8
KERA2
 10
4636.0245285203364
 20
2383.566457144711
 30
0.0
 11
4636.0245285203364
 21
2475.4545427544899
 31
0.0
  0
POLYLINE
  5
71D4
  8
KERA0
 10
3587.309126582657
 20
2152.9600284805642
 30
0.0
 66
     1
 70
     8
  0
VERTEX
  8
KERA0
  5
7728
 10
3587.31
 20
2152.96
 30
0.000000
  70
    32
  0
VERTEX
  8
KERA0
  5
7729
 10
3586.52
 20
2152.93
 30
0.000000
  70
    32
  0
VERTEX
  8
KERA0
  5
772A
 10
3585.73
 20
2152.83
 30
0.000000
  70
    32
  0
VERTEX
  8
KERA0
  5
772B
 10
3584.94
 20
2152.67
 30
0.000000
  70
    32
  0
VERTEX
  8
KERA0
  5
772C
 10
3584.16
 20
2152.46
 30
0.000000
  70
    32
  0
VERTEX
  8
KERA0
  5
772D
 10
3583.39
 20
2152.18
 30
0.000000
  70
    32
  0
VERTEX
  8
KERA0
  5
772E
 10
3582.63
 20
2151.85
 30
0.000000
  70
    32
  0
VERTEX
  8
KERA0
  5
772F
 10
3581.88
 20
2151.45
 30
0.000000
  70
    32
  0
VERTEX
  8
KERA0
  5
7730
 10
3581.14
 20
2151.00
 30
0.000000
  70
    32
  0
VERTEX
  8
KERA0
  5
7731
 10
3580.42
 20
2150.49
 30
0.000000
  70
    32
  0
VERTEX
  8
KERA0
  5
7732
 10
3579.71
 20
2149.93
 30
0.000000
  70
    32
  0
VERTEX
  8
KERA0
  5
7733
 10
3579.03
 20
2149.32
 30
0.000000
  70
    32
  0
VERTEX
  8
KERA0
  5
7734
 10
3578.36
 20
2148.65
 30
0.000000
  70
    32
  0
VERTEX
  8
KERA0
  5
7735
 10
3577.72
 20
2147.93
 30
0.000000
  70
    32
  0
VERTEX
  8
KERA0
  5
7736
 10
3577.10
 20
2147.16
 30
0.000000
  70
    32
  0
VERTEX
  8
KERA0
  5
7737
 10
3576.50
 20
2146.35
 30
0.000000
  70
    32
  0
VERTEX
  8
KERA0
  5
7738
 10
3575.93
 20
2145.49
 30
0.000000
  70
    32
  0
VERTEX
  8
KERA0
  5
7739
 10
3575.39
 20
2144.59
 30
0.000000
  70
    32
  0
VERTEX
  8
KERA0
  5
773A
 10
3574.88
 20
2143.64
 30
0.000000
  70
    32
  0
VERTEX
  8
KERA0
  5
773B
 10
3574.40
 20
2142.66
 30
0.000000
  70
    32
  0
VERTEX
  8
KERA0
  5
773C
 10
3573.94
 20
2141.64
 30
0.000000
  70
    32
  0
VERTEX
  8
KERA0
  5
773D
 10
3573.53
 20
2140.59
 30
0.000000
  70
    32
  0
VERTEX
  8
KERA0
  5
773E
 10
3573.14
 20
2139.51
 30
0.000000
  70
    32
  0
VERTEX
  8
KERA0
  5
773F
 10
3572.79
 20
2138.40
 30
0.000000
  70
    32
  0
VERTEX
  8
KERA0
  5
7740
 10
3572.48
 20
2137.26
 30
0.000000
  70
    32
  0
VERTEX
  8
KERA0
  5
7741
 10
3572.20
 20
2136.10
 30
0.000000
  70
    32
  0
VERTEX
  8
KERA0
  5
7742
 10
3571.96
 20
2134.92
 30
0.000000
  70
    32
  0
VERTEX
  8
KERA0
  5
7743
 10
3571.75
 20
2133.73
 30
0.000000
  70
    32
  0
VERTEX
  8
KERA0
  5
7744
 10
3571.58
 20
2132.51
 30
0.000000
  70
    32
  0
VERTEX
  8
KERA0
  5
7745
 10
3571.45
 20
2131.29
 30
0.000000
  70
    32
  0
VERTEX
  8
KERA0
  5
7746
 10
3571.36
 20
2130.06
 30
0.000000
  70
    32
  0
VERTEX
  8
KERA0
  5
7747
 10
3571.31
 20
2128.82
 30
0.000000
  70
    32
  0
VERTEX
  8
KERA0
  5
7748
 10
3571.30
 20
2127.58
 30
0.000000
  70
    32
  0
VERTEX
  8
KERA0
  5
7749
 10
3571.33
 20
2126.34
 30
0.000000
  70
    32
  0
VERTEX
  8
KERA0
  5
774A
 10
3571.39
 20
2125.10
 30
0.000000
  70
    32
  0
VERTEX
  8
KERA0
  5
774B
 10
3571.49
 20
2123.87
 30
0.000000
  70
    32
  0
VERTEX
  8
KERA0
  5
774C
 10
3571.64
 20
2122.64
 30
0.000000
  70
    32
  0
VERTEX
  8
KERA0
  5
774D
 10
3571.82
 20
2121.43
 30
0.000000
  70
    32
  0
VERTEX
  8
KERA0
  5
774E
 10
3572.04
 20
2120.24
 30
0.000000
  70
    32
  0
VERTEX
  8
KERA0
  5
774F
 10
3572.29
 20
2119.06
 30
0.000000
  70
    32
  0
VERTEX
  8
KERA0
  5
7750
 10
3572.58
 20
2117.90
 30
0.000000
  70
    32
  0
VERTEX
  8
KERA0
  5
7751
 10
3572.91
 20
2116.77
 30
0.000000
  70
    32
  0
VERTEX
  8
KERA0
  5
7752
 10
3573.27
 20
2115.66
 30
0.000000
  70
    32
  0
VERTEX
  8
KERA0
  5
7753
 10
3573.67
 20
2114.59
 30
0.000000
  70
    32
  0
VERTEX
  8
KERA0
  5
7754
 10
3574.10
 20
2113.54
 30
0.000000
  70
    32
  0
VERTEX
  8
KERA0
  5
7755
 10
3574.56
 20
2112.53
 30
0.000000
  70
    32
  0
VERTEX
  8
KERA0
  5
7756
 10
3575.05
 20
2111.55
 30
0.000000
  70
    32
  0
VERTEX
  8
KERA0
  5
7757
 10
3575.58
 20
2110.61
 30
0.000000
  70
    32
  0
VERTEX
  8
KERA0
  5
7758
 10
3576.13
 20
2109.72
 30
0.000000
  70
    32
  0
VERTEX
  8
KERA0
  5
7759
 10
3576.71
 20
2108.86
 30
0.000000
  70
    32
  0
VERTEX
  8
KERA0
  5
775A
 10
3577.31
 20
2108.06
 30
0.000000
  70
    32
  0
VERTEX
  8
KERA0
  5
775B
 10
3577.94
 20
2107.30
 30
0.000000
  70
    32
  0
VERTEX
  8
KERA0
  5
775C
 10
3578.59
 20
2106.58
 30
0.000000
  70
    32
  0
VERTEX
  8
KERA0
  5
775D
 10
3579.26
 20
2105.92
 30
0.000000
  70
    32
  0
VERTEX
  8
KERA0
  5
775E
 10
3579.96
 20
2105.32
 30
0.000000
  70
    32
  0
VERTEX
  8
KERA0
  5
775F
 10
3580.67
 20
2104.76
 30
0.000000
  70
    32
  0
VERTEX
  8
KERA0
  5
7760
 10
3581.40
 20
2104.26
 30
0.000000
  70
    32
  0
VERTEX
  8
KERA0
  5
7761
 10
3582.14
 20
2103.82
 30
0.000000
  70
    32
  0
VERTEX
  8
KERA0
  5
7762
 10
3582.89
 20
2103.43
 30
0.000000
  70
    32
  0
VERTEX
  8
KERA0
  5
7763
 10
3583.66
 20
2103.11
 30
0.000000
  70
    32
  0
VERTEX
  8
KERA0
  5
7764
 10
3584.43
 20
2102.84
 30
0.000000
  70
    32
  0
VERTEX
  8
KERA0
  5
7765
 10
3585.21
 20
2102.63
 30
0.000000
  70
    32
  0
VERTEX
  8
KERA0
  5
7766
 10
3586.00
 20
2102.48
 30
0.000000
  70
    32
  0
VERTEX
  8
KERA0
  5
7767
 10
3586.79
 20
2102.40
 30
0.000000
  70
    32
  0
VERTEX
  8
KERA0
  5
7768
 10
3587.59
 20
2102.37
 30
0.000000
  70
    32
  0
VERTEX
  8
KERA0
  5
7769
 10
3588.38
 20
2102.40
 30
0.000000
  70
    32
  0
VERTEX
  8
KERA0
  5
776A
 10
3589.17
 20
2102.50
 30
0.000000
  70
    32
  0
VERTEX
  8
KERA0
  5
776B
 10
3589.95
 20
2102.66
 30
0.000000
  70
    32
  0
VERTEX
  8
KERA0
  5
776C
 10
3590.73
 20
2102.87
 30
0.000000
  70
    32
  0
VERTEX
  8
KERA0
  5
776D
 10
3591.50
 20
2103.15
 30
0.000000
  70
    32
  0
VERTEX
  8
KERA0
  5
776E
 10
3592.27
 20
2103.48
 30
0.000000
  70
    32
  0
VERTEX
  8
KERA0
  5
776F
 10
3593.02
 20
2103.88
 30
0.000000
  70
    32
  0
VERTEX
  8
KERA0
  5
7770
 10
3593.75
 20
2104.33
 30
0.000000
  70
    32
  0
VERTEX
  8
KERA0
  5
7771
 10
3594.48
 20
2104.84
 30
0.000000
  70
    32
  0
VERTEX
  8
KERA0
  5
7772
 10
3595.18
 20
2105.40
 30
0.000000
  70
    32
  0
VERTEX
  8
KERA0
  5
7773
 10
3595.87
 20
2106.01
 30
0.000000
  70
    32
  0
VERTEX
  8
KERA0
  5
7774
 10
3596.53
 20
2106.68
 30
0.000000
  70
    32
  0
VERTEX
  8
KERA0
  5
7775
 10
3597.18
 20
2107.40
 30
0.000000
  70
    32
  0
VERTEX
  8
KERA0
  5
7776
 10
3597.80
 20
2108.17
 30
0.000000
  70
    32
  0
VERTEX
  8
KERA0
  5
7777
 10
3598.39
 20
2108.98
 30
0.000000
  70
    32
  0
VERTEX
  8
KERA0
  5
7778
 10
3598.96
 20
2109.84
 30
0.000000
  70
    32
  0
VERTEX
  8
KERA0
  5
7779
 10
3599.50
 20
2110.74
 30
0.000000
  70
    32
  0
VERTEX
  8
KERA0
  5
777A
 10
3600.02
 20
2111.69
 30
0.000000
  70
    32
  0
VERTEX
  8
KERA0
  5
777B
 10
3600.50
 20
2112.67
 30
0.000000
  70
    32
  0
VERTEX
  8
KERA0
  5
777C
 10
3600.95
 20
2113.69
 30
0.000000
  70
    32
  0
VERTEX
  8
KERA0
  5
777D
 10
3601.37
 20
2114.74
 30
0.000000
  70
    32
  0
VERTEX
  8
KERA0
  5
777E
 10
3601.75
 20
2115.82
 30
0.000000
  70
    32
  0
VERTEX
  8
KERA0
  5
777F
 10
3602.10
 20
2116.93
 30
0.000000
  70
    32
  0
VERTEX
  8
KERA0
  5
7780
 10
3602.42
 20
2118.07
 30
0.000000
  70
    32
  0
VERTEX
  8
KERA0
  5
7781
 10
3602.70
 20
2119.23
 30
0.000000
  70
    32
  0
VERTEX
  8
KERA0
  5
7782
 10
3602.94
 20
2120.41
 30
0.000000
  70
    32
  0
VERTEX
  8
KERA0
  5
7783
 10
3603.14
 20
2121.60
 30
0.000000
  70
    32
  0
VERTEX
  8
KERA0
  5
7784
 10
3603.31
 20
2122.82
 30
0.000000
  70
    32
  0
VERTEX
  8
KERA0
  5
7785
 10
3603.44
 20
2124.04
 30
0.000000
  70
    32
  0
VERTEX
  8
KERA0
  5
7786
 10
3603.53
 20
2125.27
 30
0.000000
  70
    32
  0
VERTEX
  8
KERA0
  5
7787
 10
3603.58
 20
2126.51
 30
0.000000
  70
    32
  0
VERTEX
  8
KERA0
  5
7788
 10
3603.59
 20
2127.75
 30
0.000000
  70
    32
  0
VERTEX
  8
KERA0
  5
7789
 10
3603.57
 20
2128.99
 30
0.000000
  70
    32
  0
VERTEX
  8
KERA0
  5
778A
 10
3603.50
 20
2130.23
 30
0.000000
  70
    32
  0
VERTEX
  8
KERA0
  5
778B
 10
3603.40
 20
2131.46
 30
0.000000
  70
    32
  0
VERTEX
  8
KERA0
  5
778C
 10
3603.26
 20
2132.69
 30
0.000000
  70
    32
  0
VERTEX
  8
KERA0
  5
778D
 10
3603.08
 20
2133.90
 30
0.000000
  70
    32
  0
VERTEX
  8
KERA0
  5
778E
 10
3602.86
 20
2135.09
 30
0.000000
  70
    32
  0
VERTEX
  8
KERA0
  5
778F
 10
3602.60
 20
2136.27
 30
0.000000
  70
    32
  0
VERTEX
  8
KERA0
  5
7790
 10
3602.31
 20
2137.43
 30
0.000000
  70
    32
  0
VERTEX
  8
KERA0
  5
7791
 10
3601.99
 20
2138.56
 30
0.000000
  70
    32
  0
VERTEX
  8
KERA0
  5
7792
 10
3601.62
 20
2139.67
 30
0.000000
  70
    32
  0
VERTEX
  8
KERA0
  5
7793
 10
3601.23
 20
2140.74
 30
0.000000
  70
    32
  0
VERTEX
  8
KERA0
  5
7794
 10
3600.80
 20
2141.79
 30
0.000000
  70
    32
  0
VERTEX
  8
KERA0
  5
7795
 10
3600.33
 20
2142.80
 30
0.000000
  70
    32
  0
VERTEX
  8
KERA0
  5
7796
 10
3599.84
 20
2143.78
 30
0.000000
  70
    32
  0
VERTEX
  8
KERA0
  5
7797
 10
3599.32
 20
2144.72
 30
0.000000
  70
    32
  0
VERTEX
  8
KERA0
  5
7798
 10
3598.77
 20
2145.61
 30
0.000000
  70
    32
  0
VERTEX
  8
KERA0
  5
7799
 10
3598.19
 20
2146.47
 30
0.000000
  70
    32
  0
VERTEX
  8
KERA0
  5
779A
 10
3597.58
 20
2147.27
 30
0.000000
  70
    32
  0
VERTEX
  8
KERA0
  5
779B
 10
3596.96
 20
2148.03
 30
0.000000
  70
    32
  0
VERTEX
  8
KERA0
  5
779C
 10
3596.30
 20
2148.75
 30
0.000000
  70
    32
  0
VERTEX
  8
KERA0
  5
779D
 10
3595.63
 20
2149.41
 30
0.000000
  70
    32
  0
VERTEX
  8
KERA0
  5
779E
 10
3594.94
 20
2150.01
 30
0.000000
  70
    32
  0
VERTEX
  8
KERA0
  5
779F
 10
3594.23
 20
2150.57
 30
0.000000
  70
    32
  0
VERTEX
  8
KERA0
  5
77A0
 10
3593.50
 20
2151.07
 30
0.000000
  70
    32
  0
VERTEX
  8
KERA0
  5
77A1
 10
3592.76
 20
2151.51
 30
0.000000
  70
    32
  0
VERTEX
  8
KERA0
  5
77A2
 10
3592.00
 20
2151.90
 30
0.000000
  70
    32
  0
VERTEX
  8
KERA0
  5
77A3
 10
3591.24
 20
2152.22
 30
0.000000
  70
    32
  0
VERTEX
  8
KERA0
  5
77A4
 10
3590.46
 20
2152.49
 30
0.000000
  70
    32
  0
VERTEX
  8
KERA0
  5
77A5
 10
3589.68
 20
2152.70
 30
0.000000
  70
    32
  0
VERTEX
  8
KERA0
  5
77A6
 10
3588.89
 20
2152.85
 30
0.000000
  70
    32
  0
VERTEX
  8
KERA0
  5
77A7
 10
3588.10
 20
2152.93
 30
0.000000
  70
    32
  0
VERTEX
  8
KERA0
  5
77A8
 10
3587.31
 20
2152.96
 30
0.000000
  70
    32
  0
SEQEND
  8
KERA0
  5
77A9
  0
LINE
  5
71D5
  8
KERA2
 10
4752.7876676978904
 20
2221.5772290984119
 30
0.0
 11
4752.7876676978904
 21
2313.4653147081899
 31
0.0
  0
LINE
  5
71D6
  8
KERA2
 10
4664.0788632069134
 20
2179.6300284805639
 30
0.0
 11
4612.8045632069134
 21
2179.6300284805639
 31
0.0
  0
LINE
  5
71D7
  8
KERA2
 10
4635.694663206913
 20
2206.6500284805629
 30
0.0
 11
4635.694663206913
 21
2150.9200284805638
 31
0.0
  0
LINE
  5
71D8
  8
KERA2
 10
4784.0906676978893
 20
2127.6200284805632
 30
0.0
 11
4717.9306676978886
 21
2127.6200284805632
 31
0.0
  0
LINE
  5
71D9
  8
KERA2
 10
4739.3356632069126
 20
2179.6300284805639
 30
0.0
 11
4691.3696632069123
 21
2179.6300284805639
 31
0.0
  0
LINE
  5
71DA
  8
KERA2
 10
4715.6946632069121
 20
2204.6400284805641
 30
0.0
 11
4715.6946632069121
 21
2150.9200284805638
 31
0.0
  0
LINE
  5
71DB
  8
KERA2
 10
4752.7876676978904
 20
2169.8000284805639
 30
0.0
 11
4752.7876676978904
 21
2083.7800284805639
 31
0.0
  0
POINT
  5
71DC
  8
DEFPOINTS
  6
BYBLOCK
 62
     0
 10
4739.3356632069126
 20
2179.6300284805639
 30
0.0
  0
POINT
  5
71DD
  8
DEFPOINTS
  6
BYBLOCK
 62
     0
 10
4784.0906676978893
 20
2127.6200284805632
 30
0.0
  0
CIRCLE
  5
71DE
  8
KERA0
 10
4715.6946632069121
 20
2179.6300284805639
 30
0.0
 40
12.379415373918039
  0
CIRCLE
  5
71DF
  8
KERA0
 10
4636.0366632069126
 20
2179.6300284805639
 30
0.0
 40
12.379415373918039
  0
CIRCLE
  5
71E0
  8
KERA0
 10
4752.7876676978904
 20
2127.6200284805632
 30
0.0
 40
25.325703881995882
  0
LINE
  5
71E1
  8
KERA0
 10
5027.3582560074556
 20
2397.6170284805639
 30
0.0
 11
5027.3582560074556
 21
2437.6170284805639
 31
0.0
  0
ARC
  5
71E2
  8
KERA0
 10
4838.0069332881976
 20
2444.4108117236401
 30
0.0
 40
166.07980672729869
 50
272.685254112488
 51
343.63503520456482
  0
ARC
  5
71E3
  8
KERA0
 10
4729.1584599227072
 20
2381.0380936466709
 30
0.0
 40
108.0793441716133
 50
171.17622092662529
 51
257.24023901300609
  0
LINE
  5
71E4
  8
KERA3
 10
4845.7876676978876
 20
2278.513366370727
 30
0.0
 11
4800.2876676978894
 21
2275.6278004342639
 31
0.0
  0
LINE
  5
71E5
  8
KERA3
 10
4675.1544141914183
 20
2397.6170284805639
 30
0.0
 11
4675.1544141914183
 21
2437.6170284805639
 31
0.0
  0
LINE
  5
71E6
  8
KERA4
 10
2935.431535179388
 20
165.46259593316469
 30
0.0
 11
2795.0708391138578
 21
25.10189986763498
 31
0.0
  0
SOLID
  5
71E7
  8
KERA4
 10
2900.665451771049
 20
150.73120465844559
 30
0.0
 11
2920.7001439046671
 21
130.69651252482609
 31
0.0
 12
2970.786874238715
 22
200.81793499249221
 32
0.0
 13
2970.786874238715
 23
200.81793499249221
 33
0.0
  0
INSERT
  5
71E8
  8
KERA4
  2
*U71
 10
0.0
 20
0.0
 30
0.0
  0
INSERT
  5
71E9
  8
KERA4
  2
*U72
 10
0.0
 20
0.0
 30
0.0
  0
INSERT
  5
71EA
  8
KERA5
  6
CONTINUOUS
  2
*X73
 10
0.0
 20
0.0
 30
0.0
1001
ACAD
1000
HATCH
1002
{
1070
    19
1000
ANSI31
1040
15.0
1040
0.0
1000
R14_HATCH_DATA
1000
71EA
1011
1.0
1021
0.0
1031
0.0
1021
0.0
1031
0.0
1011
0.0
1021
0.0
1031
0.0
1021
1.0
1031
0.0
1011
0.0
1021
0.0
1031
0.0
1021
0.0
1031
1.0
1040
0.0
1010
0.0
1020
0.0
1030
1.0
1000
ANSI31
1070
     0
1070
     0
1071
        1
1071
        1
1071
        4
1070
     1
1040
4555.6533681708906
1040
1587.6200284805641
1040
4555.6533681708906
1040
2642.1020284805641
1070
     1
1040
4555.6533681708906
1040
2642.1020284805641
1040
4428.0604340985683
1040
2674.8949063526261
1070
     1
1040
4428.0604340985683
1040
2674.8949063526261
1040
4428.0604340985683
1040
1587.6200284805641
1070
     1
1040
4428.0604340985683
1040
1587.6200284805641
1040
4555.6533681708906
1040
1587.6200284805641
1071
        0
1070
     0
1070
     1
1040
0.0
1040
15.0
1070
     0
1070
     1
1040
0.7853981633974483
1040
3751.8198609743931
1040
3341.3400284805639
1040
-33.675960454009321
1040
33.675960454009328
1070
     0
1071
        1
1040
3751.8198609743931
1040
3341.3400284805639
1040
0.0
1002
}
  0
DIMENSION
  5
71EB
  8
KERA4
  2
*D29
 10
4555.6533681708906
 20
1808.1234424804729
 30
0.0
 11
4654.22051793439
 21
1808.1234424804729
 31
0.0
 70
     0
  1
200
 13
4752.7876676978904
 23
2083.7800284805639
 33
0.0
 14
4555.6533681708906
 24
1787.8563038964101
 34
0.0
1001
ACAD
1000
DSTYLE
1002
{
1070
    41
1040
50.0
1070
    42
1040
20.0
1070
    43
1040
100.0
1070
    44
1040
15.0
1070
    78
1070
     8
1070
   140
1040
50.0
1070
   141
1040
4.0
1070
   143
1040
0.0394
1070
   147
1040
15.0
1070
   171
1070
     4
1070
   172
1070
     1
1070
   174
1070
     1
1070
   176
1070
   256
1070
   177
1070
   256
1070
   178
1070
   256
1070
   271
1070
     0
1070
   272
1070
     0
1070
   273
1070
     8
1070
   274
1070
     4
1002
}
1001
ACAD_DSTYLE_DIMINSPECT
1070
   396
1000
100%
1070
   395
1000

1070
   394
1070
    33
1070
   393
1070
     0
  0
LINE
  5
71EC
  8
KERA4
 10
4635.694663206913
 20
2130.9200284805638
 30
0.0
 11
4635.694663206913
 21
1996.7714855053571
 31
0.0
  0
LINE
  5
71ED
  8
KERA4
 10
4555.6533681708906
 20
2130.9200284805638
 30
0.0
 11
4555.6533681708906
 21
1996.7714855053571
 31
0.0
  0
LINE
  5
71EE
  8
KERA4
 10
4685.694663206913
 20
2011.771485505358
 30
0.0
 11
4735.694663206913
 21
2011.771485505358
 31
0.0
  0
LINE
  5
71EF
  8
KERA4
 10
4505.6533681708906
 20
2011.771485505358
 30
0.0
 11
4455.6533681708906
 21
2011.771485505358
 31
0.0
  0
SOLID
  5
71F0
  8
KERA4
 10
4685.694663206913
 20
2020.1048188386901
 30
0.0
 11
4685.694663206913
 21
2003.438152172024
 31
0.0
 12
4635.694663206913
 22
2011.771485505358
 32
0.0
 13
4635.694663206913
 23
2011.771485505358
 33
0.0
  0
SOLID
  5
71F1
  8
KERA4
 10
4505.6533681708906
 20
2020.1048188386901
 30
0.0
 11
4505.6533681708906
 21
2003.438152172024
 31
0.0
 12
4555.6533681708906
 22
2011.771485505358
 32
0.0
 13
4555.6533681708906
 23
2011.771485505358
 33
0.0
  0
INSERT
  5
71F2
  8
KERA4
  2
*U74
 10
0.0
 20
0.0
 30
0.0
  0
LINE
  5
71F3
  8
KERA4
 10
4635.694663206913
 20
1976.7714855053571
 30
0.0
 11
4635.694663206913
 21
1896.0579000836899
 31
0.0
  0
LINE
  5
71F4
  8
KERA4
 10
4715.6946632069121
 20
2130.9200284805638
 30
0.0
 11
4715.6946632069121
 21
1896.0579000836899
 31
0.0
  0
LINE
  5
71F5
  8
KERA4
 10
4585.694663206913
 20
1911.0579000836899
 30
0.0
 11
4535.694663206913
 21
1911.0579000836899
 31
0.0
  0
LINE
  5
71F6
  8
KERA4
 10
4765.6946632069121
 20
1911.0579000836899
 30
0.0
 11
4815.6946632069121
 21
1911.0579000836899
 31
0.0
  0
SOLID
  5
71F7
  8
KERA4
 10
4585.694663206913
 20
1919.3912334170241
 30
0.0
 11
4585.694663206913
 21
1902.7245667503571
 31
0.0
 12
4635.694663206913
 22
1911.0579000836899
 32
0.0
 13
4635.694663206913
 23
1911.0579000836899
 33
0.0
  0
SOLID
  5
71F8
  8
KERA4
 10
4765.6946632069121
 20
1919.3912334170241
 30
0.0
 11
4765.6946632069121
 21
1902.7245667503571
 31
0.0
 12
4715.6946632069121
 22
1911.0579000836899
 32
0.0
 13
4715.6946632069121
 23
1911.0579000836899
 33
0.0
  0
INSERT
  5
71F9
  8
KERA4
  2
*U75
 10
0.0
 20
0.0
 30
0.0
  0
LINE
  5
71FA
  8
KERA1
 10
3073.6831265826559
 20
744.55308104128051
 30
0.0
 11
3823.6831265826581
 21
744.55308104128051
 31
0.0
  0
DIMENSION
  5
71FB
  8
KERA4
  2
*D30
 10
2842.0344679143382
 20
1119.5530810412811
 30
0.0
 11
2842.0344679143382
 21
932.0530810412813
 31
0.0
 70
     0
 13
3073.6831265826559
 23
744.55308104128051
 33
0.0
 14
3073.6831265826559
 24
1119.5530810412811
 34
0.0
 50
90.0
1001
ACAD
1000
DSTYLE
1002
{
1070
    41
1040
50.0
1070
    42
1040
20.0
1070
    43
1040
100.0
1070
    44
1040
15.0
1070
    78
1070
     8
1070
   140
1040
50.0
1070
   141
1040
4.0
1070
   143
1040
0.0394
1070
   147
1040
15.0
1070
   171
1070
     4
1070
   172
1070
     1
1070
   174
1070
     1
1070
   176
1070
   256
1070
   177
1070
   256
1070
   178
1070
   256
1070
   271
1070
     0
1070
   272
1070
     0
1070
   273
1070
     8
1070
   274
1070
     4
1002
}
1001
ACAD_DSTYLE_DIMINSPECT
1070
   396
1000
100%
1070
   395
1000

1070
   394
1070
    33
1070
   393
1070
     0
  0
LINE
  5
71FC
  8
KERA6
 10
4787.5804472037507
 20
1587.8900284805641
 30
-84.366799999999998
 11
4787.5804472037507
 21
1587.8900284805641
 31
88.290899999999979
  0
LINE
  5
71FD
  8
KERA6
 10
4855.4499172037522
 20
1655.490028480564
 30
0.0
 11
5132.1051172037514
 21
1655.490028480564
 31
0.0
  0
LINE
  5
71FE
  8
KERA6
 10
4913.6321172037524
 20
1671.2100284805631
 30
0.0
 11
4904.6391172037511
 21
1671.2100284805631
 31
0.0
  0
LINE
  5
71FF
  8
KERA6
 10
4913.6321172037524
 20
1681.250028480564
 30
0.0
 11
4904.6391172037511
 21
1681.250028480564
 31
0.0
  0
LINE
  5
7200
  8
KERA6
 10
4787.5804472037507
 20
1627.750028480564
 30
0.0
 11
4747.4482172037524
 21
1627.750028480564
 31
0.0
  0
LINE
  5
7201
  8
KERA6
 10
4747.4482172037524
 20
1627.750028480564
 30
0.0
 11
4787.5804472037507
 21
1587.6200284805641
 31
0.0
  0
LINE
  5
7202
  8
KERA6
 10
4827.7127172037517
 20
1627.750028480564
 30
0.0
 11
4855.4499172037522
 21
1655.490028480564
 31
0.0
  0
LINE
  5
7203
  8
KERA6
 10
4787.5804472037507
 20
1596.3800284805641
 30
0.0
 11
4818.9512172037512
 21
1627.750028480564
 31
0.0
  0
LINE
  5
7204
  8
KERA6
 10
4787.5804472037507
 20
1596.6600284805641
 30
0.0
 11
4818.6684172037521
 21
1627.750028480564
 31
0.0
  0
LINE
  5
7205
  8
KERA6
 10
4787.5804472037507
 20
1596.940028480564
 30
0.0
 11
4818.3856172037522
 21
1627.750028480564
 31
0.0
  0
LINE
  5
7206
  8
KERA6
 10
4787.5804472037507
 20
1597.230028480564
 30
0.0
 11
4818.102717203752
 21
1627.750028480564
 31
0.0
  0
LINE
  5
7207
  8
KERA6
 10
4787.5804472037507
 20
1597.510028480564
 30
0.0
 11
4817.8199172037521
 21
1627.750028480564
 31
0.0
  0
LINE
  5
7208
  8
KERA6
 10
4787.5804472037507
 20
1597.7900284805639
 30
0.0
 11
4817.537017203751
 21
1627.750028480564
 31
0.0
  0
LINE
  5
7209
  8
KERA6
 10
4787.5804472037507
 20
1598.0800284805639
 30
0.0
 11
4817.254217203752
 21
1627.750028480564
 31
0.0
  0
LINE
  5
720A
  8
KERA6
 10
4787.5804472037507
 20
1598.3600284805641
 30
0.0
 11
4816.9713172037509
 21
1627.750028480564
 31
0.0
  0
LINE
  5
720B
  8
KERA6
 10
4787.5804472037507
 20
1598.6400284805641
 30
0.0
 11
4816.688517203751
 21
1627.750028480564
 31
0.0
  0
LINE
  5
720C
  8
KERA6
 10
4787.5804472037507
 20
1598.920028480564
 30
0.0
 11
4816.4057172037519
 21
1627.750028480564
 31
0.0
  0
LINE
  5
720D
  8
KERA6
 10
4787.5804472037507
 20
1599.210028480564
 30
0.0
 11
4816.1228172037509
 21
1627.750028480564
 31
0.0
  0
LINE
  5
720E
  8
KERA6
 10
4787.5804472037507
 20
1599.490028480564
 30
0.0
 11
4815.84001720375
 21
1627.750028480564
 31
0.0
  0
LINE
  5
720F
  8
KERA6
 10
4787.5804472037507
 20
1604.5800284805639
 30
0.0
 11
4810.748817203752
 21
1627.750028480564
 31
0.0
  0
LINE
  5
7210
  8
KERA6
 10
4787.5804472037507
 20
1604.3000284805639
 30
0.0
 11
4811.031617203751
 21
1627.750028480564
 31
0.0
  0
LINE
  5
7211
  8
KERA6
 10
4787.5804472037507
 20
1604.020028480564
 30
0.0
 11
4811.3145172037512
 21
1627.750028480564
 31
0.0
  0
LINE
  5
7212
  8
KERA6
 10
4787.5804472037507
 20
1603.730028480564
 30
0.0
 11
4811.597317203752
 21
1627.750028480564
 31
0.0
  0
LINE
  5
7213
  8
KERA6
 10
4787.5804472037507
 20
1603.450028480564
 30
0.0
 11
4811.8802172037513
 21
1627.750028480564
 31
0.0
  0
LINE
  5
7214
  8
KERA6
 10
4787.5804472037507
 20
1603.170028480564
 30
0.0
 11
4812.1630172037512
 21
1627.750028480564
 31
0.0
  0
LINE
  5
7215
  8
KERA6
 10
4787.5804472037507
 20
1602.8800284805629
 30
0.0
 11
4812.4459172037523
 21
1627.750028480564
 31
0.0
  0
LINE
  5
7216
  8
KERA6
 10
4787.5804472037507
 20
1602.6000284805641
 30
0.0
 11
4812.7287172037513
 21
1627.750028480564
 31
0.0
  0
LINE
  5
7217
  8
KERA6
 10
4787.5804472037507
 20
1602.3200284805639
 30
0.0
 11
4813.0115172037513
 21
1627.750028480564
 31
0.0
  0
LINE
  5
7218
  8
KERA6
 10
4787.5804472037507
 20
1602.0400284805639
 30
0.0
 11
4813.2944172037523
 21
1627.750028480564
 31
0.0
  0
LINE
  5
7219
  8
KERA6
 10
4787.5804472037507
 20
1601.750028480564
 30
0.0
 11
4813.5772172037514
 21
1627.750028480564
 31
0.0
  0
LINE
  5
721A
  8
KERA6
 10
4787.5804472037507
 20
1601.470028480564
 30
0.0
 11
4813.8601172037525
 21
1627.750028480564
 31
0.0
  0
LINE
  5
721B
  8
KERA6
 10
4787.5804472037507
 20
1601.190028480564
 30
0.0
 11
4814.1429172037524
 21
1627.750028480564
 31
0.0
  0
LINE
  5
721C
  8
KERA6
 10
4787.5804472037507
 20
1600.9000284805641
 30
0.0
 11
4814.4258172037507
 21
1627.750028480564
 31
0.0
  0
LINE
  5
721D
  8
KERA6
 10
4787.5804472037507
 20
1600.6200284805641
 30
0.0
 11
4814.7086172037516
 21
1627.750028480564
 31
0.0
  0
LINE
  5
721E
  8
KERA6
 10
4787.5804472037507
 20
1600.3400284805639
 30
0.0
 11
4814.9914172037516
 21
1627.750028480564
 31
0.0
  0
LINE
  5
721F
  8
KERA6
 10
4787.5804472037507
 20
1600.0600284805639
 30
0.0
 11
4815.2743172037508
 21
1627.750028480564
 31
0.0
  0
LINE
  5
7220
  8
KERA6
 10
4787.5804472037507
 20
1599.770028480564
 30
0.0
 11
4815.5571172037517
 21
1627.750028480564
 31
0.0
  0
LINE
  5
7221
  8
KERA6
 10
4787.5804472037507
 20
1609.670028480564
 30
0.0
 11
4805.6576172037521
 21
1627.750028480564
 31
0.0
  0
LINE
  5
7222
  8
KERA6
 10
4787.5804472037507
 20
1609.3900284805641
 30
0.0
 11
4805.9405172037514
 21
1627.750028480564
 31
0.0
  0
LINE
  5
7223
  8
KERA6
 10
4787.5804472037507
 20
1609.1100284805641
 30
0.0
 11
4806.2233172037522
 21
1627.750028480564
 31
0.0
  0
LINE
  5
7224
  8
KERA6
 10
4787.5804472037507
 20
1613.6300284805641
 30
0.0
 11
4801.6978172037516
 21
1627.750028480564
 31
0.0
  0
LINE
  5
7225
  8
KERA6
 10
4787.5804472037507
 20
1613.3500284805641
 30
0.0
 11
4801.9807172037508
 21
1627.750028480564
 31
0.0
  0
LINE
  5
7226
  8
KERA6
 10
4787.5804472037507
 20
1613.0700284805639
 30
0.0
 11
4802.2635172037508
 21
1627.750028480564
 31
0.0
  0
LINE
  5
7227
  8
KERA6
 10
4787.5804472037507
 20
1612.7800284805639
 30
0.0
 11
4802.5464172037509
 21
1627.750028480564
 31
0.0
  0
LINE
  5
7228
  8
KERA6
 10
4787.5804472037507
 20
1612.500028480564
 30
0.0
 11
4802.8292172037509
 21
1627.750028480564
 31
0.0
  0
LINE
  5
7229
  8
KERA6
 10
4787.5804472037507
 20
1612.220028480564
 30
0.0
 11
4803.112117203751
 21
1627.750028480564
 31
0.0
  0
LINE
  5
722A
  8
KERA6
 10
4787.5804472037507
 20
1611.930028480564
 30
0.0
 11
4803.3949172037519
 21
1627.750028480564
 31
0.0
  0
LINE
  5
722B
  8
KERA6
 10
4787.5804472037507
 20
1611.6500284805641
 30
0.0
 11
4803.6777172037509
 21
1627.750028480564
 31
0.0
  0
LINE
  5
722C
  8
KERA6
 10
4787.5804472037507
 20
1611.3700284805641
 30
0.0
 11
4803.9606172037511
 21
1627.750028480564
 31
0.0
  0
LINE
  5
722D
  8
KERA6
 10
4787.5804472037507
 20
1611.0900284805639
 30
0.0
 11
4804.243417203752
 21
1627.750028480564
 31
0.0
  0
LINE
  5
722E
  8
KERA6
 10
4787.5804472037507
 20
1610.8000284805639
 30
0.0
 11
4804.5263172037521
 21
1627.750028480564
 31
0.0
  0
LINE
  5
722F
  8
KERA6
 10
4787.5804472037507
 20
1610.520028480564
 30
0.0
 11
4804.8091172037521
 21
1627.750028480564
 31
0.0
  0
LINE
  5
7230
  8
KERA6
 10
4787.5804472037507
 20
1610.240028480564
 30
0.0
 11
4805.0920172037513
 21
1627.750028480564
 31
0.0
  0
LINE
  5
7231
  8
KERA6
 10
4787.5804472037507
 20
1609.950028480564
 30
0.0
 11
4805.3748172037522
 21
1627.750028480564
 31
0.0
  0
LINE
  5
7232
  8
KERA6
 10
4787.5804472037507
 20
1608.8200284805639
 30
0.0
 11
4806.5062172037506
 21
1627.750028480564
 31
0.0
  0
LINE
  5
7233
  8
KERA6
 10
4787.5804472037507
 20
1608.5400284805639
 30
0.0
 11
4806.7890172037514
 21
1627.750028480564
 31
0.0
  0
LINE
  5
7234
  8
KERA6
 10
4787.5804472037507
 20
1608.260028480564
 30
0.0
 11
4807.0719172037507
 21
1627.750028480564
 31
0.0
  0
LINE
  5
7235
  8
KERA6
 10
4787.5804472037507
 20
1607.980028480564
 30
0.0
 11
4807.3547172037506
 21
1627.750028480564
 31
0.0
  0
LINE
  5
7236
  8
KERA6
 10
4787.5804472037507
 20
1607.690028480564
 30
0.0
 11
4807.6375172037506
 21
1627.750028480564
 31
0.0
  0
LINE
  5
7237
  8
KERA6
 10
4787.5804472037507
 20
1607.4100284805641
 30
0.0
 11
4807.9204172037516
 21
1627.750028480564
 31
0.0
  0
LINE
  5
7238
  8
KERA6
 10
4787.5804472037507
 20
1607.1300284805641
 30
0.0
 11
4808.2032172037507
 21
1627.750028480564
 31
0.0
  0
LINE
  5
7239
  8
KERA6
 10
4787.5804472037507
 20
1606.8400284805639
 30
0.0
 11
4808.4861172037517
 21
1627.750028480564
 31
0.0
  0
LINE
  5
723A
  8
KERA6
 10
4787.5804472037507
 20
1606.5600284805639
 30
0.0
 11
4808.7689172037517
 21
1627.750028480564
 31
0.0
  0
LINE
  5
723B
  8
KERA6
 10
4787.5804472037507
 20
1606.2800284805639
 30
0.0
 11
4809.0517172037507
 21
1627.750028480564
 31
0.0
  0
LINE
  5
723C
  8
KERA6
 10
4787.5804472037507
 20
1606.000028480564
 30
0.0
 11
4809.3346172037509
 21
1627.750028480564
 31
0.0
  0
LINE
  5
723D
  8
KERA6
 10
4787.5804472037507
 20
1605.710028480564
 30
0.0
 11
4809.6174172037518
 21
1627.750028480564
 31
0.0
  0
LINE
  5
723E
  8
KERA6
 10
4787.5804472037507
 20
1605.4300284805629
 30
0.0
 11
4809.900317203751
 21
1627.750028480564
 31
0.0
  0
LINE
  5
723F
  8
KERA6
 10
4787.5804472037507
 20
1605.1500284805629
 30
0.0
 11
4810.183117203751
 21
1627.750028480564
 31
0.0
  0
LINE
  5
7240
  8
KERA6
 10
4787.5804472037507
 20
1604.8600284805641
 30
0.0
 11
4810.4660172037511
 21
1627.750028480564
 31
0.0
  0
LINE
  5
7241
  8
KERA6
 10
4827.7127172037517
 20
1627.750028480564
 30
0.0
 11
4787.5804472037507
 21
1587.6200284805641
 31
0.0
  0
LINE
  5
7242
  8
KERA6
 10
4787.5804472037507
 20
1587.6200284805641
 30
0.0
 11
4787.5804472037507
 21
1627.750028480564
 31
0.0
  0
LINE
  5
7243
  8
KERA6
 10
4787.5804472037507
 20
1594.960028480564
 30
0.0
 11
4820.3655172037506
 21
1627.750028480564
 31
0.0
  0
LINE
  5
7244
  8
KERA6
 10
4787.5804472037507
 20
1594.680028480564
 30
0.0
 11
4820.6483172037506
 21
1627.750028480564
 31
0.0
  0
LINE
  5
7245
  8
KERA6
 10
4787.5804472037507
 20
1595.5300284805639
 30
0.0
 11
4819.7998172037514
 21
1627.750028480564
 31
0.0
  0
LINE
  5
7246
  8
KERA6
 10
4787.5804472037507
 20
1595.8100284805639
 30
0.0
 11
4819.5169172037522
 21
1627.750028480564
 31
0.0
  0
LINE
  5
7247
  8
KERA6
 10
4787.5804472037507
 20
1596.1000284805641
 30
0.0
 11
4819.2341172037522
 21
1627.750028480564
 31
0.0
  0
LINE
  5
7248
  8
KERA6
 10
4787.5804472037507
 20
1594.4000284805641
 30
0.0
 11
4820.9311172037524
 21
1627.750028480564
 31
0.0
  0
LINE
  5
7249
  8
KERA6
 10
4787.5804472037507
 20
1595.250028480564
 30
0.0
 11
4820.0826172037523
 21
1627.750028480564
 31
0.0
  0
LINE
  5
724A
  8
KERA6
 10
4787.5804472037507
 20
1594.1200284805641
 30
0.0
 11
4821.2140172037507
 21
1627.750028480564
 31
0.0
  0
LINE
  5
724B
  8
KERA6
 10
4787.5804472037507
 20
1593.8300284805639
 30
0.0
 11
4821.4968172037507
 21
1627.750028480564
 31
0.0
  0
LINE
  5
724C
  8
KERA6
 10
4787.5804472037507
 20
1593.5500284805639
 30
0.0
 11
4821.7797172037517
 21
1627.750028480564
 31
0.0
  0
LINE
  5
724D
  8
KERA6
 10
4787.5804472037507
 20
1593.270028480564
 30
0.0
 11
4822.0625172037508
 21
1627.750028480564
 31
0.0
  0
LINE
  5
724E
  8
KERA6
 10
4787.5804472037507
 20
1592.980028480564
 30
0.0
 11
4822.3454172037509
 21
1627.750028480564
 31
0.0
  0
LINE
  5
724F
  8
KERA6
 10
4787.5804472037507
 20
1592.700028480564
 30
0.0
 11
4822.6282172037518
 21
1627.750028480564
 31
0.0
  0
LINE
  5
7250
  8
KERA6
 10
4787.5804472037507
 20
1592.420028480564
 30
0.0
 11
4822.9110172037508
 21
1627.750028480564
 31
0.0
  0
LINE
  5
7251
  8
KERA6
 10
4787.5804472037507
 20
1592.1400284805641
 30
0.0
 11
4823.193917203751
 21
1627.750028480564
 31
0.0
  0
LINE
  5
7252
  8
KERA6
 10
4787.5804472037507
 20
1591.8500284805641
 30
0.0
 11
4823.4767172037518
 21
1627.750028480564
 31
0.0
  0
LINE
  5
7253
  8
KERA6
 10
4787.5804472037507
 20
1591.5700284805639
 30
0.0
 11
4823.759617203752
 21
1627.750028480564
 31
0.0
  0
LINE
  5
7254
  8
KERA6
 10
4787.5804472037507
 20
1591.2900284805639
 30
0.0
 11
4824.042417203751
 21
1627.750028480564
 31
0.0
  0
LINE
  5
7255
  8
KERA6
 10
4787.5804472037507
 20
1591.000028480564
 30
0.0
 11
4824.3253172037512
 21
1627.750028480564
 31
0.0
  0
LINE
  5
7256
  8
KERA6
 10
4787.5804472037507
 20
1590.720028480564
 30
0.0
 11
4824.608117203752
 21
1627.750028480564
 31
0.0
  0
LINE
  5
7257
  8
KERA6
 10
4787.5804472037507
 20
1590.4400284805629
 30
0.0
 11
4824.8909172037511
 21
1627.750028480564
 31
0.0
  0
LINE
  5
7258
  8
KERA6
 10
4787.5804472037507
 20
1590.1600284805641
 30
0.0
 11
4825.1738172037512
 21
1627.750028480564
 31
0.0
  0
LINE
  5
7259
  8
KERA6
 10
4787.5804472037507
 20
1589.8700284805641
 30
0.0
 11
4825.4566172037521
 21
1627.750028480564
 31
0.0
  0
LINE
  5
725A
  8
KERA6
 10
4787.5804472037507
 20
1589.5900284805639
 30
0.0
 11
4825.7395172037513
 21
1627.750028480564
 31
0.0
  0
LINE
  5
725B
  8
KERA6
 10
4787.5804472037507
 20
1589.3100284805639
 30
0.0
 11
4826.0223172037513
 21
1627.750028480564
 31
0.0
  0
LINE
  5
725C
  8
KERA6
 10
4787.5804472037507
 20
1589.020028480564
 30
0.0
 11
4826.3052172037524
 21
1627.750028480564
 31
0.0
  0
LINE
  5
725D
  8
KERA6
 10
4787.5804472037507
 20
1588.740028480564
 30
0.0
 11
4826.5880172037514
 21
1627.750028480564
 31
0.0
  0
LINE
  5
725E
  8
KERA6
 10
4787.5804472037507
 20
1588.460028480564
 30
0.0
 11
4826.8708172037514
 21
1627.750028480564
 31
0.0
  0
LINE
  5
725F
  8
KERA6
 10
4787.5804472037507
 20
1588.180028480564
 30
0.0
 11
4827.1537172037524
 21
1627.750028480564
 31
0.0
  0
LINE
  5
7260
  8
KERA6
 10
4787.5804472037507
 20
1587.8900284805641
 30
0.0
 11
4827.4365172037506
 21
1627.750028480564
 31
0.0
  0
LINE
  5
7261
  8
KERA6
 10
4787.5804472037507
 20
1587.6200284805641
 30
0.0
 11
4787.5804472037507
 21
1627.750028480564
 31
0.0
  0
LINE
  5
7262
  8
KERA6
 10
4787.5804472037507
 20
1627.750028480564
 30
0.0
 11
4827.7127172037517
 21
1627.750028480564
 31
0.0
  0
LINE
  5
7263
  8
KERA6
 10
4787.5804472037507
 20
1627.490028480564
 30
0.0
 11
4787.8385672037512
 21
1627.750028480564
 31
0.0
  0
LINE
  5
7264
  8
KERA6
 10
4787.5804472037507
 20
1627.210028480564
 30
0.0
 11
4788.121407203751
 21
1627.750028480564
 31
0.0
  0
LINE
  5
7265
  8
KERA6
 10
4787.5804472037507
 20
1626.930028480564
 30
0.0
 11
4788.4042472037518
 21
1627.750028480564
 31
0.0
  0
LINE
  5
7266
  8
KERA6
 10
4787.5804472037507
 20
1626.6400284805629
 30
0.0
 11
4788.6870872037516
 21
1627.750028480564
 31
0.0
  0
LINE
  5
7267
  8
KERA6
 10
4787.5804472037507
 20
1626.3600284805641
 30
0.0
 11
4788.9699372037512
 21
1627.750028480564
 31
0.0
  0
LINE
  5
7268
  8
KERA6
 10
4787.5804472037507
 20
1626.0800284805639
 30
0.0
 11
4789.252777203752
 21
1627.750028480564
 31
0.0
  0
LINE
  5
7269
  8
KERA6
 10
4787.5804472037507
 20
1625.7900284805639
 30
0.0
 11
4789.5356172037509
 21
1627.750028480564
 31
0.0
  0
LINE
  5
726A
  8
KERA6
 10
4787.5804472037507
 20
1625.510028480564
 30
0.0
 11
4789.8184672037514
 21
1627.750028480564
 31
0.0
  0
LINE
  5
726B
  8
KERA6
 10
4787.5804472037507
 20
1625.230028480564
 30
0.0
 11
4790.1013072037513
 21
1627.750028480564
 31
0.0
  0
LINE
  5
726C
  8
KERA6
 10
4787.5804472037507
 20
1624.9500284805631
 30
0.0
 11
4790.3841472037511
 21
1627.750028480564
 31
0.0
  0
LINE
  5
726D
  8
KERA6
 10
4787.5804472037507
 20
1624.6600284805641
 30
0.0
 11
4790.666987203751
 21
1627.750028480564
 31
0.0
  0
LINE
  5
726E
  8
KERA6
 10
4787.5804472037507
 20
1624.3800284805641
 30
0.0
 11
4790.9498372037524
 21
1627.750028480564
 31
0.0
  0
LINE
  5
726F
  8
KERA6
 10
4787.5804472037507
 20
1624.1000284805641
 30
0.0
 11
4791.2326772037513
 21
1627.750028480564
 31
0.0
  0
LINE
  5
7270
  8
KERA6
 10
4787.5804472037507
 20
1623.8100284805639
 30
0.0
 11
4791.5155172037512
 21
1627.750028480564
 31
0.0
  0
LINE
  5
7271
  8
KERA6
 10
4787.5804472037507
 20
1623.5300284805639
 30
0.0
 11
4791.7983172037511
 21
1627.750028480564
 31
0.0
  0
LINE
  5
7272
  8
KERA6
 10
4787.5804472037507
 20
1623.250028480564
 30
0.0
 11
4792.0812172037513
 21
1627.750028480564
 31
0.0
  0
LINE
  5
7273
  8
KERA6
 10
4787.5804472037507
 20
1622.970028480564
 30
0.0
 11
4792.3640172037512
 21
1627.750028480564
 31
0.0
  0
LINE
  5
7274
  8
KERA6
 10
4787.5804472037507
 20
1622.680028480564
 30
0.0
 11
4792.6469172037514
 21
1627.750028480564
 31
0.0
  0
LINE
  5
7275
  8
KERA6
 10
4787.5804472037507
 20
1622.4000284805629
 30
0.0
 11
4792.9297172037514
 21
1627.750028480564
 31
0.0
  0
LINE
  5
7276
  8
KERA6
 10
4787.5804472037507
 20
1622.1200284805641
 30
0.0
 11
4793.2126172037506
 21
1627.750028480564
 31
0.0
  0
LINE
  5
7277
  8
KERA6
 10
4787.5804472037507
 20
1621.8300284805639
 30
0.0
 11
4793.4954172037505
 21
1627.750028480564
 31
0.0
  0
LINE
  5
7278
  8
KERA6
 10
4787.5804472037507
 20
1621.5500284805639
 30
0.0
 11
4793.7782172037514
 21
1627.750028480564
 31
0.0
  0
LINE
  5
7279
  8
KERA6
 10
4787.5804472037507
 20
1621.270028480564
 30
0.0
 11
4794.0611172037507
 21
1627.750028480564
 31
0.0
  0
LINE
  5
727A
  8
KERA6
 10
4787.5804472037507
 20
1620.990028480564
 30
0.0
 11
4794.3439172037506
 21
1627.750028480564
 31
0.0
  0
LINE
  5
727B
  8
KERA6
 10
4787.5804472037507
 20
1620.700028480564
 30
0.0
 11
4794.6268172037508
 21
1627.750028480564
 31
0.0
  0
LINE
  5
727C
  8
KERA6
 10
4787.5804472037507
 20
1620.420028480564
 30
0.0
 11
4794.9096172037507
 21
1627.750028480564
 31
0.0
  0
LINE
  5
727D
  8
KERA6
 10
4787.5804472037507
 20
1620.1400284805641
 30
0.0
 11
4795.1925172037509
 21
1627.750028480564
 31
0.0
  0
LINE
  5
727E
  8
KERA6
 10
4787.5804472037507
 20
1619.8500284805641
 30
0.0
 11
4795.4753172037508
 21
1627.750028480564
 31
0.0
  0
LINE
  5
727F
  8
KERA6
 10
4787.5804472037507
 20
1619.5700284805639
 30
0.0
 11
4795.7581172037517
 21
1627.750028480564
 31
0.0
  0
LINE
  5
7280
  8
KERA6
 10
4787.5804472037507
 20
1619.2900284805639
 30
0.0
 11
4796.0410172037509
 21
1627.750028480564
 31
0.0
  0
LINE
  5
7281
  8
KERA6
 10
4787.5804472037507
 20
1619.010028480564
 30
0.0
 11
4796.3238172037509
 21
1627.750028480564
 31
0.0
  0
LINE
  5
7282
  8
KERA6
 10
4787.5804472037507
 20
1618.720028480564
 30
0.0
 11
4796.606717203751
 21
1627.750028480564
 31
0.0
  0
LINE
  5
7283
  8
KERA6
 10
4787.5804472037507
 20
1618.440028480564
 30
0.0
 11
4796.8895172037519
 21
1627.750028480564
 31
0.0
  0
LINE
  5
7284
  8
KERA6
 10
4787.5804472037507
 20
1618.1600284805641
 30
0.0
 11
4797.172417203752
 21
1627.750028480564
 31
0.0
  0
LINE
  5
7285
  8
KERA6
 10
4787.5804472037507
 20
1617.8700284805641
 30
0.0
 11
4797.4552172037511
 21
1627.750028480564
 31
0.0
  0
LINE
  5
7286
  8
KERA6
 10
4787.5804472037507
 20
1617.5900284805639
 30
0.0
 11
4797.738017203752
 21
1627.750028480564
 31
0.0
  0
LINE
  5
7287
  8
KERA6
 10
4787.5804472037507
 20
1617.3100284805639
 30
0.0
 11
4798.0209172037512
 21
1627.750028480564
 31
0.0
  0
LINE
  5
7288
  8
KERA6
 10
4787.5804472037507
 20
1617.0300284805639
 30
0.0
 11
4798.3037172037511
 21
1627.750028480564
 31
0.0
  0
LINE
  5
7289
  8
KERA6
 10
4787.5804472037507
 20
1616.740028480564
 30
0.0
 11
4798.5866172037513
 21
1627.750028480564
 31
0.0
  0
LINE
  5
728A
  8
KERA6
 10
4787.5804472037507
 20
1616.4600284805631
 30
0.0
 11
4798.8694172037513
 21
1627.750028480564
 31
0.0
  0
LINE
  5
728B
  8
KERA6
 10
4787.5804472037507
 20
1616.180028480564
 30
0.0
 11
4799.1523172037514
 21
1627.750028480564
 31
0.0
  0
LINE
  5
728C
  8
KERA6
 10
4787.5804472037507
 20
1615.8900284805641
 30
0.0
 11
4799.4351172037514
 21
1627.750028480564
 31
0.0
  0
LINE
  5
728D
  8
KERA6
 10
4787.5804472037507
 20
1615.6100284805641
 30
0.0
 11
4799.7179172037513
 21
1627.750028480564
 31
0.0
  0
LINE
  5
728E
  8
KERA6
 10
4787.5804472037507
 20
1615.3300284805639
 30
0.0
 11
4800.0008172037524
 21
1627.750028480564
 31
0.0
  0
LINE
  5
728F
  8
KERA6
 10
4787.5804472037507
 20
1615.050028480563
 30
0.0
 11
4800.2836172037523
 21
1627.750028480564
 31
0.0
  0
LINE
  5
7290
  8
KERA6
 10
4787.5804472037507
 20
1614.760028480564
 30
0.0
 11
4800.5665172037507
 21
1627.750028480564
 31
0.0
  0
LINE
  5
7291
  8
KERA6
 10
4787.5804472037507
 20
1614.480028480564
 30
0.0
 11
4800.8493172037524
 21
1627.750028480564
 31
0.0
  0
LINE
  5
7292
  8
KERA6
 10
4787.5804472037507
 20
1614.200028480564
 30
0.0
 11
4801.1322172037508
 21
1627.750028480564
 31
0.0
  0
LINE
  5
7293
  8
KERA6
 10
4787.5804472037507
 20
1613.9100284805641
 30
0.0
 11
4801.4150172037507
 21
1627.750028480564
 31
0.0
  0
TEXT
  5
7294
  8
KERA6
 10
4923.3451172037512
 20
1661.950028480564
 30
0.0
 40
35.0
  1
0 = OKFFB
 41
0.6642000000000006
  7
ROMANS
 72
     5
 11
5128.1401172037513
 21
1661.950028480564
 31
0.0
  0
LINE
  5
7295
  8
KERA6
 10
4909.1361172037514
 20
1676.750028480564
 30
0.0
 11
4909.1361172037514
 21
1686.000028480564
 31
0.0
  0
LINE
  5
7296
  8
KERA0
 10
3068.6221169531641
 20
739.49207141178738
 30
0.0
 11
3073.561107323671
 21
734.55308104128005
 31
0.0
  0
LINE
  5
7297
  8
KERA0
 10
3828.7441362121499
 20
739.49207141178795
 30
0.0
 11
3823.805145841643
 21
734.55308104128096
 31
0.0
  0
DIMENSION
  5
7298
  8
KERA4
  2
*D31
 10
3828.7441362121508
 20
354.99137240986971
 30
0.0
 11
3448.6831265826581
 21
354.99137240986971
 31
0.0
 70
     0
 13
3068.6221169531641
 23
739.49207141178738
 33
0.0
 14
3828.7441362121508
 24
739.49207141178795
 34
0.0
1001
ACAD
1000
DSTYLE
1002
{
1070
    41
1040
50.0
1070
    42
1040
20.0
1070
    43
1040
100.0
1070
    44
1040
15.0
1070
    78
1070
     8
1070
   140
1040
50.0
1070
   141
1040
4.0
1070
   143
1040
0.0394
1070
   147
1040
15.0
1070
   171
1070
     4
1070
   172
1070
     1
1070
   174
1070
     1
1070
   176
1070
   256
1070
   177
1070
   256
1070
   178
1070
   256
1070
   271
1070
     0
1070
   272
1070
     0
1070
   273
1070
     8
1070
   274
1070
     4
1002
}
1001
ACAD_DSTYLE_DIMINSPECT
1070
   396
1000
100%
1070
   395
1000

1070
   394
1070
    33
1070
   393
1070
     0
  0
DIMENSION
  5
7299
  8
KERA4
  2
*D32
 10
3952.1158467123332
 20
862.86378191197059
 30
0.0
 11
3762.0853418975862
 21
1052.8942867267169
 31
0.0
 70
     1
  1
540
 13
3448.6831265826572
 23
1119.5530810412811
 33
0.0
 14
3828.7441362121508
 24
739.49207141178795
 34
0.0
1001
ACAD
1000
DSTYLE
1002
{
1070
    41
1040
50.0
1070
    42
1040
20.0
1070
    43
1040
100.0
1070
    44
1040
15.0
1070
    78
1070
     8
1070
   140
1040
50.0
1070
   141
1040
4.0
1070
   143
1040
0.0394
1070
   147
1040
15.0
1070
   171
1070
     4
1070
   172
1070
     1
1070
   174
1070
     1
1070
   176
1070
   256
1070
   177
1070
   256
1070
   178
1070
   256
1070
   271
1070
     0
1070
   272
1070
     0
1070
   273
1070
     8
1070
   274
1070
     4
1002
}
1001
ACAD_DSTYLE_DIMINSPECT
1070
   396
1000
100%
1070
   395
1000

1070
   394
1070
    33
1070
   393
1070
     0
  0
LINE
  5
729A
  8
KERA0
 10
3825.3118162121491
 20
2437.6170284805639
 30
0.0
 11
3825.3118162121491
 21
2397.6170284805639
 31
0.0
  0
LINE
  5
729B
  8
KERA4
 10
3428.6831265826572
 20
1119.5530810412811
 30
0.0
 11
2943.0119055451378
 21
1119.5530810412811
 31
0.0
  0
LINE
  5
729C
  8
KERA4
 10
3396.8136265826579
 20
999.34492823956725
 30
0.0
 11
2943.0119055451378
 21
999.34492823956725
 31
0.0
  0
LINE
  5
729D
  8
KERA4
 10
2958.0119055451378
 20
1169.5530810412799
 30
0.0
 11
2958.0119055451378
 21
1219.5530810412799
 31
0.0
  0
SOLID
  5
729E
  8
KERA4
 10
2949.6785722118052
 20
1169.5530810412799
 30
0.0
 11
2966.3452388784708
 21
1169.5530810412799
 31
0.0
 12
2958.0119055451378
 22
1119.5530810412811
 32
0.0
 13
2958.0119055451378
 23
1119.5530810412811
 33
0.0
  0
LINE
  5
729F
  8
KERA4
 10
3428.6831265826572
 20
930.05308104128073
 30
0.0
 11
2943.0119055451378
 21
930.05308104128073
 31
0.0
  0
LINE
  5
72A0
  8
KERA4
 10
3396.8136265826579
 20
999.34492823956725
 30
0.0
 11
2943.0119055451378
 21
999.34492823956725
 31
0.0
  0
LINE
  5
72A1
  8
KERA4
 10
2958.0119055451378
 20
880.05308104128073
 30
0.0
 11
2958.0119055451378
 21
830.05308104128051
 31
0.0
  0
SOLID
  5
72A2
  8
KERA4
 10
2949.6785722118052
 20
880.05308104128073
 30
0.0
 11
2966.3452388784708
 21
880.05308104128073
 31
0.0
 12
2958.0119055451378
 22
930.05308104128073
 32
0.0
 13
2958.0119055451378
 23
930.05308104128073
 33
0.0
  0
CIRCLE
  5
72A3
  8
KERA4
 10
2958.0119055451378
 20
999.34492823956725
 30
0.0
 40
9.1172054343319342
  0
INSERT
  5
72A4
  8
KERA4
  6
CONTINUOUS
  2
*U76
 10
0.0
 20
0.0
 30
0.0
1001
ACAD
1002
{
1000
R14_HATCH_DATA
1000
72A4
1011
1.0
1021
0.0
1031
0.0
1021
0.0
1031
0.0
1011
0.0
1021
0.0
1031
0.0
1021
1.0
1031
0.0
1011
0.0
1021
0.0
1031
0.0
1021
0.0
1031
1.0
1040
0.0
1010
0.0
1020
0.0
1030
1.0
1000
SOLID
1070
     1
1070
     1
1071
        1
1071
        1
1071
        1
1070
     2
1040
2958.0119055451378
1040
999.34492823956725
1040
9.1172054343319342
1040
0.0
1040
6.2831853071795862
1070
     1
1071
        1
1005
72A3
1070
     0
1070
     1
1071
        1
1040
3874.4169099687319
1040
3334.2689606686981
1040
0.0
1002
}
  0
DIMENSION
  5
72A5
  8
KERA4
  2
*D33
 10
3522.7433505035128
 20
1193.6133049621369
 30
0.0
 11
3552.8099887039421
 21
1163.546666761709
 31
0.0
 70
     1
 13
3508.8164029835139
 23
1059.419804640424
 33
0.0
 14
3448.6831265826572
 24
1119.5530810412811
 34
0.0
1001
ACAD
1000
DSTYLE
1002
{
1070
    41
1040
50.0
1070
    42
1040
20.0
1070
    43
1040
100.0
1070
    44
1040
15.0
1070
    78
1070
     8
1070
   140
1040
50.0
1070
   141
1040
4.0
1070
   143
1040
0.0394
1070
   147
1040
15.0
1070
   171
1070
     4
1070
   174
1070
     1
1070
   176
1070
   256
1070
   177
1070
   256
1070
   178
1070
   256
1070
   271
1070
     0
1070
   272
1070
     0
1070
   273
1070
     8
1070
   274
1070
     4
1002
}
1001
ACAD_DSTYLE_DIMINSPECT
1070
   396
1000
100%
1070
   395
1000

1070
   394
1070
    33
1070
   393
1070
     0
  0
LINE
  5
72A6
  8
KERA4
 10
2947.1291109794702
 20
999.34492823956725
 30
0.0
 11
2943.0119055451378
 21
999.34492823956725
 31
0.0
  0
LINE
  5
72A7
  8
KERA4
 10
2947.1291109794702
 20
1119.5530810412811
 30
0.0
 11
2943.0119055451378
 21
1119.5530810412811
 31
0.0
  0
LINE
  5
72A8
  8
KERA4
 10
2958.0119055451378
 20
1169.5530810412811
 30
0.0
 11
2958.0119055451378
 21
1219.5530810412811
 31
0.0
  0
SOLID
  5
72A9
  8
KERA4
 10
2949.6785722118052
 20
1169.5530810412811
 30
0.0
 11
2966.3452388784708
 21
1169.5530810412811
 31
0.0
 12
2958.0119055451378
 22
1119.5530810412811
 32
0.0
 13
2958.0119055451378
 23
1119.5530810412811
 33
0.0
  0
INSERT
  5
72AA
  8
KERA4
  2
*U77
 10
0.0
 20
0.0
 30
0.0
  0
LINE
  5
72AB
  8
KERA4
 10
2947.1291109794702
 20
999.34492823956725
 30
0.0
 11
2943.2583165028232
 21
999.34492823956725
 31
0.0
  0
LINE
  5
72AC
  8
KERA4
 10
2947.1291109794702
 20
930.05308104128073
 30
0.0
 11
2943.2583165028232
 21
930.05308104128073
 31
0.0
  0
LINE
  5
72AD
  8
KERA4
 10
2958.2583165028232
 20
880.05308104128073
 30
0.0
 11
2958.2583165028232
 21
830.05308104128051
 31
0.0
  0
SOLID
  5
72AE
  8
KERA4
 10
2949.9249831694901
 20
880.05308104128073
 30
0.0
 11
2966.5916498361562
 21
880.05308104128073
 31
0.0
 12
2958.2583165028232
 22
930.05308104128073
 32
0.0
 13
2958.2583165028232
 23
930.05308104128073
 33
0.0
  0
INSERT
  5
72AF
  8
KERA4
  2
*U78
 10
0.0
 20
0.0
 30
0.0
  0
ENDSEC
  0
EOF
