  0
SECTION
  2
HEADER
  9
$ACADVER
  1
AC1014
  9
$ACADMAINTVER
 70
     9
  9
$DWGCODEPAGE
  3
ANSI_1252
  9
$INSBASE
 10
0.0
 20
0.0
 30
0.0
  9
$EXTMIN
 10
-240.0
 20
-384.1666666666666
 30
0.0
  9
$EXTMAX
 10
1064.166666666665
 20
363.0000000000001
 30
0.0
  9
$LIMMIN
 10
0.0
 20
0.0
  9
$LIMMAX
 10
420.0
 20
297.0
  9
$ORTHOMODE
 70
     1
  9
$REGENMODE
 70
     1
  9
$FILLMODE
 70
     1
  9
$QTEXTMODE
 70
     0
  9
$MIRRTEXT
 70
     1
  9
$DRAGMODE
 70
     2
  9
$LTSCALE
 40
1.0
  9
$OSMODE
 70
   167
  9
$ATTMODE
 70
     1
  9
$TEXTSIZE
 40
2.5
  9
$TRACEWID
 40
1.0
  9
$TEXTSTYLE
  7
STANDARD
  9
$CLAYER
  8
0
  9
$CELTYPE
  6
BYLAYER
  9
$CECOLOR
 62
   256
  9
$CELTSCALE
 40
1.0
  9
$DELOBJ
 70
     1
  9
$DISPSILH
 70
     0
  9
$DIMSCALE
 40
1.0
  9
$DIMASZ
 40
25.0
  9
$DIMEXO
 40
5.0
  9
$DIMDLI
 40
3.75
  9
$DIMRND
 40
0.0
  9
$DIMDLE
 40
0.0
  9
$DIMEXE
 40
1.25
  9
$DIMTP
 40
0.0
  9
$DIMTM
 40
0.0
  9
$DIMTXT
 40
25.0
  9
$DIMCEN
 40
2.5
  9
$DIMTSZ
 40
0.0
  9
$DIMTOL
 70
     0
  9
$DIMLIM
 70
     0
  9
$DIMTIH
 70
     0
  9
$DIMTOH
 70
     0
  9
$DIMSE1
 70
     0
  9
$DIMSE2
 70
     0
  9
$DIMTAD
 70
     1
  9
$DIMZIN
 70
     8
  9
$DIMBLK
  1

  9
$DIMASO
 70
     1
  9
$DIMSHO
 70
     1
  9
$DIMPOST
  1

  9
$DIMAPOST
  1

  9
$DIMALT
 70
     0
  9
$DIMALTD
 70
     3
  9
$DIMALTF
 40
0.03937007874016
  9
$DIMLFAC
 40
1.0
  9
$DIMTOFL
 70
     1
  9
$DIMTVP
 40
0.0
  9
$DIMTIX
 70
     0
  9
$DIMSOXD
 70
     0
  9
$DIMSAH
 70
     0
  9
$DIMBLK1
  1

  9
$DIMBLK2
  1

  9
$DIMSTYLE
  2
STANDART
  9
$DIMCLRD
 70
     0
  9
$DIMCLRE
 70
     0
  9
$DIMCLRT
 70
     0
  9
$DIMTFAC
 40
1.0
  9
$DIMGAP
 40
5.0
  9
$DIMJUST
 70
     0
  9
$DIMSD1
 70
     0
  9
$DIMSD2
 70
     0
  9
$DIMTOLJ
 70
     0
  9
$DIMTZIN
 70
     8
  9
$DIMALTZ
 70
     0
  9
$DIMALTTZ
 70
     0
  9
$DIMFIT
 70
     3
  9
$DIMUPT
 70
     0
  9
$DIMUNIT
 70
     2
  9
$DIMDEC
 70
     2
  9
$DIMTDEC
 70
     2
  9
$DIMALTU
 70
     2
  9
$DIMALTTD
 70
     3
  9
$DIMTXSTY
  7
STANDARD
  9
$DIMAUNIT
 70
     0
  9
$LUNITS
 70
     2
  9
$LUPREC
 70
     3
  9
$SKETCHINC
 40
1.0
  9
$FILLETRAD
 40
1.0
  9
$AUNITS
 70
     0
  9
$AUPREC
 70
     3
  9
$MENU
  1
.
  9
$ELEVATION
 40
0.0
  9
$PELEVATION
 40
0.0
  9
$THICKNESS
 40
0.0
  9
$LIMCHECK
 70
     0
  9
$BLIPMODE
 70
     0
  9
$CHAMFERA
 40
10.0
  9
$CHAMFERB
 40
10.0
  9
$CHAMFERC
 40
20.0
  9
$CHAMFERD
 40
0.0
  9
$SKPOLY
 70
     0
  9
$TDCREATE
 40
2453671.631321793
  9
$TDUPDATE
 40
2453672.541480602
  9
$TDINDWG
 40
0.1576036227
  9
$TDUSRTIMER
 40
0.1576036227
  9
$USRTIMER
 70
     1
  9
$ANGBASE
 50
0.0
  9
$ANGDIR
 70
     0
  9
$PDMODE
 70
     0
  9
$PDSIZE
 40
0.0
  9
$PLINEWID
 40
0.0
  9
$COORDS
 70
     0
  9
$SPLFRAME
 70
     0
  9
$SPLINETYPE
 70
     6
  9
$SPLINESEGS
 70
     8
  9
$ATTDIA
 70
     0
  9
$ATTREQ
 70
     0
  9
$HANDLING
 70
 22529
  9
$HANDSEED
  5
B71
  9
$SURFTAB1
 70
     6
  9
$SURFTAB2
 70
     6
  9
$SURFTYPE
 70
     6
  9
$SURFU
 70
     6
  9
$SURFV
 70
     6
  9
$UCSNAME
  2

  9
$UCSORG
 10
0.0
 20
0.0
 30
0.0
  9
$UCSXDIR
 10
1.0
 20
0.0
 30
0.0
  9
$UCSYDIR
 10
0.0
 20
1.0
 30
0.0
  9
$PUCSNAME
  2

  9
$PUCSORG
 10
0.0
 20
0.0
 30
0.0
  9
$PUCSXDIR
 10
1.0
 20
0.0
 30
0.0
  9
$PUCSYDIR
 10
0.0
 20
1.0
 30
0.0
  9
$USERI1
 70
     0
  9
$USERI2
 70
     0
  9
$USERI3
 70
     0
  9
$USERI4
 70
     0
  9
$USERI5
 70
     0
  9
$USERR1
 40
0.0
  9
$USERR2
 40
0.0
  9
$USERR3
 40
0.0
  9
$USERR4
 40
0.0
  9
$USERR5
 40
0.0
  9
$WORLDVIEW
 70
     1
  9
$SHADEDGE
 70
     3
  9
$SHADEDIF
 70
    70
  9
$TILEMODE
 70
     1
  9
$MAXACTVP
 70
    64
  9
$PINSBASE
 10
0.0
 20
0.0
 30
0.0
  9
$PLIMCHECK
 70
     0
  9
$PEXTMIN
 10
0.0
 20
0.0
 30
0.0
  9
$PEXTMAX
 10
0.0
 20
0.0
 30
0.0
  9
$PLIMMIN
 10
0.0
 20
0.0
  9
$PLIMMAX
 10
12.0
 20
9.0
  9
$UNITMODE
 70
     0
  9
$VISRETAIN
 70
     1
  9
$PLINEGEN
 70
     0
  9
$PSLTSCALE
 70
     1
  9
$TREEDEPTH
 70
  3020
  9
$PICKSTYLE
 70
     0
  9
$CMLSTYLE
  2
STANDARD
  9
$CMLJUST
 70
     0
  9
$CMLSCALE
 40
20.0
  9
$PROXYGRAPHICS
 70
     1
  9
$MEASUREMENT
 70
     1
  0
ENDSEC
  0
SECTION
  2
CLASSES
  0
CLASS
  1
ACDBDICTIONARYWDFLT
  2
AcDbDictionaryWithDefault
  3
AutoCAD 2000
 90
        0
280
     0
281
     0
  0
CLASS
  1
ACDBPLACEHOLDER
  2
AcDbPlaceHolder
  3
AutoCAD 2000
 90
        0
280
     0
281
     0
  0
CLASS
  1
LAYOUT
  2
AcDbLayout
  3
AutoCAD 2000
 90
        0
280
     0
281
     0
  0
CLASS
  1
DICTIONARYVAR
  2
AcDbDictionaryVar
  3
AutoCAD 2000
 90
        0
280
     0
281
     0
  0
CLASS
  1
RASTERVARIABLES
  2
AcDbRasterVariables
  3
ISM
 90
        0
280
     0
281
     0
  0
CLASS
  1
IMAGEDEF
  2
AcDbRasterImageDef
  3
ISM
 90
        0
280
     0
281
     0
  0
CLASS
  1
IMAGEDEF_REACTOR
  2
AcDbRasterImageDefReactor
  3
ISM
 90
        1
280
     0
281
     0
  0
CLASS
  1
IMAGE
  2
AcDbRasterImage
  3
ISM
 90
      127
280
     0
281
     1
  0
CLASS
  1
DIMASSOC
  2
AcDbDimAssoc
  3
"AcDbDimAssoc|Product Desc:     AcDim ARX App For Dimension|Company:          Autodesk, Inc.|WEB Address:      www.autodesk.com"
 90
        0
280
     0
281
     0
  0
CLASS
  1
LONG_TRANSACTION
  2
AcDbLongTransaction
  3
AutoCAD 2000
 90
        0
280
     0
281
     0
  0
CLASS
  1
LWPOLYLINE
  2
AcDbPolyline
  3
AutoCAD 2000
 90
        0
280
     0
281
     1
  0
CLASS
  1
HATCH
  2
AcDbHatch
  3
AutoCAD 2000
 90
        0
280
     0
281
     1
  0
CLASS
  1
XRECORD
  2
AcDbXrecord
  3
AutoCAD 2000
 90
        0
280
     0
281
     0
  0
ENDSEC
  0
SECTION
  2
TABLES
  0
TABLE
  2
VPORT
  5
8
330
0
100
AcDbSymbolTable
 70
     2
  0
VPORT
  5
B49
330
8
100
AcDbSymbolTableRecord
100
AcDbViewportTableRecord
  2
*ACTIVE
 70
     0
 10
0.0
 20
0.0
 11
1.0
 21
1.0
 12
412.1167748014786
 22
-0.9140104488010933
 13
0.0
 23
0.0
 14
10.0
 24
10.0
 15
10.0
 25
10.0
 16
0.0
 26
0.0
 36
1.0
 17
0.0
 27
0.0
 37
0.0
 40
785.7484637430506
 41
1.668032786885245
 42
50.0
 43
0.0
 44
0.0
 50
0.0
 51
0.0
 71
     0
 72
   100
 73
     1
 74
     3
 75
     0
 76
     0
 77
     0
 78
     0
  0
ENDTAB
  0
TABLE
  2
LTYPE
  5
5
330
0
100
AcDbSymbolTable
 70
     2
  0
LTYPE
  5
14
330
5
100
AcDbSymbolTableRecord
100
AcDbLinetypeTableRecord
  2
BYBLOCK
 70
     0
  3

 72
    65
 73
     0
 40
0.0
  0
LTYPE
  5
15
330
5
100
AcDbSymbolTableRecord
100
AcDbLinetypeTableRecord
  2
BYLAYER
 70
     0
  3

 72
    65
 73
     0
 40
0.0
  0
LTYPE
  5
16
330
5
100
AcDbSymbolTableRecord
100
AcDbLinetypeTableRecord
  2
CONTINUOUS
 70
     0
  3
Solid line
 72
    65
 73
     0
 40
0.0
  0
LTYPE
  5
4CA
330
5
100
AcDbSymbolTableRecord
100
AcDbLinetypeTableRecord
  2
STRICHPUNKT
 70
     0
  3
Strichpunkt __ . __ . __ . __ . __ . __ . __ . 
 72
    65
 73
     4
 40
25.4
 49
12.7
 74
     0
 49
-6.349999999999999
 74
     0
 49
0.0
 74
     0
 49
-6.349999999999999
 74
     0
  0
ENDTAB
  0
TABLE
  2
LAYER
  5
2
102
{ACAD_XDICTIONARY
360
156
102
}
330
0
100
AcDbSymbolTable
 70
     2
  0
LAYER
  5
10
330
2
100
AcDbSymbolTableRecord
100
AcDbLayerTableRecord
  2
0
 70
     0
 62
     7
  6
CONTINUOUS
  0
LAYER
  5
1C9
330
2
100
AcDbSymbolTableRecord
100
AcDbLayerTableRecord
  2
DEFPOINTS
 70
     0
 62
     7
  6
CONTINUOUS
  0
ENDTAB
  0
TABLE
  2
STYLE
  5
3
330
0
100
AcDbSymbolTable
 70
     1
  0
STYLE
  5
11
330
3
100
AcDbSymbolTableRecord
100
AcDbTextStyleTableRecord
  2
STANDARD
 70
     0
 40
0.0
 41
1.0
 50
0.0
 71
     0
 42
2.5
  3
romans.shx
  4

  0
ENDTAB
  0
TABLE
  2
VIEW
  5
6
330
0
100
AcDbSymbolTable
 70
     0
  0
ENDTAB
  0
TABLE
  2
UCS
  5
7
330
0
100
AcDbSymbolTable
 70
     0
  0
ENDTAB
  0
TABLE
  2
APPID
  5
9
330
0
100
AcDbSymbolTable
 70
     3
  0
APPID
  5
12
330
9
100
AcDbSymbolTableRecord
100
AcDbRegAppTableRecord
  2
ACAD
 70
     0
  0
APPID
  5
7B
330
9
100
AcDbSymbolTableRecord
100
AcDbRegAppTableRecord
  2
ODA
 70
     0
  0
APPID
  5
155
330
9
100
AcDbSymbolTableRecord
100
AcDbRegAppTableRecord
  2
PIT-CUP
 70
     0
  0
ENDTAB
  0
TABLE
  2
DIMSTYLE
  5
A
330
0
100
AcDbSymbolTable
 70
     1
  0
DIMSTYLE
105
27
102
{ACAD_REACTORS
330
6CE
330
6E6
330
6FE
330
716
330
72E
330
74A
330
762
102
}
330
A
100
AcDbSymbolTableRecord
100
AcDbDimStyleTableRecord
  2
STANDART
 70
     0
  3

  4

  5

  6

  7

 40
1.0
 41
25.0
 42
5.0
 43
3.75
 44
1.25
 45
0.0
 46
0.0
 47
0.0
 48
0.0
140
25.0
141
2.5
142
0.0
143
0.03937007874016
144
1.0
145
0.0
146
1.0
147
5.0
 71
     0
 72
     0
 73
     0
 74
     0
 75
     0
 76
     0
 77
     1
 78
     8
170
     0
171
     3
172
     1
173
     0
174
     0
175
     0
176
     0
177
     0
178
     0
270
     2
271
     2
272
     2
273
     2
274
     3
340
11
275
     0
280
     0
281
     0
282
     0
283
     0
284
     8
285
     0
286
     0
287
     3
288
     0
  0
ENDTAB
  0
TABLE
  2
BLOCK_RECORD
  5
1
330
0
100
AcDbSymbolTable
 70
     8
  0
BLOCK_RECORD
  5
1F
102
{ACAD_XDICTIONARY
360
B6B
102
}
330
1
100
AcDbSymbolTableRecord
100
AcDbBlockTableRecord
  2
*MODEL_SPACE
  0
BLOCK_RECORD
  5
50
102
{ACAD_XDICTIONARY
360
B6D
102
}
330
1
100
AcDbSymbolTableRecord
100
AcDbBlockTableRecord
  2
*PAPER_SPACE
  0
BLOCK_RECORD
  5
6CF
330
1
100
AcDbSymbolTableRecord
100
AcDbBlockTableRecord
  2
*D1
  0
BLOCK_RECORD
  5
6E7
330
1
100
AcDbSymbolTableRecord
100
AcDbBlockTableRecord
  2
*D2
  0
BLOCK_RECORD
  5
6FF
330
1
100
AcDbSymbolTableRecord
100
AcDbBlockTableRecord
  2
*D3
  0
BLOCK_RECORD
  5
717
330
1
100
AcDbSymbolTableRecord
100
AcDbBlockTableRecord
  2
*D4
  0
BLOCK_RECORD
  5
72F
330
1
100
AcDbSymbolTableRecord
100
AcDbBlockTableRecord
  2
*D5
  0
BLOCK_RECORD
  5
74B
330
1
100
AcDbSymbolTableRecord
100
AcDbBlockTableRecord
  2
*D6
  0
BLOCK_RECORD
  5
763
330
1
100
AcDbSymbolTableRecord
100
AcDbBlockTableRecord
  2
*D7
  0
ENDTAB
  0
ENDSEC
  0
SECTION
  2
BLOCKS
  0
BLOCK
  5
20
330
1F
100
AcDbEntity
  8
0
100
AcDbBlockBegin
  2
*MODEL_SPACE
 70
     0
 10
0.0
 20
0.0
 30
0.0
  3
*MODEL_SPACE
  1

  0
ENDBLK
  5
21
330
1F
100
AcDbEntity
  8
0
100
AcDbBlockEnd
  0
BLOCK
  5
52
330
50
100
AcDbEntity
 67
     1
  8
0
100
AcDbBlockBegin
  2
*PAPER_SPACE
 70
     0
 10
0.0
 20
0.0
 30
0.0
  3
*PAPER_SPACE
  1

  0
ENDBLK
  5
53
330
50
100
AcDbEntity
 67
     1
  8
0
100
AcDbBlockEnd
  0
BLOCK
  5
6D9
330
6CF
100
AcDbEntity
  8
0
 62
     1
100
AcDbBlockBegin
  2
*D1
 70
     1
 10
0.0
 20
0.0
 30
0.0
  3
*D1
  1

  0
LINE
  5
B11
330
6CF
100
AcDbEntity
  8
0
 62
     0
100
AcDbLine
 10
439.9999999999997
 20
223.0000000000001
 30
0.0
 11
439.9999999999997
 21
334.2500000000001
 31
0.0
  0
LINE
  5
B12
330
6CF
100
AcDbEntity
  8
0
 62
     0
100
AcDbLine
 10
920.0000000000002
 20
223.0000000000001
 30
0.0
 11
920.0000000000002
 21
334.2500000000001
 31
0.0
  0
LINE
  5
B13
330
6CF
100
AcDbEntity
  8
0
 62
     0
100
AcDbLine
 10
464.9999999999997
 20
333.0000000000001
 30
0.0
 11
895.0000000000002
 21
333.0000000000001
 31
0.0
  0
SOLID
  5
B14
330
6CF
100
AcDbEntity
  8
0
 62
     0
100
AcDbTrace
 10
464.9999999999997
 20
337.1666666666667
 30
0.0
 11
464.9999999999997
 21
328.8333333333334
 31
0.0
 12
439.9999999999997
 22
333.0000000000001
 32
0.0
 13
439.9999999999997
 23
333.0000000000001
 33
0.0
  0
SOLID
  5
B15
330
6CF
100
AcDbEntity
  8
0
 62
     0
100
AcDbTrace
 10
895.0000000000002
 20
337.1666666666667
 30
0.0
 11
895.0000000000002
 21
328.8333333333334
 31
0.0
 12
920.0000000000002
 22
333.0000000000001
 32
0.0
 13
920.0000000000002
 23
333.0000000000001
 33
0.0
  0
MTEXT
  5
B16
330
6CF
100
AcDbEntity
  8
0
 62
     0
100
AcDbMText
 10
680.0
 20
350.5000000000001
 30
0.0
 40
25.0
 41
0.0
 71
     5
 72
     1
  1
480
1001
ACAD
1000
MTEXTBEGIN
1070
    73
1070
     1
1070
    44
1040
1.0
1070
    74
1070
     0
1000
MTEXTEND
  0
POINT
  5
B17
330
6CF
100
AcDbEntity
  8
DEFPOINTS
 62
     0
100
AcDbPoint
 10
439.9999999999997
 20
218.0000000000001
 30
0.0
  0
POINT
  5
B18
330
6CF
100
AcDbEntity
  8
DEFPOINTS
 62
     0
100
AcDbPoint
 10
920.0000000000002
 20
218.0000000000001
 30
0.0
  0
POINT
  5
B19
330
6CF
100
AcDbEntity
  8
DEFPOINTS
 62
     0
100
AcDbPoint
 10
920.0000000000002
 20
333.0000000000001
 30
0.0
  0
ENDBLK
  5
6DA
330
6CF
100
AcDbEntity
  8
0
 62
     1
100
AcDbBlockEnd
  0
BLOCK
  5
6F1
330
6E7
100
AcDbEntity
  8
0
 62
     1
100
AcDbBlockBegin
  2
*D2
 70
     1
 10
0.0
 20
0.0
 30
0.0
  3
*D2
  1

  0
LINE
  5
B1A
330
6E7
100
AcDbEntity
  8
0
 62
     0
100
AcDbLine
 10
479.9999999999998
 20
223.0000000000001
 30
0.0
 11
479.9999999999998
 21
264.2500000000001
 31
0.0
  0
LINE
  5
B1B
330
6E7
100
AcDbEntity
  8
0
 62
     0
100
AcDbLine
 10
879.9999999999997
 20
223.0000000000001
 30
0.0
 11
879.9999999999997
 21
264.2500000000001
 31
0.0
  0
LINE
  5
B1C
330
6E7
100
AcDbEntity
  8
0
 62
     0
100
AcDbLine
 10
504.9999999999998
 20
263.0000000000001
 30
0.0
 11
854.9999999999997
 21
263.0000000000001
 31
0.0
  0
SOLID
  5
B1D
330
6E7
100
AcDbEntity
  8
0
 62
     0
100
AcDbTrace
 10
504.9999999999998
 20
267.1666666666668
 30
0.0
 11
504.9999999999998
 21
258.8333333333334
 31
0.0
 12
479.9999999999998
 22
263.0000000000001
 32
0.0
 13
479.9999999999998
 23
263.0000000000001
 33
0.0
  0
SOLID
  5
B1E
330
6E7
100
AcDbEntity
  8
0
 62
     0
100
AcDbTrace
 10
854.9999999999997
 20
267.1666666666668
 30
0.0
 11
854.9999999999997
 21
258.8333333333334
 31
0.0
 12
879.9999999999997
 22
263.0000000000001
 32
0.0
 13
879.9999999999997
 23
263.0000000000001
 33
0.0
  0
MTEXT
  5
B1F
330
6E7
100
AcDbEntity
  8
0
 62
     0
100
AcDbMText
 10
679.9999999999998
 20
280.5000000000001
 30
0.0
 40
25.0
 41
0.0
 71
     5
 72
     1
  1
400
1001
ACAD
1000
MTEXTBEGIN
1070
    73
1070
     1
1070
    44
1040
1.0
1070
    74
1070
     0
1000
MTEXTEND
  0
POINT
  5
B20
330
6E7
100
AcDbEntity
  8
DEFPOINTS
 62
     0
100
AcDbPoint
 10
479.9999999999998
 20
218.0000000000001
 30
0.0
  0
POINT
  5
B21
330
6E7
100
AcDbEntity
  8
DEFPOINTS
 62
     0
100
AcDbPoint
 10
879.9999999999997
 20
218.0000000000001
 30
0.0
  0
POINT
  5
B22
330
6E7
100
AcDbEntity
  8
DEFPOINTS
 62
     0
100
AcDbPoint
 10
879.9999999999997
 20
263.0000000000001
 30
0.0
  0
ENDBLK
  5
6F2
330
6E7
100
AcDbEntity
  8
0
 62
     1
100
AcDbBlockEnd
  0
BLOCK
  5
709
330
6FF
100
AcDbEntity
  8
0
 62
     1
100
AcDbBlockBegin
  2
*D3
 70
     1
 10
0.0
 20
0.0
 30
0.0
  3
*D3
  1

  0
LINE
  5
B2E
330
6FF
100
AcDbEntity
  8
0
 62
     0
100
AcDbLine
 10
949.9999999999998
 20
193.0000000000003
 30
0.0
 11
991.2499999999997
 21
193.0000000000003
 31
0.0
  0
LINE
  5
B2F
330
6FF
100
AcDbEntity
  8
0
 62
     0
100
AcDbLine
 10
949.9999999999998
 20
73.00000000000014
 30
0.0
 11
991.2499999999997
 21
73.00000000000014
 31
0.0
  0
LINE
  5
B30
330
6FF
100
AcDbEntity
  8
0
 62
     0
100
AcDbLine
 10
989.9999999999998
 20
168.0000000000003
 30
0.0
 11
989.9999999999998
 21
98.00000000000014
 31
0.0
  0
SOLID
  5
B31
330
6FF
100
AcDbEntity
  8
0
 62
     0
100
AcDbTrace
 10
985.8333333333332
 20
168.0000000000003
 30
0.0
 11
994.1666666666664
 21
168.0000000000003
 31
0.0
 12
989.9999999999998
 22
193.0000000000003
 32
0.0
 13
989.9999999999998
 23
193.0000000000003
 33
0.0
  0
SOLID
  5
B32
330
6FF
100
AcDbEntity
  8
0
 62
     0
100
AcDbTrace
 10
985.8333333333332
 20
98.00000000000014
 30
0.0
 11
994.1666666666664
 21
98.00000000000013
 31
0.0
 12
989.9999999999998
 22
73.00000000000014
 32
0.0
 13
989.9999999999998
 23
73.00000000000014
 33
0.0
  0
MTEXT
  5
B33
330
6FF
100
AcDbEntity
  8
0
 62
     0
100
AcDbMText
 10
972.4999999999997
 20
133.0000000000004
 30
0.0
 40
25.0
 41
0.0
 71
     5
 72
     1
  1
120
 11
0.0000000000000001
 21
1.0
 31
0.0
1001
ACAD
1000
MTEXTBEGIN
1070
    73
1070
     1
1070
    44
1040
1.0
1070
    74
1070
     0
1000
MTEXTEND
  0
POINT
  5
B34
330
6FF
100
AcDbEntity
  8
DEFPOINTS
 62
     0
100
AcDbPoint
 10
944.9999999999997
 20
193.0000000000003
 30
0.0
  0
POINT
  5
B35
330
6FF
100
AcDbEntity
  8
DEFPOINTS
 62
     0
100
AcDbPoint
 10
944.9999999999997
 20
73.00000000000014
 30
0.0
  0
POINT
  5
B36
330
6FF
100
AcDbEntity
  8
DEFPOINTS
 62
     0
100
AcDbPoint
 10
989.9999999999998
 20
73.00000000000014
 30
0.0
  0
ENDBLK
  5
70A
330
6FF
100
AcDbEntity
  8
0
 62
     1
100
AcDbBlockEnd
  0
BLOCK
  5
721
330
717
100
AcDbEntity
  8
0
 62
     1
100
AcDbBlockBegin
  2
*D4
 70
     1
 10
0.0
 20
0.0
 30
0.0
  3
*D4
  1

  0
LINE
  5
B37
330
717
100
AcDbEntity
  8
0
 62
     0
100
AcDbLine
 10
949.9999999999998
 20
193.0000000000003
 30
0.0
 11
1061.249999999999
 21
193.0000000000003
 31
0.0
  0
LINE
  5
B38
330
717
100
AcDbEntity
  8
0
 62
     0
100
AcDbLine
 10
779.0718380197411
 20
0.000000000000027
 30
0.0
 11
1061.249999999999
 21
-0.0000000000000529
 31
0.0
  0
LINE
  5
B39
330
717
100
AcDbEntity
  8
0
 62
     0
100
AcDbLine
 10
1059.999999999999
 20
168.0000000000003
 30
0.0
 11
1059.999999999999
 21
24.99999999999994
 31
0.0
  0
SOLID
  5
B3A
330
717
100
AcDbEntity
  8
0
 62
     0
100
AcDbTrace
 10
1055.833333333332
 20
168.0000000000003
 30
0.0
 11
1064.166666666665
 21
168.0000000000003
 31
0.0
 12
1059.999999999999
 22
193.0000000000003
 32
0.0
 13
1059.999999999999
 23
193.0000000000003
 33
0.0
  0
SOLID
  5
B3B
330
717
100
AcDbEntity
  8
0
 62
     0
100
AcDbTrace
 10
1055.833333333332
 20
24.99999999999994
 30
0.0
 11
1064.166666666665
 21
24.99999999999994
 31
0.0
 12
1059.999999999999
 22
-0.0000000000000526
 32
0.0
 13
1059.999999999999
 23
-0.0000000000000526
 33
0.0
  0
MTEXT
  5
B3C
330
717
100
AcDbEntity
  8
0
 62
     0
100
AcDbMText
 10
1042.499999999999
 20
96.50000000000032
 30
0.0
 40
25.0
 41
0.0
 71
     5
 72
     1
  1
193
 11
0.0000000000000001
 21
1.0
 31
0.0
1001
ACAD
1000
MTEXTBEGIN
1070
    73
1070
     1
1070
    44
1040
1.0
1070
    74
1070
     0
1000
MTEXTEND
  0
POINT
  5
B3D
330
717
100
AcDbEntity
  8
DEFPOINTS
 62
     0
100
AcDbPoint
 10
944.9999999999997
 20
193.0000000000003
 30
0.0
  0
POINT
  5
B3E
330
717
100
AcDbEntity
  8
DEFPOINTS
 62
     0
100
AcDbPoint
 10
774.0718380197411
 20
0.0000000000000284
 30
0.0
  0
POINT
  5
B3F
330
717
100
AcDbEntity
  8
DEFPOINTS
 62
     0
100
AcDbPoint
 10
1059.999999999999
 20
-0.0000000000000526
 30
0.0
  0
ENDBLK
  5
722
330
717
100
AcDbEntity
  8
0
 62
     1
100
AcDbBlockEnd
  0
BLOCK
  5
73B
330
72F
100
AcDbEntity
  8
0
 62
     1
100
AcDbBlockBegin
  2
*D5
 70
     1
 10
0.0
 20
0.0
 30
0.0
  3
*D5
  1

  0
LINE
  5
B23
330
72F
100
AcDbEntity
  8
0
 62
     0
100
AcDbLine
 10
658.071838019742
 20
-30.00000000000008
 30
0.0
 11
658.071838019742
 21
-71.25000000000008
 31
0.0
  0
LINE
  5
B24
330
72F
100
AcDbEntity
  8
0
 62
     0
100
AcDbLine
 10
704.0718380197415
 20
-30.00000000000008
 30
0.0
 11
704.0718380197415
 21
-71.25000000000008
 31
0.0
  0
LINE
  5
B25
330
72F
100
AcDbEntity
  8
0
 62
     0
100
AcDbLine
 10
633.071838019742
 20
-70.00000000000008
 30
0.0
 11
608.071838019742
 21
-70.00000000000008
 31
0.0
  0
LINE
  5
B26
330
72F
100
AcDbEntity
  8
0
 62
     0
100
AcDbLine
 10
729.0718380197415
 20
-70.00000000000008
 30
0.0
 11
804.5480284959321
 21
-70.00000000000008
 31
0.0
  0
LINE
  5
B27
330
72F
100
AcDbEntity
  8
0
 62
     0
100
AcDbLine
 10
658.071838019742
 20
-70.00000000000008
 30
0.0
 11
704.0718380197415
 21
-70.00000000000008
 31
0.0
  0
SOLID
  5
B28
330
72F
100
AcDbEntity
  8
0
 62
     0
100
AcDbTrace
 10
633.071838019742
 20
-65.83333333333341
 30
0.0
 11
633.071838019742
 21
-74.16666666666675
 31
0.0
 12
658.071838019742
 22
-70.00000000000008
 32
0.0
 13
658.071838019742
 23
-70.00000000000008
 33
0.0
  0
SOLID
  5
B29
330
72F
100
AcDbEntity
  8
0
 62
     0
100
AcDbTrace
 10
729.0718380197415
 20
-65.83333333333341
 30
0.0
 11
729.0718380197415
 21
-74.16666666666675
 31
0.0
 12
704.0718380197415
 22
-70.00000000000008
 32
0.0
 13
704.0718380197415
 23
-70.00000000000008
 33
0.0
  0
MTEXT
  5
B2A
330
72F
100
AcDbEntity
  8
0
 62
     0
100
AcDbMText
 10
779.3099332578367
 20
-52.50000000000008
 30
0.0
 40
25.0
 41
0.0
 71
     5
 72
     1
  1
46
1001
ACAD
1000
MTEXTBEGIN
1070
    73
1070
     1
1070
    44
1040
1.0
1070
    74
1070
     0
1000
MTEXTEND
  0
POINT
  5
B2B
330
72F
100
AcDbEntity
  8
DEFPOINTS
 62
     0
100
AcDbPoint
 10
658.071838019742
 20
-25.00000000000008
 30
0.0
  0
POINT
  5
B2C
330
72F
100
AcDbEntity
  8
DEFPOINTS
 62
     0
100
AcDbPoint
 10
704.0718380197415
 20
-25.00000000000008
 30
0.0
  0
POINT
  5
B2D
330
72F
100
AcDbEntity
  8
DEFPOINTS
 62
     0
100
AcDbPoint
 10
704.0718380197415
 20
-70.00000000000008
 30
0.0
  0
ENDBLK
  5
73C
330
72F
100
AcDbEntity
  8
0
 62
     1
100
AcDbBlockEnd
  0
BLOCK
  5
755
330
74B
100
AcDbEntity
  8
0
 62
     1
100
AcDbBlockBegin
  2
*D6
 70
     1
 10
0.0
 20
0.0
 30
0.0
  3
*D6
  1

  0
LINE
  5
9AA
330
74B
100
AcDbEntity
  8
0
 62
     0
100
AcDbLine
 10
-239.9999999999997
 20
-270.0
 30
0.0
 11
-239.9999999999997
 21
-381.25
 31
0.0
  0
LINE
  5
9AB
330
74B
100
AcDbEntity
  8
0
 62
     0
100
AcDbLine
 10
240.0
 20
-270.0
 30
0.0
 11
240.0
 21
-381.25
 31
0.0
  0
LINE
  5
9AC
330
74B
100
AcDbEntity
  8
0
 62
     0
100
AcDbLine
 10
-214.9999999999997
 20
-380.0
 30
0.0
 11
215.0
 21
-380.0
 31
0.0
  0
SOLID
  5
9AD
330
74B
100
AcDbEntity
  8
0
 62
     0
100
AcDbTrace
 10
-214.9999999999997
 20
-375.8333333333333
 30
0.0
 11
-214.9999999999997
 21
-384.1666666666666
 31
0.0
 12
-239.9999999999997
 22
-380.0
 32
0.0
 13
-239.9999999999997
 23
-380.0
 33
0.0
  0
SOLID
  5
9AE
330
74B
100
AcDbEntity
  8
0
 62
     0
100
AcDbTrace
 10
215.0
 20
-375.8333333333333
 30
0.0
 11
215.0
 21
-384.1666666666666
 31
0.0
 12
240.0
 22
-380.0
 32
0.0
 13
240.0
 23
-380.0
 33
0.0
  0
MTEXT
  5
9AF
330
74B
100
AcDbEntity
  8
0
 62
     0
100
AcDbMText
 10
0.0000000000001148
 20
-362.5
 30
0.0
 40
25.0
 41
0.0
 71
     5
 72
     1
  1
480
1001
ACAD
1000
MTEXTBEGIN
1070
    73
1070
     1
1070
    44
1040
1.0
1070
    74
1070
     0
1000
MTEXTEND
  0
POINT
  5
9B0
330
74B
100
AcDbEntity
  8
DEFPOINTS
 62
     0
100
AcDbPoint
 10
-239.9999999999997
 20
-265.0
 30
0.0
  0
POINT
  5
9B1
330
74B
100
AcDbEntity
  8
DEFPOINTS
 62
     0
100
AcDbPoint
 10
240.0
 20
-265.0
 30
0.0
  0
POINT
  5
9B2
330
74B
100
AcDbEntity
  8
DEFPOINTS
 62
     0
100
AcDbPoint
 10
240.0
 20
-380.0
 30
0.0
  0
ENDBLK
  5
756
330
74B
100
AcDbEntity
  8
0
 62
     1
100
AcDbBlockEnd
  0
BLOCK
  5
76D
330
763
100
AcDbEntity
  8
0
 62
     1
100
AcDbBlockBegin
  2
*D7
 70
     1
 10
0.0
 20
0.0
 30
0.0
  3
*D7
  1

  0
LINE
  5
9A1
330
763
100
AcDbEntity
  8
0
 62
     0
100
AcDbLine
 10
-200.0
 20
-270.0
 30
0.0
 11
-200.0
 21
-311.25
 31
0.0
  0
LINE
  5
9A2
330
763
100
AcDbEntity
  8
0
 62
     0
100
AcDbLine
 10
200.0
 20
-270.0
 30
0.0
 11
200.0
 21
-311.25
 31
0.0
  0
LINE
  5
9A3
330
763
100
AcDbEntity
  8
0
 62
     0
100
AcDbLine
 10
-175.0
 20
-310.0
 30
0.0
 11
175.0
 21
-310.0
 31
0.0
  0
SOLID
  5
9A4
330
763
100
AcDbEntity
  8
0
 62
     0
100
AcDbTrace
 10
-175.0
 20
-305.8333333333333
 30
0.0
 11
-175.0
 21
-314.1666666666667
 31
0.0
 12
-200.0
 22
-310.0
 32
0.0
 13
-200.0
 23
-310.0
 33
0.0
  0
SOLID
  5
9A5
330
763
100
AcDbEntity
  8
0
 62
     0
100
AcDbTrace
 10
175.0
 20
-305.8333333333333
 30
0.0
 11
175.0
 21
-314.1666666666667
 31
0.0
 12
200.0
 22
-310.0
 32
0.0
 13
200.0
 23
-310.0
 33
0.0
  0
MTEXT
  5
9A6
330
763
100
AcDbEntity
  8
0
 62
     0
100
AcDbMText
 10
0.0000000000000011
 20
-292.5
 30
0.0
 40
25.0
 41
0.0
 71
     5
 72
     1
  1
400
1001
ACAD
1000
MTEXTBEGIN
1070
    73
1070
     1
1070
    44
1040
1.0
1070
    74
1070
     0
1000
MTEXTEND
  0
POINT
  5
9A7
330
763
100
AcDbEntity
  8
DEFPOINTS
 62
     0
100
AcDbPoint
 10
-200.0
 20
-265.0
 30
0.0
  0
POINT
  5
9A8
330
763
100
AcDbEntity
  8
DEFPOINTS
 62
     0
100
AcDbPoint
 10
200.0
 20
-265.0
 30
0.0
  0
POINT
  5
9A9
330
763
100
AcDbEntity
  8
DEFPOINTS
 62
     0
100
AcDbPoint
 10
200.0
 20
-310.0
 30
0.0
  0
ENDBLK
  5
76E
330
763
100
AcDbEntity
  8
0
 62
     1
100
AcDbBlockEnd
  0
ENDSEC
  0
SECTION
  2
ENTITIES
  0
CIRCLE
  5
66B
330
1F
100
AcDbEntity
  8
0
100
AcDbCircle
 10
0.0
 20
0.0
 30
0.0
 40
240.0
  0
CIRCLE
  5
66C
330
1F
100
AcDbEntity
  8
0
100
AcDbCircle
 10
0.0
 20
0.0
 30
0.0
 40
200.0
  0
CIRCLE
  5
66D
330
1F
100
AcDbEntity
  8
0
100
AcDbCircle
 10
0.0
 20
0.0
 30
0.0
 40
45.0
  0
CIRCLE
  5
66E
330
1F
100
AcDbEntity
  8
0
100
AcDbCircle
 10
0.0
 20
0.0
 30
0.0
 40
30.0
  0
LINE
  5
66F
330
1F
100
AcDbEntity
  8
0
  6
STRICHPUNKT
100
AcDbLine
 10
0.0
 20
55.0
 30
0.0
 11
0.0
 21
-55.0
 31
0.0
  0
LINE
  5
670
330
1F
100
AcDbEntity
  8
0
  6
STRICHPUNKT
100
AcDbLine
 10
-55.0
 20
0.0
 30
0.0
 11
55.0
 21
0.0
 31
0.0
  0
LINE
  5
676
330
1F
100
AcDbEntity
  8
0
100
AcDbLine
 10
439.9999999999997
 20
183.0000000000001
 30
0.0
 11
440.0000000000002
 21
74.00000000000011
 31
0.0
  0
LINE
  5
677
330
1F
100
AcDbEntity
  8
0
100
AcDbLine
 10
454.9999999999998
 20
177.0000000000003
 30
0.0
 11
454.9999999999993
 21
74.00000000000011
 31
0.0
  0
LINE
  5
678
330
1F
100
AcDbEntity
  8
0
100
AcDbLine
 10
919.9999999999997
 20
183.0000000000003
 30
0.0
 11
919.9999999999997
 21
74.00000000000011
 31
0.0
  0
LINE
  5
679
330
1F
100
AcDbEntity
  8
0
100
AcDbLine
 10
905.0000000000002
 20
177.0000000000003
 30
0.0
 11
904.9999999999988
 21
74.00000000000011
 31
0.0
  0
LINE
  5
67A
330
1F
100
AcDbEntity
  8
0
100
AcDbLine
 10
449.9999999999998
 20
193.0000000000001
 30
0.0
 11
909.9999999999997
 21
193.0000000000003
 31
0.0
  0
LINE
  5
67B
330
1F
100
AcDbEntity
  8
0
100
AcDbLine
 10
455.9999999999997
 20
178.0000000000003
 30
0.0
 11
474.5413017407297
 21
178.0000000000003
 31
0.0
  0
LINE
  5
67C
330
1F
100
AcDbEntity
  8
0
100
AcDbLine
 10
885.4586982592698
 20
178.0000000000003
 30
0.0
 11
904.0000000000002
 21
178.0000000000003
 31
0.0
  0
LINE
  5
67D
330
1F
100
AcDbEntity
  8
0
100
AcDbLine
 10
475.1840122092637
 20
177.7661091656135
 30
0.0
 11
625.1706203890141
 21
40.27262061962244
 31
0.0
  0
LINE
  5
67F
330
1F
100
AcDbEntity
  8
0
100
AcDbLine
 10
480.6427104685337
 20
192.7661091656131
 30
0.0
 11
632.1243617946191
 21
52.01838698793051
 31
0.0
  0
LINE
  5
680
330
1F
100
AcDbEntity
  8
0
100
AcDbLine
 10
879.3572895314657
 20
192.7661091656133
 30
0.0
 11
730.0193142448618
 21
52.01838698793006
 31
0.0
  0
LINE
  5
681
330
1F
100
AcDbEntity
  8
0
100
AcDbLine
 10
884.8159877907358
 20
177.7661091656135
 30
0.0
 11
736.9730556504666
 21
40.27262061962244
 31
0.0
  0
LINE
  5
683
330
1F
100
AcDbEntity
  8
0
100
AcDbLine
 10
441.0000000000002
 20
73.00000000000011
 30
0.0
 11
453.9999999999992
 21
73.00000000000011
 31
0.0
  0
LINE
  5
684
330
1F
100
AcDbEntity
  8
0
100
AcDbLine
 10
905.9999999999988
 20
73.00000000000011
 30
0.0
 11
918.9999999999997
 21
73.00000000000011
 31
0.0
  0
LINE
  5
691
330
1F
100
AcDbEntity
  8
0
100
AcDbLine
 10
636.1875174932144
 20
49.96290799449377
 30
0.0
 11
657.1278339423736
 21
41.65187635612471
 31
0.0
  0
LINE
  5
692
330
1F
100
AcDbEntity
  8
0
100
AcDbLine
 10
725.9561585462663
 20
49.96290799449332
 30
0.0
 11
705.0158420971077
 21
41.65187635612517
 31
0.0
  0
LINE
  5
693
330
1F
100
AcDbEntity
  8
0
100
AcDbLine
 10
664.7630369421433
 20
34.06553454573111
 30
0.0
 11
668.1935124696021
 21
1.013022883917415
 31
0.0
  0
LINE
  5
694
330
1F
100
AcDbEntity
  8
0
100
AcDbLine
 10
697.3806390973379
 20
32.06553454573156
 30
0.0
 11
693.9501635698786
 21
1.013022883917528
 31
0.0
  0
LINE
  5
696
330
1F
100
AcDbEntity
  8
0
100
AcDbLine
 10
732.9098999518712
 20
38.21714162618571
 30
0.0
 11
714.8631010196516
 21
31.8265275311063
 31
0.0
  0
LINE
  5
697
330
1F
100
AcDbEntity
  8
0
100
AcDbLine
 10
707.2278980198818
 20
22.24018572071236
 30
0.0
 11
703.9510964782068
 21
0.9869771160825848
 31
0.0
  0
LINE
  5
698
330
1F
100
AcDbEntity
  8
0
100
AcDbLine
 10
629.2337760876096
 20
38.21714162618571
 30
0.0
 11
647.2805750198288
 21
31.8265275311063
 31
0.0
  0
LINE
  5
699
330
1F
100
AcDbEntity
  8
0
100
AcDbLine
 10
654.9157780195985
 20
22.24018572071258
 30
0.0
 11
658.1925795612744
 21
0.9869771160824711
 31
0.0
  0
LINE
  5
69A
330
1F
100
AcDbEntity
  8
0
100
AcDbLine
 10
659.1924947599261
 20
0.0
 30
0.0
 11
667.1935972709505
 21
-0.0000000000001137
 31
0.0
  0
LINE
  5
69B
330
1F
100
AcDbEntity
  8
0
100
AcDbLine
 10
702.9511812795552
 20
0.0
 30
0.0
 11
694.9500787685304
 21
0.0
 31
0.0
  0
ARC
  5
69D
330
1F
100
AcDbEntity
  8
0
100
AcDbCircle
 10
449.9999999999998
 20
183.0000000000001
 30
0.0
 40
10.0
100
AcDbArc
 50
90.0
 51
180.0
  0
ARC
  5
69E
330
1F
100
AcDbEntity
  8
0
100
AcDbCircle
 10
909.9999999999997
 20
183.0000000000003
 30
0.0
 40
10.0
100
AcDbArc
 50
0.0
 51
90.0
  0
ARC
  5
69F
330
1F
100
AcDbEntity
  8
0
100
AcDbCircle
 10
730.5459509651248
 20
47.9337122757546
 30
0.0
 40
10.0
100
AcDbArc
 50
283.6738615443491
 51
309.9942305230655
  0
ARC
  5
6A0
330
1F
100
AcDbEntity
  8
0
100
AcDbCircle
 10
723.5922095595199
 20
59.67947864406176
 30
0.0
 40
10.0
100
AcDbArc
 50
283.6738615443491
 51
309.9942305230655
  0
ARC
  5
6A1
330
1F
100
AcDbEntity
  8
0
100
AcDbCircle
 10
717.227050006398
 20
22.1099568815373
 30
0.0
 40
10.0
100
AcDbArc
 50
103.6738615443487
 51
179.2538226220361
  0
ARC
  5
6A2
330
1F
100
AcDbEntity
  8
0
100
AcDbCircle
 10
707.3797910838541
 20
31.93530570655628
 30
0.0
 40
10.0
100
AcDbArc
 50
103.6738615443487
 51
179.2538226220361
  0
ARC
  5
6A3
330
1F
100
AcDbEntity
  8
0
100
AcDbCircle
 10
631.597725074356
 20
47.9337122757546
 30
0.0
 40
10.0
100
AcDbArc
 50
230.0057694769344
 51
256.3261384556509
  0
ARC
  5
6A4
330
1F
100
AcDbEntity
  8
0
100
AcDbCircle
 10
638.5514664799609
 20
59.67947864406221
 30
0.0
 40
10.0
100
AcDbArc
 50
230.0057694769344
 51
256.3261384556509
  0
ARC
  5
6A5
330
1F
100
AcDbEntity
  8
0
100
AcDbCircle
 10
644.9166260330823
 20
22.10995688153752
 30
0.0
 40
10.0
100
AcDbArc
 50
0.746177377963813
 51
76.32613845565156
  0
ARC
  5
6A6
330
1F
100
AcDbEntity
  8
0
100
AcDbCircle
 10
656.8181434647633
 20
33.70483091230369
 30
0.0
 40
7.953077358990232
100
AcDbArc
 50
2.599482777580764
 51
87.76835509336088
  0
ARC
  5
6A7
330
1F
100
AcDbEntity
  8
0
100
AcDbCircle
 10
659.1924947599261
 20
1.0
 30
0.0
 40
1.0
100
AcDbArc
 50
180.7461773779628
 51
270.0
  0
ARC
  5
6A8
330
1F
100
AcDbEntity
  8
0
100
AcDbCircle
 10
667.1935972709505
 20
0.9999999999998863
 30
0.0
 40
1.0
100
AcDbArc
 50
270.0
 51
0.746177377962897
  0
ARC
  5
6A9
330
1F
100
AcDbEntity
  8
0
100
AcDbCircle
 10
694.9500787685304
 20
1.0
 30
0.0
 40
1.0
100
AcDbArc
 50
179.2538226220363
 51
270.0
  0
ARC
  5
6AA
330
1F
100
AcDbEntity
  8
0
100
AcDbCircle
 10
702.9511812795552
 20
1.0
 30
0.0
 40
1.0
100
AcDbArc
 50
270.0
 51
359.2538226220383
  0
ARC
  5
6AE
330
1F
100
AcDbEntity
  8
0
100
AcDbCircle
 10
885.4586982592698
 20
177.0000000000003
 30
0.0
 40
1.0
100
AcDbArc
 50
90.0
 51
129.9942305230654
  0
ARC
  5
6AF
330
1F
100
AcDbEntity
  8
0
100
AcDbCircle
 10
904.0000000000002
 20
177.0000000000003
 30
0.0
 40
1.0
100
AcDbArc
 50
0.0
 51
90.0
  0
ARC
  5
6B0
330
1F
100
AcDbEntity
  8
0
100
AcDbCircle
 10
905.9999999999988
 20
74.00000000000011
 30
0.0
 40
1.0
100
AcDbArc
 50
179.9999999999996
 51
270.0
  0
ARC
  5
6B1
330
1F
100
AcDbEntity
  8
0
100
AcDbCircle
 10
918.9999999999997
 20
74.00000000000011
 30
0.0
 40
1.0
100
AcDbArc
 50
270.0
 51
0.0
  0
ARC
  5
6B2
330
1F
100
AcDbEntity
  8
0
100
AcDbCircle
 10
453.9999999999992
 20
74.00000000000011
 30
0.0
 40
1.0
100
AcDbArc
 50
270.0
 51
0.0
  0
ARC
  5
6B3
330
1F
100
AcDbEntity
  8
0
100
AcDbCircle
 10
441.0000000000002
 20
74.00000000000011
 30
0.0
 40
1.0
100
AcDbArc
 50
180.0
 51
270.0
  0
ARC
  5
6B4
330
1F
100
AcDbEntity
  8
0
100
AcDbCircle
 10
455.9999999999997
 20
177.0000000000003
 30
0.0
 40
1.0
100
AcDbArc
 50
90.0
 51
179.9999999999997
  0
ARC
  5
6B5
330
1F
100
AcDbEntity
  8
0
100
AcDbCircle
 10
474.5413017407297
 20
177.0000000000003
 30
0.0
 40
1.0
100
AcDbArc
 50
50.00576947693449
 51
90.0
  0
ARC
  5
6B6
330
1F
100
AcDbEntity
  8
0
100
AcDbCircle
 10
479.9999999999998
 20
191.9999999999998
 30
0.0
 40
1.0
100
AcDbArc
 50
50.00576947693466
 51
90.0
  0
ARC
  5
6B7
330
1F
100
AcDbEntity
  8
0
100
AcDbCircle
 10
879.9999999999997
 20
192.0000000000001
 30
0.0
 40
1.0
100
AcDbArc
 50
90.00000000000003
 51
129.9942305230654
  0
DIMENSION
  5
6CE
330
1F
100
AcDbEntity
  8
0
100
AcDbDimension
  2
*D1
 10
920.0000000000002
 20
333.0000000000001
 30
0.0
 11
680.0
 21
350.5000000000001
 31
0.0
 70
    32
  3
STANDART
100
AcDbAlignedDimension
 13
439.9999999999997
 23
218.0000000000001
 33
0.0
 14
920.0000000000002
 24
218.0000000000001
 34
0.0
100
AcDbRotatedDimension
  0
DIMENSION
  5
6E6
330
1F
100
AcDbEntity
  8
0
100
AcDbDimension
  2
*D2
 10
879.9999999999997
 20
263.0000000000001
 30
0.0
 11
679.9999999999998
 21
280.5000000000001
 31
0.0
 70
    32
  3
STANDART
100
AcDbAlignedDimension
 13
479.9999999999998
 23
218.0000000000001
 33
0.0
 14
879.9999999999997
 24
218.0000000000001
 34
0.0
100
AcDbRotatedDimension
  0
DIMENSION
  5
6FE
330
1F
100
AcDbEntity
  8
0
100
AcDbDimension
  2
*D3
 10
989.9999999999998
 20
73.00000000000014
 30
0.0
 11
972.4999999999997
 21
133.0000000000004
 31
0.0
 70
    32
  3
STANDART
100
AcDbAlignedDimension
 13
944.9999999999997
 23
193.0000000000003
 33
0.0
 14
944.9999999999997
 24
73.00000000000014
 34
0.0
 50
90.0
100
AcDbRotatedDimension
  0
DIMENSION
  5
716
330
1F
100
AcDbEntity
  8
0
100
AcDbDimension
  2
*D4
 10
1059.999999999999
 20
-0.0000000000000526
 30
0.0
 11
1042.499999999999
 21
96.50000000000032
 31
0.0
 70
    32
  3
STANDART
100
AcDbAlignedDimension
 13
944.9999999999997
 23
193.0000000000003
 33
0.0
 14
774.0718380197411
 24
0.0000000000000284
 34
0.0
 50
90.0
100
AcDbRotatedDimension
  0
DIMENSION
  5
72E
330
1F
100
AcDbEntity
  8
0
100
AcDbDimension
  2
*D5
 10
704.0718380197415
 20
-70.00000000000008
 30
0.0
 11
779.3099332578367
 21
-52.50000000000008
 31
0.0
 70
    32
  3
STANDART
100
AcDbAlignedDimension
 13
658.071838019742
 23
-25.00000000000008
 33
0.0
 14
704.0718380197415
 24
-25.00000000000008
 34
0.0
100
AcDbRotatedDimension
  0
DIMENSION
  5
74A
330
1F
100
AcDbEntity
  8
0
100
AcDbDimension
  2
*D6
 10
240.0
 20
-380.0
 30
0.0
 11
0.0000000000001148
 21
-362.5
 31
0.0
 70
    32
  3
STANDART
100
AcDbAlignedDimension
 13
-239.9999999999997
 23
-265.0
 33
0.0
 14
240.0
 24
-265.0
 34
0.0
100
AcDbRotatedDimension
  0
DIMENSION
  5
762
330
1F
100
AcDbEntity
  8
0
100
AcDbDimension
  2
*D7
 10
200.0
 20
-310.0
 30
0.0
 11
0.0000000000000011
 21
-292.5
 31
0.0
 70
    32
  3
STANDART
100
AcDbAlignedDimension
 13
-200.0
 23
-265.0
 33
0.0
 14
200.0
 24
-265.0
 34
0.0
100
AcDbRotatedDimension
  0
LINE
  5
9E2
330
1F
100
AcDbEntity
  8
0
100
AcDbLine
 10
663.1930460154383
 20
0.0
 30
0.0
 11
698.9506300240427
 21
0.0
 31
0.0
  0
LINE
  5
9E3
330
1F
100
AcDbEntity
  8
0
  6
STRICHPUNKT
100
AcDbLine
 10
681.0718380197405
 20
-9.999999999999971
 30
0.0
 11
681.0718380197405
 21
50.0
 31
0.0
  0
LINE
  5
9F2
330
1F
100
AcDbEntity
  8
0
100
AcDbLine
 10
667.2607662572115
 20
10.0
 30
0.0
 11
694.942985194046
 21
10.0
 31
0.0
  0
LINE
  5
9F3
330
1F
100
AcDbEntity
  8
0
100
AcDbLine
 10
666.2228797684151
 20
20.0
 30
0.0
 11
696.0477188673863
 21
20.0
 31
0.0
  0
LINE
  5
9F4
330
1F
100
AcDbEntity
  8
0
100
AcDbLine
 10
665.1849932796185
 20
30.0
 30
0.0
 11
697.1524525407263
 21
30.0
 31
0.0
  0
LINE
  5
9F5
330
1F
100
AcDbEntity
  8
0
100
AcDbLine
 10
661.6784197568477
 20
40.0
 30
0.0
 11
701.4670331864516
 21
40.00000000000011
 31
0.0
  0
ENDSEC
  0
SECTION
  2
OBJECTS
  0
DICTIONARY
  5
C
330
0
100
AcDbDictionary
  3
ACAD_GROUP
350
D
  3
ACAD_IMAGE_DICT
350
6C
  3
ACAD_IMAGE_VARS
350
6D
  3
ACAD_LAYOUT
350
1A
  3
ACAD_MLINESTYLE
350
17
  3
ACAD_PLOTSETTINGS
350
19
  3
ACAD_PLOTSTYLENAME
350
E
  3
ACDBHEADERROUNDTRIPXREC
350
B4A
  3
ACDBVARIABLEDICTIONARY
350
5E
  0
DICTIONARY
  5
156
330
2
100
AcDbDictionary
280
     1
  3
ACAD_LAYERFILTERS
360
502
  3
ACAD_LAYERSTATES
360
157
  0
DICTIONARY
  5
B6B
330
1F
100
AcDbDictionary
280
     1
  3
ACAD_LAYOUTSELFREF
360
B6C
  0
DICTIONARY
  5
B6D
330
50
100
AcDbDictionary
280
     1
  3
ACAD_LAYOUTSELFREF
360
B6E
  0
DICTIONARY
  5
D
102
{ACAD_REACTORS
330
C
102
}
330
C
100
AcDbDictionary
  0
DICTIONARY
  5
6C
102
{ACAD_REACTORS
330
C
102
}
330
C
100
AcDbDictionary
  0
RASTERVARIABLES
  5
6D
102
{ACAD_REACTORS
330
C
102
}
330
C
100
AcDbRasterVariables
 90
        0
 70
     1
 71
     1
 72
     1
  0
DICTIONARY
  5
1A
102
{ACAD_REACTORS
330
C
102
}
330
C
100
AcDbDictionary
  0
DICTIONARY
  5
17
102
{ACAD_REACTORS
330
C
102
}
330
C
100
AcDbDictionary
  3
STANDARD
350
18
  0
DICTIONARY
  5
19
102
{ACAD_REACTORS
330
C
102
}
330
C
100
AcDbDictionary
  0
ACDBDICTIONARYWDFLT
  5
E
102
{ACAD_REACTORS
330
C
102
}
330
C
100
AcDbDictionary
281
     1
  3
Normal
350
F
100
AcDbDictionaryWithDefault
340
F
  0
DICTIONARY
  5
B4A
102
{ACAD_REACTORS
330
C
102
}
330
C
100
AcDbDictionary
  3
CEPSNTYPE
350
B54
  3
DIMSTYLEDATA
350
B58
  3
FINGERPRINTGUID
350
B55
  3
HYPERLINKBASE
350
B4D
  3
INSUNITS
350
B53
  3
LAYOUTDICT
350
B4F
  3
LWETCUNION
350
B52
  3
PLOTSETDICT
350
B50
  3
PLOTSTYLNAMDICT
350
B51
  3
PSVPSCALE
350
B57
  3
PUCSBASE
350
B5B
  3
PUCSORGBACK
350
B61
  3
PUCSORGBOTTOM
350
B5D
  3
PUCSORGFRONT
350
B60
  3
PUCSORGLEFT
350
B5E
  3
PUCSORGRIGHT
350
B5F
  3
PUCSORGTOP
350
B5C
  3
PUCSORTHOREF
350
B59
  3
PUCSORTHOVIEW
350
B5A
  3
STYLESHEET
350
B4E
  3
TSTACKALIGN
350
B4B
  3
TSTACKSIZE
350
B4C
  3
UCSBASE
350
B64
  3
UCSORGBACK
350
B6A
  3
UCSORGBOTTOM
350
B66
  3
UCSORGFRONT
350
B69
  3
UCSORGLEFT
350
B67
  3
UCSORGRIGHT
350
B68
  3
UCSORGTOP
350
B65
  3
UCSORTHOREF
350
B62
  3
UCSORTHOVIEW
350
B63
  3
VERSIONGUID
350
B56
  0
DICTIONARY
  5
5E
102
{ACAD_REACTORS
330
C
102
}
330
C
100
AcDbDictionary
  3
DIMASSOC
350
5F
  3
HIDETEXT
350
63
  0
DICTIONARY
  5
502
102
{ACAD_REACTORS
330
156
102
}
330
156
100
AcDbDictionary
280
     1
  0
DICTIONARY
  5
157
102
{ACAD_REACTORS
330
156
102
}
330
156
100
AcDbDictionary
  0
XRECORD
  5
B6C
102
{ACAD_REACTORS
330
B6B
102
}
330
B6B
100
AcDbXrecord
340
1F
  0
XRECORD
  5
B6E
102
{ACAD_REACTORS
330
B6D
102
}
330
B6D
100
AcDbXrecord
340
50
  0
MLINESTYLE
  5
18
102
{ACAD_REACTORS
330
17
102
}
330
17
100
AcDbMlineStyle
  2
STANDARD
 70
     0
  3

 62
   256
 51
90.0
 52
90.0
 71
     2
 49
0.5
 62
   256
  6
BYLAYER
 49
-0.5
 62
   256
  6
BYLAYER
  0
ACDBPLACEHOLDER
  5
F
102
{ACAD_REACTORS
330
E
102
}
330
E
100
AcDbPlaceHolder
280
     0
  0
XRECORD
  5
B54
102
{ACAD_REACTORS
330
B4A
102
}
330
B4A
100
AcDbXrecord
 90
        0
  0
XRECORD
  5
B58
102
{ACAD_REACTORS
330
B4A
102
}
330
B4A
100
AcDbXrecord
1000
DSTYLE
1002
{
1070
   278
 70
    44
1002
}
  0
XRECORD
  5
B55
102
{ACAD_REACTORS
330
B4A
102
}
330
B4A
100
AcDbXrecord
  1
{FDEAD578-A652-11D2-9A35-0060089B3A3F}
  0
XRECORD
  5
B4D
102
{ACAD_REACTORS
330
B4A
102
}
330
B4A
100
AcDbXrecord
  1

  0
XRECORD
  5
B53
102
{ACAD_REACTORS
330
B4A
102
}
330
B4A
100
AcDbXrecord
 90
        4
  0
XRECORD
  5
B4F
102
{ACAD_REACTORS
330
B4A
102
}
330
B4A
100
AcDbXrecord
340
1A
  0
XRECORD
  5
B52
102
{ACAD_REACTORS
330
B4A
102
}
330
B4A
100
AcDbXrecord
 90
    10781
  0
XRECORD
  5
B50
102
{ACAD_REACTORS
330
B4A
102
}
330
B4A
100
AcDbXrecord
340
19
  0
XRECORD
  5
B51
102
{ACAD_REACTORS
330
B4A
102
}
330
B4A
100
AcDbXrecord
340
E
  0
XRECORD
  5
B57
102
{ACAD_REACTORS
330
B4A
102
}
330
B4A
100
AcDbXrecord
 40
0.0
  0
XRECORD
  5
B5B
102
{ACAD_REACTORS
330
B4A
102
}
330
B4A
100
AcDbXrecord
340
0
  0
XRECORD
  5
B61
102
{ACAD_REACTORS
330
B4A
102
}
330
B4A
100
AcDbXrecord
 10
0.0
 20
0.0
 30
0.0
  0
XRECORD
  5
B5D
102
{ACAD_REACTORS
330
B4A
102
}
330
B4A
100
AcDbXrecord
 10
0.0
 20
0.0
 30
0.0
  0
XRECORD
  5
B60
102
{ACAD_REACTORS
330
B4A
102
}
330
B4A
100
AcDbXrecord
 10
0.0
 20
0.0
 30
0.0
  0
XRECORD
  5
B5E
102
{ACAD_REACTORS
330
B4A
102
}
330
B4A
100
AcDbXrecord
 10
0.0
 20
0.0
 30
0.0
  0
XRECORD
  5
B5F
102
{ACAD_REACTORS
330
B4A
102
}
330
B4A
100
AcDbXrecord
 10
0.0
 20
0.0
 30
0.0
  0
XRECORD
  5
B5C
102
{ACAD_REACTORS
330
B4A
102
}
330
B4A
100
AcDbXrecord
 10
0.0
 20
0.0
 30
0.0
  0
XRECORD
  5
B59
102
{ACAD_REACTORS
330
B4A
102
}
330
B4A
100
AcDbXrecord
340
0
  0
XRECORD
  5
B5A
102
{ACAD_REACTORS
330
B4A
102
}
330
B4A
100
AcDbXrecord
 70
     0
  0
XRECORD
  5
B4E
102
{ACAD_REACTORS
330
B4A
102
}
330
B4A
100
AcDbXrecord
  1
TP-mono-duenn.ctb
  0
XRECORD
  5
B4B
102
{ACAD_REACTORS
330
B4A
102
}
330
B4A
100
AcDbXrecord
 90
        1
  0
XRECORD
  5
B4C
102
{ACAD_REACTORS
330
B4A
102
}
330
B4A
100
AcDbXrecord
 90
       70
  0
XRECORD
  5
B64
102
{ACAD_REACTORS
330
B4A
102
}
330
B4A
100
AcDbXrecord
340
0
  0
XRECORD
  5
B6A
102
{ACAD_REACTORS
330
B4A
102
}
330
B4A
100
AcDbXrecord
 10
0.0
 20
0.0
 30
0.0
  0
XRECORD
  5
B66
102
{ACAD_REACTORS
330
B4A
102
}
330
B4A
100
AcDbXrecord
 10
0.0
 20
0.0
 30
0.0
  0
XRECORD
  5
B69
102
{ACAD_REACTORS
330
B4A
102
}
330
B4A
100
AcDbXrecord
 10
0.0
 20
0.0
 30
0.0
  0
XRECORD
  5
B67
102
{ACAD_REACTORS
330
B4A
102
}
330
B4A
100
AcDbXrecord
 10
0.0
 20
0.0
 30
0.0
  0
XRECORD
  5
B68
102
{ACAD_REACTORS
330
B4A
102
}
330
B4A
100
AcDbXrecord
 10
0.0
 20
0.0
 30
0.0
  0
XRECORD
  5
B65
102
{ACAD_REACTORS
330
B4A
102
}
330
B4A
100
AcDbXrecord
 10
0.0
 20
0.0
 30
0.0
  0
XRECORD
  5
B62
102
{ACAD_REACTORS
330
B4A
102
}
330
B4A
100
AcDbXrecord
340
0
  0
XRECORD
  5
B63
102
{ACAD_REACTORS
330
B4A
102
}
330
B4A
100
AcDbXrecord
 70
     0
  0
XRECORD
  5
B56
102
{ACAD_REACTORS
330
B4A
102
}
330
B4A
100
AcDbXrecord
  1
{19B82D16-CE95-4114-9FD5-AA11A2395D9C}
  0
DICTIONARYVAR
  5
5F
102
{ACAD_REACTORS
330
5E
102
}
330
5E
100
DictionaryVariables
280
     0
  1
2
  0
DICTIONARYVAR
  5
63
102
{ACAD_REACTORS
330
5E
102
}
330
5E
100
DictionaryVariables
280
     0
  1
1
  0
ENDSEC
  0
EOF
