  0
SECTION
  2
HEADER
  9
$ACADVER
  1
AC1009
  9
$INSBASE
 10
0.0
 20
0.0
 30
0.0
  9
$EXTMIN
 10
-499.56538799999993
 20
-2861.7396773333339
 30
-0.00000001
  9
$EXTMAX
 10
6391.1498979999988
 20
3037.6315509999999
 30
0.00000001
  9
$LIMMIN
 10
-575.09422099999995
 20
-1053.8976909999999
  9
$LIMMAX
 10
5364.9057789999997
 20
3146.1023089999999
  9
$ORTHOMODE
 70
     1
  9
$REGENMODE
 70
     1
  9
$FILLMODE
 70
     1
  9
$QTEXTMODE
 70
     0
  9
$MIRRTEXT
 70
     0
  9
$DRAGMODE
 70
     2
  9
$LTSCALE
 40
5.0
  9
$OSMODE
 70
    37
  9
$ATTMODE
 70
     1
  9
$TEXTSIZE
 40
0.0
  9
$TRACEWID
 40
0.05
  9
$TEXTSTYLE
  7
STANDARD
  9
$CLAYER
  8
LAYER01
  9
$CELTYPE
  6
CONTINUOUS
  9
$CECOLOR
 62
     7
  9
$DIMSCALE
 40
1.0
  9
$DIMASZ
 40
0.18
  9
$DIMEXO
 40
0.0625
  9
$DIMDLI
 40
0.38
  9
$DIMRND
 40
0.0
  9
$DIMDLE
 40
0.0
  9
$DIMEXE
 40
0.18
  9
$DIMTP
 40
0.0
  9
$DIMTM
 40
0.0
  9
$DIMTXT
 40
0.18
  9
$DIMCEN
 40
0.09
  9
$DIMTSZ
 40
0.0
  9
$DIMTOL
 70
     0
  9
$DIMLIM
 70
     0
  9
$DIMTIH
 70
     1
  9
$DIMTOH
 70
     1
  9
$DIMSE1
 70
     0
  9
$DIMSE2
 70
     0
  9
$DIMTAD
 70
     0
  9
$DIMZIN
 70
     0
  9
$DIMBLK
  1

  9
$DIMASO
 70
     1
  9
$DIMSHO
 70
     1
  9
$DIMPOST
  1

  9
$DIMAPOST
  1

  9
$DIMALT
 70
     0
  9
$DIMALTD
 70
     2
  9
$DIMALTF
 40
25.399999999999999
  9
$DIMLFAC
 40
1.0
  9
$DIMTOFL
 70
     0
  9
$DIMTVP
 40
0.0
  9
$DIMTIX
 70
     0
  9
$DIMSOXD
 70
     0
  9
$DIMSAH
 70
     0
  9
$DIMBLK1
  1

  9
$DIMBLK2
  1

  9
$DIMSTYLE
  2
STANDARD
  9
$DIMCLRD
 70
     0
  9
$DIMCLRE
 70
     0
  9
$DIMCLRT
 70
     0
  9
$DIMTFAC
 40
1.0
  9
$DIMGAP
 40
0.09
  9
$LUNITS
 70
     2
  9
$LUPREC
 70
     4
  9
$SKETCHINC
 40
0.1
  9
$FILLETRAD
 40
5.0
  9
$AUNITS
 70
     0
  9
$AUPREC
 70
     0
  9
$MENU
  1
acad
  9
$ELEVATION
 40
0.0
  9
$PELEVATION
 40
0.0
  9
$THICKNESS
 40
0.0
  9
$LIMCHECK
 70
     0
  9
$BLIPMODE
 70
     0
  9
$CHAMFERA
 40
0.0
  9
$CHAMFERB
 40
0.0
  9
$SKPOLY
 70
     0
  9
$TDCREATE
 40
11451162.6320074
  9
$TDUPDATE
 40
2459746.3586360528
  9
$TDINDWG
 40
0.0211465741
  9
$TDUSRTIMER
 40
0.0211464931
  9
$USRTIMER
 70
     1
  9
$ANGBASE
 50
0.0
  9
$ANGDIR
 70
     0
  9
$PDMODE
 70
     0
  9
$PDSIZE
 40
0.0
  9
$PLINEWID
 40
0.0
  9
$COORDS
 70
     0
  9
$SPLFRAME
 70
     0
  9
$SPLINETYPE
 70
     6
  9
$SPLINESEGS
 70
    10
  9
$ATTDIA
 70
     0
  9
$ATTREQ
 70
     1
  9
$HANDLING
 70
     1
  9
$HANDSEED
  5
FCA
  9
$SURFTAB1
 70
     6
  9
$SURFTAB2
 70
     6
  9
$SURFTYPE
 70
     6
  9
$SURFU
 70
     6
  9
$SURFV
 70
     6
  9
$UCSNAME
  2

  9
$UCSORG
 10
0.0
 20
0.0
 30
0.0
  9
$UCSXDIR
 10
1.0
 20
0.0
 30
0.0
  9
$UCSYDIR
 10
0.0
 20
1.0
 30
0.0
  9
$PUCSNAME
  2

  9
$PUCSORG
 10
0.0
 20
0.0
 30
0.0
  9
$PUCSXDIR
 10
1.0
 20
0.0
 30
0.0
  9
$PUCSYDIR
 10
0.0
 20
1.0
 30
0.0
  9
$USERI1
 70
     0
  9
$USERI2
 70
     0
  9
$USERI3
 70
     0
  9
$USERI4
 70
     0
  9
$USERI5
 70
     0
  9
$USERR1
 40
0.0
  9
$USERR2
 40
0.0
  9
$USERR3
 40
0.0
  9
$USERR4
 40
0.0
  9
$USERR5
 40
0.0
  9
$WORLDVIEW
 70
     1
  9
$SHADEDGE
 70
     3
  9
$SHADEDIF
 70
    70
  9
$TILEMODE
 70
     1
  9
$MAXACTVP
 70
    64
  9
$PLIMCHECK
 70
     0
  9
$PEXTMIN
 10
1.0000000000000000E+020
 20
1.0000000000000000E+020
 30
1.0000000000000000E+020
  9
$PEXTMAX
 10
-1.0000000000000000E+020
 20
-1.0000000000000000E+020
 30
-1.0000000000000000E+020
  9
$PLIMMIN
 10
0.0
 20
0.0
  9
$PLIMMAX
 10
12.0
 20
9.0
  9
$UNITMODE
 70
     0
  9
$VISRETAIN
 70
     1
  9
$PLINEGEN
 70
     0
  9
$PSLTSCALE
 70
     1
  0
ENDSEC
  0
SECTION
  2
TABLES
  0
TABLE
  2
VPORT
 70
     1
  0
VPORT
  2
*ACTIVE
 70
     0
 10
0.0
 20
0.0
 11
1.0
 21
1.0
 12
0.0
 22
0.0
 13
0.0
 23
0.0
 14
1.0
 24
1.0
 15
0.0
 25
0.0
 16
0.0
 26
0.0
 36
13251.03629473418
 17
3599.5093009502962
 27
1381.269411828381
 37
0.0
 40
5149.5808466126509
 41
1.916279069767441
 42
50.0
 43
0.0
 44
0.0
 50
0.0
 51
0.0
 71
     0
 72
   100
 73
     1
 74
     1
 75
     0
 76
     0
 77
     0
 78
     0
  0
ENDTAB
  0
TABLE
  2
LTYPE
 70
    11
  0
LTYPE
  2
CONTINUOUS
 70
     0
  3
Solid line
 72
    65
 73
     0
 40
0.0
  0
LTYPE
  2
GESTRICHELT
 70
     0
  3
__ __ __ __ __ __ __ __ __ __ __ __ __ __ __
 72
    65
 73
     2
 40
0.75
 49
0.5
 49
-0.25
  0
LTYPE
  2
VERDECKT
 70
     0
  3
_ _ _ _ _ _ _ _ _ _ _ _ _ _ _ _ _ _ _ _ _ _ 
 72
    65
 73
     2
 40
0.25
 49
0.125
 49
-0.125
  0
LTYPE
  2
MITTELLINIE
 70
     0
  3
____ _ ____ _ ____ _ ____ _ ____ _ ____ _ __
 72
    65
 73
     4
 40
2.0
 49
1.25
 49
-0.25
 49
0.25
 49
-0.25
  0
LTYPE
  2
PHANTOM
 70
     0
  3
_____ _ _ _____ _ _ _____ _ _ _____ _ _ ____
 72
    65
 73
     6
 40
2.5
 49
1.25
 49
-0.25
 49
0.25
 49
-0.25
 49
0.25
 49
-0.25
  0
LTYPE
  2
PUNKTIERT
 70
     0
  3
............................................
 72
    65
 73
     2
 40
0.25
 49
0.0
 49
-0.25
  0
LTYPE
  2
STRICHPUNKTIERT
 70
     0
  3
__ . __ . __ . __ . __ . __ . __ . __ . __ .
 72
    65
 73
     4
 40
1.0
 49
0.5
 49
-0.25
 49
0.0
 49
-0.25
  0
LTYPE
  2
RAND
 70
     0
  3
__ __ . __ __ . __ __ . __ __ . __ __ . __ _
 72
    65
 73
     6
 40
1.75
 49
0.5
 49
-0.25
 49
0.5
 49
-0.25
 49
0.0
 49
-0.25
  0
LTYPE
  2
TRENNLINIE
 70
     0
  3
__ . . __ . . __ . . __ . . __ . . __ . . __
 72
    65
 73
     6
 40
1.25
 49
0.5
 49
-0.25
 49
0.0
 49
-0.25
 49
0.0
 49
-0.25
  0
LTYPE
  2
ENG_PUNKTIERT
 70
     0
  3
Schließen                                   
 72
    65
 73
     2
 40
0.1
 49
0.05
 49
-0.05
  0
LTYPE
  2
CLOSE
 70
     0
  3
                                            
 72
    65
 73
     0
 40
0.0
  0
ENDTAB
  0
TABLE
  2
LAYER
 70
   256
  0
LAYER
  2
0
 70
     0
 62
     7
  6
CONTINUOUS
  0
LAYER
  2
LAYER01
 70
     0
 62
     7
  6
CONTINUOUS
  0
LAYER
  2
LAYER02
 70
     0
 62
     7
  6
CONTINUOUS
  0
LAYER
  2
LAYER03
 70
     0
 62
     7
  6
CONTINUOUS
  0
LAYER
  2
LAYER04
 70
     0
 62
     7
  6
CONTINUOUS
  0
LAYER
  2
LAYER05
 70
     0
 62
     7
  6
CONTINUOUS
  0
LAYER
  2
LAYER06
 70
     0
 62
     7
  6
CONTINUOUS
  0
LAYER
  2
LAYER07
 70
     0
 62
     7
  6
CONTINUOUS
  0
LAYER
  2
LAYER08
 70
     0
 62
     7
  6
CONTINUOUS
  0
LAYER
  2
LAYER09
 70
     0
 62
     7
  6
CONTINUOUS
  0
LAYER
  2
LAYER10
 70
     0
 62
     7
  6
CONTINUOUS
  0
LAYER
  2
FORMAT
 70
     0
 62
     7
  6
CONTINUOUS
  0
LAYER
  2
2
 70
     0
 62
     7
  6
CONTINUOUS
  0
LAYER
  2
5
 70
     0
 62
     7
  6
CONTINUOUS
  0
LAYER
  2
RAUMAUFM
 70
     0
 62
     7
  6
CONTINUOUS
  0
LAYER
  2
EINRICHT
 70
     0
 62
     7
  6
CONTINUOUS
  0
LAYER
  2
HILFE
 70
     0
 62
     7
  6
CONTINUOUS
  0
LAYER
  2
SCHNITTE
 70
     0
 62
     7
  6
CONTINUOUS
  0
LAYER
  2
SCHRAFF1
 70
     0
 62
     7
  6
CONTINUOUS
  0
LAYER
  2
SCHRAFF2
 70
     0
 62
     7
  6
CONTINUOUS
  0
LAYER
  2
BEMASS-1
 70
     0
 62
     7
  6
CONTINUOUS
  0
LAYER
  2
BEMASS-2
 70
     0
 62
     7
  6
CONTINUOUS
  0
LAYER
  2
TEXT
 70
     0
 62
     7
  6
CONTINUOUS
  0
LAYER
  2
SYMBOLE
 70
     0
 62
     7
  6
CONTINUOUS
  0
LAYER
  2
RAHMEN
 70
     0
 62
     7
  6
CONTINUOUS
  0
LAYER
  2
SCHRIFTF
 70
     0
 62
     7
  6
CONTINUOUS
  0
LAYER
  2
ACHSEN
 70
     0
 62
     7
  6
CONTINUOUS
  0
LAYER
  2
ZEICHN
 70
     0
 62
     7
  6
CONTINUOUS
  0
LAYER
  2
7
 70
     0
 62
     7
  6
CONTINUOUS
  0
LAYER
  2
1
 70
     0
 62
     7
  6
CONTINUOUS
  0
LAYER
  2
6
 70
     0
 62
     7
  6
CONTINUOUS
  0
LAYER
  2
4
 70
     0
 62
     7
  6
CONTINUOUS
  0
LAYER
  2
GRUNDEBENE
 70
     0
 62
     7
  6
CONTINUOUS
  0
LAYER
  2
GRUNDRISS
 70
     0
 62
     7
  6
CONTINUOUS
  0
LAYER
  2
BEMASSUNGGRUNDRISS
 70
     0
 62
     7
  6
CONTINUOUS
  0
LAYER
  2
WANDELEMENTE
 70
     0
 62
     7
  6
CONTINUOUS
  0
LAYER
  2
KUECHE
 70
     0
 62
     7
  6
CONTINUOUS
  0
LAYER
  2
THEKEBROETCHEN
 70
     0
 62
     7
  6
CONTINUOUS
  0
LAYER
  2
CENTERLINIE
 70
     0
 62
     7
  6
CONTINUOUS
  0
LAYER
  2
UMRISSE
 70
     0
 62
     7
  6
CONTINUOUS
  0
LAYER
  2
MAUER
 70
     0
 62
     7
  6
CONTINUOUS
  0
LAYER
  2
SCHRAFFUR
 70
     0
 62
     7
  6
CONTINUOUS
  0
LAYER
  2
MASSLINIE
 70
     0
 62
     7
  6
CONTINUOUS
  0
LAYER
  2
PV
 70
     0
 62
     7
  6
CONTINUOUS
  0
LAYER
  2
BESCHRIFTUNG
 70
     0
 62
     7
  6
CONTINUOUS
  0
LAYER
  2
AS
 70
     0
 62
     7
  6
CONTINUOUS
  0
LAYER
  2
PL
 70
     0
 62
     7
  6
CONTINUOUS
  0
LAYER
  2
UK
 70
     0
 62
     7
  6
CONTINUOUS
  0
LAYER
  2
TEXT3
 70
     0
 62
     7
  6
CONTINUOUS
  0
LAYER
  2
TEXT7
 70
     0
 62
     7
  6
CONTINUOUS
  0
LAYER
  2
BEPL1
 70
     0
 62
     7
  6
CONTINUOUS
  0
LAYER
  2
BEPL2
 70
     0
 62
     7
  6
CONTINUOUS
  0
LAYER
  2
BEPL2V
 70
     0
 62
     7
  6
CONTINUOUS
  0
LAYER
  2
BEPL4
 70
     0
 62
     7
  6
CONTINUOUS
  0
LAYER
  2
BEPL
 70
     0
 62
     7
  6
CONTINUOUS
  0
LAYER
  2
UK1
 70
     0
 62
     7
  6
CONTINUOUS
  0
LAYER
  2
UK2
 70
     0
 62
     7
  6
CONTINUOUS
  0
LAYER
  2
UK2V
 70
     0
 62
     7
  6
CONTINUOUS
  0
LAYER
  2
UK3
 70
     0
 62
     7
  6
CONTINUOUS
  0
LAYER
  2
TEXT2
 70
     0
 62
     7
  6
CONTINUOUS
  0
LAYER
  2
HILF2S
 70
     0
 62
     7
  6
CONTINUOUS
  0
LAYER
  2
UK1V
 70
     0
 62
     7
  6
CONTINUOUS
  0
LAYER
  2
GAIN_ZRA
 70
     0
 62
     7
  6
CONTINUOUS
  0
LAYER
  2
GAIN_ZSF
 70
     0
 62
     7
  6
CONTINUOUS
  0
LAYER
  2
RAHM4
 70
     0
 62
     7
  6
CONTINUOUS
  0
LAYER
  2
KORPUSBAND
 70
     0
 62
     7
  6
CONTINUOUS
  0
LAYER
  2
E---LGPL--------
 70
     0
 62
     7
  6
CONTINUOUS
  0
LAYER
  2
E---NPFL--------
 70
     0
 62
     7
  6
CONTINUOUS
  0
LAYER
  2
E---PLNKTXT-----
 70
     0
 62
     7
  6
CONTINUOUS
  0
LAYER
  2
E---PLNK--------
 70
     0
 62
     7
  6
CONTINUOUS
  0
LAYER
  2
E---PLNR--------
 70
     0
 62
     7
  6
CONTINUOUS
  0
LAYER
  2
D547_ARCHICAD
 70
     0
 62
     7
  6
CONTINUOUS
  0
LAYER
  2
D547_E---TEXT--------
 70
     0
 62
     7
  6
CONTINUOUS
  0
LAYER
  2
E---LEGD--------
 70
     0
 62
     7
  6
CONTINUOUS
  0
LAYER
  2
D43_ARCHICAD
 70
     0
 62
     7
  6
CONTINUOUS
  0
LAYER
  2
D43_FENSTER_VON_B---FASS--
 70
     0
 62
     7
  6
CONTINUOUS
  0
LAYER
  2
D43_E---SCHN--------
 70
     0
 62
     7
  6
CONTINUOUS
  0
LAYER
  2
D43_B---MW-N--------
 70
     0
 62
     7
  6
CONTINUOUS
  0
LAYER
  2
D43_B---DECK--------
 70
     0
 62
     7
  6
CONTINUOUS
  0
LAYER
  2
D43_B---MW-S--------
 70
     0
 62
     7
  6
CONTINUOUS
  0
LAYER
  2
D43_B---MW----------
 70
     0
 62
     7
  6
CONTINUOUS
  0
LAYER
  2
D43_B---FASS--------
 70
     0
 62
     7
  6
CONTINUOUS
  0
LAYER
  2
D43_E---RASG--------
 70
     0
 62
     7
  6
CONTINUOUS
  0
LAYER
  2
D40_ARCHICAD
 70
     0
 62
     7
  6
CONTINUOUS
  0
LAYER
  2
D40_E---MW--------
 70
     0
 62
     7
  6
CONTINUOUS
  0
LAYER
  2
D40_E---FASSKON-----
 70
     0
 62
     7
  6
CONTINUOUS
  0
LAYER
  2
D40_TÜREN_VON_B---MW-N----
 70
     0
 62
     7
  6
CONTINUOUS
  0
LAYER
  2
D40_E---MW-L------
 70
     0
 62
     7
  6
CONTINUOUS
  0
LAYER
  2
D40_TÜREN_VON_B---MW------
 70
     0
 62
     7
  6
CONTINUOUS
  0
LAYER
  2
D40_E---VERM--------
 70
     0
 62
     7
  6
CONTINUOUS
  0
LAYER
  2
D40_FENSTER_VON_E---MW-L--
 70
     0
 62
     7
  6
CONTINUOUS
  0
LAYER
  2
D40_FENSTER_VON_B---MW-N--
 70
     0
 62
     7
  6
CONTINUOUS
  0
LAYER
  2
D40_E---SCHN--------
 70
     0
 62
     7
  6
CONTINUOUS
  0
LAYER
  2
D40_E---AUFZ--------
 70
     0
 62
     7
  6
CONTINUOUS
  0
LAYER
  2
D40_E---DECK--------
 70
     0
 62
     7
  6
CONTINUOUS
  0
LAYER
  2
D40_E---RAUMINF-----
 70
     0
 62
     7
  6
CONTINUOUS
  0
LAYER
  2
D40_E---TEXT--------
 70
     0
 62
     7
  6
CONTINUOUS
  0
LAYER
  2
D40_B---TEXT--------
 70
     0
 62
     7
  6
CONTINUOUS
  0
LAYER
  2
D40_B---MW-N--------
 70
     0
 62
     7
  6
CONTINUOUS
  0
LAYER
  2
D40_B---DECK--------
 70
     0
 62
     7
  6
CONTINUOUS
  0
LAYER
  2
D40_B---AUFZ--------
 70
     0
 62
     7
  6
CONTINUOUS
  0
LAYER
  2
D40_B---MW-S--------
 70
     0
 62
     7
  6
CONTINUOUS
  0
LAYER
  2
D40_B---MW----------
 70
     0
 62
     7
  6
CONTINUOUS
  0
LAYER
  2
D40_E---MOEB--------
 70
     0
 62
     7
  6
CONTINUOUS
  0
LAYER
  2
D40_B---UMGB--------
 70
     0
 62
     7
  6
CONTINUOUS
  0
LAYER
  2
D40_B---FASS--------
 70
     0
 62
     7
  6
CONTINUOUS
  0
LAYER
  2
D40_E---DACH--------
 70
     0
 62
     7
  6
CONTINUOUS
  0
LAYER
  2
D40_E---BODE--------
 70
     0
 62
     7
  6
CONTINUOUS
  0
LAYER
  2
D40_E---TREP--------
 70
     0
 62
     7
  6
CONTINUOUS
  0
LAYER
  2
D40_E---RASG--------
 70
     0
 62
     7
  6
CONTINUOUS
  0
LAYER
  2
D40_B---MW-K--------
 70
     0
 62
     7
  6
CONTINUOUS
  0
LAYER
  2
D40_E---FASSGLA-----
 70
     0
 62
     7
  6
CONTINUOUS
  0
LAYER
  2
D40_B---VERM--------
 70
     0
 62
     7
  6
CONTINUOUS
  0
LAYER
  2
D40_E---UMGBGSG-----
 70
     0
 62
     7
  6
CONTINUOUS
  0
LAYER
  2
D40_E---RASF--------
 70
     0
 62
     7
  6
CONTINUOUS
  0
LAYER
  2
D40_E---PFLA--------
 70
     0
 62
     7
  6
CONTINUOUS
  0
LAYER
  2
D40_E---KONS-ST-----
 70
     0
 62
     7
  6
CONTINUOUS
  0
LAYER
  2
D40_E---WERB--------
 70
     0
 62
     7
  6
CONTINUOUS
  0
LAYER
  2
D40_E---TUERINF-----
 70
     0
 62
     7
  6
CONTINUOUS
  0
LAYER
  2
D40_E---WOLK--------
 70
     0
 62
     7
  6
CONTINUOUS
  0
LAYER
  2
D40_B---MW-L--------
 70
     0
 62
     7
  6
CONTINUOUS
  0
LAYER
  2
D40_B---SANI--------
 70
     0
 62
     7
  6
CONTINUOUS
  0
LAYER
  2
D40_E---SANI--------
 70
     0
 62
     7
  6
CONTINUOUS
  0
LAYER
  2
D40_E---MW-K------
 70
     0
 62
     7
  6
CONTINUOUS
  0
LAYER
  2
D40_E---OBJE--------
 70
     0
 62
     7
  6
CONTINUOUS
  0
LAYER
  2
D40_E---ASPR--------
 70
     0
 62
     7
  6
CONTINUOUS
  0
LAYER
  2
D40_E---VERMTGA-----
 70
     0
 62
     7
  6
CONTINUOUS
  0
LAYER
  2
D40_E---PARK--------
 70
     0
 62
     7
  6
CONTINUOUS
  0
LAYER
  2
D40_E---ISOL--------
 70
     0
 62
     7
  6
CONTINUOUS
  0
LAYER
  2
D40_E---TUER--------
 70
     0
 62
     7
  6
CONTINUOUS
  0
LAYER
  2
D40_E---MW--BRA---
 70
     0
 62
     7
  6
CONTINUOUS
  0
LAYER
  2
D41_ARCHICAD
 70
     0
 62
     7
  6
CONTINUOUS
  0
LAYER
  2
D41_E---MW--------
 70
     0
 62
     7
  6
CONTINUOUS
  0
LAYER
  2
D41_E---FASSKON-----
 70
     0
 62
     7
  6
CONTINUOUS
  0
LAYER
  2
D41_TÜREN_VON_B---MW-N----
 70
     0
 62
     7
  6
CONTINUOUS
  0
LAYER
  2
D41_E---MW-L------
 70
     0
 62
     7
  6
CONTINUOUS
  0
LAYER
  2
D41_TÜREN_VON_B---MW------
 70
     0
 62
     7
  6
CONTINUOUS
  0
LAYER
  2
D41_E---VERM--------
 70
     0
 62
     7
  6
CONTINUOUS
  0
LAYER
  2
D41_FENSTER_VON_E---MW-L--
 70
     0
 62
     7
  6
CONTINUOUS
  0
LAYER
  2
D41_FENSTER_VON_B---MW-N--
 70
     0
 62
     7
  6
CONTINUOUS
  0
LAYER
  2
D41_E---SCHN--------
 70
     0
 62
     7
  6
CONTINUOUS
  0
LAYER
  2
D41_E---AUFZ--------
 70
     0
 62
     7
  6
CONTINUOUS
  0
LAYER
  2
D41_E---DECK--------
 70
     0
 62
     7
  6
CONTINUOUS
  0
LAYER
  2
D41_E---RAUMINF-----
 70
     0
 62
     7
  6
CONTINUOUS
  0
LAYER
  2
D41_E---TEXT--------
 70
     0
 62
     7
  6
CONTINUOUS
  0
LAYER
  2
D41_B---TEXT--------
 70
     0
 62
     7
  6
CONTINUOUS
  0
LAYER
  2
D41_B---MW-N--------
 70
     0
 62
     7
  6
CONTINUOUS
  0
LAYER
  2
D41_B---DECK--------
 70
     0
 62
     7
  6
CONTINUOUS
  0
LAYER
  2
D41_B---AUFZ--------
 70
     0
 62
     7
  6
CONTINUOUS
  0
LAYER
  2
D41_B---MW-S--------
 70
     0
 62
     7
  6
CONTINUOUS
  0
LAYER
  2
D41_B---MW----------
 70
     0
 62
     7
  6
CONTINUOUS
  0
LAYER
  2
D41_E---MOEB--------
 70
     0
 62
     7
  6
CONTINUOUS
  0
LAYER
  2
D41_B---UMGB--------
 70
     0
 62
     7
  6
CONTINUOUS
  0
LAYER
  2
D41_B---FASS--------
 70
     0
 62
     7
  6
CONTINUOUS
  0
LAYER
  2
D41_E---DACH--------
 70
     0
 62
     7
  6
CONTINUOUS
  0
LAYER
  2
D41_E---BODE--------
 70
     0
 62
     7
  6
CONTINUOUS
  0
LAYER
  2
D41_E---TREP--------
 70
     0
 62
     7
  6
CONTINUOUS
  0
LAYER
  2
D41_E---RASG--------
 70
     0
 62
     7
  6
CONTINUOUS
  0
LAYER
  2
D41_B---MW-K--------
 70
     0
 62
     7
  6
CONTINUOUS
  0
LAYER
  2
D41_E---FASSGLA-----
 70
     0
 62
     7
  6
CONTINUOUS
  0
LAYER
  2
D41_B---VERM--------
 70
     0
 62
     7
  6
CONTINUOUS
  0
LAYER
  2
D41_E---UMGBGSG-----
 70
     0
 62
     7
  6
CONTINUOUS
  0
LAYER
  2
D41_E---RASF--------
 70
     0
 62
     7
  6
CONTINUOUS
  0
LAYER
  2
D41_E---PFLA--------
 70
     0
 62
     7
  6
CONTINUOUS
  0
LAYER
  2
D41_E---KONS-ST-----
 70
     0
 62
     7
  6
CONTINUOUS
  0
LAYER
  2
D41_E---WERB--------
 70
     0
 62
     7
  6
CONTINUOUS
  0
LAYER
  2
D41_E---TUERINF-----
 70
     0
 62
     7
  6
CONTINUOUS
  0
LAYER
  2
D41_E---WOLK--------
 70
     0
 62
     7
  6
CONTINUOUS
  0
LAYER
  2
D41_B---MW-L--------
 70
     0
 62
     7
  6
CONTINUOUS
  0
LAYER
  2
D41_B---SANI--------
 70
     0
 62
     7
  6
CONTINUOUS
  0
LAYER
  2
D41_E---SANI--------
 70
     0
 62
     7
  6
CONTINUOUS
  0
LAYER
  2
D41_E---MW-K------
 70
     0
 62
     7
  6
CONTINUOUS
  0
LAYER
  2
D41_E---OBJE--------
 70
     0
 62
     7
  6
CONTINUOUS
  0
LAYER
  2
D41_E---ASPR--------
 70
     0
 62
     7
  6
CONTINUOUS
  0
LAYER
  2
D41_E---VERMTGA-----
 70
     0
 62
     7
  6
CONTINUOUS
  0
LAYER
  2
D41_E---PARK--------
 70
     0
 62
     7
  6
CONTINUOUS
  0
LAYER
  2
D41_E---ISOL--------
 70
     0
 62
     7
  6
CONTINUOUS
  0
LAYER
  2
D41_E---TUER--------
 70
     0
 62
     7
  6
CONTINUOUS
  0
LAYER
  2
D41_E---MW--BRA---
 70
     0
 62
     7
  6
CONTINUOUS
  0
LAYER
  2
D42_ARCHICAD
 70
     0
 62
     7
  6
CONTINUOUS
  0
LAYER
  2
D42_FENSTER_VON_B---FASS--
 70
     0
 62
     7
  6
CONTINUOUS
  0
LAYER
  2
D42_E---SCHN--------
 70
     0
 62
     7
  6
CONTINUOUS
  0
LAYER
  2
D42_B---MW-N--------
 70
     0
 62
     7
  6
CONTINUOUS
  0
LAYER
  2
D42_B---DECK--------
 70
     0
 62
     7
  6
CONTINUOUS
  0
LAYER
  2
D42_B---MW-S--------
 70
     0
 62
     7
  6
CONTINUOUS
  0
LAYER
  2
D42_B---MW----------
 70
     0
 62
     7
  6
CONTINUOUS
  0
LAYER
  2
D42_B---FASS--------
 70
     0
 62
     7
  6
CONTINUOUS
  0
LAYER
  2
D42_E---RASG--------
 70
     0
 62
     7
  6
CONTINUOUS
  0
LAYER
  2
CONSTRUCTION_CLASS
 70
     0
 62
     7
  6
CONTINUOUS
  0
LAYER
  2
PATTERN_CLASS
 70
     0
 62
     7
  6
CONTINUOUS
  0
LAYER
  2
KONSTRUKTION
 70
     0
 62
     7
  6
CONTINUOUS
  0
LAYER
  2
BEMAßUNG
 70
     0
 62
     7
  6
CONTINUOUS
  0
LAYER
  2
HILFSGEOMETRIE
 70
     0
 62
     7
  6
CONTINUOUS
  0
LAYER
  2
UNSICHTBAR
 70
     0
 62
     7
  6
CONTINUOUS
  0
LAYER
  2
LOGO
 70
     0
 62
     7
  6
CONTINUOUS
  0
LAYER
  2
VERWALTUNG
 70
     0
 62
     7
  6
CONTINUOUS
  0
LAYER
  2
UNSICHTBARE_GEWINDE
 70
     0
 62
     7
  6
CONTINUOUS
  0
LAYER
  2
SICHTBARE_GEWINDE
 70
     0
 62
     7
  6
CONTINUOUS
  0
LAYER
  2
DEFPOINTS
 70
     0
 62
     7
  6
CONTINUOUS
  0
LAYER
  2
THICK
 70
     0
 62
     7
  6
CONTINUOUS
  0
LAYER
  2
HIDDEN
 70
     0
 62
     7
  6
CONTINUOUS
  0
LAYER
  2
SCHRAFFURGRUNDRISS
 70
     0
 62
     7
  6
CONTINUOUS
  0
LAYER
  2
BEMASSUNG_GRUNDRISS
 70
     0
 62
     7
  6
CONTINUOUS
  0
LAYER
  2
STATIK
 70
     0
 62
     7
  6
CONTINUOUS
  0
LAYER
  2
TÜREN
 70
     0
 62
     7
  6
CONTINUOUS
  0
LAYER
  2
SANITÄR
 70
     0
 62
     7
  6
CONTINUOUS
  0
LAYER
  2
BEMASSUNG_GIPSKARTON
 70
     0
 62
     7
  6
CONTINUOUS
  0
LAYER
  2
EINRICHTUNGEN
 70
     0
 62
     7
  6
CONTINUOUS
  0
LAYER
  2
BECKEN
 70
     0
 62
     7
  6
CONTINUOUS
  0
LAYER
  2
BELEUCHTUNG
 70
     0
 62
     7
  6
CONTINUOUS
  0
LAYER
  2
BESCHRIFTUNGEN
 70
     0
 62
     7
  6
CONTINUOUS
  0
LAYER
  2
ELEKTRO_1__DOSEN_SCHALTER
 70
     0
 62
     7
  6
CONTINUOUS
  0
LAYER
  2
DEFAULT_1
 70
     0
 62
     7
  6
CONTINUOUS
  0
LAYER
  2
AM_0
 70
     0
 62
     7
  6
CONTINUOUS
  0
LAYER
  2
FRAME0_7
 70
     0
 62
     7
  6
CONTINUOUS
  0
LAYER
  2
AM_BOR
 70
     0
 62
     7
  6
CONTINUOUS
  0
LAYER
  2
RAHM2
 70
     0
 62
     7
  6
CONTINUOUS
  0
LAYER
  2
RAHM3
 70
     0
 62
     7
  6
CONTINUOUS
  0
LAYER
  2
FRAME0_5
 70
     0
 62
     7
  6
CONTINUOUS
  0
LAYER
  2
8
 70
     0
 62
     7
  6
CONTINUOUS
  0
LAYER
  2
AM_5
 70
     0
 62
     7
  6
CONTINUOUS
  0
LAYER
  2
AM_7
 70
     0
 62
     7
  6
CONTINUOUS
  0
LAYER
  2
HILFSLINIEN
 70
     0
 62
     7
  6
CONTINUOUS
  0
LAYER
  2
DRAWING_TEMPLATE
 70
     0
 62
     7
  6
CONTINUOUS
  0
LAYER
  2
TECHNOBOX_EXTERNALREFSYMBO
 70
     0
 62
     7
  6
CONTINUOUS
  0
LAYER
  2
TECHNOBOX_POLYCLIPSYMBOL_L
 70
     0
 62
     7
  6
CONTINUOUS
  0
LAYER
  2
100
 70
     0
 62
     7
  6
CONTINUOUS
  0
LAYER
  2
101
 70
     0
 62
     7
  6
CONTINUOUS
  0
LAYER
  2
KONTUR
 70
     0
 62
     7
  6
CONTINUOUS
  0
LAYER
  2
MITTELLINIE
 70
     0
 62
     7
  6
CONTINUOUS
  0
LAYER
  2
GESTRICHELT
 70
     0
 62
     7
  6
CONTINUOUS
  0
LAYER
  2
HILFSLINIE
 70
     0
 62
     7
  6
CONTINUOUS
  0
LAYER
  2
TEXT-25
 70
     0
 62
     7
  6
CONTINUOUS
  0
LAYER
  2
TEXT35
 70
     0
 62
     7
  6
CONTINUOUS
  0
LAYER
  2
TEXT-50
 70
     0
 62
     7
  6
CONTINUOUS
  0
LAYER
  2
TEXT-70
 70
     0
 62
     7
  6
CONTINUOUS
  0
LAYER
  2
ANSICHTSFENSTER
 70
     0
 62
     7
  6
CONTINUOUS
  0
LAYER
  2
KERA0
 70
     0
 62
     7
  6
CONTINUOUS
  0
LAYER
  2
KERA1
 70
     0
 62
     7
  6
CONTINUOUS
  0
LAYER
  2
KERA2
 70
     0
 62
     7
  6
CONTINUOUS
  0
LAYER
  2
KERA3
 70
     0
 62
     7
  6
CONTINUOUS
  0
LAYER
  2
KERA4
 70
     0
 62
     7
  6
CONTINUOUS
  0
LAYER
  2
KERA5
 70
     0
 62
     7
  6
CONTINUOUS
  0
LAYER
  2
KERA6
 70
     0
 62
     7
  6
CONTINUOUS
  0
LAYER
  2
KERA7
 70
     0
 62
     7
  6
CONTINUOUS
  0
LAYER
  2
20
 70
     0
 62
     7
  6
CONTINUOUS
  0
LAYER
  2
50
 70
     0
 62
     7
  6
CONTINUOUS
  0
LAYER
  2
BECKEN_FUTURA_EBENE_1
 70
     0
 62
     7
  6
CONTINUOUS
  0
LAYER
  2
EBENE_1
 70
     0
 62
     7
  6
CONTINUOUS
  0
LAYER
  2
EBENE_2
 70
     0
 62
     7
  6
CONTINUOUS
  0
LAYER
  2
EBENE_5
 70
     0
 62
     7
  6
CONTINUOUS
  0
LAYER
  2
3
 70
     0
 62
     7
  6
CONTINUOUS
  0
LAYER
  2
GEB-KONTUR-A
 70
     0
 62
     7
  6
CONTINUOUS
  0
LAYER
  2
GEB-SYMETRIE
 70
     0
 62
     7
  6
CONTINUOUS
  0
LAYER
  2
GEB-ART-NR
 70
     0
 62
     7
  6
CONTINUOUS
  0
LAYER
  2
PROJECTION
 70
     0
 62
     7
  6
CONTINUOUS
  0
ENDTAB
  0
TABLE
  2
STYLE
 70
     3
  0
STYLE
  2
STANDARD
 70
     0
 40
0.0
 41
1.0
 50
0.0
 71
     0
 42
0.0
  3
txt
  4

  0
STYLE
  2
ANNOTATIVE
 70
     0
 40
0.0
 41
1.0
 50
0.0
 71
     0
 42
0.2
  3
txt
  4

  0
STYLE
  2
SIMPLEX
 70
     0
 40
0.0
 41
1.0
 50
0.0
 71
     0
 42
0.0
  3
SIMPLEX
  4

  0
ENDTAB
  0
TABLE
  2
VIEW
 70
     0
  0
ENDTAB
  0
TABLE
  2
UCS
 70
     0
  0
ENDTAB
  0
TABLE
  2
APPID
 70
     3
  0
APPID
  2
ACAD
 70
     0
  0
APPID
  2
ACADANNOTATIVE
 70
     0
  0
APPID
  2
ACAD_MLEADERVER
 70
     0
  0
ENDTAB
  0
TABLE
  2
DIMSTYLE
 70
     2
  0
DIMSTYLE
  2
STANDARD
 70
     0
  3

  4

  5

  6

  7

 40
1.0
 41
0.18
 42
0.0625
 43
0.38
 44
0.18
 45
0.0
 46
0.0
 47
0.0
 48
0.0
140
0.18
141
0.09
142
0.0
143
25.399999999999999
144
1.0
145
0.0
146
1.0
147
0.09
 71
     0
 72
     0
 73
     1
 74
     1
 75
     0
 76
     0
 77
     0
 78
     0
170
     0
171
     2
172
     0
173
     0
174
     0
175
     0
176
     0
177
     0
178
     0
  0
DIMSTYLE
  2
ANNOTATIVE
 70
     0
  3

  4

  5

  6

  7

 40
1.0
 41
0.18
 42
0.0625
 43
0.38
 44
0.18
 45
0.0
 46
0.0
 47
0.0
 48
0.0
140
0.18
141
0.09
142
0.0
143
25.399999999999999
144
1.0
145
0.0
146
1.0
147
0.09
 71
     0
 72
     0
 73
     1
 74
     1
 75
     0
 76
     0
 77
     0
 78
     0
170
     0
171
     2
172
     0
173
     0
174
     0
175
     0
176
     0
177
     0
178
     0
  0
ENDTAB
  0
ENDSEC
  0
SECTION
  2
BLOCKS
  0
BLOCK
  8
0
  2
$MODEL_SPACE
 70
     0
 10
0.0
 20
0.0
 30
0.0
  3
$MODEL_SPACE
  1

  0
ENDBLK
  5
76
  8
0
  0
BLOCK
 67
     1
  8
0
  2
$PAPER_SPACE
 70
     0
 10
0.0
 20
0.0
 30
0.0
  3
$PAPER_SPACE
  1

  0
ENDBLK
  5
72
 67
     1
  8
0
  0
BLOCK
  8
0
  2
MANHATAN-G1
 70
     0
 10
0.0
 20
0.0
 30
0.0
  3
MANHATAN-G1
  1

  0
POLYLINE
  5
187
  8
LAYER01
  6
CONTINUOUS
 62
     7
 66
     1
 10
0.0
 20
0.0
 30
0.0
 70
     1
  0
VERTEX
  5
B64
  8
LAYER01
  6
CONTINUOUS
 62
     7
 10
4057.3866480000002
 20
-177.11403799999999
 30
0.0
  0
VERTEX
  5
B65
  8
LAYER01
  6
CONTINUOUS
 62
     7
 10
4098.8163350000013
 20
-177.11403799999999
 30
0.0
  0
VERTEX
  5
B66
  8
LAYER01
  6
CONTINUOUS
 62
     7
 10
4150.844313999999
 20
-295.62221099999999
 30
0.0
  0
VERTEX
  5
B67
  8
LAYER01
  6
CONTINUOUS
 62
     7
 10
4202.8722930000013
 20
-177.11403799999999
 30
0.0
  0
VERTEX
  5
B68
  8
LAYER01
  6
CONTINUOUS
 62
     7
 10
4246.2289419999997
 20
-177.11403799999999
 30
0.0
  0
VERTEX
  5
B69
  8
LAYER01
  6
CONTINUOUS
 62
     7
 10
4150.844313999999
 20
-389.07987700000001
 30
0.0
  0
VERTEX
  5
B6A
  8
LAYER01
  6
CONTINUOUS
 62
     7
 10
4057.3866480000002
 20
-177.11403799999999
 30
0.0
  0
VERTEX
  5
B6B
  8
LAYER01
  6
CONTINUOUS
 62
     7
 10
4057.3866480000002
 20
-177.11403799999999
 30
0.0
  0
SEQEND
  5
B6C
  8
LAYER01
  6
CONTINUOUS
 62
     7
  0
POLYLINE
  5
191
  8
LAYER01
  6
CONTINUOUS
 62
     7
 66
     1
 10
0.0
 20
0.0
 30
0.0
 70
     1
  0
VERTEX
  5
B6D
  8
LAYER01
  6
CONTINUOUS
 62
     7
 10
4199.0183679999991
 20
-321.63620100000003
 30
0.0
  0
VERTEX
  5
B6E
  8
LAYER01
  6
CONTINUOUS
 62
     7
 10
4213.470585
 20
-287.91436299999998
 30
0.0
  0
VERTEX
  5
B6F
  8
LAYER01
  6
CONTINUOUS
 62
     7
 10
4276.0968549999998
 20
-287.91436299999998
 30
0.0
  0
VERTEX
  5
B70
  8
LAYER01
  6
CONTINUOUS
 62
     7
 10
4244.3019789999998
 20
-218.543724
 30
0.0
  0
VERTEX
  5
B71
  8
LAYER01
  6
CONTINUOUS
 62
     7
 10
4262.6081199999999
 20
-174.22359399999999
 30
0.0
  0
VERTEX
  5
B72
  8
LAYER01
  6
CONTINUOUS
 62
     7
 10
4348.3579369999998
 20
-355.35803900000002
 30
0.0
  0
VERTEX
  5
B73
  8
LAYER01
  6
CONTINUOUS
 62
     7
 10
4348.3579369999998
 20
-177.11403799999999
 30
0.0
  0
VERTEX
  5
B74
  8
LAYER01
  6
CONTINUOUS
 62
     7
 10
4463.0121859999999
 20
-177.11403799999999
 30
0.0
  0
VERTEX
  5
B75
  8
LAYER01
  6
CONTINUOUS
 62
     7
 10
4463.0121859999999
 20
-177.11403799999999
 30
0.0
  0
VERTEX
  5
B76
  8
LAYER01
  6
CONTINUOUS
 62
     7
 10
4473.6104779999996
 20
-179.041
 30
0.0
  0
VERTEX
  5
B77
  8
LAYER01
  6
CONTINUOUS
 62
     7
 10
4483.2452890000004
 20
-182.894924
 30
0.0
  0
VERTEX
  5
B78
  8
LAYER01
  6
CONTINUOUS
 62
     7
 10
4491.9166189999996
 20
-189.63929200000001
 30
0.0
  0
VERTEX
  5
B79
  8
LAYER01
  6
CONTINUOUS
 62
     7
 10
4499.624468
 20
-196.38365899999999
 30
0.0
  0
VERTEX
  5
B7A
  8
LAYER01
  6
CONTINUOUS
 62
     7
 10
4506.3688349999993
 20
-205.05498900000001
 30
0.0
  0
VERTEX
  5
B7B
  8
LAYER01
  6
CONTINUOUS
 62
     7
 10
4511.1862409999994
 20
-214.68979999999999
 30
0.0
  0
VERTEX
  5
B7C
  8
LAYER01
  6
CONTINUOUS
 62
     7
 10
4515.0401649999994
 20
-226.25157300000001
 30
0.0
  0
VERTEX
  5
B7D
  8
LAYER01
  6
CONTINUOUS
 62
     7
 10
4516.0036460000001
 20
-236.84986499999999
 30
0.0
  0
VERTEX
  5
B7E
  8
LAYER01
  6
CONTINUOUS
 62
     7
 10
4516.0036460000001
 20
-236.84986499999999
 30
0.0
  0
VERTEX
  5
B7F
  8
LAYER01
  6
CONTINUOUS
 62
     7
 10
4516.0036460000001
 20
-248.41163800000001
 30
0.0
  0
VERTEX
  5
B80
  8
LAYER01
  6
CONTINUOUS
 62
     7
 10
4514.0766839999997
 20
-258.046449
 30
0.0
  0
VERTEX
  5
B81
  8
LAYER01
  6
CONTINUOUS
 62
     7
 10
4510.2227599999997
 20
-267.68126000000001
 30
0.0
  0
VERTEX
  5
B82
  8
LAYER01
  6
CONTINUOUS
 62
     7
 10
4505.4053539999986
 20
-276.35259000000002
 30
0.0
  0
VERTEX
  5
B83
  8
LAYER01
  6
CONTINUOUS
 62
     7
 10
4498.6609870000002
 20
-284.06043799999998
 30
0.0
  0
VERTEX
  5
B84
  8
LAYER01
  6
CONTINUOUS
 62
     7
 10
4490.9531379999999
 20
-290.80480599999999
 30
0.0
  0
VERTEX
  5
B85
  8
LAYER01
  6
CONTINUOUS
 62
     7
 10
4482.2818079999988
 20
-295.62221099999999
 30
0.0
  0
VERTEX
  5
B86
  8
LAYER01
  6
CONTINUOUS
 62
     7
 10
4471.6835160000001
 20
-299.476136
 30
0.0
  0
VERTEX
  5
B87
  8
LAYER01
  6
CONTINUOUS
 62
     7
 10
4533.3463060000013
 20
-381.372028
 30
0.0
  0
VERTEX
  5
B88
  8
LAYER01
  6
CONTINUOUS
 62
     7
 10
4533.3463060000013
 20
-177.11403799999999
 30
0.0
  0
VERTEX
  5
B89
  8
LAYER01
  6
CONTINUOUS
 62
     7
 10
4573.8125119999986
 20
-177.11403799999999
 30
0.0
  0
VERTEX
  5
B8A
  8
LAYER01
  6
CONTINUOUS
 62
     7
 10
4573.8125119999986
 20
-383.29899
 30
0.0
  0
VERTEX
  5
B8B
  8
LAYER01
  6
CONTINUOUS
 62
     7
 10
4487.0992139999989
 20
-383.29899
 30
0.0
  0
VERTEX
  5
B8C
  8
LAYER01
  6
CONTINUOUS
 62
     7
 10
4403.2763590000004
 20
-276.35259000000002
 30
0.0
  0
VERTEX
  5
B8D
  8
LAYER01
  6
CONTINUOUS
 62
     7
 10
4445.669527
 20
-276.35259000000002
 30
0.0
  0
VERTEX
  5
B8E
  8
LAYER01
  6
CONTINUOUS
 62
     7
 10
4445.669527
 20
-276.35259000000002
 30
0.0
  0
VERTEX
  5
B8F
  8
LAYER01
  6
CONTINUOUS
 62
     7
 10
4451.4504129999996
 20
-275.38910900000002
 30
0.0
  0
VERTEX
  5
B90
  8
LAYER01
  6
CONTINUOUS
 62
     7
 10
4457.2313000000004
 20
-273.46214600000002
 30
0.0
  0
VERTEX
  5
B91
  8
LAYER01
  6
CONTINUOUS
 62
     7
 10
4462.0487049999992
 20
-270.57170300000001
 30
0.0
  0
VERTEX
  5
B92
  8
LAYER01
  6
CONTINUOUS
 62
     7
 10
4466.8661110000003
 20
-266.71777900000001
 30
0.0
  0
VERTEX
  5
B93
  8
LAYER01
  6
CONTINUOUS
 62
     7
 10
4469.7565539999987
 20
-261.900373
 30
0.0
  0
VERTEX
  5
B94
  8
LAYER01
  6
CONTINUOUS
 62
     7
 10
4472.6469969999998
 20
-256.11948699999999
 30
0.0
  0
VERTEX
  5
B95
  8
LAYER01
  6
CONTINUOUS
 62
     7
 10
4474.5739590000003
 20
-250.33860000000001
 30
0.0
  0
VERTEX
  5
B96
  8
LAYER01
  6
CONTINUOUS
 62
     7
 10
4474.5739590000003
 20
-243.594233
 30
0.0
  0
VERTEX
  5
B97
  8
LAYER01
  6
CONTINUOUS
 62
     7
 10
4474.5739590000003
 20
-243.594233
 30
0.0
  0
VERTEX
  5
B98
  8
LAYER01
  6
CONTINUOUS
 62
     7
 10
4474.5739590000003
 20
-237.813346
 30
0.0
  0
VERTEX
  5
B99
  8
LAYER01
  6
CONTINUOUS
 62
     7
 10
4472.6469969999998
 20
-232.03245999999999
 30
0.0
  0
VERTEX
  5
B9A
  8
LAYER01
  6
CONTINUOUS
 62
     7
 10
4470.7200350000003
 20
-226.25157300000001
 30
0.0
  0
VERTEX
  5
B9B
  8
LAYER01
  6
CONTINUOUS
 62
     7
 10
4466.8661110000003
 20
-221.434168
 30
0.0
  0
VERTEX
  5
B9C
  8
LAYER01
  6
CONTINUOUS
 62
     7
 10
4463.0121859999999
 20
-217.580243
 30
0.0
  0
VERTEX
  5
B9D
  8
LAYER01
  6
CONTINUOUS
 62
     7
 10
4457.2313000000004
 20
-214.68979999999999
 30
0.0
  0
VERTEX
  5
B9E
  8
LAYER01
  6
CONTINUOUS
 62
     7
 10
4451.4504129999996
 20
-212.76283799999999
 30
0.0
  0
VERTEX
  5
B9F
  8
LAYER01
  6
CONTINUOUS
 62
     7
 10
4445.669527
 20
-211.79935699999999
 30
0.0
  0
VERTEX
  5
BA0
  8
LAYER01
  6
CONTINUOUS
 62
     7
 10
4391.7145859999991
 20
-211.79935699999999
 30
0.0
  0
VERTEX
  5
BA1
  8
LAYER01
  6
CONTINUOUS
 62
     7
 10
4391.7145859999991
 20
-383.29899
 30
0.0
  0
VERTEX
  5
BA2
  8
LAYER01
  6
CONTINUOUS
 62
     7
 10
4322.3439479999988
 20
-383.29899
 30
0.0
  0
VERTEX
  5
BA3
  8
LAYER01
  6
CONTINUOUS
 62
     7
 10
4293.439515
 20
-321.63620100000003
 30
0.0
  0
VERTEX
  5
BA4
  8
LAYER01
  6
CONTINUOUS
 62
     7
 10
4199.0183679999991
 20
-321.63620100000003
 30
0.0
  0
VERTEX
  5
BA5
  8
LAYER01
  6
CONTINUOUS
 62
     7
 10
4199.0183679999991
 20
-321.63620100000003
 30
0.0
  0
SEQEND
  5
BA6
  8
LAYER01
  6
CONTINUOUS
 62
     7
  0
POLYLINE
  5
1CC
  8
LAYER01
  6
CONTINUOUS
 62
     7
 66
     1
 10
0.0
 20
0.0
 30
0.0
 70
     1
  0
VERTEX
  5
BA7
  8
LAYER01
  6
CONTINUOUS
 62
     7
 10
4760.7278429999997
 20
-190.60277300000001
 30
0.0
  0
VERTEX
  5
BA8
  8
LAYER01
  6
CONTINUOUS
 62
     7
 10
4734.7138530000002
 20
-223.36113
 30
0.0
  0
VERTEX
  5
BA9
  8
LAYER01
  6
CONTINUOUS
 62
     7
 10
4734.7138530000002
 20
-223.36113
 30
0.0
  0
VERTEX
  5
BAA
  8
LAYER01
  6
CONTINUOUS
 62
     7
 10
4726.0425230000001
 20
-217.580243
 30
0.0
  0
VERTEX
  5
BAB
  8
LAYER01
  6
CONTINUOUS
 62
     7
 10
4717.3711940000003
 20
-212.76283799999999
 30
0.0
  0
VERTEX
  5
BAC
  8
LAYER01
  6
CONTINUOUS
 62
     7
 10
4707.7363829999986
 20
-209.87239500000001
 30
0.0
  0
VERTEX
  5
BAD
  8
LAYER01
  6
CONTINUOUS
 62
     7
 10
4697.1380909999998
 20
-209.87239500000001
 30
0.0
  0
VERTEX
  5
BAE
  8
LAYER01
  6
CONTINUOUS
 62
     7
 10
4697.1380909999998
 20
-209.87239500000001
 30
0.0
  0
VERTEX
  5
BAF
  8
LAYER01
  6
CONTINUOUS
 62
     7
 10
4690.3937229999983
 20
-209.87239500000001
 30
0.0
  0
VERTEX
  5
BB0
  8
LAYER01
  6
CONTINUOUS
 62
     7
 10
4683.6493559999999
 20
-210.83587600000001
 30
0.0
  0
VERTEX
  5
BB1
  8
LAYER01
  6
CONTINUOUS
 62
     7
 10
4676.9049880000002
 20
-212.76283799999999
 30
0.0
  0
VERTEX
  5
BB2
  8
LAYER01
  6
CONTINUOUS
 62
     7
 10
4670.1606199999997
 20
-215.65328099999999
 30
0.0
  0
VERTEX
  5
BB3
  8
LAYER01
  6
CONTINUOUS
 62
     7
 10
4664.3797339999992
 20
-218.543724
 30
0.0
  0
VERTEX
  5
BB4
  8
LAYER01
  6
CONTINUOUS
 62
     7
 10
4659.5623279999991
 20
-222.397649
 30
0.0
  0
VERTEX
  5
BB5
  8
LAYER01
  6
CONTINUOUS
 62
     7
 10
4653.7814420000004
 20
-226.25157300000001
 30
0.0
  0
VERTEX
  5
BB6
  8
LAYER01
  6
CONTINUOUS
 62
     7
 10
4649.9275170000001
 20
-231.06897900000001
 30
0.0
  0
VERTEX
  5
BB7
  8
LAYER01
  6
CONTINUOUS
 62
     7
 10
4645.1101120000003
 20
-236.84986499999999
 30
0.0
  0
VERTEX
  5
BB8
  8
LAYER01
  6
CONTINUOUS
 62
     7
 10
4642.2196690000001
 20
-242.630752
 30
0.0
  0
VERTEX
  5
BB9
  8
LAYER01
  6
CONTINUOUS
 62
     7
 10
4638.3657439999997
 20
-248.41163800000001
 30
0.0
  0
VERTEX
  5
BBA
  8
LAYER01
  6
CONTINUOUS
 62
     7
 10
4635.4753009999986
 20
-254.19252499999999
 30
0.0
  0
VERTEX
  5
BBB
  8
LAYER01
  6
CONTINUOUS
 62
     7
 10
4633.548338999999
 20
-260.936892
 30
0.0
  0
VERTEX
  5
BBC
  8
LAYER01
  6
CONTINUOUS
 62
     7
 10
4632.5848580000002
 20
-267.68126000000001
 30
0.0
  0
VERTEX
  5
BBD
  8
LAYER01
  6
CONTINUOUS
 62
     7
 10
4631.6213770000004
 20
-274.42562700000002
 30
0.0
  0
VERTEX
  5
BBE
  8
LAYER01
  6
CONTINUOUS
 62
     7
 10
4630.6578959999988
 20
-282.13347599999997
 30
0.0
  0
VERTEX
  5
BBF
  8
LAYER01
  6
CONTINUOUS
 62
     7
 10
4630.6578959999988
 20
-282.13347599999997
 30
0.0
  0
VERTEX
  5
BC0
  8
LAYER01
  6
CONTINUOUS
 62
     7
 10
4631.6213770000004
 20
-288.87784399999998
 30
0.0
  0
VERTEX
  5
BC1
  8
LAYER01
  6
CONTINUOUS
 62
     7
 10
4632.5848580000002
 20
-295.62221099999999
 30
0.0
  0
VERTEX
  5
BC2
  8
LAYER01
  6
CONTINUOUS
 62
     7
 10
4633.548338999999
 20
-302.366579
 30
0.0
  0
VERTEX
  5
BC3
  8
LAYER01
  6
CONTINUOUS
 62
     7
 10
4636.4387820000002
 20
-308.14746600000001
 30
0.0
  0
VERTEX
  5
BC4
  8
LAYER01
  6
CONTINUOUS
 62
     7
 10
4638.3657439999997
 20
-313.92835200000002
 30
0.0
  0
VERTEX
  5
BC5
  8
LAYER01
  6
CONTINUOUS
 62
     7
 10
4642.2196690000001
 20
-319.70923900000003
 30
0.0
  0
VERTEX
  5
BC6
  8
LAYER01
  6
CONTINUOUS
 62
     7
 10
4646.0735929999992
 20
-325.49012499999998
 30
0.0
  0
VERTEX
  5
BC7
  8
LAYER01
  6
CONTINUOUS
 62
     7
 10
4649.9275170000001
 20
-330.30753099999998
 30
0.0
  0
VERTEX
  5
BC8
  8
LAYER01
  6
CONTINUOUS
 62
     7
 10
4654.7449229999993
 20
-335.12493599999999
 30
0.0
  0
VERTEX
  5
BC9
  8
LAYER01
  6
CONTINUOUS
 62
     7
 10
4659.5623279999991
 20
-338.97886
 30
0.0
  0
VERTEX
  5
BCA
  8
LAYER01
  6
CONTINUOUS
 62
     7
 10
4665.3432149999999
 20
-341.869304
 30
0.0
  0
VERTEX
  5
BCB
  8
LAYER01
  6
CONTINUOUS
 62
     7
 10
4671.1241009999994
 20
-344.759747
 30
0.0
  0
VERTEX
  5
BCC
  8
LAYER01
  6
CONTINUOUS
 62
     7
 10
4677.8684689999991
 20
-347.65019000000001
 30
0.0
  0
VERTEX
  5
BCD
  8
LAYER01
  6
CONTINUOUS
 62
     7
 10
4683.6493559999999
 20
-349.57715200000001
 30
0.0
  0
VERTEX
  5
BCE
  8
LAYER01
  6
CONTINUOUS
 62
     7
 10
4690.3937229999983
 20
-350.54063300000001
 30
0.0
  0
VERTEX
  5
BCF
  8
LAYER01
  6
CONTINUOUS
 62
     7
 10
4698.1015719999987
 20
-350.54063300000001
 30
0.0
  0
VERTEX
  5
BD0
  8
LAYER01
  6
CONTINUOUS
 62
     7
 10
4698.1015719999987
 20
-350.54063300000001
 30
0.0
  0
VERTEX
  5
BD1
  8
LAYER01
  6
CONTINUOUS
 62
     7
 10
4708.6998640000002
 20
-349.57715200000001
 30
0.0
  0
VERTEX
  5
BD2
  8
LAYER01
  6
CONTINUOUS
 62
     7
 10
4717.3711940000003
 20
-347.65019000000001
 30
0.0
  0
VERTEX
  5
BD3
  8
LAYER01
  6
CONTINUOUS
 62
     7
 10
4726.0425230000001
 20
-342.832785
 30
0.0
  0
VERTEX
  5
BD4
  8
LAYER01
  6
CONTINUOUS
 62
     7
 10
4734.7138530000002
 20
-337.05189799999999
 30
0.0
  0
VERTEX
  5
BD5
  8
LAYER01
  6
CONTINUOUS
 62
     7
 10
4759.7643619999999
 20
-370.77373599999999
 30
0.0
  0
VERTEX
  5
BD6
  8
LAYER01
  6
CONTINUOUS
 62
     7
 10
4759.7643619999999
 20
-370.77373599999999
 30
0.0
  0
VERTEX
  5
BD7
  8
LAYER01
  6
CONTINUOUS
 62
     7
 10
4745.312144999999
 20
-379.445066
 30
0.0
  0
VERTEX
  5
BD8
  8
LAYER01
  6
CONTINUOUS
 62
     7
 10
4737.604296999999
 20
-382.335509
 30
0.0
  0
VERTEX
  5
BD9
  8
LAYER01
  6
CONTINUOUS
 62
     7
 10
4730.8599290000002
 20
-385.225953
 30
0.0
  0
VERTEX
  5
BDA
  8
LAYER01
  6
CONTINUOUS
 62
     7
 10
4723.1520799999998
 20
-387.15291500000001
 30
0.0
  0
VERTEX
  5
BDB
  8
LAYER01
  6
CONTINUOUS
 62
     7
 10
4715.4442310000013
 20
-388.11639600000001
 30
0.0
  0
VERTEX
  5
BDC
  8
LAYER01
  6
CONTINUOUS
 62
     7
 10
4698.1015719999987
 20
-389.07987700000001
 30
0.0
  0
VERTEX
  5
BDD
  8
LAYER01
  6
CONTINUOUS
 62
     7
 10
4698.1015719999987
 20
-389.07987700000001
 30
0.0
  0
VERTEX
  5
BDE
  8
LAYER01
  6
CONTINUOUS
 62
     7
 10
4686.539799000001
 20
-388.11639600000001
 30
0.0
  0
VERTEX
  5
BDF
  8
LAYER01
  6
CONTINUOUS
 62
     7
 10
4675.9415069999995
 20
-386.18943400000001
 30
0.0
  0
VERTEX
  5
BE0
  8
LAYER01
  6
CONTINUOUS
 62
     7
 10
4665.3432149999999
 20
-384.262472
 30
0.0
  0
VERTEX
  5
BE1
  8
LAYER01
  6
CONTINUOUS
 62
     7
 10
4655.708404
 20
-380.408547
 30
0.0
  0
VERTEX
  5
BE2
  8
LAYER01
  6
CONTINUOUS
 62
     7
 10
4646.0735929999992
 20
-375.59114199999999
 30
0.0
  0
VERTEX
  5
BE3
  8
LAYER01
  6
CONTINUOUS
 62
     7
 10
4637.4022629999999
 20
-370.77373599999999
 30
0.0
  0
VERTEX
  5
BE4
  8
LAYER01
  6
CONTINUOUS
 62
     7
 10
4628.7309340000002
 20
-364.02936899999997
 30
0.0
  0
VERTEX
  5
BE5
  8
LAYER01
  6
CONTINUOUS
 62
     7
 10
4621.0230849999998
 20
-357.28500100000002
 30
0.0
  0
VERTEX
  5
BE6
  8
LAYER01
  6
CONTINUOUS
 62
     7
 10
4613.3152360000004
 20
-349.57715200000001
 30
0.0
  0
VERTEX
  5
BE7
  8
LAYER01
  6
CONTINUOUS
 62
     7
 10
4607.5343499999999
 20
-340.905823
 30
0.0
  0
VERTEX
  5
BE8
  8
LAYER01
  6
CONTINUOUS
 62
     7
 10
4601.753463
 20
-332.23449299999999
 30
0.0
  0
VERTEX
  5
BE9
  8
LAYER01
  6
CONTINUOUS
 62
     7
 10
4596.9360579999993
 20
-322.59968199999997
 30
0.0
  0
VERTEX
  5
BEA
  8
LAYER01
  6
CONTINUOUS
 62
     7
 10
4594.0456139999987
 20
-312.96487100000002
 30
0.0
  0
VERTEX
  5
BEB
  8
LAYER01
  6
CONTINUOUS
 62
     7
 10
4591.1551710000003
 20
-302.366579
 30
0.0
  0
VERTEX
  5
BEC
  8
LAYER01
  6
CONTINUOUS
 62
     7
 10
4589.2282089999999
 20
-291.76828699999999
 30
0.0
  0
VERTEX
  5
BED
  8
LAYER01
  6
CONTINUOUS
 62
     7
 10
4588.2647280000001
 20
-280.20651400000003
 30
0.0
  0
VERTEX
  5
BEE
  8
LAYER01
  6
CONTINUOUS
 62
     7
 10
4588.2647280000001
 20
-280.20651400000003
 30
0.0
  0
VERTEX
  5
BEF
  8
LAYER01
  6
CONTINUOUS
 62
     7
 10
4589.2282089999999
 20
-269.60822200000001
 30
0.0
  0
VERTEX
  5
BF0
  8
LAYER01
  6
CONTINUOUS
 62
     7
 10
4591.1551710000003
 20
-258.046449
 30
0.0
  0
VERTEX
  5
BF1
  8
LAYER01
  6
CONTINUOUS
 62
     7
 10
4593.0821329999999
 20
-248.41163800000001
 30
0.0
  0
VERTEX
  5
BF2
  8
LAYER01
  6
CONTINUOUS
 62
     7
 10
4596.9360579999993
 20
-237.813346
 30
0.0
  0
VERTEX
  5
BF3
  8
LAYER01
  6
CONTINUOUS
 62
     7
 10
4601.753463
 20
-228.17853500000001
 30
0.0
  0
VERTEX
  5
BF4
  8
LAYER01
  6
CONTINUOUS
 62
     7
 10
4606.5708690000001
 20
-219.507205
 30
0.0
  0
VERTEX
  5
BF5
  8
LAYER01
  6
CONTINUOUS
 62
     7
 10
4613.3152360000004
 20
-210.83587600000001
 30
0.0
  0
VERTEX
  5
BF6
  8
LAYER01
  6
CONTINUOUS
 62
     7
 10
4620.059604
 20
-203.128027
 30
0.0
  0
VERTEX
  5
BF7
  8
LAYER01
  6
CONTINUOUS
 62
     7
 10
4627.7674519999991
 20
-196.38365899999999
 30
0.0
  0
VERTEX
  5
BF8
  8
LAYER01
  6
CONTINUOUS
 62
     7
 10
4636.4387820000002
 20
-189.63929200000001
 30
0.0
  0
VERTEX
  5
BF9
  8
LAYER01
  6
CONTINUOUS
 62
     7
 10
4645.1101120000003
 20
-184.82188600000001
 30
0.0
  0
VERTEX
  5
BFA
  8
LAYER01
  6
CONTINUOUS
 62
     7
 10
4654.7449229999993
 20
-180.004481
 30
0.0
  0
VERTEX
  5
BFB
  8
LAYER01
  6
CONTINUOUS
 62
     7
 10
4664.3797339999992
 20
-176.15055699999999
 30
0.0
  0
VERTEX
  5
BFC
  8
LAYER01
  6
CONTINUOUS
 62
     7
 10
4674.9780259999998
 20
-173.26011299999999
 30
0.0
  0
VERTEX
  5
BFD
  8
LAYER01
  6
CONTINUOUS
 62
     7
 10
4686.539799000001
 20
-172.29663199999999
 30
0.0
  0
VERTEX
  5
BFE
  8
LAYER01
  6
CONTINUOUS
 62
     7
 10
4697.1380909999998
 20
-171.33315099999999
 30
0.0
  0
VERTEX
  5
BFF
  8
LAYER01
  6
CONTINUOUS
 62
     7
 10
4697.1380909999998
 20
-171.33315099999999
 30
0.0
  0
VERTEX
  5
C00
  8
LAYER01
  6
CONTINUOUS
 62
     7
 10
4714.4807499999988
 20
-172.29663199999999
 30
0.0
  0
VERTEX
  5
C01
  8
LAYER01
  6
CONTINUOUS
 62
     7
 10
4723.1520799999998
 20
-173.26011299999999
 30
0.0
  0
VERTEX
  5
C02
  8
LAYER01
  6
CONTINUOUS
 62
     7
 10
4730.8599290000002
 20
-175.18707499999999
 30
0.0
  0
VERTEX
  5
C03
  8
LAYER01
  6
CONTINUOUS
 62
     7
 10
4737.604296999999
 20
-178.077519
 30
0.0
  0
VERTEX
  5
C04
  8
LAYER01
  6
CONTINUOUS
 62
     7
 10
4745.312144999999
 20
-180.967962
 30
0.0
  0
VERTEX
  5
C05
  8
LAYER01
  6
CONTINUOUS
 62
     7
 10
4753.0199939999993
 20
-185.78536700000001
 30
0.0
  0
VERTEX
  5
C06
  8
LAYER01
  6
CONTINUOUS
 62
     7
 10
4760.7278429999997
 20
-190.60277300000001
 30
0.0
  0
VERTEX
  5
C07
  8
LAYER01
  6
CONTINUOUS
 62
     7
 10
4760.7278429999997
 20
-190.60277300000001
 30
0.0
  0
SEQEND
  5
C08
  8
LAYER01
  6
CONTINUOUS
 62
     7
  0
POLYLINE
  5
22F
  8
LAYER01
  6
CONTINUOUS
 62
     7
 66
     1
 10
0.0
 20
0.0
 30
0.0
 70
     1
  0
VERTEX
  5
C09
  8
LAYER01
  6
CONTINUOUS
 62
     7
 10
4854.1855079999996
 20
-172.29663199999999
 30
0.0
  0
VERTEX
  5
C0A
  8
LAYER01
  6
CONTINUOUS
 62
     7
 10
4854.1855079999996
 20
-172.29663199999999
 30
0.0
  0
VERTEX
  5
C0B
  8
LAYER01
  6
CONTINUOUS
 62
     7
 10
4843.5872159999999
 20
-173.26011299999999
 30
0.0
  0
VERTEX
  5
C0C
  8
LAYER01
  6
CONTINUOUS
 62
     7
 10
4832.0254430000005
 20
-174.22359399999999
 30
0.0
  0
VERTEX
  5
C0D
  8
LAYER01
  6
CONTINUOUS
 62
     7
 10
4822.3906319999996
 20
-177.11403799999999
 30
0.0
  0
VERTEX
  5
C0E
  8
LAYER01
  6
CONTINUOUS
 62
     7
 10
4811.79234
 20
-180.967962
 30
0.0
  0
VERTEX
  5
C0F
  8
LAYER01
  6
CONTINUOUS
 62
     7
 10
4802.1575290000001
 20
-184.82188600000001
 30
0.0
  0
VERTEX
  5
C10
  8
LAYER01
  6
CONTINUOUS
 62
     7
 10
4793.4862000000003
 20
-190.60277300000001
 30
0.0
  0
VERTEX
  5
C11
  8
LAYER01
  6
CONTINUOUS
 62
     7
 10
4784.8148700000002
 20
-196.38365899999999
 30
0.0
  0
VERTEX
  5
C12
  8
LAYER01
  6
CONTINUOUS
 62
     7
 10
4777.1070209999989
 20
-204.091508
 30
0.0
  0
VERTEX
  5
C13
  8
LAYER01
  6
CONTINUOUS
 62
     7
 10
4770.3626530000001
 20
-211.79935699999999
 30
0.0
  0
VERTEX
  5
C14
  8
LAYER01
  6
CONTINUOUS
 62
     7
 10
4763.618285999999
 20
-219.507205
 30
0.0
  0
VERTEX
  5
C15
  8
LAYER01
  6
CONTINUOUS
 62
     7
 10
4757.837399
 20
-228.17853500000001
 30
0.0
  0
VERTEX
  5
C16
  8
LAYER01
  6
CONTINUOUS
 62
     7
 10
4753.0199939999993
 20
-237.813346
 30
0.0
  0
VERTEX
  5
C17
  8
LAYER01
  6
CONTINUOUS
 62
     7
 10
4750.1295509999991
 20
-248.41163800000001
 30
0.0
  0
VERTEX
  5
C18
  8
LAYER01
  6
CONTINUOUS
 62
     7
 10
4747.2391070000012
 20
-258.046449
 30
0.0
  0
VERTEX
  5
C19
  8
LAYER01
  6
CONTINUOUS
 62
     7
 10
4745.312144999999
 20
-269.60822200000001
 30
0.0
  0
VERTEX
  5
C1A
  8
LAYER01
  6
CONTINUOUS
 62
     7
 10
4744.3486640000001
 20
-280.20651400000003
 30
0.0
  0
VERTEX
  5
C1B
  8
LAYER01
  6
CONTINUOUS
 62
     7
 10
4744.3486640000001
 20
-280.20651400000003
 30
0.0
  0
VERTEX
  5
C1C
  8
LAYER01
  6
CONTINUOUS
 62
     7
 10
4745.312144999999
 20
-291.76828699999999
 30
0.0
  0
VERTEX
  5
C1D
  8
LAYER01
  6
CONTINUOUS
 62
     7
 10
4746.2756259999996
 20
-302.366579
 30
0.0
  0
VERTEX
  5
C1E
  8
LAYER01
  6
CONTINUOUS
 62
     7
 10
4749.1660700000002
 20
-312.96487100000002
 30
0.0
  0
VERTEX
  5
C1F
  8
LAYER01
  6
CONTINUOUS
 62
     7
 10
4753.0199939999993
 20
-322.59968199999997
 30
0.0
  0
VERTEX
  5
C20
  8
LAYER01
  6
CONTINUOUS
 62
     7
 10
4756.8739180000002
 20
-332.23449299999999
 30
0.0
  0
VERTEX
  5
C21
  8
LAYER01
  6
CONTINUOUS
 62
     7
 10
4762.6548050000001
 20
-340.905823
 30
0.0
  0
VERTEX
  5
C22
  8
LAYER01
  6
CONTINUOUS
 62
     7
 10
4768.4356909999988
 20
-349.57715200000001
 30
0.0
  0
VERTEX
  5
C23
  8
LAYER01
  6
CONTINUOUS
 62
     7
 10
4775.1800590000003
 20
-357.28500100000002
 30
0.0
  0
VERTEX
  5
C24
  8
LAYER01
  6
CONTINUOUS
 62
     7
 10
4782.8879079999997
 20
-364.99284999999998
 30
0.0
  0
VERTEX
  5
C25
  8
LAYER01
  6
CONTINUOUS
 62
     7
 10
4791.5592370000004
 20
-370.77373599999999
 30
0.0
  0
VERTEX
  5
C26
  8
LAYER01
  6
CONTINUOUS
 62
     7
 10
4800.2305669999996
 20
-376.55462299999999
 30
0.0
  0
VERTEX
  5
C27
  8
LAYER01
  6
CONTINUOUS
 62
     7
 10
4809.8653780000013
 20
-381.372028
 30
0.0
  0
VERTEX
  5
C28
  8
LAYER01
  6
CONTINUOUS
 62
     7
 10
4819.5001890000012
 20
-385.225953
 30
0.0
  0
VERTEX
  5
C29
  8
LAYER01
  6
CONTINUOUS
 62
     7
 10
4830.098481
 20
-387.15291500000001
 30
0.0
  0
VERTEX
  5
C2A
  8
LAYER01
  6
CONTINUOUS
 62
     7
 10
4840.6967729999997
 20
-389.07987700000001
 30
0.0
  0
VERTEX
  5
C2B
  8
LAYER01
  6
CONTINUOUS
 62
     7
 10
4851.2950650000002
 20
-390.04335800000001
 30
0.0
  0
VERTEX
  5
C2C
  8
LAYER01
  6
CONTINUOUS
 62
     7
 10
4851.2950650000002
 20
-390.04335800000001
 30
0.0
  0
VERTEX
  5
C2D
  8
LAYER01
  6
CONTINUOUS
 62
     7
 10
4862.8568379999997
 20
-389.07987700000001
 30
0.0
  0
VERTEX
  5
C2E
  8
LAYER01
  6
CONTINUOUS
 62
     7
 10
4873.4551299999994
 20
-387.15291500000001
 30
0.0
  0
VERTEX
  5
C2F
  8
LAYER01
  6
CONTINUOUS
 62
     7
 10
4884.053422
 20
-384.262472
 30
0.0
  0
VERTEX
  5
C30
  8
LAYER01
  6
CONTINUOUS
 62
     7
 10
4893.6882329999999
 20
-380.408547
 30
0.0
  0
VERTEX
  5
C31
  8
LAYER01
  6
CONTINUOUS
 62
     7
 10
4903.3230439999998
 20
-375.59114199999999
 30
0.0
  0
VERTEX
  5
C32
  8
LAYER01
  6
CONTINUOUS
 62
     7
 10
4911.9943729999986
 20
-369.81025499999998
 30
0.0
  0
VERTEX
  5
C33
  8
LAYER01
  6
CONTINUOUS
 62
     7
 10
4920.6657029999997
 20
-364.02936899999997
 30
0.0
  0
VERTEX
  5
C34
  8
LAYER01
  6
CONTINUOUS
 62
     7
 10
4928.373552
 20
-356.32152000000002
 30
0.0
  0
VERTEX
  5
C35
  8
LAYER01
  6
CONTINUOUS
 62
     7
 10
4935.1179199999997
 20
-348.61367100000001
 30
0.0
  0
VERTEX
  5
C36
  8
LAYER01
  6
CONTINUOUS
 62
     7
 10
4940.8988060000001
 20
-339.942341
 30
0.0
  0
VERTEX
  5
C37
  8
LAYER01
  6
CONTINUOUS
 62
     7
 10
4945.7162119999994
 20
-331.27101199999998
 30
0.0
  0
VERTEX
  5
C38
  8
LAYER01
  6
CONTINUOUS
 62
     7
 10
4950.533617
 20
-321.63620100000003
 30
0.0
  0
VERTEX
  5
C39
  8
LAYER01
  6
CONTINUOUS
 62
     7
 10
4954.3875410000001
 20
-311.03790900000001
 30
0.0
  0
VERTEX
  5
C3A
  8
LAYER01
  6
CONTINUOUS
 62
     7
 10
4956.3145039999999
 20
-300.439617
 30
0.0
  0
VERTEX
  5
C3B
  8
LAYER01
  6
CONTINUOUS
 62
     7
 10
4957.2779849999997
 20
-289.84132499999998
 30
0.0
  0
VERTEX
  5
C3C
  8
LAYER01
  6
CONTINUOUS
 62
     7
 10
4958.2414660000004
 20
-278.27955200000002
 30
0.0
  0
VERTEX
  5
C3D
  8
LAYER01
  6
CONTINUOUS
 62
     7
 10
4958.2414660000004
 20
-278.27955200000002
 30
0.0
  0
VERTEX
  5
C3E
  8
LAYER01
  6
CONTINUOUS
 62
     7
 10
4957.2779849999997
 20
-267.68126000000001
 30
0.0
  0
VERTEX
  5
C3F
  8
LAYER01
  6
CONTINUOUS
 62
     7
 10
4955.3510219999998
 20
-257.08296799999999
 30
0.0
  0
VERTEX
  5
C40
  8
LAYER01
  6
CONTINUOUS
 62
     7
 10
4952.4605789999996
 20
-247.44815700000001
 30
0.0
  0
VERTEX
  5
C41
  8
LAYER01
  6
CONTINUOUS
 62
     7
 10
4949.5701360000012
 20
-237.813346
 30
0.0
  0
VERTEX
  5
C42
  8
LAYER01
  6
CONTINUOUS
 62
     7
 10
4944.7527300000011
 20
-229.14201600000001
 30
0.0
  0
VERTEX
  5
C43
  8
LAYER01
  6
CONTINUOUS
 62
     7
 10
4939.9353250000004
 20
-220.470687
 30
0.0
  0
VERTEX
  5
C44
  8
LAYER01
  6
CONTINUOUS
 62
     7
 10
4934.1544380000014
 20
-211.79935699999999
 30
0.0
  0
VERTEX
  5
C45
  8
LAYER01
  6
CONTINUOUS
 62
     7
 10
4927.4100710000002
 20
-205.05498900000001
 30
0.0
  0
VERTEX
  5
C46
  8
LAYER01
  6
CONTINUOUS
 62
     7
 10
4919.7022219999999
 20
-198.310622
 30
0.0
  0
VERTEX
  5
C47
  8
LAYER01
  6
CONTINUOUS
 62
     7
 10
4911.9943729999986
 20
-191.56625399999999
 30
0.0
  0
VERTEX
  5
C48
  8
LAYER01
  6
CONTINUOUS
 62
     7
 10
4903.3230439999998
 20
-186.74884800000001
 30
0.0
  0
VERTEX
  5
C49
  8
LAYER01
  6
CONTINUOUS
 62
     7
 10
4894.6517139999996
 20
-181.931443
 30
0.0
  0
VERTEX
  5
C4A
  8
LAYER01
  6
CONTINUOUS
 62
     7
 10
4885.0169029999997
 20
-178.077519
 30
0.0
  0
VERTEX
  5
C4B
  8
LAYER01
  6
CONTINUOUS
 62
     7
 10
4875.3820919999998
 20
-175.18707499999999
 30
0.0
  0
VERTEX
  5
C4C
  8
LAYER01
  6
CONTINUOUS
 62
     7
 10
4864.7838000000002
 20
-173.26011299999999
 30
0.0
  0
VERTEX
  5
C4D
  8
LAYER01
  6
CONTINUOUS
 62
     7
 10
4854.1855079999996
 20
-172.29663199999999
 30
0.0
  0
VERTEX
  5
C4E
  8
LAYER01
  6
CONTINUOUS
 62
     7
 10
4854.1855079999996
 20
-172.29663199999999
 30
0.0
  0
SEQEND
  5
C4F
  8
LAYER01
  6
CONTINUOUS
 62
     7
  0
POLYLINE
  5
277
  8
LAYER01
  6
CONTINUOUS
 62
     7
 66
     1
 10
0.0
 20
0.0
 30
0.0
 70
     1
  0
VERTEX
  5
C50
  8
LAYER01
  6
CONTINUOUS
 62
     7
 10
4851.2950650000002
 20
-350.54063300000001
 30
0.0
  0
VERTEX
  5
C51
  8
LAYER01
  6
CONTINUOUS
 62
     7
 10
4851.2950650000002
 20
-350.54063300000001
 30
0.0
  0
VERTEX
  5
C52
  8
LAYER01
  6
CONTINUOUS
 62
     7
 10
4844.5506969999988
 20
-349.57715200000001
 30
0.0
  0
VERTEX
  5
C53
  8
LAYER01
  6
CONTINUOUS
 62
     7
 10
4837.8063299999994
 20
-348.61367100000001
 30
0.0
  0
VERTEX
  5
C54
  8
LAYER01
  6
CONTINUOUS
 62
     7
 10
4831.0619619999989
 20
-347.65019000000001
 30
0.0
  0
VERTEX
  5
C55
  8
LAYER01
  6
CONTINUOUS
 62
     7
 10
4824.3175940000001
 20
-344.759747
 30
0.0
  0
VERTEX
  5
C56
  8
LAYER01
  6
CONTINUOUS
 62
     7
 10
4818.5367079999987
 20
-341.869304
 30
0.0
  0
VERTEX
  5
C57
  8
LAYER01
  6
CONTINUOUS
 62
     7
 10
4812.7558209999988
 20
-338.015379
 30
0.0
  0
VERTEX
  5
C58
  8
LAYER01
  6
CONTINUOUS
 62
     7
 10
4807.938416
 20
-334.16145499999999
 30
0.0
  0
VERTEX
  5
C59
  8
LAYER01
  6
CONTINUOUS
 62
     7
 10
4803.1210099999998
 20
-329.34404999999998
 30
0.0
  0
VERTEX
  5
C5A
  8
LAYER01
  6
CONTINUOUS
 62
     7
 10
4798.3036050000001
 20
-324.52664399999998
 30
0.0
  0
VERTEX
  5
C5B
  8
LAYER01
  6
CONTINUOUS
 62
     7
 10
4794.4496810000001
 20
-319.70923900000003
 30
0.0
  0
VERTEX
  5
C5C
  8
LAYER01
  6
CONTINUOUS
 62
     7
 10
4791.5592370000004
 20
-313.92835200000002
 30
0.0
  0
VERTEX
  5
C5D
  8
LAYER01
  6
CONTINUOUS
 62
     7
 10
4788.6687940000002
 20
-307.18398400000001
 30
0.0
  0
VERTEX
  5
C5E
  8
LAYER01
  6
CONTINUOUS
 62
     7
 10
4785.7783509999999
 20
-301.403098
 30
0.0
  0
VERTEX
  5
C5F
  8
LAYER01
  6
CONTINUOUS
 62
     7
 10
4784.8148700000002
 20
-294.65872999999999
 30
0.0
  0
VERTEX
  5
C60
  8
LAYER01
  6
CONTINUOUS
 62
     7
 10
4782.8879079999997
 20
-287.91436299999998
 30
0.0
  0
VERTEX
  5
C61
  8
LAYER01
  6
CONTINUOUS
 62
     7
 10
4782.8879079999997
 20
-280.20651400000003
 30
0.0
  0
VERTEX
  5
C62
  8
LAYER01
  6
CONTINUOUS
 62
     7
 10
4782.8879079999997
 20
-280.20651400000003
 30
0.0
  0
VERTEX
  5
C63
  8
LAYER01
  6
CONTINUOUS
 62
     7
 10
4783.8513890000004
 20
-273.46214600000002
 30
0.0
  0
VERTEX
  5
C64
  8
LAYER01
  6
CONTINUOUS
 62
     7
 10
4784.8148700000002
 20
-266.71777900000001
 30
0.0
  0
VERTEX
  5
C65
  8
LAYER01
  6
CONTINUOUS
 62
     7
 10
4786.7418319999988
 20
-259.973411
 30
0.0
  0
VERTEX
  5
C66
  8
LAYER01
  6
CONTINUOUS
 62
     7
 10
4788.6687940000002
 20
-253.22904399999999
 30
0.0
  0
VERTEX
  5
C67
  8
LAYER01
  6
CONTINUOUS
 62
     7
 10
4791.5592370000004
 20
-247.44815700000001
 30
0.0
  0
VERTEX
  5
C68
  8
LAYER01
  6
CONTINUOUS
 62
     7
 10
4795.4131619999998
 20
-241.66727
 30
0.0
  0
VERTEX
  5
C69
  8
LAYER01
  6
CONTINUOUS
 62
     7
 10
4799.2670859999989
 20
-236.84986499999999
 30
0.0
  0
VERTEX
  5
C6A
  8
LAYER01
  6
CONTINUOUS
 62
     7
 10
4804.084492
 20
-232.03245999999999
 30
0.0
  0
VERTEX
  5
C6B
  8
LAYER01
  6
CONTINUOUS
 62
     7
 10
4808.9018969999997
 20
-227.21505400000001
 30
0.0
  0
VERTEX
  5
C6C
  8
LAYER01
  6
CONTINUOUS
 62
     7
 10
4813.7193020000004
 20
-223.36113
 30
0.0
  0
VERTEX
  5
C6D
  8
LAYER01
  6
CONTINUOUS
 62
     7
 10
4819.5001890000012
 20
-219.507205
 30
0.0
  0
VERTEX
  5
C6E
  8
LAYER01
  6
CONTINUOUS
 62
     7
 10
4826.244557
 20
-216.61676199999999
 30
0.0
  0
VERTEX
  5
C6F
  8
LAYER01
  6
CONTINUOUS
 62
     7
 10
4832.0254430000005
 20
-214.68979999999999
 30
0.0
  0
VERTEX
  5
C70
  8
LAYER01
  6
CONTINUOUS
 62
     7
 10
4838.7698110000001
 20
-212.76283799999999
 30
0.0
  0
VERTEX
  5
C71
  8
LAYER01
  6
CONTINUOUS
 62
     7
 10
4845.5141780000013
 20
-211.79935699999999
 30
0.0
  0
VERTEX
  5
C72
  8
LAYER01
  6
CONTINUOUS
 62
     7
 10
4853.2220270000007
 20
-211.79935699999999
 30
0.0
  0
VERTEX
  5
C73
  8
LAYER01
  6
CONTINUOUS
 62
     7
 10
4853.2220270000007
 20
-211.79935699999999
 30
0.0
  0
VERTEX
  5
C74
  8
LAYER01
  6
CONTINUOUS
 62
     7
 10
4859.9663950000004
 20
-212.76283799999999
 30
0.0
  0
VERTEX
  5
C75
  8
LAYER01
  6
CONTINUOUS
 62
     7
 10
4866.7107619999997
 20
-213.72631899999999
 30
0.0
  0
VERTEX
  5
C76
  8
LAYER01
  6
CONTINUOUS
 62
     7
 10
4872.4916489999996
 20
-215.65328099999999
 30
0.0
  0
VERTEX
  5
C77
  8
LAYER01
  6
CONTINUOUS
 62
     7
 10
4879.2360159999998
 20
-217.580243
 30
0.0
  0
VERTEX
  5
C78
  8
LAYER01
  6
CONTINUOUS
 62
     7
 10
4884.053422
 20
-220.470687
 30
0.0
  0
VERTEX
  5
C79
  8
LAYER01
  6
CONTINUOUS
 62
     7
 10
4889.8343080000004
 20
-224.324611
 30
0.0
  0
VERTEX
  5
C7A
  8
LAYER01
  6
CONTINUOUS
 62
     7
 10
4894.6517139999996
 20
-228.17853500000001
 30
0.0
  0
VERTEX
  5
C7B
  8
LAYER01
  6
CONTINUOUS
 62
     7
 10
4899.4691189999994
 20
-232.03245999999999
 30
0.0
  0
VERTEX
  5
C7C
  8
LAYER01
  6
CONTINUOUS
 62
     7
 10
4903.3230439999998
 20
-236.84986499999999
 30
0.0
  0
VERTEX
  5
C7D
  8
LAYER01
  6
CONTINUOUS
 62
     7
 10
4907.1769679999989
 20
-242.630752
 30
0.0
  0
VERTEX
  5
C7E
  8
LAYER01
  6
CONTINUOUS
 62
     7
 10
4911.0308919999998
 20
-247.44815700000001
 30
0.0
  0
VERTEX
  5
C7F
  8
LAYER01
  6
CONTINUOUS
 62
     7
 10
4913.9213360000012
 20
-253.22904399999999
 30
0.0
  0
VERTEX
  5
C80
  8
LAYER01
  6
CONTINUOUS
 62
     7
 10
4915.8482979999999
 20
-259.973411
 30
0.0
  0
VERTEX
  5
C81
  8
LAYER01
  6
CONTINUOUS
 62
     7
 10
4917.7752600000003
 20
-265.75429800000001
 30
0.0
  0
VERTEX
  5
C82
  8
LAYER01
  6
CONTINUOUS
 62
     7
 10
4918.7387409999992
 20
-272.49866500000002
 30
0.0
  0
VERTEX
  5
C83
  8
LAYER01
  6
CONTINUOUS
 62
     7
 10
4918.7387409999992
 20
-279.24303300000003
 30
0.0
  0
VERTEX
  5
C84
  8
LAYER01
  6
CONTINUOUS
 62
     7
 10
4918.7387409999992
 20
-279.24303300000003
 30
0.0
  0
VERTEX
  5
C85
  8
LAYER01
  6
CONTINUOUS
 62
     7
 10
4918.7387409999992
 20
-286.95088199999998
 30
0.0
  0
VERTEX
  5
C86
  8
LAYER01
  6
CONTINUOUS
 62
     7
 10
4917.7752600000003
 20
-293.69524899999999
 30
0.0
  0
VERTEX
  5
C87
  8
LAYER01
  6
CONTINUOUS
 62
     7
 10
4916.8117789999988
 20
-300.439617
 30
0.0
  0
VERTEX
  5
C88
  8
LAYER01
  6
CONTINUOUS
 62
     7
 10
4913.9213360000012
 20
-306.22050300000001
 30
0.0
  0
VERTEX
  5
C89
  8
LAYER01
  6
CONTINUOUS
 62
     7
 10
4911.9943729999986
 20
-312.96487100000002
 30
0.0
  0
VERTEX
  5
C8A
  8
LAYER01
  6
CONTINUOUS
 62
     7
 10
4908.1404490000014
 20
-318.74575800000002
 30
0.0
  0
VERTEX
  5
C8B
  8
LAYER01
  6
CONTINUOUS
 62
     7
 10
4904.2865250000004
 20
-324.52664399999998
 30
0.0
  0
VERTEX
  5
C8C
  8
LAYER01
  6
CONTINUOUS
 62
     7
 10
4899.4691189999994
 20
-329.34404999999998
 30
0.0
  0
VERTEX
  5
C8D
  8
LAYER01
  6
CONTINUOUS
 62
     7
 10
4894.6517139999996
 20
-334.16145499999999
 30
0.0
  0
VERTEX
  5
C8E
  8
LAYER01
  6
CONTINUOUS
 62
     7
 10
4889.8343080000004
 20
-338.015379
 30
0.0
  0
VERTEX
  5
C8F
  8
LAYER01
  6
CONTINUOUS
 62
     7
 10
4884.053422
 20
-341.869304
 30
0.0
  0
VERTEX
  5
C90
  8
LAYER01
  6
CONTINUOUS
 62
     7
 10
4878.2725350000001
 20
-344.759747
 30
0.0
  0
VERTEX
  5
C91
  8
LAYER01
  6
CONTINUOUS
 62
     7
 10
4871.5281679999998
 20
-346.68670900000001
 30
0.0
  0
VERTEX
  5
C92
  8
LAYER01
  6
CONTINUOUS
 62
     7
 10
4864.7838000000002
 20
-348.61367100000001
 30
0.0
  0
VERTEX
  5
C93
  8
LAYER01
  6
CONTINUOUS
 62
     7
 10
4858.0394329999999
 20
-349.57715200000001
 30
0.0
  0
VERTEX
  5
C94
  8
LAYER01
  6
CONTINUOUS
 62
     7
 10
4851.2950650000002
 20
-350.54063300000001
 30
0.0
  0
VERTEX
  5
C95
  8
LAYER01
  6
CONTINUOUS
 62
     7
 10
4851.2950650000002
 20
-350.54063300000001
 30
0.0
  0
SEQEND
  5
C96
  8
LAYER01
  6
CONTINUOUS
 62
     7
  0
POLYLINE
  5
2BF
  8
LAYER01
  6
CONTINUOUS
 62
     7
 66
     1
 10
0.0
 20
0.0
 30
0.0
 70
     1
  0
VERTEX
  5
C97
  8
LAYER01
  6
CONTINUOUS
 62
     7
 10
4928.373552
 20
-177.11403799999999
 30
0.0
  0
VERTEX
  5
C98
  8
LAYER01
  6
CONTINUOUS
 62
     7
 10
5030.502547000001
 20
-177.11403799999999
 30
0.0
  0
VERTEX
  5
C99
  8
LAYER01
  6
CONTINUOUS
 62
     7
 10
5030.502547000001
 20
-177.11403799999999
 30
0.0
  0
VERTEX
  5
C9A
  8
LAYER01
  6
CONTINUOUS
 62
     7
 10
5042.0643200000013
 20
-179.041
 30
0.0
  0
VERTEX
  5
C9B
  8
LAYER01
  6
CONTINUOUS
 62
     7
 10
5052.6626120000001
 20
-183.858405
 30
0.0
  0
VERTEX
  5
C9C
  8
LAYER01
  6
CONTINUOUS
 62
     7
 10
5061.3339420000002
 20
-189.63929200000001
 30
0.0
  0
VERTEX
  5
C9D
  8
LAYER01
  6
CONTINUOUS
 62
     7
 10
5069.0417909999996
 20
-197.34714
 30
0.0
  0
VERTEX
  5
C9E
  8
LAYER01
  6
CONTINUOUS
 62
     7
 10
5075.786157999999
 20
-205.05498900000001
 30
0.0
  0
VERTEX
  5
C9F
  8
LAYER01
  6
CONTINUOUS
 62
     7
 10
5080.603564
 20
-214.68979999999999
 30
0.0
  0
VERTEX
  5
CA0
  8
LAYER01
  6
CONTINUOUS
 62
     7
 10
5083.4940070000002
 20
-226.25157300000001
 30
0.0
  0
VERTEX
  5
CA1
  8
LAYER01
  6
CONTINUOUS
 62
     7
 10
5084.457488
 20
-236.84986499999999
 30
0.0
  0
VERTEX
  5
CA2
  8
LAYER01
  6
CONTINUOUS
 62
     7
 10
5084.457488
 20
-236.84986499999999
 30
0.0
  0
VERTEX
  5
CA3
  8
LAYER01
  6
CONTINUOUS
 62
     7
 10
5083.4940070000002
 20
-248.41163800000001
 30
0.0
  0
VERTEX
  5
CA4
  8
LAYER01
  6
CONTINUOUS
 62
     7
 10
5081.5670449999998
 20
-258.046449
 30
0.0
  0
VERTEX
  5
CA5
  8
LAYER01
  6
CONTINUOUS
 62
     7
 10
5077.7131209999998
 20
-267.68126000000001
 30
0.0
  0
VERTEX
  5
CA6
  8
LAYER01
  6
CONTINUOUS
 62
     7
 10
5072.8957149999997
 20
-276.35259000000002
 30
0.0
  0
VERTEX
  5
CA7
  8
LAYER01
  6
CONTINUOUS
 62
     7
 10
5066.1513479999994
 20
-284.06043799999998
 30
0.0
  0
VERTEX
  5
CA8
  8
LAYER01
  6
CONTINUOUS
 62
     7
 10
5059.4069799999997
 20
-289.84132499999998
 30
0.0
  0
VERTEX
  5
CA9
  8
LAYER01
  6
CONTINUOUS
 62
     7
 10
5049.7721689999998
 20
-295.62221099999999
 30
0.0
  0
VERTEX
  5
CAA
  8
LAYER01
  6
CONTINUOUS
 62
     7
 10
5040.137357999999
 20
-299.476136
 30
0.0
  0
VERTEX
  5
CAB
  8
LAYER01
  6
CONTINUOUS
 62
     7
 10
5102.763629
 20
-383.29899
 30
0.0
  0
VERTEX
  5
CAC
  8
LAYER01
  6
CONTINUOUS
 62
     7
 10
5054.5895740000014
 20
-383.29899
 30
0.0
  0
VERTEX
  5
CAD
  8
LAYER01
  6
CONTINUOUS
 62
     7
 10
4970.7667199999996
 20
-276.35259000000002
 30
0.0
  0
VERTEX
  5
CAE
  8
LAYER01
  6
CONTINUOUS
 62
     7
 10
5017.9772929999999
 20
-276.35259000000002
 30
0.0
  0
VERTEX
  5
CAF
  8
LAYER01
  6
CONTINUOUS
 62
     7
 10
5017.9772929999999
 20
-276.35259000000002
 30
0.0
  0
VERTEX
  5
CB0
  8
LAYER01
  6
CONTINUOUS
 62
     7
 10
5023.7581799999998
 20
-274.42562700000002
 30
0.0
  0
VERTEX
  5
CB1
  8
LAYER01
  6
CONTINUOUS
 62
     7
 10
5028.5755850000014
 20
-272.49866500000002
 30
0.0
  0
VERTEX
  5
CB2
  8
LAYER01
  6
CONTINUOUS
 62
     7
 10
5032.4295089999996
 20
-268.64474100000001
 30
0.0
  0
VERTEX
  5
CB3
  8
LAYER01
  6
CONTINUOUS
 62
     7
 10
5036.2834339999999
 20
-264.790817
 30
0.0
  0
VERTEX
  5
CB4
  8
LAYER01
  6
CONTINUOUS
 62
     7
 10
5039.1738770000002
 20
-259.973411
 30
0.0
  0
VERTEX
  5
CB5
  8
LAYER01
  6
CONTINUOUS
 62
     7
 10
5042.0643200000013
 20
-255.15600599999999
 30
0.0
  0
VERTEX
  5
CB6
  8
LAYER01
  6
CONTINUOUS
 62
     7
 10
5043.0278010000002
 20
-249.37511900000001
 30
0.0
  0
VERTEX
  5
CB7
  8
LAYER01
  6
CONTINUOUS
 62
     7
 10
5043.0278010000002
 20
-243.594233
 30
0.0
  0
VERTEX
  5
CB8
  8
LAYER01
  6
CONTINUOUS
 62
     7
 10
5043.0278010000002
 20
-243.594233
 30
0.0
  0
VERTEX
  5
CB9
  8
LAYER01
  6
CONTINUOUS
 62
     7
 10
5043.0278010000002
 20
-237.813346
 30
0.0
  0
VERTEX
  5
CBA
  8
LAYER01
  6
CONTINUOUS
 62
     7
 10
5041.1008389999997
 20
-232.99594099999999
 30
0.0
  0
VERTEX
  5
CBB
  8
LAYER01
  6
CONTINUOUS
 62
     7
 10
5039.1738770000002
 20
-228.17853500000001
 30
0.0
  0
VERTEX
  5
CBC
  8
LAYER01
  6
CONTINUOUS
 62
     7
 10
5036.2834339999999
 20
-223.36113
 30
0.0
  0
VERTEX
  5
CBD
  8
LAYER01
  6
CONTINUOUS
 62
     7
 10
5032.4295089999996
 20
-219.507205
 30
0.0
  0
VERTEX
  5
CBE
  8
LAYER01
  6
CONTINUOUS
 62
     7
 10
5028.5755850000014
 20
-216.61676199999999
 30
0.0
  0
VERTEX
  5
CBF
  8
LAYER01
  6
CONTINUOUS
 62
     7
 10
5022.794699
 20
-213.72631899999999
 30
0.0
  0
VERTEX
  5
CC0
  8
LAYER01
  6
CONTINUOUS
 62
     7
 10
5017.9772929999999
 20
-211.79935699999999
 30
0.0
  0
VERTEX
  5
CC1
  8
LAYER01
  6
CONTINUOUS
 62
     7
 10
4963.0588710000011
 20
-211.79935699999999
 30
0.0
  0
VERTEX
  5
CC2
  8
LAYER01
  6
CONTINUOUS
 62
     7
 10
4928.373552
 20
-177.11403799999999
 30
0.0
  0
VERTEX
  5
CC3
  8
LAYER01
  6
CONTINUOUS
 62
     7
 10
4928.373552
 20
-177.11403799999999
 30
0.0
  0
SEQEND
  5
CC4
  8
LAYER01
  6
CONTINUOUS
 62
     7
  0
POLYLINE
  5
2EE
  8
LAYER01
  6
CONTINUOUS
 62
     7
 66
     1
 10
0.0
 20
0.0
 30
0.0
 70
     1
  0
VERTEX
  5
CC5
  8
LAYER01
  6
CONTINUOUS
 62
     7
 10
5128.7776180000001
 20
-228.17853500000001
 30
0.0
  0
VERTEX
  5
CC6
  8
LAYER01
  6
CONTINUOUS
 62
     7
 10
5128.7776180000001
 20
-228.17853500000001
 30
0.0
  0
VERTEX
  5
CC7
  8
LAYER01
  6
CONTINUOUS
 62
     7
 10
5133.5950240000002
 20
-227.21505400000001
 30
0.0
  0
VERTEX
  5
CC8
  8
LAYER01
  6
CONTINUOUS
 62
     7
 10
5138.412429
 20
-226.25157300000001
 30
0.0
  0
VERTEX
  5
CC9
  8
LAYER01
  6
CONTINUOUS
 62
     7
 10
5143.2298350000001
 20
-223.36113
 30
0.0
  0
VERTEX
  5
CCA
  8
LAYER01
  6
CONTINUOUS
 62
     7
 10
5147.0837590000001
 20
-220.470687
 30
0.0
  0
VERTEX
  5
CCB
  8
LAYER01
  6
CONTINUOUS
 62
     7
 10
5149.9742020000012
 20
-216.61676199999999
 30
0.0
  0
VERTEX
  5
CCC
  8
LAYER01
  6
CONTINUOUS
 62
     7
 10
5151.9011639999999
 20
-212.76283799999999
 30
0.0
  0
VERTEX
  5
CCD
  8
LAYER01
  6
CONTINUOUS
 62
     7
 10
5153.8281269999998
 20
-207.94543200000001
 30
0.0
  0
VERTEX
  5
CCE
  8
LAYER01
  6
CONTINUOUS
 62
     7
 10
5153.8281269999998
 20
-202.164546
 30
0.0
  0
VERTEX
  5
CCF
  8
LAYER01
  6
CONTINUOUS
 62
     7
 10
5153.8281269999998
 20
-202.164546
 30
0.0
  0
VERTEX
  5
CD0
  8
LAYER01
  6
CONTINUOUS
 62
     7
 10
5153.8281269999998
 20
-197.34714
 30
0.0
  0
VERTEX
  5
CD1
  8
LAYER01
  6
CONTINUOUS
 62
     7
 10
5151.9011639999999
 20
-192.52973499999999
 30
0.0
  0
VERTEX
  5
CD2
  8
LAYER01
  6
CONTINUOUS
 62
     7
 10
5149.9742020000012
 20
-188.67581100000001
 30
0.0
  0
VERTEX
  5
CD3
  8
LAYER01
  6
CONTINUOUS
 62
     7
 10
5147.0837590000001
 20
-184.82188600000001
 30
0.0
  0
VERTEX
  5
CD4
  8
LAYER01
  6
CONTINUOUS
 62
     7
 10
5143.2298350000001
 20
-181.931443
 30
0.0
  0
VERTEX
  5
CD5
  8
LAYER01
  6
CONTINUOUS
 62
     7
 10
5138.412429
 20
-179.041
 30
0.0
  0
VERTEX
  5
CD6
  8
LAYER01
  6
CONTINUOUS
 62
     7
 10
5133.5950240000002
 20
-178.077519
 30
0.0
  0
VERTEX
  5
CD7
  8
LAYER01
  6
CONTINUOUS
 62
     7
 10
5128.7776180000001
 20
-177.11403799999999
 30
0.0
  0
VERTEX
  5
CD8
  8
LAYER01
  6
CONTINUOUS
 62
     7
 10
5128.7776180000001
 20
-177.11403799999999
 30
0.0
  0
VERTEX
  5
CD9
  8
LAYER01
  6
CONTINUOUS
 62
     7
 10
5123.9602130000003
 20
-178.077519
 30
0.0
  0
VERTEX
  5
CDA
  8
LAYER01
  6
CONTINUOUS
 62
     7
 10
5119.1428070000002
 20
-179.041
 30
0.0
  0
VERTEX
  5
CDB
  8
LAYER01
  6
CONTINUOUS
 62
     7
 10
5114.3254020000013
 20
-181.931443
 30
0.0
  0
VERTEX
  5
CDC
  8
LAYER01
  6
CONTINUOUS
 62
     7
 10
5110.4714780000004
 20
-184.82188600000001
 30
0.0
  0
VERTEX
  5
CDD
  8
LAYER01
  6
CONTINUOUS
 62
     7
 10
5107.5810340000007
 20
-188.67581100000001
 30
0.0
  0
VERTEX
  5
CDE
  8
LAYER01
  6
CONTINUOUS
 62
     7
 10
5105.6540720000003
 20
-192.52973499999999
 30
0.0
  0
VERTEX
  5
CDF
  8
LAYER01
  6
CONTINUOUS
 62
     7
 10
5103.7271099999998
 20
-197.34714
 30
0.0
  0
VERTEX
  5
CE0
  8
LAYER01
  6
CONTINUOUS
 62
     7
 10
5103.7271099999998
 20
-202.164546
 30
0.0
  0
VERTEX
  5
CE1
  8
LAYER01
  6
CONTINUOUS
 62
     7
 10
5103.7271099999998
 20
-202.164546
 30
0.0
  0
VERTEX
  5
CE2
  8
LAYER01
  6
CONTINUOUS
 62
     7
 10
5103.7271099999998
 20
-207.94543200000001
 30
0.0
  0
VERTEX
  5
CE3
  8
LAYER01
  6
CONTINUOUS
 62
     7
 10
5105.6540720000003
 20
-212.76283799999999
 30
0.0
  0
VERTEX
  5
CE4
  8
LAYER01
  6
CONTINUOUS
 62
     7
 10
5107.5810340000007
 20
-216.61676199999999
 30
0.0
  0
VERTEX
  5
CE5
  8
LAYER01
  6
CONTINUOUS
 62
     7
 10
5110.4714780000004
 20
-220.470687
 30
0.0
  0
VERTEX
  5
CE6
  8
LAYER01
  6
CONTINUOUS
 62
     7
 10
5114.3254020000013
 20
-223.36113
 30
0.0
  0
VERTEX
  5
CE7
  8
LAYER01
  6
CONTINUOUS
 62
     7
 10
5119.1428070000002
 20
-226.25157300000001
 30
0.0
  0
VERTEX
  5
CE8
  8
LAYER01
  6
CONTINUOUS
 62
     7
 10
5123.9602130000003
 20
-227.21505400000001
 30
0.0
  0
VERTEX
  5
CE9
  8
LAYER01
  6
CONTINUOUS
 62
     7
 10
5128.7776180000001
 20
-228.17853500000001
 30
0.0
  0
VERTEX
  5
CEA
  8
LAYER01
  6
CONTINUOUS
 62
     7
 10
5128.7776180000001
 20
-228.17853500000001
 30
0.0
  0
SEQEND
  5
CEB
  8
LAYER01
  6
CONTINUOUS
 62
     7
  0
POLYLINE
  5
316
  8
LAYER01
  6
CONTINUOUS
 62
     7
 66
     1
 10
0.0
 20
0.0
 30
0.0
 70
     1
  0
VERTEX
  5
CEC
  8
LAYER01
  6
CONTINUOUS
 62
     7
 10
5128.7776180000001
 20
-180.967962
 30
0.0
  0
VERTEX
  5
CED
  8
LAYER01
  6
CONTINUOUS
 62
     7
 10
5128.7776180000001
 20
-180.967962
 30
0.0
  0
VERTEX
  5
CEE
  8
LAYER01
  6
CONTINUOUS
 62
     7
 10
5132.6315430000013
 20
-181.931443
 30
0.0
  0
VERTEX
  5
CEF
  8
LAYER01
  6
CONTINUOUS
 62
     7
 10
5136.4854670000004
 20
-182.894924
 30
0.0
  0
VERTEX
  5
CF0
  8
LAYER01
  6
CONTINUOUS
 62
     7
 10
5140.3393910000004
 20
-184.82188600000001
 30
0.0
  0
VERTEX
  5
CF1
  8
LAYER01
  6
CONTINUOUS
 62
     7
 10
5143.2298350000001
 20
-187.71233000000001
 30
0.0
  0
VERTEX
  5
CF2
  8
LAYER01
  6
CONTINUOUS
 62
     7
 10
5146.1202780000012
 20
-190.60277300000001
 30
0.0
  0
VERTEX
  5
CF3
  8
LAYER01
  6
CONTINUOUS
 62
     7
 10
5148.0472399999999
 20
-194.45669699999999
 30
0.0
  0
VERTEX
  5
CF4
  8
LAYER01
  6
CONTINUOUS
 62
     7
 10
5149.9742020000012
 20
-198.310622
 30
0.0
  0
VERTEX
  5
CF5
  8
LAYER01
  6
CONTINUOUS
 62
     7
 10
5149.9742020000012
 20
-202.164546
 30
0.0
  0
VERTEX
  5
CF6
  8
LAYER01
  6
CONTINUOUS
 62
     7
 10
5149.9742020000012
 20
-202.164546
 30
0.0
  0
VERTEX
  5
CF7
  8
LAYER01
  6
CONTINUOUS
 62
     7
 10
5149.9742020000012
 20
-206.98195100000001
 30
0.0
  0
VERTEX
  5
CF8
  8
LAYER01
  6
CONTINUOUS
 62
     7
 10
5148.0472399999999
 20
-210.83587600000001
 30
0.0
  0
VERTEX
  5
CF9
  8
LAYER01
  6
CONTINUOUS
 62
     7
 10
5146.1202780000012
 20
-214.68979999999999
 30
0.0
  0
VERTEX
  5
CFA
  8
LAYER01
  6
CONTINUOUS
 62
     7
 10
5143.2298350000001
 20
-217.580243
 30
0.0
  0
VERTEX
  5
CFB
  8
LAYER01
  6
CONTINUOUS
 62
     7
 10
5140.3393910000004
 20
-220.470687
 30
0.0
  0
VERTEX
  5
CFC
  8
LAYER01
  6
CONTINUOUS
 62
     7
 10
5136.4854670000004
 20
-222.397649
 30
0.0
  0
VERTEX
  5
CFD
  8
LAYER01
  6
CONTINUOUS
 62
     7
 10
5132.6315430000013
 20
-223.36113
 30
0.0
  0
VERTEX
  5
CFE
  8
LAYER01
  6
CONTINUOUS
 62
     7
 10
5128.7776180000001
 20
-223.36113
 30
0.0
  0
VERTEX
  5
CFF
  8
LAYER01
  6
CONTINUOUS
 62
     7
 10
5128.7776180000001
 20
-223.36113
 30
0.0
  0
VERTEX
  5
D00
  8
LAYER01
  6
CONTINUOUS
 62
     7
 10
5124.9236940000001
 20
-223.36113
 30
0.0
  0
VERTEX
  5
D01
  8
LAYER01
  6
CONTINUOUS
 62
     7
 10
5120.1062879999999
 20
-222.397649
 30
0.0
  0
VERTEX
  5
D02
  8
LAYER01
  6
CONTINUOUS
 62
     7
 10
5117.2158449999997
 20
-220.470687
 30
0.0
  0
VERTEX
  5
D03
  8
LAYER01
  6
CONTINUOUS
 62
     7
 10
5113.3619209999997
 20
-217.580243
 30
0.0
  0
VERTEX
  5
D04
  8
LAYER01
  6
CONTINUOUS
 62
     7
 10
5111.4349590000002
 20
-214.68979999999999
 30
0.0
  0
VERTEX
  5
D05
  8
LAYER01
  6
CONTINUOUS
 62
     7
 10
5109.5079969999997
 20
-210.83587600000001
 30
0.0
  0
VERTEX
  5
D06
  8
LAYER01
  6
CONTINUOUS
 62
     7
 10
5107.5810340000007
 20
-206.98195100000001
 30
0.0
  0
VERTEX
  5
D07
  8
LAYER01
  6
CONTINUOUS
 62
     7
 10
5107.5810340000007
 20
-202.164546
 30
0.0
  0
VERTEX
  5
D08
  8
LAYER01
  6
CONTINUOUS
 62
     7
 10
5107.5810340000007
 20
-202.164546
 30
0.0
  0
VERTEX
  5
D09
  8
LAYER01
  6
CONTINUOUS
 62
     7
 10
5107.5810340000007
 20
-198.310622
 30
0.0
  0
VERTEX
  5
D0A
  8
LAYER01
  6
CONTINUOUS
 62
     7
 10
5109.5079969999997
 20
-194.45669699999999
 30
0.0
  0
VERTEX
  5
D0B
  8
LAYER01
  6
CONTINUOUS
 62
     7
 10
5111.4349590000002
 20
-190.60277300000001
 30
0.0
  0
VERTEX
  5
D0C
  8
LAYER01
  6
CONTINUOUS
 62
     7
 10
5113.3619209999997
 20
-187.71233000000001
 30
0.0
  0
VERTEX
  5
D0D
  8
LAYER01
  6
CONTINUOUS
 62
     7
 10
5117.2158449999997
 20
-184.82188600000001
 30
0.0
  0
VERTEX
  5
D0E
  8
LAYER01
  6
CONTINUOUS
 62
     7
 10
5120.1062879999999
 20
-182.894924
 30
0.0
  0
VERTEX
  5
D0F
  8
LAYER01
  6
CONTINUOUS
 62
     7
 10
5124.9236940000001
 20
-181.931443
 30
0.0
  0
VERTEX
  5
D10
  8
LAYER01
  6
CONTINUOUS
 62
     7
 10
5128.7776180000001
 20
-180.967962
 30
0.0
  0
VERTEX
  5
D11
  8
LAYER01
  6
CONTINUOUS
 62
     7
 10
5128.7776180000001
 20
-180.967962
 30
0.0
  0
SEQEND
  5
D12
  8
LAYER01
  6
CONTINUOUS
 62
     7
  0
POLYLINE
  5
33E
  8
LAYER01
  6
CONTINUOUS
 62
     7
 66
     1
 10
0.0
 20
0.0
 30
0.0
 70
     1
  0
VERTEX
  5
D13
  8
LAYER01
  6
CONTINUOUS
 62
     7
 10
5132.6315430000013
 20
-204.091508
 30
0.0
  0
VERTEX
  5
D14
  8
LAYER01
  6
CONTINUOUS
 62
     7
 10
5132.6315430000013
 20
-204.091508
 30
0.0
  0
VERTEX
  5
D15
  8
LAYER01
  6
CONTINUOUS
 62
     7
 10
5135.5219859999997
 20
-203.128027
 30
0.0
  0
VERTEX
  5
D16
  8
LAYER01
  6
CONTINUOUS
 62
     7
 10
5138.412429
 20
-202.164546
 30
0.0
  0
VERTEX
  5
D17
  8
LAYER01
  6
CONTINUOUS
 62
     7
 10
5140.3393910000004
 20
-199.274103
 30
0.0
  0
VERTEX
  5
D18
  8
LAYER01
  6
CONTINUOUS
 62
     7
 10
5140.3393910000004
 20
-196.38365899999999
 30
0.0
  0
VERTEX
  5
D19
  8
LAYER01
  6
CONTINUOUS
 62
     7
 10
5140.3393910000004
 20
-196.38365899999999
 30
0.0
  0
VERTEX
  5
D1A
  8
LAYER01
  6
CONTINUOUS
 62
     7
 10
5140.3393910000004
 20
-192.52973499999999
 30
0.0
  0
VERTEX
  5
D1B
  8
LAYER01
  6
CONTINUOUS
 62
     7
 10
5137.4489479999993
 20
-189.63929200000001
 30
0.0
  0
VERTEX
  5
D1C
  8
LAYER01
  6
CONTINUOUS
 62
     7
 10
5134.5585050000009
 20
-188.67581100000001
 30
0.0
  0
VERTEX
  5
D1D
  8
LAYER01
  6
CONTINUOUS
 62
     7
 10
5130.7045799999987
 20
-188.67581100000001
 30
0.0
  0
VERTEX
  5
D1E
  8
LAYER01
  6
CONTINUOUS
 62
     7
 10
5119.1428070000002
 20
-188.67581100000001
 30
0.0
  0
VERTEX
  5
D1F
  8
LAYER01
  6
CONTINUOUS
 62
     7
 10
5119.1428070000002
 20
-216.61676199999999
 30
0.0
  0
VERTEX
  5
D20
  8
LAYER01
  6
CONTINUOUS
 62
     7
 10
5122.9967319999996
 20
-216.61676199999999
 30
0.0
  0
VERTEX
  5
D21
  8
LAYER01
  6
CONTINUOUS
 62
     7
 10
5122.9967319999996
 20
-204.091508
 30
0.0
  0
VERTEX
  5
D22
  8
LAYER01
  6
CONTINUOUS
 62
     7
 10
5128.7776180000001
 20
-204.091508
 30
0.0
  0
VERTEX
  5
D23
  8
LAYER01
  6
CONTINUOUS
 62
     7
 10
5135.5219859999997
 20
-216.61676199999999
 30
0.0
  0
VERTEX
  5
D24
  8
LAYER01
  6
CONTINUOUS
 62
     7
 10
5140.3393910000004
 20
-216.61676199999999
 30
0.0
  0
VERTEX
  5
D25
  8
LAYER01
  6
CONTINUOUS
 62
     7
 10
5132.6315430000013
 20
-204.091508
 30
0.0
  0
VERTEX
  5
D26
  8
LAYER01
  6
CONTINUOUS
 62
     7
 10
5132.6315430000013
 20
-204.091508
 30
0.0
  0
SEQEND
  5
D27
  8
LAYER01
  6
CONTINUOUS
 62
     7
  0
POLYLINE
  5
354
  8
LAYER01
  6
CONTINUOUS
 62
     7
 66
     1
 10
0.0
 20
0.0
 30
0.0
 70
     1
  0
VERTEX
  5
D28
  8
LAYER01
  6
CONTINUOUS
 62
     7
 10
5129.7410989999998
 20
-192.52973499999999
 30
0.0
  0
VERTEX
  5
D29
  8
LAYER01
  6
CONTINUOUS
 62
     7
 10
5129.7410989999998
 20
-192.52973499999999
 30
0.0
  0
VERTEX
  5
D2A
  8
LAYER01
  6
CONTINUOUS
 62
     7
 10
5134.5585050000009
 20
-193.49321599999999
 30
0.0
  0
VERTEX
  5
D2B
  8
LAYER01
  6
CONTINUOUS
 62
     7
 10
5136.4854670000004
 20
-194.45669699999999
 30
0.0
  0
VERTEX
  5
D2C
  8
LAYER01
  6
CONTINUOUS
 62
     7
 10
5136.4854670000004
 20
-196.38365899999999
 30
0.0
  0
VERTEX
  5
D2D
  8
LAYER01
  6
CONTINUOUS
 62
     7
 10
5136.4854670000004
 20
-196.38365899999999
 30
0.0
  0
VERTEX
  5
D2E
  8
LAYER01
  6
CONTINUOUS
 62
     7
 10
5135.5219859999997
 20
-198.310622
 30
0.0
  0
VERTEX
  5
D2F
  8
LAYER01
  6
CONTINUOUS
 62
     7
 10
5133.5950240000002
 20
-199.274103
 30
0.0
  0
VERTEX
  5
D30
  8
LAYER01
  6
CONTINUOUS
 62
     7
 10
5127.8141369999994
 20
-200.237584
 30
0.0
  0
VERTEX
  5
D31
  8
LAYER01
  6
CONTINUOUS
 62
     7
 10
5122.9967319999996
 20
-200.237584
 30
0.0
  0
VERTEX
  5
D32
  8
LAYER01
  6
CONTINUOUS
 62
     7
 10
5122.9967319999996
 20
-192.52973499999999
 30
0.0
  0
VERTEX
  5
D33
  8
LAYER01
  6
CONTINUOUS
 62
     7
 10
5129.7410989999998
 20
-192.52973499999999
 30
0.0
  0
VERTEX
  5
D34
  8
LAYER01
  6
CONTINUOUS
 62
     7
 10
5129.7410989999998
 20
-192.52973499999999
 30
0.0
  0
SEQEND
  5
D35
  8
LAYER01
  6
CONTINUOUS
 62
     7
  0
ENDBLK
  5
363
  8
0
  0
BLOCK
  8
0
  2
MANHATAN-G3
 70
     0
 10
0.0
 20
0.0
 30
0.0
  3
MANHATAN-G3
  1

  0
TEXT
  5
366
  8
LAYER01
  6
VERDECKT
 62
     1
 10
4138.3737549999987
 20
-683.31338899999992
 30
0.0
 40
10.0
  1
A. Sprenger GmbH
  7
SIMPLEX
  0
TEXT
  5
367
  8
LAYER01
  6
VERDECKT
 62
     1
 10
4138.3737549999987
 20
-700.45624699999985
 30
0.0
 40
10.0
  1
Berner Str. 10
  7
SIMPLEX
  0
TEXT
  5
368
  8
LAYER01
  6
VERDECKT
 62
     1
 10
4138.3737549999987
 20
-717.59910400000001
 30
0.0
 40
10.0
  1
60437 Frankfurt
  7
SIMPLEX
  0
TEXT
  5
369
  8
LAYER01
  6
VERDECKT
 62
     1
 10
4138.3737549999987
 20
-734.74196100000006
 30
0.0
 40
10.0
  1
Tel.: 069 - 507 27 41
  7
SIMPLEX
  0
TEXT
  5
36A
  8
LAYER01
  6
VERDECKT
 62
     1
 10
4138.3737549999987
 20
-751.88481799999988
 30
0.0
 40
10.0
  1
Fax: 069 - 507 72 91
  7
SIMPLEX
  0
TEXT
  5
36B
  8
LAYER01
  6
VERDECKT
 62
     1
 10
4138.3737549999987
 20
-769.02767500000004
 30
0.0
 40
10.0
  1
info@varicor.org
  7
SIMPLEX
  0
ENDBLK
  5
36C
  8
0
  0
BLOCK
  8
0
  2
MANHATAN-G2
 70
     0
 10
0.0
 20
0.0
 30
0.0
  3
MANHATAN-G2
  1

  0
TEXT
  5
36F
  8
LAYER01
  6
CONTINUOUS
 62
     1
 10
5189.1922100000002
 20
-918.39357699999994
 30
0.0
 40
10.0
  1
Blatt
  7
SIMPLEX
  0
LINE
  5
370
  8
LAYER01
  6
CONTINUOUS
 62
     1
 10
4124.1922100000002
 20
-848.39357699999982
 30
0.0
 11
4724.1922100000002
 21
-848.39357699999982
 31
0.0
  0
LINE
  5
371
  8
LAYER01
  6
CONTINUOUS
 62
     1
 10
4124.1922100000002
 20
-873.39357700000005
 30
0.0
 11
4724.1922100000002
 21
-873.39357700000005
 31
0.0
  0
LINE
  5
372
  8
LAYER01
  6
CONTINUOUS
 62
     1
 10
4124.1922100000002
 20
-898.39357700000005
 30
0.0
 11
5254.1922100000002
 21
-898.39357700000005
 31
0.0
  0
LINE
  5
373
  8
LAYER01
  6
CONTINUOUS
 62
     1
 10
4124.1922100000002
 20
-973.39357700000005
 30
0.0
 11
5254.1922100000002
 21
-973.39357700000005
 31
0.0
  0
LINE
  5
374
  8
LAYER01
  6
CONTINUOUS
 62
     1
 10
4124.1922100000002
 20
-773.39357699999994
 30
0.0
 11
5254.1922100000002
 21
-773.39357699999994
 31
0.0
  0
POLYLINE
  5
375
  8
LAYER01
  6
CONTINUOUS
 62
     1
 66
     1
 10
0.0
 20
0.0
 30
0.0
 70
     1
  0
VERTEX
  5
D36
  8
LAYER01
  6
CONTINUOUS
 62
     1
 10
4124.1922100000002
 20
-1003.3935770000001
 30
0.0
  0
VERTEX
  5
D37
  8
LAYER01
  6
CONTINUOUS
 62
     1
 10
4124.1922100000002
 20
-668.39357699999994
 30
0.0
  0
VERTEX
  5
D38
  8
LAYER01
  6
CONTINUOUS
 62
     1
 10
5254.1922100000002
 20
-668.39357699999994
 30
0.0
  0
VERTEX
  5
D39
  8
LAYER01
  6
CONTINUOUS
 62
     1
 10
5254.1922100000002
 20
-1003.3935770000001
 30
0.0
  0
SEQEND
  5
D3A
  8
LAYER01
  6
CONTINUOUS
 62
     1
  0
LINE
  5
37B
  8
LAYER01
  6
CONTINUOUS
 62
     1
 10
4124.1922100000002
 20
-798.39357699999994
 30
0.0
 11
4724.1922100000002
 21
-798.39357699999994
 31
0.0
  0
LINE
  5
37C
  8
LAYER01
  6
CONTINUOUS
 62
     1
 10
4124.1922100000002
 20
-823.39357699999982
 30
0.0
 11
4724.1922100000002
 21
-823.39357699999982
 31
0.0
  0
LINE
  5
37D
  8
LAYER01
  6
CONTINUOUS
 62
     1
 10
4449.1922100000002
 20
-668.39357699999994
 30
0.0
 11
4449.1922100000002
 21
-1003.3935770000001
 31
0.0
  0
INSERT
  5
37E
  8
LAYER01
  2
MANHATAN-G3
 10
0.0
 20
0.0
 30
0.0
  0
LINE
  5
37F
  8
LAYER01
  6
CONTINUOUS
 62
     1
 10
4124.1922100000002
 20
-948.39357700000005
 30
0.0
 11
4449.1922100000002
 21
-948.39357700000005
 31
0.0
  0
LINE
  5
380
  8
LAYER01
  6
CONTINUOUS
 62
     1
 10
4124.1922100000002
 20
-923.39357700000005
 30
0.0
 11
4449.1922100000002
 21
-923.39357700000005
 31
0.0
  0
LINE
  5
381
  8
LAYER01
  6
CONTINUOUS
 62
     1
 10
4169.1922100000002
 20
-773.39357699999994
 30
0.0
 11
4169.1922100000002
 21
-1003.3935770000001
 31
0.0
  0
TEXT
  5
382
  8
LAYER01
  6
CONTINUOUS
 62
     1
 10
4132.5914750000002
 20
-993.39357699999994
 30
0.0
 40
9.5
  1
Zust
  7
SIMPLEX
  0
LINE
  5
383
  8
LAYER01
  6
CONTINUOUS
 62
     1
 10
4326.9768249999997
 20
-1003.3935770000001
 30
0.0
 11
4326.9768249999997
 21
-773.39357699999994
 31
0.0
  0
LINE
  5
384
  8
LAYER01
  6
CONTINUOUS
 62
     1
 10
4404.1922100000002
 20
-773.39357699999994
 30
0.0
 11
4404.1922100000002
 21
-1003.3935770000001
 31
0.0
  0
TEXT
  5
385
  8
LAYER01
  6
CONTINUOUS
 62
     1
 10
4213.3207519999996
 20
-993.39357699999994
 30
0.0
 40
9.5
  1
Änderung
  7
SIMPLEX
  0
TEXT
  5
386
  8
LAYER01
  6
CONTINUOUS
 62
     1
 10
4341.0463549999986
 20
-993.39357699999994
 30
0.0
 40
9.5
  1
Datum
  7
SIMPLEX
  0
TEXT
  5
387
  8
LAYER01
  6
CONTINUOUS
 62
     1
 10
4407.9561139999996
 20
-993.39357699999994
 30
0.0
 40
9.5
  1
Name
  7
SIMPLEX
  0
LINE
  5
388
  8
LAYER01
  6
CONTINUOUS
 62
     1
 10
5254.1922100000002
 20
-708.39357699999994
 30
0.0
 11
4724.1922100000002
 21
-708.39357699999994
 31
0.0
  0
LINE
  5
389
  8
LAYER01
  6
CONTINUOUS
 62
     1
 10
4514.1922100000002
 20
-873.39357700000005
 30
0.0
 11
4514.1922100000002
 21
-773.39357699999994
 31
0.0
  0
TEXT
  5
38A
  8
LAYER01
  6
CONTINUOUS
 62
     1
 10
4459.1922100000002
 20
-818.39357699999994
 30
0.0
 40
10.0
  1
Bearb.
  7
SIMPLEX
  0
TEXT
  5
38B
  8
LAYER01
  6
CONTINUOUS
 62
     1
 10
4459.1922100000002
 20
-868.39357699999994
 30
0.0
 40
10.0
  1
Norm
  7
SIMPLEX
  0
TEXT
  5
38C
  8
LAYER01
  6
CONTINUOUS
 62
     1
 10
4459.1922100000002
 20
-843.39357699999994
 30
0.0
 40
10.0
  1
Gepr.
  7
SIMPLEX
  0
TEXT
  5
38D
  8
LAYER01
  6
CONTINUOUS
 62
     1
 10
4539.1922100000002
 20
-793.39357699999994
 30
0.0
 40
10.0
  1
Datum
  7
SIMPLEX
  0
TEXT
  5
38E
  8
LAYER01
  6
CONTINUOUS
 62
     1
 10
4639.1922100000002
 20
-793.39357699999994
 30
0.0
 40
10.0
  1
Name
  7
SIMPLEX
  0
TEXT
  5
38F
  8
LAYER01
  6
CONTINUOUS
 62
     1
 10
5229.1922100000002
 20
-968.39357699999994
 30
0.0
 40
10.0
  1
Bl.
  7
SIMPLEX
  0
LINE
  5
390
  8
LAYER01
  6
CONTINUOUS
 62
     1
 10
4724.1922100000002
 20
-1003.3935770000001
 30
0.0
 11
4724.1922100000002
 21
-668.39357699999994
 31
0.0
  0
LINE
  5
391
  8
LAYER01
  6
CONTINUOUS
 62
     1
 10
4609.1922100000002
 20
-898.39357700000005
 30
0.0
 11
4609.1922100000002
 21
-668.39357699999994
 31
0.0
  0
LINE
  5
392
  8
LAYER01
  6
CONTINUOUS
 62
     1
 10
5039.1922100000002
 20
-668.39357699999994
 30
0.0
 11
5039.1922100000002
 21
-708.39357699999994
 31
0.0
  0
TEXT
  5
393
  8
LAYER01
  6
CONTINUOUS
 62
     1
 10
4735.0862100000013
 20
-693.92357900000002
 30
0.0
 40
10.0
  1
Maßstab
  7
SIMPLEX
  0
LINE
  5
394
  8
LAYER01
  6
CONTINUOUS
 62
     1
 10
5179.1922100000002
 20
-898.39357700000005
 30
0.0
 11
5179.1922100000002
 21
-973.39357700000005
 31
0.0
  0
LINE
  5
395
  8
LAYER01
  6
CONTINUOUS
 62
     1
 10
5179.1922100000002
 20
-948.39357700000005
 30
0.0
 11
5254.1922100000002
 21
-948.39357700000005
 31
0.0
  0
ENDBLK
  5
396
  8
0
  0
BLOCK
  8
0
  2
*D3
 70
     1
 10
0.0
 20
0.0
 30
0.0
  3
*D3
  1

  0
LINE
  5
399
  8
LAYER01
 62
     7
 10
474.66516899999999
 20
2287.7501390000002
 30
0.0
 11
1474.6651690000001
 21
2287.7501390000002
 31
0.0
  0
LINE
  5
39A
  8
LAYER01
 62
     7
 10
474.66516899999999
 20
2202.395278
 30
0.0
 11
474.66516899999999
 21
2322.7501390000002
 31
0.0
  0
LINE
  5
39B
  8
LAYER01
 62
     7
 10
1474.6651690000001
 20
2202.395278
 30
0.0
 11
1474.6651690000001
 21
2322.7501390000002
 31
0.0
  0
SOLID
  5
39C
  8
LAYER01
 62
     7
 10
530.66516899999988
 20
2278.417179
 30
0.0
 11
474.66516899999999
 21
2287.7501390000002
 31
0.0
 12
530.66516899999988
 22
2297.0830989999999
 32
0.0
 13
530.66516899999988
 23
2297.0830989999999
 33
0.0
  0
SOLID
  5
39D
  8
LAYER01
 62
     7
 10
1418.6651690000001
 20
2278.417179
 30
0.0
 11
1474.6651690000001
 21
2287.7501390000002
 31
0.0
 12
1418.6651690000001
 22
2297.0830989999999
 32
0.0
 13
1418.6651690000001
 23
2297.0830989999999
 33
0.0
  0
TEXT
  5
39E
  8
LAYER01
  6
VERDECKT
 62
     7
 10
902.67190299999982
 20
2322.7501390000002
 30
0.0
 40
70.0
  1
A = 325 - 1000
  0
POINT
  5
39F
  8
LAYER01
 62
     7
 10
474.66516899999999
 20
2174.395278
 30
0.0
  0
POINT
  5
3A0
  8
LAYER01
 62
     7
 10
1474.6651690000001
 20
2174.395278
 30
0.0
  0
POINT
  5
3A1
  8
LAYER01
 62
     7
 10
1474.6651690000001
 20
2287.7501390000002
 30
0.0
  0
ENDBLK
  5
3A2
  8
0
  0
BLOCK
  8
0
  2
*D4
 70
     1
 10
0.0
 20
0.0
 30
0.0
  3
*D4
  1

  0
LINE
  5
3A5
  8
LAYER01
 62
     7
 10
1224.6651690000001
 20
1418.050559
 30
0.0
 11
1724.6651690000001
 21
1418.050559
 31
0.0
  0
LINE
  5
3A6
  8
LAYER01
 62
     7
 10
1224.6651690000001
 20
1511.395278
 30
0.0
 11
1224.6651690000001
 21
1383.050559
 31
0.0
  0
LINE
  5
3A7
  8
LAYER01
 62
     7
 10
1724.6651690000001
 20
1511.395278
 30
0.0
 11
1724.6651690000001
 21
1383.050559
 31
0.0
  0
SOLID
  5
3A8
  8
LAYER01
 62
     7
 10
1280.6651690000001
 20
1408.7175990000001
 30
0.0
 11
1224.6651690000001
 21
1418.050559
 31
0.0
 12
1280.6651690000001
 22
1427.383519
 32
0.0
 13
1280.6651690000001
 23
1427.383519
 33
0.0
  0
SOLID
  5
3A9
  8
LAYER01
 62
     7
 10
1668.6651690000001
 20
1408.7175990000001
 30
0.0
 11
1724.6651690000001
 21
1418.050559
 31
0.0
 12
1668.6651690000001
 22
1427.383519
 32
0.0
 13
1668.6651690000001
 23
1427.383519
 33
0.0
  0
TEXT
  5
3AA
  8
LAYER01
  6
VERDECKT
 62
     7
 10
1420.0495880000001
 20
1453.050559
 30
0.0
 40
70.0
  1
500
  0
POINT
  5
3AB
  8
LAYER01
 62
     7
 10
1224.6651690000001
 20
1539.395278
 30
0.0
  0
POINT
  5
3AC
  8
LAYER01
 62
     7
 10
1724.6651690000001
 20
1539.395278
 30
0.0
  0
POINT
  5
3AD
  8
LAYER01
 62
     7
 10
1724.6651690000001
 20
1418.050559
 30
0.0
  0
ENDBLK
  5
3AE
  8
0
  0
BLOCK
  8
0
  2
*D5
 70
     1
 10
0.0
 20
0.0
 30
0.0
  3
*D5
  1

  0
LINE
  5
3B1
  8
LAYER01
 62
     7
 10
2474.6651689999999
 20
2439.9687680000002
 30
0.0
 11
474.66516899999999
 21
2439.9687680000002
 31
0.0
  0
LINE
  5
3B2
  8
LAYER01
 62
     7
 10
2474.6651689999999
 20
2202.395278
 30
0.0
 11
2474.6651689999999
 21
2474.9687680000002
 31
0.0
  0
LINE
  5
3B3
  8
LAYER01
 62
     7
 10
474.66516899999999
 20
2202.395278
 30
0.0
 11
474.66516899999999
 21
2474.9687680000002
 31
0.0
  0
SOLID
  5
3B4
  8
LAYER01
 62
     7
 10
2418.6651689999999
 20
2449.3017279999999
 30
0.0
 11
2474.6651689999999
 21
2439.9687680000002
 31
0.0
 12
2418.6651689999999
 22
2430.635808
 32
0.0
 13
2418.6651689999999
 23
2430.635808
 33
0.0
  0
SOLID
  5
3B5
  8
LAYER01
 62
     7
 10
530.66516899999988
 20
2449.3017279999999
 30
0.0
 11
474.66516899999999
 21
2439.9687680000002
 31
0.0
 12
530.66516899999988
 22
2430.635808
 32
0.0
 13
530.66516899999988
 23
2430.635808
 33
0.0
  0
TEXT
  5
3B6
  8
LAYER01
  6
VERDECKT
 62
     7
 10
1348.4424919999999
 20
2474.9687680000002
 30
0.0
 40
70.0
  1
650 - 2000
  0
POINT
  5
3B7
  8
LAYER01
 62
     7
 10
2474.6651689999999
 20
2174.395278
 30
0.0
  0
POINT
  5
3B8
  8
LAYER01
 62
     7
 10
474.66516899999999
 20
2174.395278
 30
0.0
  0
POINT
  5
3B9
  8
LAYER01
 62
     7
 10
474.66516899999999
 20
2439.9687680000002
 30
0.0
  0
ENDBLK
  5
3BA
  8
0
  0
BLOCK
  8
0
  2
*D6
 70
     1
 10
0.0
 20
0.0
 30
0.0
  3
*D6
  1

  0
LINE
  5
3BD
  8
LAYER01
 62
     7
 10
357.32087799999999
 20
1599.395278
 30
0.0
 11
357.32087799999999
 21
2059.395278
 31
0.0
  0
LINE
  5
3BE
  8
LAYER01
 62
     7
 10
446.66516899999999
 20
1599.395278
 30
0.0
 11
322.32087799999999
 21
1599.395278
 31
0.0
  0
LINE
  5
3BF
  8
LAYER01
 62
     7
 10
446.66516899999999
 20
2059.395278
 30
0.0
 11
322.32087799999999
 21
2059.395278
 31
0.0
  0
SOLID
  5
3C0
  8
LAYER01
 62
     7
 10
366.65383800000001
 20
1655.395278
 30
0.0
 11
357.32087799999999
 21
1599.395278
 31
0.0
 12
347.98791800000009
 22
1655.395278
 32
0.0
 13
347.98791800000009
 23
1655.395278
 33
0.0
  0
SOLID
  5
3C1
  8
LAYER01
 62
     7
 10
366.65383800000001
 20
2003.3952780000011
 30
0.0
 11
357.32087799999999
 21
2059.395278
 31
0.0
 12
347.98791800000009
 22
2003.3952780000011
 32
0.0
 13
347.98791800000009
 23
2003.3952780000011
 33
0.0
  0
TEXT
  5
3C2
  8
LAYER01
  6
VERDECKT
 62
     7
 10
322.32087799999999
 20
1776.741745
 30
0.0
 40
70.0
  1
460
 50
90.0
  0
POINT
  5
3C3
  8
LAYER01
 62
     7
 10
474.66516899999999
 20
1599.395278
 30
0.0
  0
POINT
  5
3C4
  8
LAYER01
 62
     7
 10
474.66516899999999
 20
2059.395278
 30
0.0
  0
POINT
  5
3C5
  8
LAYER01
 62
     7
 10
357.32087799999999
 20
2059.395278
 30
0.0
  0
ENDBLK
  5
3C6
  8
0
  0
BLOCK
  8
0
  2
*D7
 70
     1
 10
0.0
 20
0.0
 30
0.0
  3
*D7
  1

  0
LINE
  5
3C9
  8
LAYER01
 62
     7
 10
67.726448000000005
 20
1539.395278
 30
0.0
 11
67.726448000000005
 21
2174.395278
 31
0.0
  0
LINE
  5
3CA
  8
LAYER01
 62
     7
 10
446.66516899999999
 20
1539.395278
 30
0.0
 11
32.726447999999998
 21
1539.395278
 31
0.0
  0
LINE
  5
3CB
  8
LAYER01
 62
     7
 10
446.66516899999999
 20
2174.395278
 30
0.0
 11
32.726447999999998
 21
2174.395278
 31
0.0
  0
SOLID
  5
3CC
  8
LAYER01
 62
     7
 10
77.059407999999991
 20
1595.395278
 30
0.0
 11
67.726448000000005
 21
1539.395278
 31
0.0
 12
58.393487999999991
 22
1595.395278
 32
0.0
 13
58.393487999999991
 23
1595.395278
 33
0.0
  0
SOLID
  5
3CD
  8
LAYER01
 62
     7
 10
77.059407999999991
 20
2118.395278
 30
0.0
 11
67.726448000000005
 21
2174.395278
 31
0.0
 12
58.393487999999991
 22
2118.395278
 32
0.0
 13
58.393487999999991
 23
2118.395278
 33
0.0
  0
TEXT
  5
3CE
  8
LAYER01
  6
VERDECKT
 62
     7
 10
32.726447999999998
 20
1804.241745
 30
0.0
 40
70.0
  1
635
 50
90.0
  0
POINT
  5
3CF
  8
LAYER01
 62
     7
 10
474.66516899999999
 20
1539.395278
 30
0.0
  0
POINT
  5
3D0
  8
LAYER01
 62
     7
 10
474.66516899999999
 20
2174.395278
 30
0.0
  0
POINT
  5
3D1
  8
LAYER01
 62
     7
 10
67.726448000000005
 20
2174.395278
 30
0.0
  0
ENDBLK
  5
3D2
  8
0
  0
BLOCK
  8
0
  2
*D8
 70
     1
 10
0.0
 20
0.0
 30
0.0
  3
*D8
  1

  0
LINE
  5
3D5
  8
LAYER01
 62
     7
 10
1474.6651690000001
 20
2287.7501390000002
 30
0.0
 11
2474.6651689999999
 21
2287.7501390000002
 31
0.0
  0
LINE
  5
3D6
  8
LAYER01
 62
     7
 10
1474.6651690000001
 20
2202.395278
 30
0.0
 11
1474.6651690000001
 21
2322.7501390000002
 31
0.0
  0
LINE
  5
3D7
  8
LAYER01
 62
     7
 10
2474.6651689999999
 20
2202.395278
 30
0.0
 11
2474.6651689999999
 21
2322.7501390000002
 31
0.0
  0
SOLID
  5
3D8
  8
LAYER01
 62
     7
 10
1530.6651690000001
 20
2278.417179
 30
0.0
 11
1474.6651690000001
 21
2287.7501390000002
 31
0.0
 12
1530.6651690000001
 22
2297.0830989999999
 32
0.0
 13
1530.6651690000001
 23
2297.0830989999999
 33
0.0
  0
SOLID
  5
3D9
  8
LAYER01
 62
     7
 10
2418.6651689999999
 20
2278.417179
 30
0.0
 11
2474.6651689999999
 21
2287.7501390000002
 31
0.0
 12
2418.6651689999999
 22
2297.0830989999999
 32
0.0
 13
2418.6651689999999
 23
2297.0830989999999
 33
0.0
  0
TEXT
  5
3DA
  8
LAYER01
  6
VERDECKT
 62
     7
 10
1902.6719029999999
 20
2322.7501390000002
 30
0.0
 40
70.0
  1
B = 325 - 1000
  0
POINT
  5
3DB
  8
LAYER01
 62
     7
 10
1474.6651690000001
 20
2174.395278
 30
0.0
  0
POINT
  5
3DC
  8
LAYER01
 62
     7
 10
2474.6651689999999
 20
2174.395278
 30
0.0
  0
POINT
  5
3DD
  8
LAYER01
 62
     7
 10
2474.6651689999999
 20
2287.7501390000002
 30
0.0
  0
ENDBLK
  5
3DE
  8
0
  0
BLOCK
  8
0
  2
MANHATAN-G10
 70
     0
 10
0.0
 20
0.0
 30
0.0
  3
MANHATAN-G10
  1

  0
LINE
  5
3E1
  8
LAYER01
  6
CONTINUOUS
 62
   255
 10
1474.6651690000001
 20
2042.1770329999999
 30
0.0
 11
1474.6651690000001
 21
2044.6770329999999
 31
0.0
  0
LINE
  5
3E2
  8
LAYER01
  6
CONTINUOUS
 62
   255
 10
1474.6651690000001
 20
2042.1770329999999
 30
0.0
 11
1472.1651690000001
 21
2042.1770329999999
 31
0.0
  0
LINE
  5
3E3
  8
LAYER01
  6
CONTINUOUS
 62
   255
 10
1474.6651690000001
 20
2042.1770329999999
 30
0.0
 11
1474.6651690000001
 21
2039.6770329999999
 31
0.0
  0
LINE
  5
3E4
  8
LAYER01
  6
CONTINUOUS
 62
   255
 10
1474.6651690000001
 20
2042.1770329999999
 30
0.0
 11
1477.1651690000001
 21
2042.1770329999999
 31
0.0
  0
LINE
  5
3E5
  8
LAYER01
  6
CONTINUOUS
 62
   255
 10
1474.6651690000001
 20
2047.1770329999999
 30
0.0
 11
1474.6651690000001
 21
2067.6770329999999
 31
0.0
  0
LINE
  5
3E6
  8
LAYER01
  6
CONTINUOUS
 62
   255
 10
1469.6651690000001
 20
2042.1770329999999
 30
0.0
 11
1449.1651690000001
 21
2042.1770329999999
 31
0.0
  0
LINE
  5
3E7
  8
LAYER01
  6
CONTINUOUS
 62
   255
 10
1474.6651690000001
 20
2037.1770329999999
 30
0.0
 11
1474.6651690000001
 21
2016.6770329999999
 31
0.0
  0
LINE
  5
3E8
  8
LAYER01
  6
CONTINUOUS
 62
   255
 10
1479.6651690000001
 20
2042.1770329999999
 30
0.0
 11
1500.1651690000001
 21
2042.1770329999999
 31
0.0
  0
ENDBLK
  5
3E9
  8
0
  0
BLOCK
  8
0
  2
MANHATAN-G11
 70
     0
 10
0.0
 20
0.0
 30
0.0
  3
MANHATAN-G11
  1

  0
LINE
  5
3EC
  8
LAYER01
  6
CONTINUOUS
 62
   255
 10
3926.9247559999999
 20
865.72101300000008
 30
0.0
 11
3938.9247559999999
 21
877.72101299999997
 31
0.0
  0
LINE
  5
3ED
  8
LAYER01
  6
CONTINUOUS
 62
   255
 10
3913.6114259999999
 20
874.85832300000015
 30
0.0
 11
3938.9247559999999
 21
900.17165299999988
 31
0.0
  0
LINE
  5
3EE
  8
LAYER01
  6
CONTINUOUS
 62
   255
 10
4024.160785
 20
1007.858323
 30
0.0
 11
4036.1430009999999
 21
1019.840539
 31
0.0
  0
LINE
  5
3EF
  8
LAYER01
  6
CONTINUOUS
 62
   255
 10
3914.781798
 20
898.47933499999999
 30
0.0
 11
3938.9247559999999
 21
922.62229300000001
 31
0.0
  0
LINE
  5
3F0
  8
LAYER01
  6
CONTINUOUS
 62
   255
 10
4001.710145
 20
1007.858323
 30
0.0
 11
4013.710145
 21
1019.858323
 31
0.0
  0
LINE
  5
3F1
  8
LAYER01
  6
CONTINUOUS
 62
   255
 10
4024.1430009999999
 20
1030.2911790000001
 30
0.0
 11
4036.1430009999999
 21
1042.2911790000001
 31
0.0
  0
LINE
  5
3F2
  8
LAYER01
  6
CONTINUOUS
 62
   255
 10
3916.0234590000009
 20
922.17163699999992
 30
0.0
 11
3938.9247559999999
 21
945.07293400000003
 31
0.0
  0
LINE
  5
3F3
  8
LAYER01
  6
CONTINUOUS
 62
   255
 10
3979.259505
 20
1007.858323
 30
0.0
 11
3991.259505
 21
1019.858323
 31
0.0
  0
LINE
  5
3F4
  8
LAYER01
  6
CONTINUOUS
 62
   255
 10
4024.1430009999999
 20
1052.7418190000001
 30
0.0
 11
4036.1430009999999
 21
1064.7418189999989
 31
0.0
  0
LINE
  5
3F5
  8
LAYER01
  6
CONTINUOUS
 62
   255
 10
3917.2651200000009
 20
945.86393800000008
 30
0.0
 11
3938.9247559999999
 21
967.52357400000005
 31
0.0
  0
LINE
  5
3F6
  8
LAYER01
  6
CONTINUOUS
 62
   255
 10
3956.8088640000001
 20
1007.858323
 30
0.0
 11
3968.808864000001
 21
1019.858323
 31
0.0
  0
LINE
  5
3F7
  8
LAYER01
  6
CONTINUOUS
 62
   255
 10
4024.1430009999999
 20
1075.1924590000001
 30
0.0
 11
4036.1430009999999
 21
1087.1924590000001
 31
0.0
  0
LINE
  5
3F8
  8
LAYER01
  6
CONTINUOUS
 62
   255
 10
3918.506781
 20
969.55623900000001
 30
0.0
 11
3938.9247559999999
 21
989.97421399999996
 31
0.0
  0
LINE
  5
3F9
  8
LAYER01
  6
CONTINUOUS
 62
   255
 10
4024.1430009999999
 20
1097.6431
 30
0.0
 11
4036.1430009999999
 21
1109.6431
 31
0.0
  0
LINE
  5
3FA
  8
LAYER01
  6
CONTINUOUS
 62
   255
 10
3919.7484410000002
 20
993.24854000000005
 30
0.0
 11
3946.3582240000001
 21
1019.858323
 31
0.0
  0
LINE
  5
3FB
  8
LAYER01
  6
CONTINUOUS
 62
   255
 10
4024.1430009999999
 20
1120.09374
 30
0.0
 11
4036.1430009999999
 21
1132.09374
 31
0.0
  0
LINE
  5
3FC
  8
LAYER01
  6
CONTINUOUS
 62
   255
 10
3920.9901020000011
 20
1016.940841
 30
0.0
 11
3923.907584000001
 21
1019.858323
 31
0.0
  0
LINE
  5
3FD
  8
LAYER01
  6
CONTINUOUS
 62
   255
 10
4024.1430009999999
 20
1142.54438
 30
0.0
 11
4036.1430009999999
 21
1154.54438
 31
0.0
  0
LINE
  5
3FE
  8
LAYER01
  6
CONTINUOUS
 62
   255
 10
4024.1449229999998
 20
1164.9969430000001
 30
0.0
 11
4029.0043810000002
 21
1169.856401
 31
0.0
  0
ENDBLK
  5
3FF
  8
0
  0
BLOCK
  8
0
  2
MANHATAN-G12
 70
     0
 10
0.0
 20
0.0
 30
0.0
  3
MANHATAN-G12
  1

  0
LINE
  5
402
  8
LAYER01
  6
CONTINUOUS
 62
   255
 10
3891.160785
 20
874.85832300000015
 30
0.0
 11
3898.9247559999999
 21
882.62229300000001
 31
0.0
  0
LINE
  5
403
  8
LAYER01
  6
CONTINUOUS
 62
   255
 10
3876.1607850000009
 20
859.85832300000004
 30
0.0
 11
3880.9247559999999
 21
864.62229300000001
 31
0.0
  0
LINE
  5
404
  8
LAYER01
  6
CONTINUOUS
 62
   255
 10
3868.9247560000008
 20
875.07293400000015
 30
0.0
 11
3893.0319690000001
 21
899.18014700000003
 31
0.0
  0
LINE
  5
405
  8
LAYER01
  6
CONTINUOUS
 62
   255
 10
3868.9247560000008
 20
897.52357400000005
 30
0.0
 11
3891.9153649999998
 21
920.514183
 31
0.0
  0
LINE
  5
406
  8
LAYER01
  6
CONTINUOUS
 62
   255
 10
3868.9247560000008
 20
919.97421400000007
 30
0.0
 11
3880.991462
 21
932.04092100000014
 31
0.0
  0
LINE
  5
407
  8
LAYER01
  6
CONTINUOUS
 62
   255
 10
3852.2854189999998
 20
925.78551799999991
 30
0.0
 11
3862.4243940000001
 21
935.92449299999998
 31
0.0
  0
LINE
  5
408
  8
LAYER01
  6
CONTINUOUS
 62
   255
 10
3833.718351
 20
929.66908999999987
 30
0.0
 11
3843.8573259999998
 21
939.80806500000006
 31
0.0
  0
LINE
  5
409
  8
LAYER01
  6
CONTINUOUS
 62
   255
 10
3815.1512819999998
 20
933.55266199999994
 30
0.0
 11
3825.290257000001
 21
943.69163699999979
 31
0.0
  0
LINE
  5
40A
  8
LAYER01
  6
CONTINUOUS
 62
   255
 10
3796.584214
 20
937.43623400000013
 30
0.0
 11
3806.7231889999998
 21
947.57520899999997
 31
0.0
  0
LINE
  5
40B
  8
LAYER01
  6
CONTINUOUS
 62
   255
 10
3778.017146000001
 20
941.31980599999997
 30
0.0
 11
3788.156121
 21
951.45878100000004
 31
0.0
  0
LINE
  5
40C
  8
LAYER01
  6
CONTINUOUS
 62
   255
 10
3759.450077
 20
945.20337699999993
 30
0.0
 11
3769.5890520000012
 21
955.34235200000001
 31
0.0
  0
LINE
  5
40D
  8
LAYER01
  6
CONTINUOUS
 62
   255
 10
3740.883009000001
 20
949.08694899999989
 30
0.0
 11
3751.0219840000009
 21
959.22592399999996
 31
0.0
  0
LINE
  5
40E
  8
LAYER01
  6
CONTINUOUS
 62
   255
 10
3722.3159409999998
 20
952.97052100000008
 30
0.0
 11
3732.4549160000001
 21
963.10949600000004
 31
0.0
  0
LINE
  5
40F
  8
LAYER01
  6
CONTINUOUS
 62
   255
 10
3703.7488720000001
 20
956.85409299999992
 30
0.0
 11
3713.887847
 21
966.99306799999999
 31
0.0
  0
LINE
  5
410
  8
LAYER01
  6
CONTINUOUS
 62
   255
 10
3685.1818039999998
 20
960.73766499999999
 30
0.0
 11
3695.3207790000001
 21
970.87663999999995
 31
0.0
  0
LINE
  5
411
  8
LAYER01
  6
CONTINUOUS
 62
   255
 10
3666.6147350000001
 20
964.62123699999984
 30
0.0
 11
3676.75371
 21
974.76021199999991
 31
0.0
  0
LINE
  5
412
  8
LAYER01
  6
CONTINUOUS
 62
   255
 10
3648.0476669999998
 20
968.50480900000002
 30
0.0
 11
3658.1866420000001
 21
978.64378399999987
 31
0.0
  0
LINE
  5
413
  8
LAYER01
  6
CONTINUOUS
 62
   255
 10
3629.480599
 20
972.38838100000021
 30
0.0
 11
3639.6195740000012
 21
982.52735600000005
 31
0.0
  0
LINE
  5
414
  8
LAYER01
  6
CONTINUOUS
 62
   255
 10
3610.9135299999998
 20
976.27195300000005
 30
0.0
 11
3621.0525050000001
 21
986.4109279999999
 31
0.0
  0
LINE
  5
415
  8
LAYER01
  6
CONTINUOUS
 62
   255
 10
3592.346462
 20
980.1555249999999
 30
0.0
 11
3602.4854369999998
 21
990.29449999999997
 31
0.0
  0
LINE
  5
416
  8
LAYER01
  6
CONTINUOUS
 62
   255
 10
3573.7793940000001
 20
984.03909700000008
 30
0.0
 11
3583.918369
 21
994.17807200000004
 31
0.0
  0
LINE
  5
417
  8
LAYER01
  6
CONTINUOUS
 62
   255
 10
3555.212325
 20
987.92266899999993
 30
0.0
 11
3565.3512999999998
 21
998.061644
 31
0.0
  0
LINE
  5
418
  8
LAYER01
  6
CONTINUOUS
 62
   255
 10
3536.6452570000001
 20
991.806241
 30
0.0
 11
3546.784232
 21
1001.945216
 31
0.0
  0
LINE
  5
419
  8
LAYER01
  6
CONTINUOUS
 62
   255
 10
3518.0781889999998
 20
995.68981299999996
 30
0.0
 11
3528.2171640000001
 21
1005.828788
 31
0.0
  0
LINE
  5
41A
  8
LAYER01
  6
CONTINUOUS
 62
   255
 10
3401.1430009999999
 20
878.75462500000003
 30
0.0
 11
3413.1430009999999
 21
890.75462500000015
 31
0.0
  0
LINE
  5
41B
  8
LAYER01
  6
CONTINUOUS
 62
   255
 10
3499.511120000001
 20
999.5733849999998
 30
0.0
 11
3509.6500950000009
 21
1009.71236
 31
0.0
  0
LINE
  5
41C
  8
LAYER01
  6
CONTINUOUS
 62
   255
 10
3401.1430009999999
 20
901.20526600000005
 30
0.0
 11
3413.1430009999999
 21
913.20526600000005
 31
0.0
  0
LINE
  5
41D
  8
LAYER01
  6
CONTINUOUS
 62
   255
 10
3480.9440519999998
 20
1003.456957
 30
0.0
 11
3491.083027000001
 21
1013.5959319999999
 31
0.0
  0
LINE
  5
41E
  8
LAYER01
  6
CONTINUOUS
 62
   255
 10
3401.1430009999999
 20
923.65590600000007
 30
0.0
 11
3413.1430009999999
 21
935.65590599999996
 31
0.0
  0
LINE
  5
41F
  8
LAYER01
  6
CONTINUOUS
 62
   255
 10
3462.3769840000009
 20
1007.3405289999999
 30
0.0
 11
3472.5159590000012
 21
1017.479504
 31
0.0
  0
LINE
  5
420
  8
LAYER01
  6
CONTINUOUS
 62
   255
 10
3401.1430009999999
 20
946.10654599999998
 30
0.0
 11
3413.1430009999999
 21
958.10654600000009
 31
0.0
  0
LINE
  5
421
  8
LAYER01
  6
CONTINUOUS
 62
   255
 10
3440.444137
 20
1007.858323
 30
0.0
 11
3452.444137
 21
1019.858323
 31
0.0
  0
LINE
  5
422
  8
LAYER01
  6
CONTINUOUS
 62
   255
 10
3401.1430009999999
 20
968.55718599999989
 30
0.0
 11
3413.1430009999999
 21
980.55718599999977
 31
0.0
  0
LINE
  5
423
  8
LAYER01
  6
CONTINUOUS
 62
   255
 10
3417.9934969999999
 20
1007.858323
 30
0.0
 11
3429.9934969999999
 21
1019.858323
 31
0.0
  0
LINE
  5
424
  8
LAYER01
  6
CONTINUOUS
 62
   255
 10
3401.1430009999999
 20
991.00782699999991
 30
0.0
 11
3413.1430009999999
 21
1003.007827
 31
0.0
  0
LINE
  5
425
  8
LAYER01
  6
CONTINUOUS
 62
   255
 10
3401.1430009999999
 20
1013.458467
 30
0.0
 11
3407.5428569999999
 21
1019.858323
 31
0.0
  0
ENDBLK
  5
426
  8
0
  0
BLOCK
  8
0
  2
*D12
 70
     1
 10
0.0
 20
0.0
 30
0.0
  3
*D12
  1

  0
LINE
  5
429
  8
LAYER01
 62
     7
 10
3926.9247559999999
 20
737.71928600000001
 30
0.0
 11
4038.9247559999999
 21
737.71928600000001
 31
0.0
  0
LINE
  5
42A
  8
LAYER01
 62
     7
 10
3880.9247559999999
 20
737.71928600000001
 30
0.0
 11
3768.9247559999999
 21
737.71928600000001
 31
0.0
  0
LINE
  5
42B
  8
LAYER01
 62
     7
 10
3926.9247559999999
 20
831.85832299999993
 30
0.0
 11
3926.9247559999999
 21
702.71928600000001
 31
0.0
  0
LINE
  5
42C
  8
LAYER01
 62
     7
 10
3880.9247559999999
 20
831.85832299999993
 30
0.0
 11
3880.9247559999999
 21
702.71928600000001
 31
0.0
  0
SOLID
  5
42D
  8
LAYER01
 62
     7
 10
3982.9247560000008
 20
747.05224599999985
 30
0.0
 11
3926.9247559999999
 21
737.71928600000001
 31
0.0
 12
3982.9247560000008
 22
728.38632599999994
 32
0.0
 13
3982.9247560000008
 23
728.38632599999994
 33
0.0
  0
SOLID
  5
42E
  8
LAYER01
 62
     7
 10
3824.9247560000008
 20
747.05224599999985
 30
0.0
 11
3880.9247559999999
 21
737.71928600000001
 31
0.0
 12
3824.9247560000008
 22
728.38632599999994
 32
0.0
 13
3824.9247560000008
 23
728.38632599999994
 33
0.0
  0
TEXT
  5
42F
  8
LAYER01
  6
VERDECKT
 62
     7
 10
4073.9247559999999
 20
772.71928600000001
 30
0.0
 40
70.0
  1
46
  0
POINT
  5
430
  8
LAYER01
 62
     7
 10
3926.9247559999999
 20
859.85832300000004
 30
0.0
  0
POINT
  5
431
  8
LAYER01
 62
     7
 10
3880.9247559999999
 20
859.85832300000004
 30
0.0
  0
POINT
  5
432
  8
LAYER01
 62
     7
 10
3880.9247559999999
 20
737.71928600000001
 30
0.0
  0
ENDBLK
  5
433
  8
0
  0
BLOCK
  8
0
  2
*D13
 70
     1
 10
0.0
 20
0.0
 30
0.0
  3
*D13
  1

  0
LINE
  5
436
  8
LAYER01
 62
     7
 10
4036.1430009999999
 20
524.45613900000001
 30
0.0
 11
3903.9247560000008
 21
524.45613900000001
 31
0.0
  0
LINE
  5
437
  8
LAYER01
 62
     7
 10
4036.1430009999999
 20
662.36156299999993
 30
0.0
 11
4036.1430009999999
 21
489.45613899999989
 31
0.0
  0
LINE
  5
438
  8
LAYER01
 62
     7
 10
3903.9247560000008
 20
662.36156299999993
 30
0.0
 11
3903.9247560000008
 21
489.45613899999989
 31
0.0
  0
SOLID
  5
439
  8
LAYER01
 62
     7
 10
3980.1430009999999
 20
533.78909899999996
 30
0.0
 11
4036.1430009999999
 21
524.45613900000001
 31
0.0
 12
3980.1430009999999
 22
515.12317900000005
 32
0.0
 13
3980.1430009999999
 23
515.12317900000005
 33
0.0
  0
SOLID
  5
43A
  8
LAYER01
 62
     7
 10
3959.9247559999999
 20
533.78909899999996
 30
0.0
 11
3903.9247560000008
 21
524.45613900000001
 31
0.0
 12
3959.9247559999999
 22
515.12317900000005
 32
0.0
 13
3959.9247559999999
 23
515.12317900000005
 33
0.0
  0
TEXT
  5
43B
  8
LAYER01
  6
VERDECKT
 62
     7
 10
3916.5293790000001
 20
559.45613899999989
 30
0.0
 40
70.0
  1
132
  0
POINT
  5
43C
  8
LAYER01
 62
     7
 10
4036.1430009999999
 20
690.36156299999993
 30
0.0
  0
POINT
  5
43D
  8
LAYER01
 62
     7
 10
3903.9247560000008
 20
690.36156299999993
 30
0.0
  0
POINT
  5
43E
  8
LAYER01
 62
     7
 10
3903.9247560000008
 20
524.45613900000001
 30
0.0
  0
ENDBLK
  5
43F
  8
0
  0
BLOCK
  8
0
  2
*D14
 70
     1
 10
0.0
 20
0.0
 30
0.0
  3
*D14
  1

  0
LINE
  5
442
  8
LAYER01
 62
     7
 10
3921.1430009999999
 20
1265.2238580000001
 30
0.0
 11
3461.1430009999999
 21
1265.2238580000001
 31
0.0
  0
LINE
  5
443
  8
LAYER01
 62
     7
 10
3921.1430009999999
 20
1216.1155980000001
 30
0.0
 11
3921.1430009999999
 21
1300.2238580000001
 31
0.0
  0
LINE
  5
444
  8
LAYER01
 62
     7
 10
3461.1430009999999
 20
1216.1155980000001
 30
0.0
 11
3461.1430009999999
 21
1300.2238580000001
 31
0.0
  0
SOLID
  5
445
  8
LAYER01
 62
     7
 10
3865.1430009999999
 20
1274.556818
 30
0.0
 11
3921.1430009999999
 21
1265.2238580000001
 31
0.0
 12
3865.1430009999999
 22
1255.8908980000001
 32
0.0
 13
3865.1430009999999
 23
1255.8908980000001
 33
0.0
  0
SOLID
  5
446
  8
LAYER01
 62
     7
 10
3517.1430009999999
 20
1274.556818
 30
0.0
 11
3461.1430009999999
 21
1265.2238580000001
 31
0.0
 12
3517.1430009999999
 22
1255.8908980000001
 32
0.0
 13
3517.1430009999999
 23
1255.8908980000001
 33
0.0
  0
TEXT
  5
447
  8
LAYER01
  6
VERDECKT
 62
     7
 10
3637.6385019999998
 20
1300.2238580000001
 30
0.0
 40
70.0
  1
460
  0
POINT
  5
448
  8
LAYER01
 62
     7
 10
3921.1430009999999
 20
1188.1155980000001
 30
0.0
  0
POINT
  5
449
  8
LAYER01
 62
     7
 10
3461.1430009999999
 20
1188.1155980000001
 30
0.0
  0
POINT
  5
44A
  8
LAYER01
 62
     7
 10
3461.1430009999999
 20
1265.2238580000001
 30
0.0
  0
ENDBLK
  5
44B
  8
0
  0
BLOCK
  8
0
  2
*D15
 70
     1
 10
0.0
 20
0.0
 30
0.0
  3
*D15
  1

  0
LINE
  5
44E
  8
LAYER01
 62
     7
 10
4036.1430009999999
 20
1402.92536
 30
0.0
 11
3401.1430009999999
 21
1402.92536
 31
0.0
  0
LINE
  5
44F
  8
LAYER01
 62
     7
 10
4036.1430009999999
 20
1216.1155980000001
 30
0.0
 11
4036.1430009999999
 21
1437.92536
 31
0.0
  0
LINE
  5
450
  8
LAYER01
 62
     7
 10
3401.1430009999999
 20
1216.1155980000001
 30
0.0
 11
3401.1430009999999
 21
1437.92536
 31
0.0
  0
SOLID
  5
451
  8
LAYER01
 62
     7
 10
3980.1430009999999
 20
1412.2583199999999
 30
0.0
 11
4036.1430009999999
 21
1402.92536
 31
0.0
 12
3980.1430009999999
 22
1393.5924
 32
0.0
 13
3980.1430009999999
 23
1393.5924
 33
0.0
  0
SOLID
  5
452
  8
LAYER01
 62
     7
 10
3457.1430009999999
 20
1412.2583199999999
 30
0.0
 11
3401.1430009999999
 21
1402.92536
 31
0.0
 12
3457.1430009999999
 22
1393.5924
 32
0.0
 13
3457.1430009999999
 23
1393.5924
 33
0.0
  0
TEXT
  5
453
  8
LAYER01
  6
VERDECKT
 62
     7
 10
3665.1385020000012
 20
1437.92536
 30
0.0
 40
70.0
  1
635
  0
POINT
  5
454
  8
LAYER01
 62
     7
 10
4036.1430009999999
 20
1188.1155980000001
 30
0.0
  0
POINT
  5
455
  8
LAYER01
 62
     7
 10
3401.1430009999999
 20
1188.1155980000001
 30
0.0
  0
POINT
  5
456
  8
LAYER01
 62
     7
 10
3401.1430009999999
 20
1402.92536
 30
0.0
  0
ENDBLK
  5
457
  8
0
  0
BLOCK
  8
0
  2
*D16
 70
     1
 10
0.0
 20
0.0
 30
0.0
  3
*D16
  1

  0
LINE
  5
45A
  8
LAYER01
 62
     7
 10
4036.1430009999999
 20
1265.2238580000001
 30
0.0
 11
3921.1430009999999
 21
1265.2238580000001
 31
0.0
  0
LINE
  5
45B
  8
LAYER01
 62
     7
 10
4036.1430009999999
 20
1216.1155980000001
 30
0.0
 11
4036.1430009999999
 21
1300.2238580000001
 31
0.0
  0
LINE
  5
45C
  8
LAYER01
 62
     7
 10
3921.1430009999999
 20
1216.1155980000001
 30
0.0
 11
3921.1430009999999
 21
1300.2238580000001
 31
0.0
  0
SOLID
  5
45D
  8
LAYER01
 62
     7
 10
3980.1430009999999
 20
1274.556818
 30
0.0
 11
4036.1430009999999
 21
1265.2238580000001
 31
0.0
 12
3980.1430009999999
 22
1255.8908980000001
 32
0.0
 13
3980.1430009999999
 23
1255.8908980000001
 33
0.0
  0
SOLID
  5
45E
  8
LAYER01
 62
     7
 10
3977.1430009999999
 20
1274.556818
 30
0.0
 11
3921.1430009999999
 21
1265.2238580000001
 31
0.0
 12
3977.1430009999999
 22
1255.8908980000001
 32
0.0
 13
3977.1430009999999
 23
1255.8908980000001
 33
0.0
  0
TEXT
  5
45F
  8
LAYER01
  6
VERDECKT
 62
     7
 10
3925.1385019999998
 20
1300.2238580000001
 30
0.0
 40
70.0
  1
115
  0
POINT
  5
460
  8
LAYER01
 62
     7
 10
4036.1430009999999
 20
1188.1155980000001
 30
0.0
  0
POINT
  5
461
  8
LAYER01
 62
     7
 10
3921.1430009999999
 20
1188.1155980000001
 30
0.0
  0
POINT
  5
462
  8
LAYER01
 62
     7
 10
3921.1430009999999
 20
1265.2238580000001
 30
0.0
  0
ENDBLK
  5
463
  8
0
  0
BLOCK
  8
0
  2
*D17
 70
     1
 10
0.0
 20
0.0
 30
0.0
  3
*D17
  1

  0
LINE
  5
466
  8
LAYER01
 62
     7
 10
1124.6651690000001
 20
262.45224200000001
 30
0.0
 11
2424.6651690000008
 21
262.45224200000001
 31
0.0
  0
LINE
  5
467
  8
LAYER01
 62
     7
 10
1124.6651690000001
 20
177.534953
 30
0.0
 11
1124.6651690000001
 21
297.45224200000001
 31
0.0
  0
LINE
  5
468
  8
LAYER01
 62
     7
 10
2424.6651690000008
 20
177.534953
 30
0.0
 11
2424.6651690000008
 21
297.45224200000001
 31
0.0
  0
SOLID
  5
469
  8
LAYER01
 62
     7
 10
1180.6651690000001
 20
253.119282
 30
0.0
 11
1124.6651690000001
 21
262.45224200000001
 31
0.0
 12
1180.6651690000001
 22
271.78520200000003
 32
0.0
 13
1180.6651690000001
 23
271.78520200000003
 33
0.0
  0
SOLID
  5
46A
  8
LAYER01
 62
     7
 10
2368.6651690000008
 20
253.119282
 30
0.0
 11
2424.6651690000008
 21
262.45224200000001
 31
0.0
 12
2368.6651690000008
 22
271.78520200000003
 32
0.0
 13
2368.6651690000008
 23
271.78520200000003
 33
0.0
  0
TEXT
  5
46B
  8
LAYER01
  6
VERDECKT
 62
     7
 10
1701.618342999999
 20
297.45224200000001
 30
0.0
 40
70.0
  1
1300
  0
POINT
  5
46C
  8
LAYER01
 62
     7
 10
1124.6651690000001
 20
149.534953
 30
0.0
  0
POINT
  5
46D
  8
LAYER01
 62
     7
 10
2424.6651690000008
 20
149.534953
 30
0.0
  0
POINT
  5
46E
  8
LAYER01
 62
     7
 10
2424.6651690000008
 20
262.45224200000001
 30
0.0
  0
ENDBLK
  5
46F
  8
0
  0
BLOCK
  8
0
  2
*D18
 70
     1
 10
0.0
 20
0.0
 30
0.0
  3
*D18
  1

  0
LINE
  5
472
  8
LAYER01
 62
     7
 10
474.66516899999999
 20
384.56394899999998
 30
0.0
 11
3074.6651690000008
 21
384.56394899999998
 31
0.0
  0
LINE
  5
473
  8
LAYER01
 62
     7
 10
474.66516899999999
 20
177.534953
 30
0.0
 11
474.66516899999999
 21
419.56394899999998
 31
0.0
  0
LINE
  5
474
  8
LAYER01
 62
     7
 10
3074.6651690000008
 20
203.575007
 30
0.0
 11
3074.6651690000008
 21
419.56394899999998
 31
0.0
  0
SOLID
  5
475
  8
LAYER01
 62
     7
 10
530.66516899999988
 20
375.23098900000002
 30
0.0
 11
474.66516899999999
 21
384.56394899999998
 31
0.0
 12
530.66516899999988
 22
393.89690899999999
 32
0.0
 13
530.66516899999988
 23
393.89690899999999
 33
0.0
  0
SOLID
  5
476
  8
LAYER01
 62
     7
 10
3018.6651690000008
 20
375.23098900000002
 30
0.0
 11
3074.6651690000008
 21
384.56394899999998
 31
0.0
 12
3018.6651690000008
 22
393.89690899999999
 32
0.0
 13
3018.6651690000008
 23
393.89690899999999
 33
0.0
  0
TEXT
  5
477
  8
LAYER01
  6
VERDECKT
 62
     7
 10
1626.59626
 20
419.56394899999998
 30
0.0
 40
70.0
  1
1300 - 4000
  0
POINT
  5
478
  8
LAYER01
 62
     7
 10
474.66516899999999
 20
149.534953
 30
0.0
  0
POINT
  5
479
  8
LAYER01
 62
     7
 10
3074.6651690000008
 20
175.575007
 30
0.0
  0
POINT
  5
47A
  8
LAYER01
 62
     7
 10
3074.6651690000008
 20
384.56394899999998
 30
0.0
  0
ENDBLK
  5
47B
  8
0
  0
BLOCK
  8
0
  2
*D19
 70
     1
 10
0.0
 20
0.0
 30
0.0
  3
*D19
  1

  0
LINE
  5
47E
  8
LAYER01
 62
     7
 10
4237.8104670000002
 20
1007.858323
 30
0.0
 11
4237.8104670000002
 21
859.85832300000004
 31
0.0
  0
LINE
  5
47F
  8
LAYER01
 62
     7
 10
4064.1430009999999
 20
1007.858323
 30
0.0
 11
4272.8104670000002
 21
1007.858323
 31
0.0
  0
LINE
  5
480
  8
LAYER01
 62
     7
 10
4064.1430009999999
 20
859.85832300000004
 30
0.0
 11
4272.8104670000002
 21
859.85832300000004
 31
0.0
  0
SOLID
  5
481
  8
LAYER01
 62
     7
 10
4228.4775069999996
 20
951.85832300000004
 30
0.0
 11
4237.8104670000002
 21
1007.858323
 31
0.0
 12
4247.143427
 22
951.85832300000004
 32
0.0
 13
4247.143427
 23
951.85832300000004
 33
0.0
  0
SOLID
  5
482
  8
LAYER01
 62
     7
 10
4228.4775069999996
 20
915.85832300000015
 30
0.0
 11
4237.8104670000002
 21
859.85832300000004
 31
0.0
 12
4247.143427
 22
915.85832300000015
 32
0.0
 13
4247.143427
 23
915.85832300000015
 33
0.0
  0
TEXT
  5
483
  8
LAYER01
  6
CONTINUOUS
 62
     7
 10
4202.8104670000002
 20
881.09262799999976
 30
0.0
 40
70.0
  1
148
 50
90.0
  0
POINT
  5
484
  8
LAYER01
 62
     7
 10
4036.1430009999999
 20
1007.858323
 30
0.0
  0
POINT
  5
485
  8
LAYER01
 62
     7
 10
4036.1430009999999
 20
859.85832300000004
 30
0.0
  0
POINT
  5
486
  8
LAYER01
 62
     7
 10
4237.8104670000002
 20
859.85832300000004
 30
0.0
  0
ENDBLK
  5
487
  8
0
  0
BLOCK
  8
0
  2
*D20
 70
     1
 10
0.0
 20
0.0
 30
0.0
  3
*D20
  1

  0
LINE
  5
48A
  8
LAYER01
 62
     7
 10
474.66516899999999
 20
261.192814
 30
0.0
 11
1124.6651690000001
 21
261.192814
 31
0.0
  0
LINE
  5
48B
  8
LAYER01
 62
     7
 10
474.66516899999999
 20
177.534953
 30
0.0
 11
474.66516899999999
 21
296.192814
 31
0.0
  0
LINE
  5
48C
  8
LAYER01
 62
     7
 10
1124.6651690000001
 20
177.534953
 30
0.0
 11
1124.6651690000001
 21
296.192814
 31
0.0
  0
SOLID
  5
48D
  8
LAYER01
 62
     7
 10
530.66516899999988
 20
251.85985400000001
 30
0.0
 11
474.66516899999999
 21
261.192814
 31
0.0
 12
530.66516899999988
 22
270.52577400000001
 32
0.0
 13
530.66516899999988
 23
270.52577400000001
 33
0.0
  0
SOLID
  5
48E
  8
LAYER01
 62
     7
 10
1068.6651690000001
 20
251.85985400000001
 30
0.0
 11
1124.6651690000001
 21
261.192814
 31
0.0
 12
1068.6651690000001
 22
270.52577400000001
 32
0.0
 13
1068.6651690000001
 23
270.52577400000001
 33
0.0
  0
TEXT
  5
48F
  8
LAYER01
  6
VERDECKT
 62
     7
 10
744.88004899999987
 20
296.192814
 30
0.0
 40
70.0
  1
650
  0
POINT
  5
490
  8
LAYER01
 62
     7
 10
474.66516899999999
 20
149.534953
 30
0.0
  0
POINT
  5
491
  8
LAYER01
 62
     7
 10
1124.6651690000001
 20
149.534953
 30
0.0
  0
POINT
  5
492
  8
LAYER01
 62
     7
 10
1124.6651690000001
 20
261.192814
 30
0.0
  0
ENDBLK
  5
493
  8
0
  0
BLOCK
  8
0
  2
*D21
 70
     1
 10
0.0
 20
0.0
 30
0.0
  3
*D21
  1

  0
LINE
  5
496
  8
LAYER01
 62
     7
 10
357.32087799999999
 20
-425.46504699999991
 30
0.0
 11
357.32087799999999
 21
34.534953000000002
 31
0.0
  0
LINE
  5
497
  8
LAYER01
 62
     7
 10
446.66516899999999
 20
-425.46504699999991
 30
0.0
 11
322.32087799999999
 21
-425.46504699999991
 31
0.0
  0
LINE
  5
498
  8
LAYER01
 62
     7
 10
446.66516899999999
 20
34.534953000000002
 30
0.0
 11
322.32087799999999
 21
34.534953000000002
 31
0.0
  0
SOLID
  5
499
  8
LAYER01
 62
     7
 10
366.65383800000001
 20
-369.46504700000003
 30
0.0
 11
357.32087799999999
 21
-425.46504699999991
 31
0.0
 12
347.98791800000009
 22
-369.46504700000003
 32
0.0
 13
347.98791800000009
 23
-369.46504700000003
 33
0.0
  0
SOLID
  5
49A
  8
LAYER01
 62
     7
 10
366.65383800000001
 20
-21.465046999999998
 30
0.0
 11
357.32087799999999
 21
34.534953000000002
 31
0.0
 12
347.98791800000009
 22
-21.465046999999998
 32
0.0
 13
347.98791800000009
 23
-21.465046999999998
 33
0.0
  0
TEXT
  5
49B
  8
LAYER01
  6
VERDECKT
 62
     7
 10
322.32087799999999
 20
-248.11858000000001
 30
0.0
 40
70.0
  1
460
 50
90.0
  0
POINT
  5
49C
  8
LAYER01
 62
     7
 10
474.66516899999999
 20
-425.46504699999991
 30
0.0
  0
POINT
  5
49D
  8
LAYER01
 62
     7
 10
474.66516899999999
 20
34.534953000000002
 30
0.0
  0
POINT
  5
49E
  8
LAYER01
 62
     7
 10
357.32087799999999
 20
34.534953000000002
 30
0.0
  0
ENDBLK
  5
49F
  8
0
  0
BLOCK
  8
0
  2
*D22
 70
     1
 10
0.0
 20
0.0
 30
0.0
  3
*D22
  1

  0
LINE
  5
4A2
  8
LAYER01
 62
     7
 10
233.36568600000001
 20
-425.46504699999991
 30
0.0
 11
233.36568600000001
 21
-313.46504700000003
 31
0.0
  0
LINE
  5
4A3
  8
LAYER01
 62
     7
 10
233.36568600000001
 20
-485.46504700000003
 30
0.0
 11
233.36568600000001
 21
-597.46504700000003
 31
0.0
  0
LINE
  5
4A4
  8
LAYER01
 62
     7
 10
446.66516899999999
 20
-425.46504699999991
 30
0.0
 11
198.36568600000001
 21
-425.46504699999991
 31
0.0
  0
LINE
  5
4A5
  8
LAYER01
 62
     7
 10
446.66516899999999
 20
-485.46504700000003
 30
0.0
 11
198.36568600000001
 21
-485.46504700000003
 31
0.0
  0
SOLID
  5
4A6
  8
LAYER01
 62
     7
 10
224.032726
 20
-369.46504700000003
 30
0.0
 11
233.36568600000001
 21
-425.46504699999991
 31
0.0
 12
242.698646
 22
-369.46504700000003
 32
0.0
 13
242.698646
 23
-369.46504700000003
 33
0.0
  0
SOLID
  5
4A7
  8
LAYER01
 62
     7
 10
224.032726
 20
-541.46504700000003
 30
0.0
 11
233.36568600000001
 21
-485.46504700000003
 31
0.0
 12
242.698646
 22
-541.46504700000003
 32
0.0
 13
242.698646
 23
-541.46504700000003
 33
0.0
  0
TEXT
  5
4A8
  8
LAYER01
  6
VERDECKT
 62
     7
 10
198.36568600000001
 20
-278.46504700000003
 30
0.0
 40
70.0
  1
60
 50
90.0
  0
POINT
  5
4A9
  8
LAYER01
 62
     7
 10
474.66516899999999
 20
-425.46504699999991
 30
0.0
  0
POINT
  5
4AA
  8
LAYER01
 62
     7
 10
474.66516899999999
 20
-485.46504700000003
 30
0.0
  0
POINT
  5
4AB
  8
LAYER01
 62
     7
 10
233.36568600000001
 20
-485.46504700000003
 30
0.0
  0
ENDBLK
  5
4AC
  8
0
  0
BLOCK
  8
0
  2
*D23
 70
     1
 10
0.0
 20
0.0
 30
0.0
  3
*D23
  1

  0
LINE
  5
4AF
  8
LAYER01
 62
     7
 10
67.726448000000005
 20
-485.46504700000003
 30
0.0
 11
67.726448000000005
 21
149.534953
 31
0.0
  0
LINE
  5
4B0
  8
LAYER01
 62
     7
 10
446.66516899999999
 20
-485.46504700000003
 30
0.0
 11
32.726447999999998
 21
-485.46504700000003
 31
0.0
  0
LINE
  5
4B1
  8
LAYER01
 62
     7
 10
446.66516899999999
 20
149.534953
 30
0.0
 11
32.726447999999998
 21
149.534953
 31
0.0
  0
SOLID
  5
4B2
  8
LAYER01
 62
     7
 10
77.059407999999991
 20
-429.46504699999991
 30
0.0
 11
67.726448000000005
 21
-485.46504700000003
 31
0.0
 12
58.393487999999991
 22
-429.46504699999991
 32
0.0
 13
58.393487999999991
 23
-429.46504699999991
 33
0.0
  0
SOLID
  5
4B3
  8
LAYER01
 62
     7
 10
77.059407999999991
 20
93.534953000000002
 30
0.0
 11
67.726448000000005
 21
149.534953
 31
0.0
 12
58.393487999999991
 22
93.534953000000002
 32
0.0
 13
58.393487999999991
 23
93.534953000000002
 33
0.0
  0
TEXT
  5
4B4
  8
LAYER01
  6
VERDECKT
 62
     7
 10
32.726447999999998
 20
-220.61858000000001
 30
0.0
 40
70.0
  1
635
 50
90.0
  0
POINT
  5
4B5
  8
LAYER01
 62
     7
 10
474.66516899999999
 20
-485.46504700000003
 30
0.0
  0
POINT
  5
4B6
  8
LAYER01
 62
     7
 10
474.66516899999999
 20
149.534953
 30
0.0
  0
POINT
  5
4B7
  8
LAYER01
 62
     7
 10
67.726448000000005
 20
149.534953
 30
0.0
  0
ENDBLK
  5
4B8
  8
0
  0
BLOCK
  8
0
  2
MANHATAN-G25
 70
     0
 10
0.0
 20
0.0
 30
0.0
  3
MANHATAN-G25
  1

  0
LINE
  5
4BB
  8
LAYER01
  6
CONTINUOUS
 62
     7
 10
685.68671099999995
 20
53.118290000000002
 30
0.0
 11
645.68671100000006
 21
13.11829
 31
0.0
  0
LINE
  5
4BC
  8
LAYER01
  6
CONTINUOUS
 62
     7
 10
705.68671099999995
 20
53.118290000000002
 30
0.0
 11
665.68671099999995
 21
13.11829
 31
0.0
  0
LINE
  5
4BD
  8
LAYER01
  6
CONTINUOUS
 62
     7
 10
665.68671099999995
 20
181.28495699999999
 30
0.0
 11
685.68671099999995
 21
53.118290000000002
 31
0.0
  0
LINE
  5
4BE
  8
LAYER01
  6
CONTINUOUS
 62
     7
 10
685.68671099999995
 20
181.28495699999999
 30
0.0
 11
705.68671099999995
 21
53.118290000000002
 31
0.0
  0
LINE
  5
4BF
  8
LAYER01
  6
CONTINUOUS
 62
     7
 10
628.22764400000005
 20
-168.607091
 30
0.0
 11
648.22764400000005
 21
-296.77375799999999
 31
0.0
  0
LINE
  5
4C0
  8
LAYER01
  6
CONTINUOUS
 62
     7
 10
648.22764400000005
 20
-168.607091
 30
0.0
 11
668.22764400000005
 21
-296.77375799999999
 31
0.0
  0
LINE
  5
4C1
  8
LAYER01
  6
CONTINUOUS
 62
     7
 10
645.68671100000006
 20
13.11829
 30
0.0
 11
667.85989199999995
 21
-128.97484399999999
 31
0.0
  0
LINE
  5
4C2
  8
LAYER01
  6
CONTINUOUS
 62
     7
 10
628.22764400000005
 20
-168.607091
 30
0.0
 11
667.85989199999995
 21
-128.97484399999999
 31
0.0
  0
LINE
  5
4C3
  8
LAYER01
  6
CONTINUOUS
 62
     7
 10
648.22764400000005
 20
-168.607091
 30
0.0
 11
687.85989199999995
 21
-128.97484399999999
 31
0.0
  0
LINE
  5
4C4
  8
LAYER01
  6
CONTINUOUS
 62
     7
 10
665.68671099999995
 20
13.11829
 30
0.0
 11
687.85989199999995
 21
-128.97484399999999
 31
0.0
  0
LINE
  5
4C5
  8
LAYER01
  6
CONTINUOUS
 62
     7
 10
648.22764400000005
 20
-296.77375799999999
 30
0.0
 11
608.22764400000005
 21
-336.77375799999999
 31
0.0
  0
LINE
  5
4C6
  8
LAYER01
  6
CONTINUOUS
 62
     7
 10
668.22764400000005
 20
-296.77375799999999
 30
0.0
 11
628.22764400000005
 21
-336.77375799999999
 31
0.0
  0
LINE
  5
4C7
  8
LAYER01
  6
CONTINUOUS
 62
     7
 10
628.22764400000005
 20
-336.77375799999999
 30
0.0
 11
658.55010199999992
 21
-531.09017800000004
 31
0.0
  0
LINE
  5
4C8
  8
LAYER01
  6
CONTINUOUS
 62
     7
 10
608.22764400000005
 20
-336.77375799999999
 30
0.0
 11
638.44023300000003
 21
-530.38610300000005
 31
0.0
  0
ENDBLK
  5
4C9
  8
0
  0
BLOCK
  8
0
  2
*D25
 70
     1
 10
0.0
 20
0.0
 30
0.0
  3
*D25
  1

  0
LINE
  5
4CC
  8
LAYER01
 62
     7
 10
874.66516899999999
 20
-606.80976599999985
 30
0.0
 11
1374.6651690000001
 21
-606.80976599999985
 31
0.0
  0
LINE
  5
4CD
  8
LAYER01
 62
     7
 10
874.66516899999999
 20
-513.46504700000003
 30
0.0
 11
874.66516899999999
 21
-641.80976599999985
 31
0.0
  0
LINE
  5
4CE
  8
LAYER01
 62
     7
 10
1374.6651690000001
 20
-513.46504700000003
 30
0.0
 11
1374.6651690000001
 21
-641.80976599999985
 31
0.0
  0
SOLID
  5
4CF
  8
LAYER01
 62
     7
 10
930.66516899999999
 20
-616.14272599999993
 30
0.0
 11
874.66516899999999
 21
-606.80976599999985
 31
0.0
 12
930.66516899999999
 22
-597.47680600000001
 32
0.0
 13
930.66516899999999
 23
-597.47680600000001
 33
0.0
  0
SOLID
  5
4D0
  8
LAYER01
 62
     7
 10
1318.6651690000001
 20
-616.14272599999993
 30
0.0
 11
1374.6651690000001
 21
-606.80976599999985
 31
0.0
 12
1318.6651690000001
 22
-597.47680600000001
 32
0.0
 13
1318.6651690000001
 23
-597.47680600000001
 33
0.0
  0
TEXT
  5
4D1
  8
LAYER01
  6
VERDECKT
 62
     7
 10
1070.0495880000001
 20
-571.80976599999985
 30
0.0
 40
70.0
  1
500
  0
POINT
  5
4D2
  8
LAYER01
 62
     7
 10
874.66516899999999
 20
-485.46504700000003
 30
0.0
  0
POINT
  5
4D3
  8
LAYER01
 62
     7
 10
1374.6651690000001
 20
-485.46504700000003
 30
0.0
  0
POINT
  5
4D4
  8
LAYER01
 62
     7
 10
1374.6651690000001
 20
-606.80976599999985
 30
0.0
  0
ENDBLK
  5
4D5
  8
0
  0
BLOCK
  8
0
  2
MANHATAN-G27
 70
     0
 10
0.0
 20
0.0
 30
0.0
  3
MANHATAN-G27
  1

  0
LINE
  5
4D8
  8
LAYER01
  6
CONTINUOUS
 62
   255
 10
1124.6651690000001
 20
17.316707999999998
 30
0.0
 11
1124.6651690000001
 21
19.816707999999998
 31
0.0
  0
LINE
  5
4D9
  8
LAYER01
  6
CONTINUOUS
 62
   255
 10
1124.6651690000001
 20
17.316707999999998
 30
0.0
 11
1122.1651690000001
 21
17.316707999999998
 31
0.0
  0
LINE
  5
4DA
  8
LAYER01
  6
CONTINUOUS
 62
   255
 10
1124.6651690000001
 20
17.316707999999998
 30
0.0
 11
1124.6651690000001
 21
14.816708
 31
0.0
  0
LINE
  5
4DB
  8
LAYER01
  6
CONTINUOUS
 62
   255
 10
1124.6651690000001
 20
17.316707999999998
 30
0.0
 11
1127.1651690000001
 21
17.316707999999998
 31
0.0
  0
LINE
  5
4DC
  8
LAYER01
  6
CONTINUOUS
 62
   255
 10
1124.6651690000001
 20
22.316707999999998
 30
0.0
 11
1124.6651690000001
 21
42.816707999999991
 31
0.0
  0
LINE
  5
4DD
  8
LAYER01
  6
CONTINUOUS
 62
   255
 10
1119.6651690000001
 20
17.316707999999998
 30
0.0
 11
1099.1651690000001
 21
17.316707999999998
 31
0.0
  0
LINE
  5
4DE
  8
LAYER01
  6
CONTINUOUS
 62
   255
 10
1124.6651690000001
 20
12.316708
 30
0.0
 11
1124.6651690000001
 21
-8.1832919999999998
 31
0.0
  0
LINE
  5
4DF
  8
LAYER01
  6
CONTINUOUS
 62
   255
 10
1129.6651690000001
 20
17.316707999999998
 30
0.0
 11
1150.1651690000001
 21
17.316707999999998
 31
0.0
  0
ENDBLK
  5
4E0
  8
0
  0
BLOCK
  8
0
  2
*D27
 70
     1
 10
0.0
 20
0.0
 30
0.0
  3
*D27
  1

  0
LINE
  5
4E3
  8
LAYER01
 62
     7
 10
233.36568600000001
 20
1599.395278
 30
0.0
 11
233.36568600000001
 21
1711.395278
 31
0.0
  0
LINE
  5
4E4
  8
LAYER01
 62
     7
 10
233.36568600000001
 20
1539.395278
 30
0.0
 11
233.36568600000001
 21
1427.395278
 31
0.0
  0
LINE
  5
4E5
  8
LAYER01
 62
     7
 10
446.66516899999999
 20
1599.395278
 30
0.0
 11
198.36568600000001
 21
1599.395278
 31
0.0
  0
LINE
  5
4E6
  8
LAYER01
 62
     7
 10
446.66516899999999
 20
1539.395278
 30
0.0
 11
198.36568600000001
 21
1539.395278
 31
0.0
  0
SOLID
  5
4E7
  8
LAYER01
 62
     7
 10
224.032726
 20
1655.395278
 30
0.0
 11
233.36568600000001
 21
1599.395278
 31
0.0
 12
242.698646
 22
1655.395278
 32
0.0
 13
242.698646
 23
1655.395278
 33
0.0
  0
SOLID
  5
4E8
  8
LAYER01
 62
     7
 10
224.032726
 20
1483.395278
 30
0.0
 11
233.36568600000001
 21
1539.395278
 31
0.0
 12
242.698646
 22
1483.395278
 32
0.0
 13
242.698646
 23
1483.395278
 33
0.0
  0
TEXT
  5
4E9
  8
LAYER01
  6
VERDECKT
 62
     7
 10
198.36568600000001
 20
1746.395278
 30
0.0
 40
70.0
  1
60
 50
90.0
  0
POINT
  5
4EA
  8
LAYER01
 62
     7
 10
474.66516899999999
 20
1599.395278
 30
0.0
  0
POINT
  5
4EB
  8
LAYER01
 62
     7
 10
474.66516899999999
 20
1539.395278
 30
0.0
  0
POINT
  5
4EC
  8
LAYER01
 62
     7
 10
233.36568600000001
 20
1539.395278
 30
0.0
  0
ENDBLK
  5
4ED
  8
0
  0
BLOCK
  8
0
  2
*D28
 70
     1
 10
0.0
 20
0.0
 30
0.0
  3
*D28
  1

  0
LINE
  5
4F0
  8
LAYER01
 62
     7
 10
360.79051299999998
 20
1099.9611749999999
 30
0.0
 11
360.79051299999998
 21
954.96117500000003
 31
0.0
  0
LINE
  5
4F1
  8
LAYER01
 62
     7
 10
446.66516899999999
 20
1099.9611749999999
 30
0.0
 11
325.79051299999998
 21
1099.9611749999999
 31
0.0
  0
LINE
  5
4F2
  8
LAYER01
 62
     7
 10
446.66516899999999
 20
954.96117500000003
 30
0.0
 11
325.79051299999998
 21
954.96117500000003
 31
0.0
  0
SOLID
  5
4F3
  8
LAYER01
 62
     7
 10
351.45755300000002
 20
1043.9611749999999
 30
0.0
 11
360.79051299999998
 21
1099.9611749999999
 31
0.0
 12
370.12347299999999
 22
1043.9611749999999
 32
0.0
 13
370.12347299999999
 23
1043.9611749999999
 33
0.0
  0
SOLID
  5
4F4
  8
LAYER01
 62
     7
 10
351.45755300000002
 20
1010.961175
 30
0.0
 11
360.79051299999998
 21
954.96117500000003
 31
0.0
 12
370.12347299999999
 22
1010.961175
 32
0.0
 13
370.12347299999999
 23
1010.961175
 33
0.0
  0
TEXT
  5
4F5
  8
LAYER01
  6
VERDECKT
 62
     7
 10
325.79051299999998
 20
973.46622600000001
 30
0.0
 40
70.0
  1
145
 50
90.0
  0
POINT
  5
4F6
  8
LAYER01
 62
     7
 10
474.66516899999999
 20
1099.9611749999999
 30
0.0
  0
POINT
  5
4F7
  8
LAYER01
 62
     7
 10
474.66516899999999
 20
954.96117500000003
 30
0.0
  0
POINT
  5
4F8
  8
LAYER01
 62
     7
 10
360.79051299999998
 20
954.96117500000003
 30
0.0
  0
ENDBLK
  5
4F9
  8
0
  0
BLOCK
  8
0
  2
*D29
 70
     1
 10
0.0
 20
0.0
 30
0.0
  3
*D29
  1

  0
LINE
  5
4FC
  8
LAYER01
 62
     7
 10
360.79051299999998
 20
1099.9611749999999
 30
0.0
 11
360.79051299999998
 21
1249.9611749999999
 31
0.0
  0
LINE
  5
4FD
  8
LAYER01
 62
     7
 10
446.66516899999999
 20
1099.9611749999999
 30
0.0
 11
325.79051299999998
 21
1099.9611749999999
 31
0.0
  0
LINE
  5
4FE
  8
LAYER01
 62
     7
 10
446.66516899999999
 20
1249.9611749999999
 30
0.0
 11
325.79051299999998
 21
1249.9611749999999
 31
0.0
  0
SOLID
  5
4FF
  8
LAYER01
 62
     7
 10
370.12347299999999
 20
1155.9611749999999
 30
0.0
 11
360.79051299999998
 21
1099.9611749999999
 31
0.0
 12
351.45755300000002
 22
1155.9611749999999
 32
0.0
 13
351.45755300000002
 23
1155.9611749999999
 33
0.0
  0
SOLID
  5
500
  8
LAYER01
 62
     7
 10
370.12347299999999
 20
1193.9611749999999
 30
0.0
 11
360.79051299999998
 21
1249.9611749999999
 31
0.0
 12
351.45755300000002
 22
1193.9611749999999
 32
0.0
 13
351.45755300000002
 23
1193.9611749999999
 33
0.0
  0
TEXT
  5
501
  8
LAYER01
  6
VERDECKT
 62
     7
 10
325.79051299999998
 20
1120.966226
 30
0.0
 40
70.0
  1
150
 50
90.0
  0
POINT
  5
502
  8
LAYER01
 62
     7
 10
474.66516899999999
 20
1099.9611749999999
 30
0.0
  0
POINT
  5
503
  8
LAYER01
 62
     7
 10
474.66516899999999
 20
1249.9611749999999
 30
0.0
  0
POINT
  5
504
  8
LAYER01
 62
     7
 10
360.79051299999998
 20
1249.9611749999999
 30
0.0
  0
ENDBLK
  5
505
  8
0
  0
BLOCK
  8
0
  2
*D30
 70
     1
 10
0.0
 20
0.0
 30
0.0
  3
*D30
  1

  0
LINE
  5
508
  8
LAYER01
 62
     7
 10
2424.6651690000008
 20
262.45224200000001
 30
0.0
 11
3074.6651690000008
 21
262.45224200000001
 31
0.0
  0
LINE
  5
509
  8
LAYER01
 62
     7
 10
2424.6651690000008
 20
203.575007
 30
0.0
 11
2424.6651690000008
 21
297.45224200000001
 31
0.0
  0
LINE
  5
50A
  8
LAYER01
 62
     7
 10
3074.6651690000008
 20
203.575007
 30
0.0
 11
3074.6651690000008
 21
297.45224200000001
 31
0.0
  0
SOLID
  5
50B
  8
LAYER01
 62
     7
 10
2480.6651689999999
 20
253.119282
 30
0.0
 11
2424.6651690000008
 21
262.45224200000001
 31
0.0
 12
2480.6651689999999
 22
271.78520200000003
 32
0.0
 13
2480.6651689999999
 23
271.78520200000003
 33
0.0
  0
SOLID
  5
50C
  8
LAYER01
 62
     7
 10
3018.6651690000008
 20
253.119282
 30
0.0
 11
3074.6651690000008
 21
262.45224200000001
 31
0.0
 12
3018.6651690000008
 22
271.78520200000003
 32
0.0
 13
3018.6651690000008
 23
271.78520200000003
 33
0.0
  0
TEXT
  5
50D
  8
LAYER01
  6
VERDECKT
 62
     7
 10
2694.8800489999999
 20
297.45224200000001
 30
0.0
 40
70.0
  1
650
  0
POINT
  5
50E
  8
LAYER01
 62
     7
 10
2424.6651690000008
 20
175.575007
 30
0.0
  0
POINT
  5
50F
  8
LAYER01
 62
     7
 10
3074.6651690000008
 20
175.575007
 30
0.0
  0
POINT
  5
510
  8
LAYER01
 62
     7
 10
3074.6651690000008
 20
262.45224200000001
 30
0.0
  0
ENDBLK
  5
511
  8
0
  0
BLOCK
  8
0
  2
*D31
 70
     1
 10
0.0
 20
0.0
 30
0.0
  3
*D31
  1

  0
LINE
  5
514
  8
LAYER01
 62
     7
 10
2174.6651689999999
 20
-606.80976599999985
 30
0.0
 11
2674.6651690000008
 21
-606.80976599999985
 31
0.0
  0
LINE
  5
515
  8
LAYER01
 62
     7
 10
2174.6651689999999
 20
-513.46504700000003
 30
0.0
 11
2174.6651689999999
 21
-641.80976599999985
 31
0.0
  0
LINE
  5
516
  8
LAYER01
 62
     7
 10
2674.6651690000008
 20
-513.46504700000003
 30
0.0
 11
2674.6651690000008
 21
-641.80976599999985
 31
0.0
  0
SOLID
  5
517
  8
LAYER01
 62
     7
 10
2230.6651689999999
 20
-616.14272599999993
 30
0.0
 11
2174.6651689999999
 21
-606.80976599999985
 31
0.0
 12
2230.6651689999999
 22
-597.47680600000001
 32
0.0
 13
2230.6651689999999
 23
-597.47680600000001
 33
0.0
  0
SOLID
  5
518
  8
LAYER01
 62
     7
 10
2618.6651690000008
 20
-616.14272599999993
 30
0.0
 11
2674.6651690000008
 21
-606.80976599999985
 31
0.0
 12
2618.6651690000008
 22
-597.47680600000001
 32
0.0
 13
2618.6651690000008
 23
-597.47680600000001
 33
0.0
  0
TEXT
  5
519
  8
LAYER01
  6
VERDECKT
 62
     7
 10
2370.0495879999999
 20
-571.80976599999985
 30
0.0
 40
70.0
  1
500
  0
POINT
  5
51A
  8
LAYER01
 62
     7
 10
2174.6651689999999
 20
-485.46504700000003
 30
0.0
  0
POINT
  5
51B
  8
LAYER01
 62
     7
 10
2674.6651690000008
 20
-485.46504700000003
 30
0.0
  0
POINT
  5
51C
  8
LAYER01
 62
     7
 10
2674.6651690000008
 20
-606.80976599999985
 30
0.0
  0
ENDBLK
  5
51D
  8
0
  0
BLOCK
  8
0
  2
MANHATAN-G33
 70
     0
 10
0.0
 20
0.0
 30
0.0
  3
MANHATAN-G33
  1

  0
LINE
  5
520
  8
LAYER01
  6
CONTINUOUS
 62
     7
 10
1817.9125160000001
 20
53.118290000000002
 30
0.0
 11
1777.9125160000001
 21
13.11829
 31
0.0
  0
LINE
  5
521
  8
LAYER01
  6
CONTINUOUS
 62
     7
 10
1837.9125160000001
 20
53.118290000000002
 30
0.0
 11
1797.9125160000001
 21
13.11829
 31
0.0
  0
LINE
  5
522
  8
LAYER01
  6
CONTINUOUS
 62
     7
 10
1797.9125160000001
 20
181.28495699999999
 30
0.0
 11
1817.9125160000001
 21
53.118290000000002
 31
0.0
  0
LINE
  5
523
  8
LAYER01
  6
CONTINUOUS
 62
     7
 10
1817.9125160000001
 20
181.28495699999999
 30
0.0
 11
1837.9125160000001
 21
53.118290000000002
 31
0.0
  0
LINE
  5
524
  8
LAYER01
  6
CONTINUOUS
 62
     7
 10
1760.45345
 20
-168.607091
 30
0.0
 11
1780.45345
 21
-296.77375799999999
 31
0.0
  0
LINE
  5
525
  8
LAYER01
  6
CONTINUOUS
 62
     7
 10
1780.45345
 20
-168.607091
 30
0.0
 11
1800.45345
 21
-296.77375799999999
 31
0.0
  0
LINE
  5
526
  8
LAYER01
  6
CONTINUOUS
 62
     7
 10
1777.9125160000001
 20
13.11829
 30
0.0
 11
1800.085697
 21
-128.97484399999999
 31
0.0
  0
LINE
  5
527
  8
LAYER01
  6
CONTINUOUS
 62
     7
 10
1760.45345
 20
-168.607091
 30
0.0
 11
1800.085697
 21
-128.97484399999999
 31
0.0
  0
LINE
  5
528
  8
LAYER01
  6
CONTINUOUS
 62
     7
 10
1780.45345
 20
-168.607091
 30
0.0
 11
1820.085697
 21
-128.97484399999999
 31
0.0
  0
LINE
  5
529
  8
LAYER01
  6
CONTINUOUS
 62
     7
 10
1797.9125160000001
 20
13.11829
 30
0.0
 11
1820.085697
 21
-128.97484399999999
 31
0.0
  0
LINE
  5
52A
  8
LAYER01
  6
CONTINUOUS
 62
     7
 10
1780.45345
 20
-296.77375799999999
 30
0.0
 11
1740.45345
 21
-336.77375799999999
 31
0.0
  0
LINE
  5
52B
  8
LAYER01
  6
CONTINUOUS
 62
     7
 10
1800.45345
 20
-296.77375799999999
 30
0.0
 11
1760.45345
 21
-336.77375799999999
 31
0.0
  0
LINE
  5
52C
  8
LAYER01
  6
CONTINUOUS
 62
     7
 10
1760.45345
 20
-336.77375799999999
 30
0.0
 11
1790.7759080000001
 21
-531.09017800000004
 31
0.0
  0
LINE
  5
52D
  8
LAYER01
  6
CONTINUOUS
 62
     7
 10
1740.45345
 20
-336.77375799999999
 30
0.0
 11
1770.666039
 21
-530.38610300000005
 31
0.0
  0
ENDBLK
  5
52E
  8
0
  0
BLOCK
  8
0
  2
MANHATAN-G34
 70
     0
 10
0.0
 20
0.0
 30
0.0
  3
MANHATAN-G34
  1

  0
LINE
  5
531
  8
LAYER01
  6
CONTINUOUS
 62
   255
 10
2424.6651690000008
 20
17.316707999999998
 30
0.0
 11
2424.6651690000008
 21
19.816707999999998
 31
0.0
  0
LINE
  5
532
  8
LAYER01
  6
CONTINUOUS
 62
   255
 10
2424.6651690000008
 20
17.316707999999998
 30
0.0
 11
2422.1651690000008
 21
17.316707999999998
 31
0.0
  0
LINE
  5
533
  8
LAYER01
  6
CONTINUOUS
 62
   255
 10
2424.6651690000008
 20
17.316707999999998
 30
0.0
 11
2424.6651690000008
 21
14.816708
 31
0.0
  0
LINE
  5
534
  8
LAYER01
  6
CONTINUOUS
 62
   255
 10
2424.6651690000008
 20
17.316707999999998
 30
0.0
 11
2427.1651689999999
 21
17.316707999999998
 31
0.0
  0
LINE
  5
535
  8
LAYER01
  6
CONTINUOUS
 62
   255
 10
2424.6651690000008
 20
22.316707999999998
 30
0.0
 11
2424.6651690000008
 21
42.816707999999991
 31
0.0
  0
LINE
  5
536
  8
LAYER01
  6
CONTINUOUS
 62
   255
 10
2419.6651689999999
 20
17.316707999999998
 30
0.0
 11
2399.1651690000008
 21
17.316707999999998
 31
0.0
  0
LINE
  5
537
  8
LAYER01
  6
CONTINUOUS
 62
   255
 10
2424.6651690000008
 20
12.316708
 30
0.0
 11
2424.6651690000008
 21
-8.1832919999999998
 31
0.0
  0
LINE
  5
538
  8
LAYER01
  6
CONTINUOUS
 62
   255
 10
2429.6651690000008
 20
17.316707999999998
 30
0.0
 11
2450.1651689999999
 21
17.316707999999998
 31
0.0
  0
ENDBLK
  5
539
  8
0
  0
BLOCK
  8
0
  2
MANHATAN-G35
 70
     0
 10
0.0
 20
0.0
 30
0.0
  3
MANHATAN-G35
  1

  0
LINE
  5
53C
  8
LAYER01
  6
CONTINUOUS
 62
     7
 10
2955.1760340000001
 20
53.118290000000002
 30
0.0
 11
2915.1760340000001
 21
13.11829
 31
0.0
  0
LINE
  5
53D
  8
LAYER01
  6
CONTINUOUS
 62
     7
 10
2975.1760340000001
 20
53.118290000000002
 30
0.0
 11
2935.1760340000001
 21
13.11829
 31
0.0
  0
LINE
  5
53E
  8
LAYER01
  6
CONTINUOUS
 62
     7
 10
2935.1760340000001
 20
181.28495699999999
 30
0.0
 11
2955.1760340000001
 21
53.118290000000002
 31
0.0
  0
LINE
  5
53F
  8
LAYER01
  6
CONTINUOUS
 62
     7
 10
2955.1760340000001
 20
181.28495699999999
 30
0.0
 11
2975.1760340000001
 21
53.118290000000002
 31
0.0
  0
LINE
  5
540
  8
LAYER01
  6
CONTINUOUS
 62
     7
 10
2897.7169669999998
 20
-168.607091
 30
0.0
 11
2917.7169669999998
 21
-296.77375799999999
 31
0.0
  0
LINE
  5
541
  8
LAYER01
  6
CONTINUOUS
 62
     7
 10
2917.7169669999998
 20
-168.607091
 30
0.0
 11
2937.7169669999998
 21
-296.77375799999999
 31
0.0
  0
LINE
  5
542
  8
LAYER01
  6
CONTINUOUS
 62
     7
 10
2915.1760340000001
 20
13.11829
 30
0.0
 11
2937.3492150000002
 21
-128.97484399999999
 31
0.0
  0
LINE
  5
543
  8
LAYER01
  6
CONTINUOUS
 62
     7
 10
2897.7169669999998
 20
-168.607091
 30
0.0
 11
2937.3492150000002
 21
-128.97484399999999
 31
0.0
  0
LINE
  5
544
  8
LAYER01
  6
CONTINUOUS
 62
     7
 10
2917.7169669999998
 20
-168.607091
 30
0.0
 11
2957.3492150000002
 21
-128.97484399999999
 31
0.0
  0
LINE
  5
545
  8
LAYER01
  6
CONTINUOUS
 62
     7
 10
2935.1760340000001
 20
13.11829
 30
0.0
 11
2957.3492150000002
 21
-128.97484399999999
 31
0.0
  0
LINE
  5
546
  8
LAYER01
  6
CONTINUOUS
 62
     7
 10
2917.7169669999998
 20
-296.77375799999999
 30
0.0
 11
2877.7169669999998
 21
-336.77375799999999
 31
0.0
  0
LINE
  5
547
  8
LAYER01
  6
CONTINUOUS
 62
     7
 10
2937.7169669999998
 20
-296.77375799999999
 30
0.0
 11
2897.7169669999998
 21
-336.77375799999999
 31
0.0
  0
LINE
  5
548
  8
LAYER01
  6
CONTINUOUS
 62
     7
 10
2897.7169669999998
 20
-336.77375799999999
 30
0.0
 11
2928.0394260000012
 21
-531.09017800000004
 31
0.0
  0
LINE
  5
549
  8
LAYER01
  6
CONTINUOUS
 62
     7
 10
2877.7169669999998
 20
-336.77375799999999
 30
0.0
 11
2907.9295569999999
 21
-530.38610300000005
 31
0.0
  0
ENDBLK
  5
54A
  8
0
  0
BLOCK
  8
0
  2
*D35
 70
     1
 10
0.0
 20
0.0
 30
0.0
  3
*D35
  1

  0
LINE
  5
54D
  8
LAYER01
 62
     7
 10
3404.2897440000002
 20
1019.5021829999999
 30
0.0
 11
3290.999871
 21
1303.3821049999999
 31
0.0
  0
LINE
  5
54E
  8
LAYER01
 62
     7
 10
3290.999871
 20
1303.3821049999999
 30
0.0
 11
3164.911748
 21
1303.3821049999999
 31
0.0
  0
SOLID
  5
54F
  8
LAYER01
 62
     7
 10
3392.201462
 20
1074.972694
 30
0.0
 11
3404.2897440000002
 21
1019.5021829999999
 31
0.0
 12
3374.8650770000008
 22
1068.0541459999999
 32
0.0
 13
3374.8650770000008
 23
1068.0541459999999
 33
0.0
  0
TEXT
  5
550
  8
LAYER01
  6
VERDECKT
 62
     7
 10
3048.6180899999999
 20
1268.3821049999999
 30
0.0
 40
70.0
  1
R5
  0
POINT
  5
551
  8
LAYER01
 62
     7
 10
3406.1430009999999
 20
1014.858323
 30
0.0
  0
POINT
  5
552
  8
LAYER01
 62
     7
 10
3290.999871
 20
1303.3821049999999
 30
0.0
  0
ENDBLK
  5
553
  8
0
  0
BLOCK
  8
0
  2
*D36
 70
     1
 10
0.0
 20
0.0
 30
0.0
  3
*D36
  1

  0
LINE
  5
556
  8
LAYER01
 62
     7
 10
3100.9376860000002
 20
1019.858323
 30
0.0
 11
3100.9376860000002
 21
1169.8583229999999
 31
0.0
  0
LINE
  5
557
  8
LAYER01
 62
     7
 10
3373.1430009999999
 20
1019.858323
 30
0.0
 11
3065.9376860000002
 21
1019.858323
 31
0.0
  0
LINE
  5
558
  8
LAYER01
 62
     7
 10
3373.1430009999999
 20
1169.8583229999999
 30
0.0
 11
3065.9376860000002
 21
1169.8583229999999
 31
0.0
  0
SOLID
  5
559
  8
LAYER01
 62
     7
 10
3110.2706459999999
 20
1075.8583229999999
 30
0.0
 11
3100.9376860000002
 21
1019.858323
 31
0.0
 12
3091.604726
 22
1075.8583229999999
 32
0.0
 13
3091.604726
 23
1075.8583229999999
 33
0.0
  0
SOLID
  5
55A
  8
LAYER01
 62
     7
 10
3110.2706459999999
 20
1113.8583229999999
 30
0.0
 11
3100.9376860000002
 21
1169.8583229999999
 31
0.0
 12
3091.604726
 22
1113.8583229999999
 32
0.0
 13
3091.604726
 23
1113.8583229999999
 33
0.0
  0
TEXT
  5
55B
  8
LAYER01
  6
CONTINUOUS
 62
     7
 10
3065.9376860000002
 20
1041.68796
 30
0.0
 40
70.0
  1
150
 50
90.0
  0
POINT
  5
55C
  8
LAYER01
 62
     7
 10
3401.1430009999999
 20
1019.858323
 30
0.0
  0
POINT
  5
55D
  8
LAYER01
 62
     7
 10
3401.1430009999999
 20
1169.8583229999999
 30
0.0
  0
POINT
  5
55E
  8
LAYER01
 62
     7
 10
3100.9376860000002
 20
1169.8583229999999
 30
0.0
  0
ENDBLK
  5
55F
  8
0
  0
BLOCK
  8
0
  2
*D37
 70
     1
 10
0.0
 20
0.0
 30
0.0
  3
*D37
  1

  0
LINE
  5
562
  8
LAYER01
 62
     7
 10
3298.9677470000001
 20
1019.858323
 30
0.0
 11
3298.9677470000001
 21
1131.8583229999999
 31
0.0
  0
LINE
  5
563
  8
LAYER01
 62
     7
 10
3298.9677470000001
 20
929.85832300000004
 30
0.0
 11
3298.9677470000001
 21
817.85832300000004
 31
0.0
  0
LINE
  5
564
  8
LAYER01
 62
     7
 10
3373.1430009999999
 20
1019.858323
 30
0.0
 11
3263.9677470000001
 21
1019.858323
 31
0.0
  0
LINE
  5
565
  8
LAYER01
 62
     7
 10
3373.1430009999999
 20
929.85832300000004
 30
0.0
 11
3263.9677470000001
 21
929.85832300000004
 31
0.0
  0
SOLID
  5
566
  8
LAYER01
 62
     7
 10
3289.634787
 20
1075.8583229999999
 30
0.0
 11
3298.9677470000001
 21
1019.858323
 31
0.0
 12
3308.3007069999999
 22
1075.8583229999999
 32
0.0
 13
3308.3007069999999
 23
1075.8583229999999
 33
0.0
  0
SOLID
  5
567
  8
LAYER01
 62
     7
 10
3289.634787
 20
873.85832300000015
 30
0.0
 11
3298.9677470000001
 21
929.85832300000004
 31
0.0
 12
3308.3007069999999
 22
873.85832300000015
 32
0.0
 13
3308.3007069999999
 23
873.85832300000015
 33
0.0
  0
TEXT
  5
568
  8
LAYER01
  6
CONTINUOUS
 62
     7
 10
3263.9677470000001
 20
937.84673399999997
 30
0.0
 40
70.0
  1
90
 50
90.0
  0
POINT
  5
569
  8
LAYER01
 62
     7
 10
3401.1430009999999
 20
1019.858323
 30
0.0
  0
POINT
  5
56A
  8
LAYER01
 62
     7
 10
3401.1430009999999
 20
929.85832300000004
 30
0.0
  0
POINT
  5
56B
  8
LAYER01
 62
     7
 10
3298.9677470000001
 20
929.85832300000004
 30
0.0
  0
ENDBLK
  5
56C
  8
0
  0
BLOCK
  8
0
  2
*D38
 70
     1
 10
0.0
 20
0.0
 30
0.0
  3
*D38
  1

  0
LINE
  5
56F
  8
LAYER01
 62
     7
 10
3100.9376860000002
 20
874.85832300000015
 30
0.0
 11
3100.9376860000002
 21
1019.858323
 31
0.0
  0
LINE
  5
570
  8
LAYER01
 62
     7
 10
3373.1430009999999
 20
874.85832300000015
 30
0.0
 11
3065.9376860000002
 21
874.85832300000015
 31
0.0
  0
LINE
  5
571
  8
LAYER01
 62
     7
 10
3373.1430009999999
 20
1019.858323
 30
0.0
 11
3065.9376860000002
 21
1019.858323
 31
0.0
  0
SOLID
  5
572
  8
LAYER01
 62
     7
 10
3110.2706459999999
 20
930.85832299999993
 30
0.0
 11
3100.9376860000002
 21
874.85832300000015
 31
0.0
 12
3091.604726
 22
930.85832299999993
 32
0.0
 13
3091.604726
 23
930.85832299999993
 33
0.0
  0
SOLID
  5
573
  8
LAYER01
 62
     7
 10
3110.2706459999999
 20
963.85832300000004
 30
0.0
 11
3100.9376860000002
 21
1019.858323
 31
0.0
 12
3091.604726
 22
963.85832300000004
 32
0.0
 13
3091.604726
 23
963.85832300000004
 33
0.0
  0
TEXT
  5
574
  8
LAYER01
  6
CONTINUOUS
 62
     7
 10
3065.9376860000002
 20
894.18795999999998
 30
0.0
 40
70.0
  1
145
 50
90.0
  0
POINT
  5
575
  8
LAYER01
 62
     7
 10
3401.1430009999999
 20
874.85832300000015
 30
0.0
  0
POINT
  5
576
  8
LAYER01
 62
     7
 10
3401.1430009999999
 20
1019.858323
 30
0.0
  0
POINT
  5
577
  8
LAYER01
 62
     7
 10
3100.9376860000002
 20
1019.858323
 30
0.0
  0
ENDBLK
  5
578
  8
0
  0
ENDSEC
  0
SECTION
  2
ENTITIES
  0
POLYLINE
  5
57D
  8
LAYER01
  6
CONTINUOUS
 62
     7
 66
     1
 10
0.0
 20
0.0
 30
0.0
 70
     1
  0
VERTEX
  5
D3B
  8
LAYER01
  6
CONTINUOUS
 62
     7
 10
-499.56538799999993
 20
-1003.3935770000001
 30
0.0
  0
VERTEX
  5
D3C
  8
LAYER01
  6
CONTINUOUS
 62
     7
 10
-499.56538799999993
 20
3037.6315509999999
 30
0.0
  0
VERTEX
  5
D3D
  8
LAYER01
  6
CONTINUOUS
 62
     7
 10
5254.1922100000002
 20
3037.6315509999999
 30
0.0
  0
VERTEX
  5
D3E
  8
LAYER01
  6
CONTINUOUS
 62
     7
 10
5254.1922100000002
 20
-1003.3935770000001
 30
0.0
  0
SEQEND
  5
D3F
  8
LAYER01
  6
CONTINUOUS
 62
     7
  0
INSERT
  5
583
  8
LAYER01
  2
MANHATAN-G1
 10
0.0
 20
0.0
 30
0.0
  0
INSERT
  5
584
  8
LAYER01
  2
MANHATAN-G2
 10
0.0
 20
0.0
 30
0.0
  0
TEXT
  5
585
  8
LAYER01
  6
STRICHPUNKTIERT
 62
     7
 10
4075.5047326381368
 20
-518.48795056396125
 30
0.0
 40
39.285955799999989
  1
http://www.mineralwerkstoff.de
  0
TEXT
  5
586
  8
LAYER01
  6
VERDECKT
 62
     1
 10
4754.6611430000003
 20
-758.874233
 30
0.0
 40
25.0
  1
A. Sprenger GmbH
  7
SIMPLEX
  0
TEXT
  5
587
  8
LAYER01
  6
CONTINUOUS
 62
     7
 10
4746.5509869999987
 20
-604.05256399999985
 30
0.0
 40
7.5
  1
Diese Zeichnung ist geistiges Eigentum der A. Sprenger GmbH
  7
SIMPLEX
  0
TEXT
  5
588
  8
LAYER01
  6
CONTINUOUS
 62
     7
 10
4746.5509869999987
 20
-616.90970700000003
 30
0.0
 40
7.5
  1
und urheberrechtlich geschützt. Ohne unsere Zustimmung darf 
  7
SIMPLEX
  0
TEXT
  5
589
  8
LAYER01
  6
CONTINUOUS
 62
     7
 10
4746.5509869999987
 20
-629.76684999999998
 30
0.0
 40
7.5
  1
sie in keiner Form verwendet oder Dritten zugänglich gemacht
  7
SIMPLEX
  0
TEXT
  5
58A
  8
LAYER01
  6
CONTINUOUS
 62
     7
 10
4746.5509869999987
 20
-642.62399299999993
 30
0.0
 40
7.5
  1
werden. (§106 Urheberrecht)
  7
SIMPLEX
  0
TEXT
  5
58B
  8
LAYER01
  6
VERDECKT
 62
     1
 10
4754.6611430000003
 20
-857.05711699999995
 30
0.0
 40
35.0
  1
Manhattan
  7
SIMPLEX
  0
TEXT
  5
58C
  8
LAYER01
  6
VERDECKT
 62
     1
 10
4619.1522369999993
 20
-816.795568
 30
0.0
 40
10.0
  1
b.s.
  7
SIMPLEX
  0
TEXT
  5
58D
  8
LAYER01
  6
VERDECKT
 62
     1
 10
4522.9950799999997
 20
-816.75903099999994
 30
0.0
 40
10.0
  1
15.4.2021
  7
SIMPLEX
  0
TEXT
  5
58E
  8
LAYER01
  6
VERDECKT
 62
     1
 10
5078.3334649999997
 20
-694.39592100000004
 30
0.0
 40
10.0
  1
xxx.skd
  7
SIMPLEX
  0
TEXT
  5
58F
  8
LAYER01
  6
VERDECKT
 62
     1
 10
4820.6048709999995
 20
-694.39592100000004
 30
0.0
 40
10.0
  1
1 : 10 (DIN A3)
  7
SIMPLEX
  0
LINE
  5
590
  8
LAYER01
  6
CONTINUOUS
 62
     7
 10
2474.6651689999999
 20
1539.395278
 30
0.0
 11
474.66516899999999
 21
1539.395278
 31
0.0
  0
LINE
  5
591
  8
LAYER01
  6
CONTINUOUS
 62
     7
 10
2474.6651689999999
 20
2174.395278
 30
0.0
 11
474.66516899999999
 21
2174.395278
 31
0.0
  0
LINE
  5
592
  8
LAYER01
  6
CONTINUOUS
 62
     7
 10
2474.6651689999999
 20
2162.395278
 30
0.0
 11
474.66516899999999
 21
2162.395278
 31
0.0
  0
LINE
  5
593
  8
LAYER01
  6
CONTINUOUS
 62
     7
 10
1417.1651690000001
 20
2037.1770329999999
 30
0.0
 11
1532.1651690000001
 21
2037.1770329999999
 31
0.0
  0
LINE
  5
594
  8
LAYER01
  6
CONTINUOUS
 62
     7
 10
1532.1651690000001
 20
2047.1770329999999
 30
0.0
 11
1417.1651690000001
 21
2047.1770329999999
 31
0.0
  0
LINE
  5
595
  8
LAYER01
  6
CONTINUOUS
 62
     7
 10
1534.6651690000001
 20
2032.0338380000001
 30
0.0
 11
1414.6651690000001
 21
2032.0338380000001
 31
0.0
  0
LINE
  5
596
  8
LAYER01
  6
CONTINUOUS
 62
     7
 10
1719.9484689999999
 20
2029.678578
 30
0.0
 11
1229.3818690000001
 21
2029.678578
 31
0.0
  0
LINE
  5
597
  8
LAYER01
  6
CONTINUOUS
 62
     7
 10
1224.6651690000001
 20
1599.395278
 30
0.0
 11
1724.6651690000001
 21
1599.395278
 31
0.0
  0
LINE
  5
598
  8
LAYER01
  6
CONTINUOUS
 62
     7
 10
1224.6651690000001
 20
1599.395278
 30
0.0
 11
1724.6651690000001
 21
1599.395278
 31
0.0
  0
LINE
  5
599
  8
LAYER01
  6
CONTINUOUS
 62
     7
 10
1534.6651690000001
 20
2052.320228
 30
0.0
 11
1414.6651690000001
 21
2052.320228
 31
0.0
  0
LINE
  5
59A
  8
LAYER01
  6
CONTINUOUS
 62
     7
 10
1724.6651690000001
 20
2059.395278
 30
0.0
 11
1224.6651690000001
 21
2059.395278
 31
0.0
  0
LINE
  5
59B
  8
LAYER01
  6
VERDECKT
 62
     7
 10
474.66516899999999
 20
1551.395278
 30
0.0
 11
2474.6651689999999
 21
1551.395278
 31
0.0
  0
LINE
  5
59C
  8
LAYER01
  6
VERDECKT
 62
     3
 10
1219.0088659999999
 20
2019.303465
 30
0.0
 11
1446.554142
 21
2021.5742720000001
 31
0.0
  0
LINE
  5
59D
  8
LAYER01
  6
VERDECKT
 62
     3
 10
1219.0088659999999
 20
2065.0515810000002
 30
0.0
 11
1446.554142
 21
2062.7777940000001
 31
0.0
  0
DIMENSION
  5
59E
  8
LAYER01
 62
     7
  2
*D3
 10
1474.6651690000001
 20
2287.7501390000002
 30
0.0
 11
1108.0965249999999
 21
2357.7501390000002
 31
0.0
 13
474.66516899999999
 23
2174.395278
 33
0.0
 14
1474.6651690000001
 24
2174.395278
 34
0.0
  0
DIMENSION
  5
59F
  8
LAYER01
 62
     7
  2
*D4
 10
1724.6651690000001
 20
1418.050559
 30
0.0
 11
1474.526836
 21
1488.050559
 31
0.0
 13
1224.6651690000001
 23
1539.395278
 33
0.0
 14
1724.6651690000001
 24
1539.395278
 34
0.0
  0
DIMENSION
  5
5A0
  8
LAYER01
 62
     7
  2
*D5
 10
474.66516899999999
 20
2439.9687680000002
 30
0.0
 11
1497.1199810000001
 21
2509.9687680000002
 31
0.0
 13
2474.6651689999999
 23
2174.395278
 33
0.0
 14
474.66516899999999
 24
2174.395278
 34
0.0
  0
DIMENSION
  5
5A1
  8
LAYER01
 62
     7
  2
*D6
 10
357.32087799999999
 20
2059.395278
 30
0.0
 11
287.32087799999999
 21
1831.218993
 31
0.0
 53
90.0
 13
474.66516899999999
 23
1599.395278
 33
0.0
 14
474.66516899999999
 24
2059.395278
 34
0.0
 50
90.0
  0
DIMENSION
  5
5A2
  8
LAYER01
 62
     7
  2
*D7
 10
67.726448000000005
 20
2174.395278
 30
0.0
 11
-2.273552
 21
1858.718993
 31
0.0
 53
90.0
 13
474.66516899999999
 23
1539.395278
 33
0.0
 14
474.66516899999999
 24
2174.395278
 34
0.0
 50
90.0
  0
LINE
  5
5A3
  8
LAYER01
  6
CONTINUOUS
 62
     7
 10
474.66516899999999
 20
2154.395278
 30
0.0
 11
474.66516899999999
 21
1544.395278
 31
0.0
  0
LINE
  5
5A4
  8
LAYER01
  6
CONTINUOUS
 62
     7
 10
1224.6651690000001
 20
2059.395278
 30
0.0
 11
1224.6651690000001
 21
1599.395278
 31
0.0
  0
LINE
  5
5A5
  8
LAYER01
  6
CONTINUOUS
 62
     7
 10
1229.3818690000001
 20
2029.678578
 30
0.0
 11
1224.6651690000001
 21
1599.395278
 31
0.0
  0
LINE
  5
5A6
  8
LAYER01
  6
CONTINUOUS
 62
     7
 10
474.66516899999999
 20
2154.395278
 30
0.0
 11
474.66516899999999
 21
2162.395278
 31
0.0
  0
LINE
  5
5A7
  8
LAYER01
  6
CONTINUOUS
 62
     7
 10
474.66516899999999
 20
2174.395278
 30
0.0
 11
474.66516899999999
 21
2167.395278
 31
0.0
  0
LINE
  5
5A8
  8
LAYER01
  6
CONTINUOUS
 62
     7
 10
474.66516899999999
 20
2162.395278
 30
0.0
 11
474.66516899999999
 21
2167.395278
 31
0.0
  0
LINE
  5
5A9
  8
LAYER01
  6
CONTINUOUS
 62
     7
 10
1421.6651690000001
 20
2021.3258900000001
 30
0.0
 11
1421.6651690000001
 21
2063.0265020000002
 31
0.0
  0
LINE
  5
5AA
  8
LAYER01
  6
CONTINUOUS
 62
     7
 10
1414.6651690000001
 20
2032.0338380000001
 30
0.0
 11
1414.6651690000001
 21
2052.320228
 31
0.0
  0
LINE
  5
5AB
  8
LAYER01
  6
CONTINUOUS
 62
     7
 10
1230.4700539999999
 20
2053.5903929999999
 30
0.0
 11
1230.4700539999999
 21
2030.765337
 31
0.0
  0
LINE
  5
5AC
  8
LAYER01
  6
CONTINUOUS
 62
     7
 10
1417.1651690000001
 20
2047.1770329999999
 30
0.0
 11
1417.1651690000001
 21
2037.1770329999999
 31
0.0
  0
LINE
  5
5AD
  8
LAYER01
  6
CONTINUOUS
 62
     7
 10
1414.6651690000001
 20
2032.0338380000001
 30
0.0
 11
1230.4700539999999
 21
2030.765337
 31
0.0
  0
LINE
  5
5AE
  8
LAYER01
  6
CONTINUOUS
 62
     7
 10
1229.3818690000001
 20
2029.678578
 30
0.0
 11
1230.4700539999999
 21
2030.765337
 31
0.0
  0
LINE
  5
5AF
  8
LAYER01
  6
CONTINUOUS
 62
     7
 10
1224.6651690000001
 20
2059.395278
 30
0.0
 11
1230.4700539999999
 21
2053.5903929999999
 31
0.0
  0
LINE
  5
5B0
  8
LAYER01
  6
CONTINUOUS
 62
     7
 10
1414.6651690000001
 20
2052.320228
 30
0.0
 11
1230.4700539999999
 21
2053.5903929999999
 31
0.0
  0
LINE
  5
5B1
  8
LAYER01
  6
VERDECKT
 62
     3
 10
1219.0088659999999
 20
2065.0515810000002
 30
0.0
 11
1219.0088659999999
 21
2019.303465
 31
0.0
  0
LINE
  5
5B2
  8
LAYER01
  6
CONTINUOUS
 62
     7
 10
1724.6651690000001
 20
1599.395278
 30
0.0
 11
1724.6651690000001
 21
2059.395278
 31
0.0
  0
LINE
  5
5B3
  8
LAYER01
  6
CONTINUOUS
 62
     7
 10
1719.9484689999999
 20
2029.678578
 30
0.0
 11
1724.6651690000001
 21
1599.395278
 31
0.0
  0
LINE
  5
5B4
  8
LAYER01
  6
CONTINUOUS
 62
     7
 10
2474.6651689999999
 20
1544.395278
 30
0.0
 11
2474.6651689999999
 21
2154.395278
 31
0.0
  0
DIMENSION
  5
5B5
  8
LAYER01
 62
     7
  2
*D8
 10
2474.6651689999999
 20
2287.7501390000002
 30
0.0
 11
2108.0965249999999
 21
2357.7501390000002
 31
0.0
 13
1474.6651690000001
 23
2174.395278
 33
0.0
 14
2474.6651689999999
 24
2174.395278
 34
0.0
  0
LINE
  5
5B6
  8
LAYER01
  6
CONTINUOUS
 62
     7
 10
1527.6651690000001
 20
2021.3258900000001
 30
0.0
 11
1527.6651690000001
 21
2063.0265020000002
 31
0.0
  0
ARC
  5
5B7
  8
LAYER01
  6
CONTINUOUS
 62
     7
 10
1474.6651690000001
 20
2042.1770329999999
 30
0.0
 40
23.0
 50
12.555858000000001
 51
167.444142
  0
LINE
  5
5B8
  8
LAYER01
  6
CONTINUOUS
 62
     7
 10
1534.6651690000001
 20
2032.0338380000001
 30
0.0
 11
1534.6651690000001
 21
2052.320228
 31
0.0
  0
LINE
  5
5B9
  8
LAYER01
  6
CONTINUOUS
 62
     7
 10
1718.8602840000001
 20
2030.765337
 30
0.0
 11
1718.8602840000001
 21
2053.5903929999999
 31
0.0
  0
INSERT
  5
5BA
  8
LAYER01
  2
MANHATAN-G10
 10
0.0
 20
0.0
 30
0.0
  0
ARC
  5
5BB
  8
LAYER01
  6
CONTINUOUS
 62
     7
 10
1474.6651690000001
 20
2042.1770329999999
 30
0.0
 40
23.0
 50
192.555858
 51
347.444142
  0
ARC
  5
5BC
  8
LAYER01
  6
CONTINUOUS
 62
     7
 10
1474.6651690000001
 20
2042.1770329999999
 30
0.0
 40
23.0
 50
167.444142
 51
192.555858
  0
ARC
  5
5BD
  8
LAYER01
  6
CONTINUOUS
 62
     7
 10
1474.6651690000001
 20
2042.1770329999999
 30
0.0
 40
23.0
 50
347.444142
 51
12.555858000000001
  0
LINE
  5
5BE
  8
LAYER01
  6
CONTINUOUS
 62
     7
 10
1498.599352
 20
2037.1770329999999
 30
0.0
 11
1498.599352
 21
2047.1770329999999
 31
0.0
  0
LINE
  5
5BF
  8
LAYER01
  6
CONTINUOUS
 62
     7
 10
1450.730986
 20
2037.1770329999999
 30
0.0
 11
1450.730986
 21
2047.1770329999999
 31
0.0
  0
LINE
  5
5C0
  8
LAYER01
  6
CONTINUOUS
 62
     7
 10
1532.1651690000001
 20
2037.1770329999999
 30
0.0
 11
1532.1651690000001
 21
2047.1770329999999
 31
0.0
  0
LINE
  5
5C1
  8
LAYER01
  6
CONTINUOUS
 62
     7
 10
1718.8602840000001
 20
2030.765337
 30
0.0
 11
1534.6651690000001
 21
2032.0338380000001
 31
0.0
  0
LINE
  5
5C2
  8
LAYER01
  6
CONTINUOUS
 62
     7
 10
1718.8602840000001
 20
2030.765337
 30
0.0
 11
1719.9484689999999
 21
2029.678578
 31
0.0
  0
LINE
  5
5C3
  8
LAYER01
  6
CONTINUOUS
 62
     7
 10
1718.8602840000001
 20
2053.5903929999999
 30
0.0
 11
1534.6651690000001
 21
2052.320228
 31
0.0
  0
LINE
  5
5C4
  8
LAYER01
  6
CONTINUOUS
 62
     7
 10
1718.8602840000001
 20
2053.5903929999999
 30
0.0
 11
1724.6651690000001
 21
2059.395278
 31
0.0
  0
LINE
  5
5C5
  8
LAYER01
  6
VERDECKT
 62
     3
 10
1730.3214720000001
 20
2019.303465
 30
0.0
 11
1730.3214720000001
 21
2065.0515810000002
 31
0.0
  0
ARC
  5
5C6
  8
LAYER01
  6
VERDECKT
 62
     3
 10
1474.6651690000001
 20
2042.1770329999999
 30
0.0
 40
35.0
 50
36.565897
 51
143.43410299999999
  0
ARC
  5
5C7
  8
LAYER01
  6
VERDECKT
 62
     3
 10
1474.6651690000001
 20
2042.1770329999999
 30
0.0
 40
35.0
 50
216.56589700000001
 51
323.43410299999999
  0
LINE
  5
5C8
  8
LAYER01
  6
VERDECKT
 62
     3
 10
1502.776196
 20
2021.5742720000001
 30
0.0
 11
1730.3214720000001
 21
2019.303465
 31
0.0
  0
LINE
  5
5C9
  8
LAYER01
  6
VERDECKT
 62
     3
 10
1502.776196
 20
2062.7777940000001
 30
0.0
 11
1730.3214720000001
 21
2065.0515810000002
 31
0.0
  0
LINE
  5
5CA
  8
LAYER01
  6
CONTINUOUS
 62
     7
 10
2474.6651689999999
 20
2162.395278
 30
0.0
 11
2474.6651689999999
 21
2154.395278
 31
0.0
  0
LINE
  5
5CB
  8
LAYER01
  6
CONTINUOUS
 62
     7
 10
2474.6651689999999
 20
2174.395278
 30
0.0
 11
2474.6651689999999
 21
2167.395278
 31
0.0
  0
LINE
  5
5CC
  8
LAYER01
  6
CONTINUOUS
 62
     7
 10
2474.6651689999999
 20
2167.395278
 30
0.0
 11
2474.6651689999999
 21
2162.395278
 31
0.0
  0
LINE
  5
5CD
  8
LAYER01
  6
CONTINUOUS
 62
     7
 10
1421.6651690000001
 20
939.96117500000003
 30
0.0
 11
1446.554142
 21
939.96117500000003
 31
0.0
  0
LINE
  5
5CE
  8
LAYER01
  6
VERDECKT
 62
     3
 10
1719.9484689999999
 20
1009.961175
 30
0.0
 11
1229.3818690000001
 21
1009.961175
 31
0.0
  0
LINE
  5
5CF
  8
LAYER01
  6
VERDECKT
 62
     3
 10
1217.881836
 20
1000.107018
 30
0.0
 11
1449.188864
 21
1000.107018
 31
0.0
  0
LINE
  5
5D0
  8
LAYER01
  6
VERDECKT
 62
     3
 10
1417.1651690000001
 20
960.06876799999998
 30
0.0
 11
1450.730986
 21
954.96117500000003
 31
0.0
  0
LINE
  5
5D1
  8
LAYER01
  6
VERDECKT
 62
     3
 10
1534.6651690000001
 20
964.96117500000003
 30
0.0
 11
1414.6651690000001
 21
964.96117500000003
 31
0.0
  0
LINE
  5
5D2
  8
LAYER01
  6
CONTINUOUS
 62
     7
 10
474.66516899999999
 20
1099.9611749999999
 30
0.0
 11
2474.6651689999999
 21
1099.9611749999999
 31
0.0
  0
LINE
  5
5D3
  8
LAYER01
  6
CONTINUOUS
 62
     7
 10
474.66516899999999
 20
954.96117500000003
 30
0.0
 11
2474.6651689999999
 21
954.96117500000003
 31
0.0
  0
LINE
  5
5D4
  8
LAYER01
  6
CONTINUOUS
 62
     7
 10
474.66516899999999
 20
1249.9611749999999
 30
0.0
 11
2474.6651689999999
 21
1249.9611749999999
 31
0.0
  0
LINE
  5
5D5
  8
LAYER01
  6
CONTINUOUS
 62
     7
 10
4024.1430009999999
 20
1027.8583229999999
 30
0.0
 11
4024.1430009999999
 21
1164.8583229999999
 31
0.0
  0
LINE
  5
5D6
  8
LAYER01
  6
CONTINUOUS
 62
     7
 10
4036.1430009999999
 20
1169.8583229999999
 30
0.0
 11
4036.1430009999999
 21
1007.858323
 31
0.0
  0
INSERT
  5
5D7
  8
LAYER01
  2
MANHATAN-G11
 10
0.0
 20
0.0
 30
0.0
  0
LINE
  5
5D8
  8
LAYER01
  6
CONTINUOUS
 62
     7
 10
3938.9247559999999
 20
859.85832300000004
 30
0.0
 11
3938.9247559999999
 21
1007.858323
 31
0.0
  0
LINE
  5
5D9
  8
LAYER01
  6
CONTINUOUS
 62
     7
 10
3938.9247559999999
 20
859.85832300000004
 30
0.0
 11
3926.9247559999999
 21
859.85832300000004
 31
0.0
  0
LINE
  5
5DA
  8
LAYER01
  6
CONTINUOUS
 62
     7
 10
3921.1430009999999
 20
1019.858323
 30
0.0
 11
4016.143000999999
 21
1019.858323
 31
0.0
  0
ARC
  5
5DB
  8
LAYER01
  6
CONTINUOUS
 62
     7
 10
4016.143000999999
 20
1027.8583229999999
 30
0.0
 40
8.0
 50
270.0
 51
0.0
  0
LINE
  5
5DC
  8
LAYER01
  6
CONTINUOUS
 62
     7
 10
3938.9247559999999
 20
1007.858323
 30
0.0
 11
4036.1430009999999
 21
1007.858323
 31
0.0
  0
ARC
  5
5DD
  8
LAYER01
  6
CONTINUOUS
 62
     7
 10
4029.1430009999999
 20
1164.8583229999999
 30
0.0
 40
5.0
 50
90.0
 51
180.0
  0
LINE
  5
5DE
  8
LAYER01
  6
CONTINUOUS
 62
     7
 10
4036.1430009999999
 20
1169.8583229999999
 30
0.0
 11
4029.1430009999999
 21
1169.8583229999999
 31
0.0
  0
INSERT
  5
5DF
  8
LAYER01
  2
MANHATAN-G12
 10
0.0
 20
0.0
 30
0.0
  0
LINE
  5
5E0
  8
LAYER01
  6
CONTINUOUS
 62
     7
 10
3868.9247560000008
 20
922.305159
 30
0.0
 11
3459.9014480000001
 21
1007.858323
 31
0.0
  0
LINE
  5
5E1
  8
LAYER01
  6
CONTINUOUS
 62
     7
 10
3891.426301
 20
929.85832300000004
 30
0.0
 11
3461.1430009999999
 21
1019.858323
 31
0.0
  0
LINE
  5
5E2
  8
LAYER01
  6
CONTINUOUS
 62
     7
 10
3921.1430009999999
 20
1019.858323
 30
0.0
 11
3914.067951
 21
884.85832300000004
 31
0.0
  0
LINE
  5
5E3
  8
LAYER01
  6
CONTINUOUS
 62
     7
 10
3868.9247560000008
 20
922.305159
 30
0.0
 11
3868.9247560000008
 21
859.85832300000004
 31
0.0
  0
LINE
  5
5E4
  8
LAYER01
  6
CONTINUOUS
 62
     7
 10
3893.7815609999998
 20
884.85832300000004
 30
0.0
 11
3891.426301
 21
929.85832300000004
 31
0.0
  0
LINE
  5
5E5
  8
LAYER01
  6
CONTINUOUS
 62
     7
 10
3908.9247560000008
 20
882.85832300000015
 30
0.0
 11
3908.9247560000008
 21
874.85832300000015
 31
0.0
  0
LINE
  5
5E6
  8
LAYER01
  6
CONTINUOUS
 62
     7
 10
3898.9247559999999
 20
874.85832300000015
 30
0.0
 11
3898.9247559999999
 21
882.85832300000015
 31
0.0
  0
LINE
  5
5E7
  8
LAYER01
  6
CONTINUOUS
 62
     7
 10
3903.9247560000008
 20
884.85832300000004
 30
0.0
 11
3903.9247560000008
 21
849.85832300000015
 31
0.0
  0
LINE
  5
5E8
  8
LAYER01
  6
CONTINUOUS
 62
     7
 10
3926.9247559999999
 20
874.85832300000015
 30
0.0
 11
3926.9247559999999
 21
859.85832300000004
 31
0.0
  0
LINE
  5
5E9
  8
LAYER01
  6
CONTINUOUS
 62
     7
 10
3908.9247560000008
 20
874.85832300000015
 30
0.0
 11
3926.9247559999999
 21
874.85832300000015
 31
0.0
  0
LINE
  5
5EA
  8
LAYER01
  6
CONTINUOUS
 62
     7
 10
3880.9247559999999
 20
859.85832300000004
 30
0.0
 11
3880.9247559999999
 21
874.85832300000015
 31
0.0
  0
LINE
  5
5EB
  8
LAYER01
  6
CONTINUOUS
 62
     7
 10
3908.9247560000008
 20
874.85832300000015
 30
0.0
 11
3898.9247559999999
 21
874.85832300000015
 31
0.0
  0
LINE
  5
5EC
  8
LAYER01
  6
CONTINUOUS
 62
     7
 10
3880.9247559999999
 20
859.85832300000004
 30
0.0
 11
3926.9247559999999
 21
859.85832300000004
 31
0.0
  0
LINE
  5
5ED
  8
LAYER01
  6
CONTINUOUS
 62
     7
 10
3880.9247559999999
 20
874.85832300000015
 30
0.0
 11
3898.9247559999999
 21
874.85832300000015
 31
0.0
  0
LINE
  5
5EE
  8
LAYER01
  6
CONTINUOUS
 62
     7
 10
3880.9247559999999
 20
859.85832300000004
 30
0.0
 11
3868.9247560000008
 21
859.85832300000004
 31
0.0
  0
LINE
  5
5EF
  8
LAYER01
  6
CONTINUOUS
 62
     7
 10
3914.067951
 20
884.85832300000004
 30
0.0
 11
3914.067951
 21
882.85832300000015
 31
0.0
  0
LINE
  5
5F0
  8
LAYER01
  6
CONTINUOUS
 62
     7
 10
3908.9247560000008
 20
882.85832300000015
 30
0.0
 11
3914.067951
 21
882.85832300000015
 31
0.0
  0
LINE
  5
5F1
  8
LAYER01
  6
CONTINUOUS
 62
     7
 10
3893.7815609999998
 20
882.85832300000015
 30
0.0
 11
3898.9247559999999
 21
882.85832300000015
 31
0.0
  0
LINE
  5
5F2
  8
LAYER01
  6
CONTINUOUS
 62
     7
 10
3893.7815609999998
 20
882.85832300000015
 30
0.0
 11
3893.7815609999998
 21
884.85832300000004
 31
0.0
  0
LINE
  5
5F3
  8
LAYER01
  6
CONTINUOUS
 62
     7
 10
3908.9247560000008
 20
879.96591599999999
 30
0.0
 11
3898.9247559999999
 21
879.96591599999999
 31
0.0
  0
LINE
  5
5F4
  8
LAYER01
  6
CONTINUOUS
 62
     7
 10
3908.9247560000008
 20
882.85832300000015
 30
0.0
 11
3898.9247559999999
 21
882.85832300000015
 31
0.0
  0
LINE
  5
5F5
  8
LAYER01
  6
CONTINUOUS
 62
     7
 10
3893.7815609999998
 20
884.85832300000004
 30
0.0
 11
3914.067951
 21
884.85832300000004
 31
0.0
  0
LINE
  5
5F6
  8
LAYER01
  6
CONTINUOUS
 62
     7
 10
3916.426301
 20
929.85832300000004
 30
0.0
 11
3891.426301
 21
929.85832300000004
 31
0.0
  0
LINE
  5
5F7
  8
LAYER01
  6
CONTINUOUS
 62
     7
 10
3915.3381159999999
 20
909.0945220000001
 30
0.0
 11
3892.5130600000002
 21
909.0945220000001
 31
0.0
  0
LINE
  5
5F8
  8
LAYER01
  6
CONTINUOUS
 62
     7
 10
3921.1430009999999
 20
1019.858323
 30
0.0
 11
3461.1430009999999
 21
1019.858323
 31
0.0
  0
DIMENSION
  5
5F9
  8
LAYER01
 62
     7
  2
*D12
 10
3880.9247559999999
 20
737.71928600000001
 30
0.0
 11
4110.242921
 21
807.71928600000001
 31
0.0
 13
3926.9247559999999
 23
859.85832300000004
 33
0.0
 14
3880.9247559999999
 24
859.85832300000004
 34
0.0
  0
DIMENSION
  5
5FA
  8
LAYER01
 62
     7
  2
*D13
 10
3903.9247560000008
 20
524.45613900000001
 30
0.0
 11
3971.0066270000011
 21
594.45613900000001
 31
0.0
 13
4036.1430009999999
 23
690.36156299999993
 33
0.0
 14
3903.9247560000008
 24
690.36156299999993
 34
0.0
  0
DIMENSION
  5
5FB
  8
LAYER01
 62
     7
  2
*D14
 10
3461.1430009999999
 20
1265.2238580000001
 30
0.0
 11
3692.1157499999999
 21
1335.2238580000001
 31
0.0
 13
3921.1430009999999
 23
1188.1155980000001
 33
0.0
 14
3461.1430009999999
 24
1188.1155980000001
 34
0.0
  0
DIMENSION
  5
5FC
  8
LAYER01
 62
     7
  2
*D15
 10
3401.1430009999999
 20
1402.92536
 30
0.0
 11
3719.6157499999999
 21
1472.92536
 31
0.0
 13
4036.1430009999999
 23
1188.1155980000001
 33
0.0
 14
3401.1430009999999
 24
1188.1155980000001
 34
0.0
  0
DIMENSION
  5
5FD
  8
LAYER01
 62
     7
  2
*D16
 10
3921.1430009999999
 20
1265.2238580000001
 30
0.0
 11
3979.6157499999999
 21
1335.2238580000001
 31
0.0
 13
4036.1430009999999
 23
1188.1155980000001
 33
0.0
 14
3921.1430009999999
 24
1188.1155980000001
 34
0.0
  0
LINE
  5
5FE
  8
LAYER01
  6
VERDECKT
 62
     7
 10
649.55788399999994
 20
-473.46504700000003
 30
0.0
 11
1761.7836899999991
 21
-473.46504700000003
 31
0.0
  0
LINE
  5
5FF
  8
LAYER01
  6
CONTINUOUS
 62
     7
 10
651.43044599999985
 20
-485.46504700000003
 30
0.0
 11
1763.656252
 21
-485.46504700000003
 31
0.0
  0
DIMENSION
  5
600
  8
LAYER01
 62
     7
  2
*D17
 10
2424.6651690000008
 20
262.45224200000001
 30
0.0
 11
1774.2546729999999
 21
332.45224200000001
 31
0.0
 13
1124.6651690000001
 23
149.534953
 33
0.0
 14
2424.6651690000008
 24
149.534953
 34
0.0
  0
DIMENSION
  5
601
  8
LAYER01
 62
     7
  2
*D18
 10
3074.6651690000008
 20
384.56394899999998
 30
0.0
 11
1792.2978889999999
 21
454.56394899999998
 31
0.0
 13
474.66516899999999
 23
149.534953
 33
0.0
 14
3074.6651690000008
 24
175.575007
 34
0.0
  0
LINE
  5
602
  8
LAYER01
  6
CONTINUOUS
 62
     7
 10
690.64119800000003
 20
149.534953
 30
0.0
 11
1802.8670030000001
 21
149.534953
 31
0.0
  0
LINE
  5
603
  8
LAYER01
  6
CONTINUOUS
 62
     7
 10
692.51375899999994
 20
137.534953
 30
0.0
 11
1804.7395650000001
 21
137.534953
 31
0.0
  0
DIMENSION
  5
604
  8
LAYER01
 62
     7
  2
*D19
 10
4237.8104670000002
 20
859.85832300000004
 30
0.0
 11
4167.8104670000002
 21
935.56987600000014
 31
0.0
 53
90.0
 13
4036.1430009999999
 23
1007.858323
 33
0.0
 14
4036.1430009999999
 24
859.85832300000004
 34
0.0
 50
90.0
  0
DIMENSION
  5
605
  8
LAYER01
 62
     7
  2
*D20
 10
1124.6651690000001
 20
261.192814
 30
0.0
 11
799.35729700000002
 21
331.192814
 31
0.0
 13
474.66516899999999
 23
149.534953
 33
0.0
 14
1124.6651690000001
 24
149.534953
 34
0.0
  0
DIMENSION
  5
606
  8
LAYER01
 62
     7
  2
*D21
 10
357.32087799999999
 20
34.534953000000002
 30
0.0
 11
287.32087799999999
 21
-193.64133200000001
 31
0.0
 53
90.0
 13
474.66516899999999
 23
-425.46504699999991
 33
0.0
 14
474.66516899999999
 24
34.534953000000002
 34
0.0
 50
90.0
  0
DIMENSION
  5
607
  8
LAYER01
 62
     7
  2
*D22
 10
233.36568600000001
 20
-485.46504700000003
 30
0.0
 11
163.36568600000001
 21
-242.14688200000001
 31
0.0
 53
90.0
 13
474.66516899999999
 23
-425.46504699999991
 33
0.0
 14
474.66516899999999
 24
-485.46504700000003
 34
0.0
 50
90.0
  0
DIMENSION
  5
608
  8
LAYER01
 62
     7
  2
*D23
 10
67.726448000000005
 20
149.534953
 30
0.0
 11
-2.273552
 21
-166.14133200000001
 31
0.0
 53
90.0
 13
474.66516899999999
 23
-485.46504700000003
 33
0.0
 14
474.66516899999999
 24
149.534953
 34
0.0
 50
90.0
  0
LINE
  5
609
  8
LAYER01
  6
CONTINUOUS
 62
     7
 10
474.66516899999999
 20
129.534953
 30
0.0
 11
474.66516899999999
 21
-480.46504699999991
 31
0.0
  0
LINE
  5
60A
  8
LAYER01
  6
CONTINUOUS
 62
     7
 10
1374.6651690000001
 20
-425.46504699999991
 30
0.0
 11
1374.6651690000001
 21
34.534953000000002
 31
0.0
  0
LINE
  5
60B
  8
LAYER01
  6
CONTINUOUS
 62
     7
 10
874.66516899999999
 20
34.534953000000002
 30
0.0
 11
874.66516899999999
 21
-425.46504699999991
 31
0.0
  0
LINE
  5
60C
  8
LAYER01
  6
CONTINUOUS
 62
     7
 10
1369.9484689999999
 20
4.8182529999999986
 30
0.0
 11
1374.6651690000001
 21
-425.46504699999991
 31
0.0
  0
LINE
  5
60D
  8
LAYER01
  6
CONTINUOUS
 62
     7
 10
879.38186900000005
 20
4.8182529999999986
 30
0.0
 11
874.66516899999999
 21
-425.46504699999991
 31
0.0
  0
INSERT
  5
60E
  8
LAYER01
  2
MANHATAN-G25
 10
0.0
 20
0.0
 30
0.0
  0
LINE
  5
60F
  8
LAYER01
  6
CONTINUOUS
 62
     7
 10
874.66516899999999
 20
-425.46504699999991
 30
0.0
 11
1374.6651690000001
 21
-425.46504699999991
 31
0.0
  0
LINE
  5
610
  8
LAYER01
  6
CONTINUOUS
 62
     7
 10
874.66516899999999
 20
-425.46504699999991
 30
0.0
 11
1374.6651690000001
 21
-425.46504699999991
 31
0.0
  0
DIMENSION
  5
611
  8
LAYER01
 62
     7
  2
*D25
 10
1374.6651690000001
 20
-606.80976599999985
 30
0.0
 11
1124.526836
 21
-536.80976599999997
 31
0.0
 13
874.66516899999999
 23
-485.46504700000003
 33
0.0
 14
1374.6651690000001
 24
-485.46504700000003
 34
0.0
  0
LINE
  5
612
  8
LAYER01
  6
CONTINUOUS
 62
     7
 10
474.66516899999999
 20
-485.46504700000003
 30
0.0
 11
474.66516899999999
 21
-480.46504699999991
 31
0.0
  0
LINE
  5
613
  8
LAYER01
  6
VERDECKT
 62
     7
 10
474.66516899999999
 20
-473.46504700000003
 30
0.0
 11
629.55788399999994
 21
-473.46504700000003
 31
0.0
  0
LINE
  5
614
  8
LAYER01
  6
CONTINUOUS
 62
     7
 10
474.66516899999999
 20
-485.46504700000003
 30
0.0
 11
631.43044599999985
 21
-485.46504700000003
 31
0.0
  0
LINE
  5
615
  8
LAYER01
  6
CONTINUOUS
 62
     7
 10
1064.6651690000001
 20
7.1735129999999998
 30
0.0
 11
880.47005399999978
 21
5.9050120000000001
 31
0.0
  0
LINE
  5
616
  8
LAYER01
  6
CONTINUOUS
 62
     7
 10
1369.9484689999999
 20
4.8182529999999986
 30
0.0
 11
879.38186900000005
 21
4.8182529999999986
 31
0.0
  0
LINE
  5
617
  8
LAYER01
  6
CONTINUOUS
 62
     7
 10
1064.6651690000001
 20
27.459903000000011
 30
0.0
 11
880.47005399999978
 21
28.730067999999999
 31
0.0
  0
LINE
  5
618
  8
LAYER01
  6
CONTINUOUS
 62
     7
 10
1374.6651690000001
 20
34.534953000000002
 30
0.0
 11
874.66516899999999
 21
34.534953000000002
 31
0.0
  0
LINE
  5
619
  8
LAYER01
  6
VERDECKT
 62
     3
 10
869.00886600000001
 20
-5.5568599999999986
 30
0.0
 11
1096.554142
 21
-3.286052999999999
 31
0.0
  0
LINE
  5
61A
  8
LAYER01
  6
VERDECKT
 62
     3
 10
869.00886600000001
 20
40.191256000000003
 30
0.0
 11
1096.554142
 21
37.917468999999997
 31
0.0
  0
LINE
  5
61B
  8
LAYER01
  6
CONTINUOUS
 62
     7
 10
474.66516899999999
 20
129.534953
 30
0.0
 11
474.66516899999999
 21
137.534953
 31
0.0
  0
LINE
  5
61C
  8
LAYER01
  6
CONTINUOUS
 62
     7
 10
474.66516899999999
 20
149.534953
 30
0.0
 11
474.66516899999999
 21
142.534953
 31
0.0
  0
LINE
  5
61D
  8
LAYER01
  6
CONTINUOUS
 62
     7
 10
474.66516899999999
 20
137.534953
 30
0.0
 11
474.66516899999999
 21
142.534953
 31
0.0
  0
LINE
  5
61E
  8
LAYER01
  6
CONTINUOUS
 62
     7
 10
880.47005399999978
 20
28.730067999999999
 30
0.0
 11
880.47005399999978
 21
5.9050120000000001
 31
0.0
  0
LINE
  5
61F
  8
LAYER01
  6
CONTINUOUS
 62
     7
 10
879.38186900000005
 20
4.8182529999999986
 30
0.0
 11
880.47005399999978
 21
5.9050120000000001
 31
0.0
  0
LINE
  5
620
  8
LAYER01
  6
CONTINUOUS
 62
     7
 10
874.66516899999999
 20
34.534953000000002
 30
0.0
 11
880.47005399999978
 21
28.730067999999999
 31
0.0
  0
LINE
  5
621
  8
LAYER01
  6
VERDECKT
 62
     3
 10
869.00886600000001
 20
40.191256000000003
 30
0.0
 11
869.00886600000001
 21
-5.5568599999999986
 31
0.0
  0
LINE
  5
622
  8
LAYER01
  6
CONTINUOUS
 62
     7
 10
474.66516899999999
 20
149.534953
 30
0.0
 11
670.64119800000003
 21
149.534953
 31
0.0
  0
LINE
  5
623
  8
LAYER01
  6
CONTINUOUS
 62
     7
 10
474.66516899999999
 20
137.534953
 30
0.0
 11
672.51375899999994
 21
137.534953
 31
0.0
  0
INSERT
  5
624
  8
LAYER01
  2
MANHATAN-G27
 10
0.0
 20
0.0
 30
0.0
  0
ARC
  5
625
  8
LAYER01
  6
VERDECKT
 62
     3
 10
1124.6651690000001
 20
17.316707999999998
 30
0.0
 40
35.0
 50
216.56589700000001
 51
323.43410299999999
  0
LINE
  5
626
  8
LAYER01
  6
CONTINUOUS
 62
     7
 10
1177.6651690000001
 20
-3.5344349999999989
 30
0.0
 11
1177.6651690000001
 21
38.166177000000012
 31
0.0
  0
ARC
  5
627
  8
LAYER01
  6
CONTINUOUS
 62
     7
 10
1124.6651690000001
 20
17.316707999999998
 30
0.0
 40
23.0
 50
12.555858000000001
 51
167.444142
  0
LINE
  5
628
  8
LAYER01
  6
CONTINUOUS
 62
     7
 10
1184.6651690000001
 20
7.1735129999999998
 30
0.0
 11
1184.6651690000001
 21
27.459903000000011
 31
0.0
  0
LINE
  5
629
  8
LAYER01
  6
CONTINUOUS
 62
     7
 10
1368.8602840000001
 20
5.9050120000000001
 30
0.0
 11
1368.8602840000001
 21
28.730067999999999
 31
0.0
  0
LINE
  5
62A
  8
LAYER01
  6
CONTINUOUS
 62
     7
 10
1071.6651690000001
 20
-3.5344349999999989
 30
0.0
 11
1071.6651690000001
 21
38.166177000000012
 31
0.0
  0
LINE
  5
62B
  8
LAYER01
  6
CONTINUOUS
 62
     7
 10
1064.6651690000001
 20
7.1735129999999998
 30
0.0
 11
1064.6651690000001
 21
27.459903000000011
 31
0.0
  0
ARC
  5
62C
  8
LAYER01
  6
CONTINUOUS
 62
     7
 10
1124.6651690000001
 20
17.316707999999998
 30
0.0
 40
23.0
 50
192.555858
 51
347.444142
  0
ARC
  5
62D
  8
LAYER01
  6
CONTINUOUS
 62
     7
 10
1124.6651690000001
 20
17.316707999999998
 30
0.0
 40
23.0
 50
167.444142
 51
192.555858
  0
ARC
  5
62E
  8
LAYER01
  6
CONTINUOUS
 62
     7
 10
1124.6651690000001
 20
17.316707999999998
 30
0.0
 40
23.0
 50
347.444142
 51
12.555858000000001
  0
LINE
  5
62F
  8
LAYER01
  6
CONTINUOUS
 62
     7
 10
1148.599352
 20
12.316708
 30
0.0
 11
1148.599352
 21
22.316707999999998
 31
0.0
  0
LINE
  5
630
  8
LAYER01
  6
CONTINUOUS
 62
     7
 10
1100.730986
 20
12.316708
 30
0.0
 11
1100.730986
 21
22.316707999999998
 31
0.0
  0
LINE
  5
631
  8
LAYER01
  6
CONTINUOUS
 62
     7
 10
1182.1651690000001
 20
12.316708
 30
0.0
 11
1182.1651690000001
 21
22.316707999999998
 31
0.0
  0
LINE
  5
632
  8
LAYER01
  6
CONTINUOUS
 62
     7
 10
1368.8602840000001
 20
5.9050120000000001
 30
0.0
 11
1184.6651690000001
 21
7.1735129999999998
 31
0.0
  0
LINE
  5
633
  8
LAYER01
  6
CONTINUOUS
 62
     7
 10
1368.8602840000001
 20
5.9050120000000001
 30
0.0
 11
1369.9484689999999
 21
4.8182529999999986
 31
0.0
  0
LINE
  5
634
  8
LAYER01
  6
CONTINUOUS
 62
     7
 10
1067.1651690000001
 20
22.316707999999998
 30
0.0
 11
1067.1651690000001
 21
12.316708
 31
0.0
  0
LINE
  5
635
  8
LAYER01
  6
CONTINUOUS
 62
     7
 10
1067.1651690000001
 20
12.316708
 30
0.0
 11
1182.1651690000001
 21
12.316708
 31
0.0
  0
LINE
  5
636
  8
LAYER01
  6
CONTINUOUS
 62
     7
 10
1182.1651690000001
 20
22.316707999999998
 30
0.0
 11
1067.1651690000001
 21
22.316707999999998
 31
0.0
  0
LINE
  5
637
  8
LAYER01
  6
CONTINUOUS
 62
     7
 10
1184.6651690000001
 20
7.1735129999999998
 30
0.0
 11
1064.6651690000001
 21
7.1735129999999998
 31
0.0
  0
LINE
  5
638
  8
LAYER01
  6
CONTINUOUS
 62
     7
 10
1368.8602840000001
 20
28.730067999999999
 30
0.0
 11
1184.6651690000001
 21
27.459903000000011
 31
0.0
  0
LINE
  5
639
  8
LAYER01
  6
CONTINUOUS
 62
     7
 10
1368.8602840000001
 20
28.730067999999999
 30
0.0
 11
1374.6651690000001
 21
34.534953000000002
 31
0.0
  0
LINE
  5
63A
  8
LAYER01
  6
CONTINUOUS
 62
     7
 10
1184.6651690000001
 20
27.459903000000011
 30
0.0
 11
1064.6651690000001
 21
27.459903000000011
 31
0.0
  0
LINE
  5
63B
  8
LAYER01
  6
VERDECKT
 62
     3
 10
1380.3214720000001
 20
-5.5568599999999986
 30
0.0
 11
1380.3214720000001
 21
40.191256000000003
 31
0.0
  0
ARC
  5
63C
  8
LAYER01
  6
VERDECKT
 62
     3
 10
1124.6651690000001
 20
17.316707999999998
 30
0.0
 40
35.0
 50
36.565897
 51
143.43410299999999
  0
LINE
  5
63D
  8
LAYER01
  6
VERDECKT
 62
     3
 10
1152.776196
 20
-3.286052999999999
 30
0.0
 11
1380.3214720000001
 21
-5.5568599999999986
 31
0.0
  0
LINE
  5
63E
  8
LAYER01
  6
VERDECKT
 62
     3
 10
1152.776196
 20
37.917468999999997
 30
0.0
 11
1380.3214720000001
 21
40.191256000000003
 31
0.0
  0
DIMENSION
  5
63F
  8
LAYER01
 62
     7
  2
*D27
 10
233.36568600000001
 20
1539.395278
 30
0.0
 11
163.36568600000001
 21
1782.7134430000001
 31
0.0
 53
90.0
 13
474.66516899999999
 23
1599.395278
 33
0.0
 14
474.66516899999999
 24
1539.395278
 34
0.0
 50
90.0
  0
DIMENSION
  5
640
  8
LAYER01
 62
     7
  2
*D28
 10
360.79051299999998
 20
954.96117500000003
 30
0.0
 11
290.79051299999992
 21
1027.9434739999999
 31
0.0
 53
90.0
 13
474.66516899999999
 23
1099.9611749999999
 33
0.0
 14
474.66516899999999
 24
954.96117500000003
 34
0.0
 50
90.0
  0
DIMENSION
  5
641
  8
LAYER01
 62
     7
  2
*D29
 10
360.79051299999998
 20
1249.9611749999999
 30
0.0
 11
290.79051299999992
 21
1175.4434739999999
 31
0.0
 53
90.0
 13
474.66516899999999
 23
1099.9611749999999
 33
0.0
 14
474.66516899999999
 24
1249.9611749999999
 34
0.0
 50
90.0
  0
LINE
  5
642
  8
LAYER01
  6
CONTINUOUS
 62
     7
 10
474.66516899999999
 20
954.96117500000003
 30
0.0
 11
474.66516899999999
 21
1099.9611749999999
 31
0.0
  0
LINE
  5
643
  8
LAYER01
  6
VERDECKT
 62
     3
 10
1224.6651690000001
 20
1099.9611749999999
 30
0.0
 11
1230.4700539999999
 21
989.19737499999997
 31
0.0
  0
LINE
  5
644
  8
LAYER01
  6
VERDECKT
 62
     3
 10
1213.2775939999999
 20
1087.9611749999999
 30
0.0
 11
1219.0088659999999
 21
978.60199299999999
 31
0.0
  0
LINE
  5
645
  8
LAYER01
  6
VERDECKT
 62
     3
 10
1230.4700539999999
 20
989.19737499999997
 30
0.0
 11
1414.6651690000001
 21
964.96117500000003
 31
0.0
  0
LINE
  5
646
  8
LAYER01
  6
CONTINUOUS
 62
     7
 10
1342.9959100000001
 20
954.96117500000003
 30
0.0
 11
1421.6651690000001
 21
939.96117500000003
 31
0.0
  0
LINE
  5
647
  8
LAYER01
  6
VERDECKT
 62
     3
 10
1219.0088659999999
 20
978.60199299999999
 30
0.0
 11
1342.9959100000001
 21
954.96117500000003
 31
0.0
  0
LINE
  5
648
  8
LAYER01
  6
VERDECKT
 62
     3
 10
1417.1651690000001
 20
960.06876799999998
 30
0.0
 11
1417.1651690000001
 21
962.96117500000003
 31
0.0
  0
LINE
  5
649
  8
LAYER01
  6
VERDECKT
 62
     3
 10
1414.6651690000001
 20
962.96117500000003
 30
0.0
 11
1414.6651690000001
 21
964.96117500000003
 31
0.0
  0
LINE
  5
64A
  8
LAYER01
  6
CONTINUOUS
 62
     7
 10
474.66516899999999
 20
1249.9611749999999
 30
0.0
 11
474.66516899999999
 21
1099.9611749999999
 31
0.0
  0
LINE
  5
64B
  8
LAYER01
  6
CONTINUOUS
 62
     7
 10
474.66516899999999
 20
1539.395278
 30
0.0
 11
474.66516899999999
 21
1544.395278
 31
0.0
  0
DIMENSION
  5
64C
  8
LAYER01
 62
     7
  2
*D30
 10
3074.6651690000008
 20
262.45224200000001
 30
0.0
 11
2749.357297
 21
332.45224200000001
 31
0.0
 13
2424.6651690000008
 23
175.575007
 33
0.0
 14
3074.6651690000008
 24
175.575007
 34
0.0
  0
LINE
  5
64D
  8
LAYER01
  6
CONTINUOUS
 62
     7
 10
2367.1651690000008
 20
12.316708
 30
0.0
 11
2482.1651689999999
 21
12.316708
 31
0.0
  0
LINE
  5
64E
  8
LAYER01
  6
CONTINUOUS
 62
     7
 10
2482.1651689999999
 20
22.316707999999998
 30
0.0
 11
2367.1651690000008
 21
22.316707999999998
 31
0.0
  0
LINE
  5
64F
  8
LAYER01
  6
CONTINUOUS
 62
     7
 10
2484.6651690000008
 20
7.1735129999999998
 30
0.0
 11
2364.6651689999999
 21
7.1735129999999998
 31
0.0
  0
LINE
  5
650
  8
LAYER01
  6
CONTINUOUS
 62
     7
 10
2669.9484689999999
 20
4.8182529999999986
 30
0.0
 11
2179.3818689999998
 21
4.8182529999999986
 31
0.0
  0
LINE
  5
651
  8
LAYER01
  6
CONTINUOUS
 62
     7
 10
2174.6651689999999
 20
-425.46504699999991
 30
0.0
 11
2674.6651690000008
 21
-425.46504699999991
 31
0.0
  0
LINE
  5
652
  8
LAYER01
  6
CONTINUOUS
 62
     7
 10
2174.6651689999999
 20
-425.46504699999991
 30
0.0
 11
2674.6651690000008
 21
-425.46504699999991
 31
0.0
  0
LINE
  5
653
  8
LAYER01
  6
CONTINUOUS
 62
     7
 10
2484.6651690000008
 20
27.459903000000011
 30
0.0
 11
2364.6651689999999
 21
27.459903000000011
 31
0.0
  0
LINE
  5
654
  8
LAYER01
  6
CONTINUOUS
 62
     7
 10
2674.6651690000008
 20
34.534953000000002
 30
0.0
 11
2174.6651689999999
 21
34.534953000000002
 31
0.0
  0
LINE
  5
655
  8
LAYER01
  6
VERDECKT
 62
     3
 10
2452.7761959999998
 20
-3.286052999999999
 30
0.0
 11
2680.3214720000001
 21
-5.5568599999999986
 31
0.0
  0
LINE
  5
656
  8
LAYER01
  6
VERDECKT
 62
     3
 10
2452.7761959999998
 20
37.917468999999997
 30
0.0
 11
2680.3214720000001
 21
40.191256000000003
 31
0.0
  0
LINE
  5
657
  8
LAYER01
  6
VERDECKT
 62
     7
 10
1781.78369
 20
-473.46504700000003
 30
0.0
 11
2899.047208
 21
-473.46504700000003
 31
0.0
  0
LINE
  5
658
  8
LAYER01
  6
CONTINUOUS
 62
     7
 10
1783.656252
 20
-485.46504700000003
 30
0.0
 11
2900.9197690000001
 21
-485.46504700000003
 31
0.0
  0
DIMENSION
  5
659
  8
LAYER01
 62
     7
  2
*D31
 10
2674.6651690000008
 20
-606.80976599999985
 30
0.0
 11
2424.526836
 21
-536.80976599999997
 31
0.0
 13
2174.6651689999999
 23
-485.46504700000003
 33
0.0
 14
2674.6651690000008
 24
-485.46504700000003
 34
0.0
  0
LINE
  5
65A
  8
LAYER01
  6
CONTINUOUS
 62
     7
 10
1822.8670030000001
 20
149.534953
 30
0.0
 11
2940.130521
 21
149.534953
 31
0.0
  0
LINE
  5
65B
  8
LAYER01
  6
CONTINUOUS
 62
     7
 10
1824.7395649999989
 20
137.534953
 30
0.0
 11
2942.0030830000001
 21
137.534953
 31
0.0
  0
LINE
  5
65C
  8
LAYER01
  6
CONTINUOUS
 62
     7
 10
2174.6651689999999
 20
34.534953000000002
 30
0.0
 11
2174.6651689999999
 21
-425.46504699999991
 31
0.0
  0
LINE
  5
65D
  8
LAYER01
  6
CONTINUOUS
 62
     7
 10
2179.3818689999998
 20
4.8182529999999986
 30
0.0
 11
2174.6651689999999
 21
-425.46504699999991
 31
0.0
  0
INSERT
  5
65E
  8
LAYER01
  2
MANHATAN-G33
 10
0.0
 20
0.0
 30
0.0
  0
LINE
  5
65F
  8
LAYER01
  6
CONTINUOUS
 62
     7
 10
2474.6651689999999
 20
-480.46504699999991
 30
0.0
 11
2474.6651689999999
 21
-485.46504700000003
 31
0.0
  0
INSERT
  5
660
  8
LAYER01
  2
MANHATAN-G34
 10
0.0
 20
0.0
 30
0.0
  0
ARC
  5
661
  8
LAYER01
  6
VERDECKT
 62
     3
 10
2424.6651690000008
 20
17.316707999999998
 30
0.0
 40
35.0
 50
216.56589700000001
 51
323.43410299999999
  0
ARC
  5
662
  8
LAYER01
  6
CONTINUOUS
 62
     7
 10
2424.6651690000008
 20
17.316707999999998
 30
0.0
 40
23.0
 50
12.555858000000001
 51
167.444142
  0
LINE
  5
663
  8
LAYER01
  6
CONTINUOUS
 62
     7
 10
2371.6651689999999
 20
-3.5344349999999989
 30
0.0
 11
2371.6651689999999
 21
38.166177000000012
 31
0.0
  0
LINE
  5
664
  8
LAYER01
  6
CONTINUOUS
 62
     7
 10
2364.6651689999999
 20
7.1735129999999998
 30
0.0
 11
2364.6651689999999
 21
27.459903000000011
 31
0.0
  0
LINE
  5
665
  8
LAYER01
  6
CONTINUOUS
 62
     7
 10
2180.4700539999999
 20
28.730067999999999
 30
0.0
 11
2180.4700539999999
 21
5.9050120000000001
 31
0.0
  0
ARC
  5
666
  8
LAYER01
  6
CONTINUOUS
 62
     7
 10
2424.6651690000008
 20
17.316707999999998
 30
0.0
 40
23.0
 50
192.555858
 51
347.444142
  0
ARC
  5
667
  8
LAYER01
  6
CONTINUOUS
 62
     7
 10
2424.6651690000008
 20
17.316707999999998
 30
0.0
 40
23.0
 50
167.444142
 51
192.555858
  0
ARC
  5
668
  8
LAYER01
  6
CONTINUOUS
 62
     7
 10
2424.6651690000008
 20
17.316707999999998
 30
0.0
 40
23.0
 50
347.444142
 51
12.555858000000001
  0
LINE
  5
669
  8
LAYER01
  6
CONTINUOUS
 62
     7
 10
2448.5993520000002
 20
12.316708
 30
0.0
 11
2448.5993520000002
 21
22.316707999999998
 31
0.0
  0
LINE
  5
66A
  8
LAYER01
  6
CONTINUOUS
 62
     7
 10
2400.730986
 20
12.316708
 30
0.0
 11
2400.730986
 21
22.316707999999998
 31
0.0
  0
LINE
  5
66B
  8
LAYER01
  6
CONTINUOUS
 62
     7
 10
2367.1651690000008
 20
22.316707999999998
 30
0.0
 11
2367.1651690000008
 21
12.316708
 31
0.0
  0
LINE
  5
66C
  8
LAYER01
  6
CONTINUOUS
 62
     7
 10
2364.6651689999999
 20
7.1735129999999998
 30
0.0
 11
2180.4700539999999
 21
5.9050120000000001
 31
0.0
  0
LINE
  5
66D
  8
LAYER01
  6
CONTINUOUS
 62
     7
 10
2179.3818689999998
 20
4.8182529999999986
 30
0.0
 11
2180.4700539999999
 21
5.9050120000000001
 31
0.0
  0
LINE
  5
66E
  8
LAYER01
  6
CONTINUOUS
 62
     7
 10
2174.6651689999999
 20
34.534953000000002
 30
0.0
 11
2180.4700539999999
 21
28.730067999999999
 31
0.0
  0
LINE
  5
66F
  8
LAYER01
  6
CONTINUOUS
 62
     7
 10
2364.6651689999999
 20
27.459903000000011
 30
0.0
 11
2180.4700539999999
 21
28.730067999999999
 31
0.0
  0
LINE
  5
670
  8
LAYER01
  6
VERDECKT
 62
     3
 10
2169.0088660000001
 20
40.191256000000003
 30
0.0
 11
2169.0088660000001
 21
-5.5568599999999986
 31
0.0
  0
ARC
  5
671
  8
LAYER01
  6
VERDECKT
 62
     3
 10
2424.6651690000008
 20
17.316707999999998
 30
0.0
 40
35.0
 50
36.565897
 51
143.43410299999999
  0
LINE
  5
672
  8
LAYER01
  6
VERDECKT
 62
     3
 10
2169.0088660000001
 20
-5.5568599999999986
 30
0.0
 11
2396.554142
 21
-3.286052999999999
 31
0.0
  0
LINE
  5
673
  8
LAYER01
  6
VERDECKT
 62
     3
 10
2169.0088660000001
 20
40.191256000000003
 30
0.0
 11
2396.554142
 21
37.917468999999997
 31
0.0
  0
LINE
  5
674
  8
LAYER01
  6
CONTINUOUS
 62
     7
 10
3074.6651690000008
 20
149.534953
 30
0.0
 11
3074.6651690000008
 21
-485.46504700000003
 31
0.0
  0
LINE
  5
675
  8
LAYER01
  6
CONTINUOUS
 62
     7
 10
2674.6651690000008
 20
-425.46504699999991
 30
0.0
 11
2674.6651690000008
 21
34.534953000000002
 31
0.0
  0
LINE
  5
676
  8
LAYER01
  6
CONTINUOUS
 62
     7
 10
2669.9484689999999
 20
4.8182529999999986
 30
0.0
 11
2674.6651690000008
 21
-425.46504699999991
 31
0.0
  0
INSERT
  5
677
  8
LAYER01
  2
MANHATAN-G35
 10
0.0
 20
0.0
 30
0.0
  0
LINE
  5
678
  8
LAYER01
  6
VERDECKT
 62
     7
 10
2919.047208
 20
-473.46504700000003
 30
0.0
 11
3074.6651690000008
 21
-473.46504700000003
 31
0.0
  0
LINE
  5
679
  8
LAYER01
  6
CONTINUOUS
 62
     7
 10
2920.9197690000001
 20
-485.46504700000003
 30
0.0
 11
3074.6651690000008
 21
-485.46504700000003
 31
0.0
  0
LINE
  5
67A
  8
LAYER01
  6
CONTINUOUS
 62
     7
 10
2960.130521
 20
149.534953
 30
0.0
 11
3074.6651690000008
 21
149.534953
 31
0.0
  0
LINE
  5
67B
  8
LAYER01
  6
CONTINUOUS
 62
     7
 10
2962.0030830000001
 20
137.534953
 30
0.0
 11
3074.6651690000008
 21
137.534953
 31
0.0
  0
LINE
  5
67C
  8
LAYER01
  6
CONTINUOUS
 62
     7
 10
2477.6651690000008
 20
-3.5344349999999989
 30
0.0
 11
2477.6651690000008
 21
38.166177000000012
 31
0.0
  0
LINE
  5
67D
  8
LAYER01
  6
CONTINUOUS
 62
     7
 10
2484.6651690000008
 20
7.1735129999999998
 30
0.0
 11
2484.6651690000008
 21
27.459903000000011
 31
0.0
  0
LINE
  5
67E
  8
LAYER01
  6
CONTINUOUS
 62
     7
 10
2668.8602839999999
 20
5.9050120000000001
 30
0.0
 11
2668.8602839999999
 21
28.730067999999999
 31
0.0
  0
LINE
  5
67F
  8
LAYER01
  6
CONTINUOUS
 62
     7
 10
2482.1651689999999
 20
12.316708
 30
0.0
 11
2482.1651689999999
 21
22.316707999999998
 31
0.0
  0
LINE
  5
680
  8
LAYER01
  6
CONTINUOUS
 62
     7
 10
2668.8602839999999
 20
5.9050120000000001
 30
0.0
 11
2484.6651690000008
 21
7.1735129999999998
 31
0.0
  0
LINE
  5
681
  8
LAYER01
  6
CONTINUOUS
 62
     7
 10
2668.8602839999999
 20
5.9050120000000001
 30
0.0
 11
2669.9484689999999
 21
4.8182529999999986
 31
0.0
  0
LINE
  5
682
  8
LAYER01
  6
CONTINUOUS
 62
     7
 10
2668.8602839999999
 20
28.730067999999999
 30
0.0
 11
2484.6651690000008
 21
27.459903000000011
 31
0.0
  0
LINE
  5
683
  8
LAYER01
  6
CONTINUOUS
 62
     7
 10
2668.8602839999999
 20
28.730067999999999
 30
0.0
 11
2674.6651690000008
 21
34.534953000000002
 31
0.0
  0
LINE
  5
684
  8
LAYER01
  6
VERDECKT
 62
     3
 10
2680.3214720000001
 20
-5.5568599999999986
 30
0.0
 11
2680.3214720000001
 21
40.191256000000003
 31
0.0
  0
LINE
  5
685
  8
LAYER01
  6
CONTINUOUS
 62
     7
 10
2474.6651689999999
 20
954.96117500000003
 30
0.0
 11
2474.6651689999999
 21
1094.9611749999999
 31
0.0
  0
LINE
  5
686
  8
LAYER01
  6
VERDECKT
 62
     3
 10
1718.8602840000001
 20
989.19737499999997
 30
0.0
 11
1724.6651690000001
 21
1099.9611749999999
 31
0.0
  0
LINE
  5
687
  8
LAYER01
  6
VERDECKT
 62
     3
 10
1730.3214720000001
 20
978.60199299999999
 30
0.0
 11
1736.0527440000001
 21
1087.9611749999999
 31
0.0
  0
LINE
  5
688
  8
LAYER01
  6
VERDECKT
 62
     3
 10
1534.6651690000001
 20
964.96117500000003
 30
0.0
 11
1718.8602840000001
 21
989.19737499999997
 31
0.0
  0
POLYLINE
  5
689
  8
LAYER01
  6
VERDECKT
 62
     3
 66
     1
 10
0.0
 20
0.0
 30
0.0
  0
VERTEX
  5
D40
  8
LAYER01
  6
VERDECKT
 62
     3
 10
1502.178752
 20
954.96112599999981
 30
0.0
  0
VERTEX
  5
D41
  8
LAYER01
  6
VERDECKT
 62
     3
 10
1502.158752
 20
955.33112599999993
 30
0.0
  0
VERTEX
  5
D42
  8
LAYER01
  6
VERDECKT
 62
     3
 10
1502.1487520000001
 20
955.69112599999994
 30
0.0
  0
VERTEX
  5
D43
  8
LAYER01
  6
VERDECKT
 62
     3
 10
1502.1287520000001
 20
956.06112599999994
 30
0.0
  0
VERTEX
  5
D44
  8
LAYER01
  6
VERDECKT
 62
     3
 10
1502.1187520000001
 20
956.42112599999996
 30
0.0
  0
VERTEX
  5
D45
  8
LAYER01
  6
VERDECKT
 62
     3
 10
1502.0987520000001
 20
956.79112599999996
 30
0.0
  0
VERTEX
  5
D46
  8
LAYER01
  6
VERDECKT
 62
     3
 10
1502.0887520000001
 20
957.15112599999986
 30
0.0
  0
VERTEX
  5
D47
  8
LAYER01
  6
VERDECKT
 62
     3
 10
1502.0687519999999
 20
957.52112599999987
 30
0.0
  0
VERTEX
  5
D48
  8
LAYER01
  6
VERDECKT
 62
     3
 10
1502.0587519999999
 20
957.88112599999999
 30
0.0
  0
VERTEX
  5
D49
  8
LAYER01
  6
VERDECKT
 62
     3
 10
1502.0387519999999
 20
958.251126
 30
0.0
  0
VERTEX
  5
D4A
  8
LAYER01
  6
VERDECKT
 62
     3
 10
1502.0287519999999
 20
958.61112600000001
 30
0.0
  0
VERTEX
  5
D4B
  8
LAYER01
  6
VERDECKT
 62
     3
 10
1502.008752
 20
958.97112599999991
 30
0.0
  0
VERTEX
  5
D4C
  8
LAYER01
  6
VERDECKT
 62
     3
 10
1501.998752
 20
959.34112599999992
 30
0.0
  0
VERTEX
  5
D4D
  8
LAYER01
  6
VERDECKT
 62
     3
 10
1501.978752
 20
959.70112600000004
 30
0.0
  0
VERTEX
  5
D4E
  8
LAYER01
  6
VERDECKT
 62
     3
 10
1501.968752
 20
960.06112599999994
 30
0.0
  0
VERTEX
  5
D4F
  8
LAYER01
  6
VERDECKT
 62
     3
 10
1501.948752
 20
960.43112599999995
 30
0.0
  0
VERTEX
  5
D50
  8
LAYER01
  6
VERDECKT
 62
     3
 10
1501.938752
 20
960.79112599999985
 30
0.0
  0
VERTEX
  5
D51
  8
LAYER01
  6
VERDECKT
 62
     3
 10
1501.918752
 20
961.15112599999998
 30
0.0
  0
VERTEX
  5
D52
  8
LAYER01
  6
VERDECKT
 62
     3
 10
1501.8987520000001
 20
961.52112599999998
 30
0.0
  0
VERTEX
  5
D53
  8
LAYER01
  6
VERDECKT
 62
     3
 10
1501.8887520000001
 20
961.88112599999988
 30
0.0
  0
VERTEX
  5
D54
  8
LAYER01
  6
VERDECKT
 62
     3
 10
1501.8687520000001
 20
962.24112599999989
 30
0.0
  0
VERTEX
  5
D55
  8
LAYER01
  6
VERDECKT
 62
     3
 10
1501.8587520000001
 20
962.60112600000002
 30
0.0
  0
VERTEX
  5
D56
  8
LAYER01
  6
VERDECKT
 62
     3
 10
1501.8387520000001
 20
962.96112599999992
 30
0.0
  0
VERTEX
  5
D57
  8
LAYER01
  6
VERDECKT
 62
     3
 10
1501.8287519999999
 20
963.32112599999994
 30
0.0
  0
VERTEX
  5
D58
  8
LAYER01
  6
VERDECKT
 62
     3
 10
1501.8087519999999
 20
963.69112599999994
 30
0.0
  0
VERTEX
  5
D59
  8
LAYER01
  6
VERDECKT
 62
     3
 10
1501.7987519999999
 20
964.05112599999995
 30
0.0
  0
VERTEX
  5
D5A
  8
LAYER01
  6
VERDECKT
 62
     3
 10
1501.7787519999999
 20
964.41112599999997
 30
0.0
  0
VERTEX
  5
D5B
  8
LAYER01
  6
VERDECKT
 62
     3
 10
1501.7687519999999
 20
964.77112599999987
 30
0.0
  0
VERTEX
  5
D5C
  8
LAYER01
  6
VERDECKT
 62
     3
 10
1501.748752
 20
965.13112599999988
 30
0.0
  0
VERTEX
  5
D5D
  8
LAYER01
  6
VERDECKT
 62
     3
 10
1501.738752
 20
965.49112600000001
 30
0.0
  0
VERTEX
  5
D5E
  8
LAYER01
  6
VERDECKT
 62
     3
 10
1501.718752
 20
965.85112600000002
 30
0.0
  0
VERTEX
  5
D5F
  8
LAYER01
  6
VERDECKT
 62
     3
 10
1501.698752
 20
966.21112599999992
 30
0.0
  0
VERTEX
  5
D60
  8
LAYER01
  6
VERDECKT
 62
     3
 10
1501.688752
 20
966.57112600000005
 30
0.0
  0
VERTEX
  5
D61
  8
LAYER01
  6
VERDECKT
 62
     3
 10
1501.668752
 20
966.93112599999984
 30
0.0
  0
VERTEX
  5
D62
  8
LAYER01
  6
VERDECKT
 62
     3
 10
1501.658752
 20
967.29112599999985
 30
0.0
  0
VERTEX
  5
D63
  8
LAYER01
  6
VERDECKT
 62
     3
 10
1501.6387520000001
 20
967.65112599999986
 30
0.0
  0
VERTEX
  5
D64
  8
LAYER01
  6
VERDECKT
 62
     3
 10
1501.6287520000001
 20
968.001126
 30
0.0
  0
VERTEX
  5
D65
  8
LAYER01
  6
VERDECKT
 62
     3
 10
1501.6087520000001
 20
968.36112600000013
 30
0.0
  0
VERTEX
  5
D66
  8
LAYER01
  6
VERDECKT
 62
     3
 10
1501.5987520000001
 20
968.72112599999991
 30
0.0
  0
VERTEX
  5
D67
  8
LAYER01
  6
VERDECKT
 62
     3
 10
1501.5787519999999
 20
969.08112600000004
 30
0.0
  0
VERTEX
  5
D68
  8
LAYER01
  6
VERDECKT
 62
     3
 10
1501.5587519999999
 20
969.44112599999983
 30
0.0
  0
VERTEX
  5
D69
  8
LAYER01
  6
VERDECKT
 62
     3
 10
1501.5487519999999
 20
969.80112599999995
 30
0.0
  0
VERTEX
  5
D6A
  8
LAYER01
  6
VERDECKT
 62
     3
 10
1501.5287519999999
 20
970.15112599999998
 30
0.0
  0
VERTEX
  5
D6B
  8
LAYER01
  6
VERDECKT
 62
     3
 10
1501.5187519999999
 20
970.51112599999999
 30
0.0
  0
VERTEX
  5
D6C
  8
LAYER01
  6
VERDECKT
 62
     3
 10
1501.498752
 20
970.87112599999989
 30
0.0
  0
VERTEX
  5
D6D
  8
LAYER01
  6
VERDECKT
 62
     3
 10
1501.488752
 20
971.22112600000003
 30
0.0
  0
VERTEX
  5
D6E
  8
LAYER01
  6
VERDECKT
 62
     3
 10
1501.468752
 20
971.58112599999981
 30
0.0
  0
VERTEX
  5
D6F
  8
LAYER01
  6
VERDECKT
 62
     3
 10
1501.458752
 20
971.94112599999994
 30
0.0
  0
VERTEX
  5
D70
  8
LAYER01
  6
VERDECKT
 62
     3
 10
1501.438752
 20
972.29112599999996
 30
0.0
  0
VERTEX
  5
D71
  8
LAYER01
  6
VERDECKT
 62
     3
 10
1501.418752
 20
972.65112599999998
 30
0.0
  0
VERTEX
  5
D72
  8
LAYER01
  6
VERDECKT
 62
     3
 10
1501.408752
 20
973.01112599999988
 30
0.0
  0
VERTEX
  5
D73
  8
LAYER01
  6
VERDECKT
 62
     3
 10
1501.3887520000001
 20
973.3611259999999
 30
0.0
  0
VERTEX
  5
D74
  8
LAYER01
  6
VERDECKT
 62
     3
 10
1501.3787520000001
 20
973.72112600000003
 30
0.0
  0
VERTEX
  5
D75
  8
LAYER01
  6
VERDECKT
 62
     3
 10
1501.3587520000001
 20
974.07112599999994
 30
0.0
  0
VERTEX
  5
D76
  8
LAYER01
  6
VERDECKT
 62
     3
 10
1501.3387520000001
 20
974.43112599999995
 30
0.0
  0
VERTEX
  5
D77
  8
LAYER01
  6
VERDECKT
 62
     3
 10
1501.3287519999999
 20
974.78112599999997
 30
0.0
  0
VERTEX
  5
D78
  8
LAYER01
  6
VERDECKT
 62
     3
 10
1501.3087519999999
 20
975.14112599999987
 30
0.0
  0
VERTEX
  5
D79
  8
LAYER01
  6
VERDECKT
 62
     3
 10
1501.2987519999999
 20
975.49112600000001
 30
0.0
  0
VERTEX
  5
D7A
  8
LAYER01
  6
VERDECKT
 62
     3
 10
1501.2787519999999
 20
975.85112600000002
 30
0.0
  0
VERTEX
  5
D7B
  8
LAYER01
  6
VERDECKT
 62
     3
 10
1501.2687519999999
 20
976.20112599999993
 30
0.0
  0
VERTEX
  5
D7C
  8
LAYER01
  6
VERDECKT
 62
     3
 10
1501.248752
 20
976.55112599999995
 30
0.0
  0
VERTEX
  5
D7D
  8
LAYER01
  6
VERDECKT
 62
     3
 10
1501.228752
 20
976.91112599999997
 30
0.0
  0
VERTEX
  5
D7E
  8
LAYER01
  6
VERDECKT
 62
     3
 10
1501.218752
 20
977.26112599999988
 30
0.0
  0
VERTEX
  5
D7F
  8
LAYER01
  6
VERDECKT
 62
     3
 10
1501.198752
 20
977.61112600000001
 30
0.0
  0
VERTEX
  5
D80
  8
LAYER01
  6
VERDECKT
 62
     3
 10
1501.188752
 20
977.97112600000003
 30
0.0
  0
VERTEX
  5
D81
  8
LAYER01
  6
VERDECKT
 62
     3
 10
1501.168752
 20
978.32112599999994
 30
0.0
  0
VERTEX
  5
D82
  8
LAYER01
  6
VERDECKT
 62
     3
 10
1501.1487520000001
 20
978.67112599999996
 30
0.0
  0
VERTEX
  5
D83
  8
LAYER01
  6
VERDECKT
 62
     3
 10
1501.1387520000001
 20
979.02112599999987
 30
0.0
  0
VERTEX
  5
D84
  8
LAYER01
  6
VERDECKT
 62
     3
 10
1501.1187520000001
 20
979.38112599999999
 30
0.0
  0
VERTEX
  5
D85
  8
LAYER01
  6
VERDECKT
 62
     3
 10
1501.1087520000001
 20
979.73112600000002
 30
0.0
  0
VERTEX
  5
D86
  8
LAYER01
  6
VERDECKT
 62
     3
 10
1501.0887520000001
 20
980.08112599999993
 30
0.0
  0
VERTEX
  5
D87
  8
LAYER01
  6
VERDECKT
 62
     3
 10
1501.0687519999999
 20
980.43112599999995
 30
0.0
  0
VERTEX
  5
D88
  8
LAYER01
  6
VERDECKT
 62
     3
 10
1501.0587519999999
 20
980.78112599999986
 30
0.0
  0
VERTEX
  5
D89
  8
LAYER01
  6
VERDECKT
 62
     3
 10
1501.0387519999999
 20
981.13112599999999
 30
0.0
  0
VERTEX
  5
D8A
  8
LAYER01
  6
VERDECKT
 62
     3
 10
1501.0287519999999
 20
981.48112600000002
 30
0.0
  0
VERTEX
  5
D8B
  8
LAYER01
  6
VERDECKT
 62
     3
 10
1501.008752
 20
981.83112599999993
 30
0.0
  0
VERTEX
  5
D8C
  8
LAYER01
  6
VERDECKT
 62
     3
 10
1500.988752
 20
982.18112599999995
 30
0.0
  0
VERTEX
  5
D8D
  8
LAYER01
  6
VERDECKT
 62
     3
 10
1500.978752
 20
982.53112599999986
 30
0.0
  0
VERTEX
  5
D8E
  8
LAYER01
  6
VERDECKT
 62
     3
 10
1500.958752
 20
982.88112599999999
 30
0.0
  0
VERTEX
  5
D8F
  8
LAYER01
  6
VERDECKT
 62
     3
 10
1500.948752
 20
983.23112600000002
 30
0.0
  0
VERTEX
  5
D90
  8
LAYER01
  6
VERDECKT
 62
     3
 10
1500.928752
 20
983.58112599999993
 30
0.0
  0
VERTEX
  5
D91
  8
LAYER01
  6
VERDECKT
 62
     3
 10
1500.908752
 20
983.93112599999995
 30
0.0
  0
VERTEX
  5
D92
  8
LAYER01
  6
VERDECKT
 62
     3
 10
1500.8987520000001
 20
984.28112599999986
 30
0.0
  0
VERTEX
  5
D93
  8
LAYER01
  6
VERDECKT
 62
     3
 10
1500.8787520000001
 20
984.63112599999999
 30
0.0
  0
VERTEX
  5
D94
  8
LAYER01
  6
VERDECKT
 62
     3
 10
1500.8687520000001
 20
984.98112600000002
 30
0.0
  0
VERTEX
  5
D95
  8
LAYER01
  6
VERDECKT
 62
     3
 10
1500.8487520000001
 20
985.33112599999993
 30
0.0
  0
VERTEX
  5
D96
  8
LAYER01
  6
VERDECKT
 62
     3
 10
1500.8287519999999
 20
985.68112599999984
 30
0.0
  0
VERTEX
  5
D97
  8
LAYER01
  6
VERDECKT
 62
     3
 10
1500.8187519999999
 20
986.02112599999987
 30
0.0
  0
VERTEX
  5
D98
  8
LAYER01
  6
VERDECKT
 62
     3
 10
1500.7987519999999
 20
986.371126
 30
0.0
  0
VERTEX
  5
D99
  8
LAYER01
  6
VERDECKT
 62
     3
 10
1500.7787519999999
 20
986.72112600000014
 30
0.0
  0
VERTEX
  5
D9A
  8
LAYER01
  6
VERDECKT
 62
     3
 10
1500.7687519999999
 20
987.07112600000005
 30
0.0
  0
VERTEX
  5
D9B
  8
LAYER01
  6
VERDECKT
 62
     3
 10
1500.748752
 20
987.41112599999985
 30
0.0
  0
VERTEX
  5
D9C
  8
LAYER01
  6
VERDECKT
 62
     3
 10
1500.738752
 20
987.76112599999999
 30
0.0
  0
VERTEX
  5
D9D
  8
LAYER01
  6
VERDECKT
 62
     3
 10
1500.718752
 20
988.11112600000001
 30
0.0
  0
VERTEX
  5
D9E
  8
LAYER01
  6
VERDECKT
 62
     3
 10
1500.698752
 20
988.45112600000004
 30
0.0
  0
VERTEX
  5
D9F
  8
LAYER01
  6
VERDECKT
 62
     3
 10
1500.688752
 20
988.80112599999984
 30
0.0
  0
VERTEX
  5
DA0
  8
LAYER01
  6
VERDECKT
 62
     3
 10
1500.668752
 20
989.15112599999986
 30
0.0
  0
VERTEX
  5
DA1
  8
LAYER01
  6
VERDECKT
 62
     3
 10
1500.6487520000001
 20
989.49112600000001
 30
0.0
  0
VERTEX
  5
DA2
  8
LAYER01
  6
VERDECKT
 62
     3
 10
1500.6387520000001
 20
989.84112600000014
 30
0.0
  0
VERTEX
  5
DA3
  8
LAYER01
  6
VERDECKT
 62
     3
 10
1500.6187520000001
 20
990.18112599999995
 30
0.0
  0
VERTEX
  5
DA4
  8
LAYER01
  6
VERDECKT
 62
     3
 10
1500.6087520000001
 20
990.53112599999986
 30
0.0
  0
VERTEX
  5
DA5
  8
LAYER01
  6
VERDECKT
 62
     3
 10
1500.5887520000001
 20
990.871126
 30
0.0
  0
VERTEX
  5
DA6
  8
LAYER01
  6
VERDECKT
 62
     3
 10
1500.5687519999999
 20
991.22112600000014
 30
0.0
  0
VERTEX
  5
DA7
  8
LAYER01
  6
VERDECKT
 62
     3
 10
1500.5587519999999
 20
991.56112599999994
 30
0.0
  0
VERTEX
  5
DA8
  8
LAYER01
  6
VERDECKT
 62
     3
 10
1500.5387519999999
 20
991.91112599999985
 30
0.0
  0
VERTEX
  5
DA9
  8
LAYER01
  6
VERDECKT
 62
     3
 10
1500.5187519999999
 20
992.251126
 30
0.0
  0
VERTEX
  5
DAA
  8
LAYER01
  6
VERDECKT
 62
     3
 10
1500.508752
 20
992.60112600000014
 30
0.0
  0
VERTEX
  5
DAB
  8
LAYER01
  6
VERDECKT
 62
     3
 10
1500.488752
 20
992.94112600000005
 30
0.0
  0
VERTEX
  5
DAC
  8
LAYER01
  6
VERDECKT
 62
     3
 10
1500.468752
 20
993.28112599999986
 30
0.0
  0
VERTEX
  5
DAD
  8
LAYER01
  6
VERDECKT
 62
     3
 10
1500.458752
 20
993.63112599999999
 30
0.0
  0
VERTEX
  5
DAE
  8
LAYER01
  6
VERDECKT
 62
     3
 10
1500.438752
 20
993.97112600000014
 30
0.0
  0
VERTEX
  5
DAF
  8
LAYER01
  6
VERDECKT
 62
     3
 10
1500.428752
 20
994.31112599999994
 30
0.0
  0
VERTEX
  5
DB0
  8
LAYER01
  6
VERDECKT
 62
     3
 10
1500.408752
 20
994.65112599999986
 30
0.0
  0
VERTEX
  5
DB1
  8
LAYER01
  6
VERDECKT
 62
     3
 10
1500.3887520000001
 20
995.001126
 30
0.0
  0
VERTEX
  5
DB2
  8
LAYER01
  6
VERDECKT
 62
     3
 10
1500.3787520000001
 20
995.34112600000014
 30
0.0
  0
VERTEX
  5
DB3
  8
LAYER01
  6
VERDECKT
 62
     3
 10
1500.3587520000001
 20
995.68112599999995
 30
0.0
  0
VERTEX
  5
DB4
  8
LAYER01
  6
VERDECKT
 62
     3
 10
1500.3387520000001
 20
996.02112599999987
 30
0.0
  0
VERTEX
  5
DB5
  8
LAYER01
  6
VERDECKT
 62
     3
 10
1500.3287519999999
 20
996.36112600000001
 30
0.0
  0
VERTEX
  5
DB6
  8
LAYER01
  6
VERDECKT
 62
     3
 10
1500.3087519999999
 20
996.71112599999992
 30
0.0
  0
VERTEX
  5
DB7
  8
LAYER01
  6
VERDECKT
 62
     3
 10
1500.2887519999999
 20
997.05112599999995
 30
0.0
  0
VERTEX
  5
DB8
  8
LAYER01
  6
VERDECKT
 62
     3
 10
1500.2787519999999
 20
997.39112599999987
 30
0.0
  0
VERTEX
  5
DB9
  8
LAYER01
  6
VERDECKT
 62
     3
 10
1500.258752
 20
997.73112600000002
 30
0.0
  0
VERTEX
  5
DBA
  8
LAYER01
  6
VERDECKT
 62
     3
 10
1500.238752
 20
998.07112599999994
 30
0.0
  0
VERTEX
  5
DBB
  8
LAYER01
  6
VERDECKT
 62
     3
 10
1500.228752
 20
998.41112599999997
 30
0.0
  0
VERTEX
  5
DBC
  8
LAYER01
  6
VERDECKT
 62
     3
 10
1500.208752
 20
998.75112599999989
 30
0.0
  0
VERTEX
  5
DBD
  8
LAYER01
  6
VERDECKT
 62
     3
 10
1500.188752
 20
999.09112600000003
 30
0.0
  0
VERTEX
  5
DBE
  8
LAYER01
  6
VERDECKT
 62
     3
 10
1500.178752
 20
999.43112599999995
 30
0.0
  0
VERTEX
  5
DBF
  8
LAYER01
  6
VERDECKT
 62
     3
 10
1500.158752
 20
999.77112599999998
 30
0.0
  0
VERTEX
  5
DC0
  8
LAYER01
  6
VERDECKT
 62
     3
 10
1500.1387520000001
 20
1000.111126
 30
0.0
  0
SEQEND
  5
DC1
  8
LAYER01
  6
VERDECKT
 62
     3
  0
POLYLINE
  5
70C
  8
LAYER01
  6
VERDECKT
 62
     3
 66
     1
 10
0.0
 20
0.0
 30
0.0
  0
VERTEX
  5
DC2
  8
LAYER01
  6
VERDECKT
 62
     3
 10
1449.188752
 20
1000.111126
 30
0.0
  0
VERTEX
  5
DC3
  8
LAYER01
  6
VERDECKT
 62
     3
 10
1449.168752
 20
999.77112599999998
 30
0.0
  0
VERTEX
  5
DC4
  8
LAYER01
  6
VERDECKT
 62
     3
 10
1449.158752
 20
999.43112599999995
 30
0.0
  0
VERTEX
  5
DC5
  8
LAYER01
  6
VERDECKT
 62
     3
 10
1449.1387520000001
 20
999.09112600000003
 30
0.0
  0
VERTEX
  5
DC6
  8
LAYER01
  6
VERDECKT
 62
     3
 10
1449.1187520000001
 20
998.75112599999989
 30
0.0
  0
VERTEX
  5
DC7
  8
LAYER01
  6
VERDECKT
 62
     3
 10
1449.1087520000001
 20
998.41112599999997
 30
0.0
  0
VERTEX
  5
DC8
  8
LAYER01
  6
VERDECKT
 62
     3
 10
1449.0887520000001
 20
998.07112599999994
 30
0.0
  0
VERTEX
  5
DC9
  8
LAYER01
  6
VERDECKT
 62
     3
 10
1449.0687519999999
 20
997.73112600000002
 30
0.0
  0
VERTEX
  5
DCA
  8
LAYER01
  6
VERDECKT
 62
     3
 10
1449.0587519999999
 20
997.39112599999987
 30
0.0
  0
VERTEX
  5
DCB
  8
LAYER01
  6
VERDECKT
 62
     3
 10
1449.0387519999999
 20
997.05112599999995
 30
0.0
  0
VERTEX
  5
DCC
  8
LAYER01
  6
VERDECKT
 62
     3
 10
1449.0187519999999
 20
996.71112599999992
 30
0.0
  0
VERTEX
  5
DCD
  8
LAYER01
  6
VERDECKT
 62
     3
 10
1449.008752
 20
996.36112600000001
 30
0.0
  0
VERTEX
  5
DCE
  8
LAYER01
  6
VERDECKT
 62
     3
 10
1448.988752
 20
996.02112599999987
 30
0.0
  0
VERTEX
  5
DCF
  8
LAYER01
  6
VERDECKT
 62
     3
 10
1448.968752
 20
995.68112599999995
 30
0.0
  0
VERTEX
  5
DD0
  8
LAYER01
  6
VERDECKT
 62
     3
 10
1448.958752
 20
995.34112600000014
 30
0.0
  0
VERTEX
  5
DD1
  8
LAYER01
  6
VERDECKT
 62
     3
 10
1448.938752
 20
995.001126
 30
0.0
  0
VERTEX
  5
DD2
  8
LAYER01
  6
VERDECKT
 62
     3
 10
1448.918752
 20
994.65112599999986
 30
0.0
  0
VERTEX
  5
DD3
  8
LAYER01
  6
VERDECKT
 62
     3
 10
1448.908752
 20
994.31112599999994
 30
0.0
  0
VERTEX
  5
DD4
  8
LAYER01
  6
VERDECKT
 62
     3
 10
1448.8887520000001
 20
993.97112600000014
 30
0.0
  0
VERTEX
  5
DD5
  8
LAYER01
  6
VERDECKT
 62
     3
 10
1448.8687520000001
 20
993.63112599999999
 30
0.0
  0
VERTEX
  5
DD6
  8
LAYER01
  6
VERDECKT
 62
     3
 10
1448.8587520000001
 20
993.28112599999986
 30
0.0
  0
VERTEX
  5
DD7
  8
LAYER01
  6
VERDECKT
 62
     3
 10
1448.8387520000001
 20
992.94112600000005
 30
0.0
  0
VERTEX
  5
DD8
  8
LAYER01
  6
VERDECKT
 62
     3
 10
1448.8287519999999
 20
992.60112600000014
 30
0.0
  0
VERTEX
  5
DD9
  8
LAYER01
  6
VERDECKT
 62
     3
 10
1448.8087519999999
 20
992.251126
 30
0.0
  0
VERTEX
  5
DDA
  8
LAYER01
  6
VERDECKT
 62
     3
 10
1448.7887519999999
 20
991.91112599999985
 30
0.0
  0
VERTEX
  5
DDB
  8
LAYER01
  6
VERDECKT
 62
     3
 10
1448.7787519999999
 20
991.56112599999994
 30
0.0
  0
VERTEX
  5
DDC
  8
LAYER01
  6
VERDECKT
 62
     3
 10
1448.758752
 20
991.22112600000014
 30
0.0
  0
VERTEX
  5
DDD
  8
LAYER01
  6
VERDECKT
 62
     3
 10
1448.738752
 20
990.871126
 30
0.0
  0
VERTEX
  5
DDE
  8
LAYER01
  6
VERDECKT
 62
     3
 10
1448.728752
 20
990.53112599999986
 30
0.0
  0
VERTEX
  5
DDF
  8
LAYER01
  6
VERDECKT
 62
     3
 10
1448.708752
 20
990.18112599999995
 30
0.0
  0
VERTEX
  5
DE0
  8
LAYER01
  6
VERDECKT
 62
     3
 10
1448.688752
 20
989.84112600000014
 30
0.0
  0
VERTEX
  5
DE1
  8
LAYER01
  6
VERDECKT
 62
     3
 10
1448.678752
 20
989.49112600000001
 30
0.0
  0
VERTEX
  5
DE2
  8
LAYER01
  6
VERDECKT
 62
     3
 10
1448.658752
 20
989.15112599999986
 30
0.0
  0
VERTEX
  5
DE3
  8
LAYER01
  6
VERDECKT
 62
     3
 10
1448.6487520000001
 20
988.80112599999984
 30
0.0
  0
VERTEX
  5
DE4
  8
LAYER01
  6
VERDECKT
 62
     3
 10
1448.6287520000001
 20
988.45112600000004
 30
0.0
  0
VERTEX
  5
DE5
  8
LAYER01
  6
VERDECKT
 62
     3
 10
1448.6087520000001
 20
988.11112600000001
 30
0.0
  0
VERTEX
  5
DE6
  8
LAYER01
  6
VERDECKT
 62
     3
 10
1448.5987520000001
 20
987.76112599999999
 30
0.0
  0
VERTEX
  5
DE7
  8
LAYER01
  6
VERDECKT
 62
     3
 10
1448.5787519999999
 20
987.41112599999985
 30
0.0
  0
VERTEX
  5
DE8
  8
LAYER01
  6
VERDECKT
 62
     3
 10
1448.5587519999999
 20
987.07112600000005
 30
0.0
  0
VERTEX
  5
DE9
  8
LAYER01
  6
VERDECKT
 62
     3
 10
1448.5487519999999
 20
986.72112600000014
 30
0.0
  0
VERTEX
  5
DEA
  8
LAYER01
  6
VERDECKT
 62
     3
 10
1448.5287519999999
 20
986.371126
 30
0.0
  0
VERTEX
  5
DEB
  8
LAYER01
  6
VERDECKT
 62
     3
 10
1448.5187519999999
 20
986.02112599999987
 30
0.0
  0
VERTEX
  5
DEC
  8
LAYER01
  6
VERDECKT
 62
     3
 10
1448.498752
 20
985.68112599999984
 30
0.0
  0
VERTEX
  5
DED
  8
LAYER01
  6
VERDECKT
 62
     3
 10
1448.478752
 20
985.33112599999993
 30
0.0
  0
VERTEX
  5
DEE
  8
LAYER01
  6
VERDECKT
 62
     3
 10
1448.468752
 20
984.98112600000002
 30
0.0
  0
VERTEX
  5
DEF
  8
LAYER01
  6
VERDECKT
 62
     3
 10
1448.448752
 20
984.63112599999999
 30
0.0
  0
VERTEX
  5
DF0
  8
LAYER01
  6
VERDECKT
 62
     3
 10
1448.428752
 20
984.28112599999986
 30
0.0
  0
VERTEX
  5
DF1
  8
LAYER01
  6
VERDECKT
 62
     3
 10
1448.418752
 20
983.93112599999995
 30
0.0
  0
VERTEX
  5
DF2
  8
LAYER01
  6
VERDECKT
 62
     3
 10
1448.3987520000001
 20
983.58112599999993
 30
0.0
  0
VERTEX
  5
DF3
  8
LAYER01
  6
VERDECKT
 62
     3
 10
1448.3887520000001
 20
983.23112600000002
 30
0.0
  0
VERTEX
  5
DF4
  8
LAYER01
  6
VERDECKT
 62
     3
 10
1448.3687520000001
 20
982.88112599999999
 30
0.0
  0
VERTEX
  5
DF5
  8
LAYER01
  6
VERDECKT
 62
     3
 10
1448.3487520000001
 20
982.53112599999986
 30
0.0
  0
VERTEX
  5
DF6
  8
LAYER01
  6
VERDECKT
 62
     3
 10
1448.3387520000001
 20
982.18112599999995
 30
0.0
  0
VERTEX
  5
DF7
  8
LAYER01
  6
VERDECKT
 62
     3
 10
1448.3187519999999
 20
981.83112599999993
 30
0.0
  0
VERTEX
  5
DF8
  8
LAYER01
  6
VERDECKT
 62
     3
 10
1448.3087519999999
 20
981.48112600000002
 30
0.0
  0
VERTEX
  5
DF9
  8
LAYER01
  6
VERDECKT
 62
     3
 10
1448.2887519999999
 20
981.13112599999999
 30
0.0
  0
VERTEX
  5
DFA
  8
LAYER01
  6
VERDECKT
 62
     3
 10
1448.2687519999999
 20
980.78112599999986
 30
0.0
  0
VERTEX
  5
DFB
  8
LAYER01
  6
VERDECKT
 62
     3
 10
1448.258752
 20
980.43112599999995
 30
0.0
  0
VERTEX
  5
DFC
  8
LAYER01
  6
VERDECKT
 62
     3
 10
1448.238752
 20
980.08112599999993
 30
0.0
  0
VERTEX
  5
DFD
  8
LAYER01
  6
VERDECKT
 62
     3
 10
1448.228752
 20
979.73112600000002
 30
0.0
  0
VERTEX
  5
DFE
  8
LAYER01
  6
VERDECKT
 62
     3
 10
1448.208752
 20
979.38112599999999
 30
0.0
  0
VERTEX
  5
DFF
  8
LAYER01
  6
VERDECKT
 62
     3
 10
1448.188752
 20
979.02112599999987
 30
0.0
  0
VERTEX
  5
E00
  8
LAYER01
  6
VERDECKT
 62
     3
 10
1448.178752
 20
978.67112599999996
 30
0.0
  0
VERTEX
  5
E01
  8
LAYER01
  6
VERDECKT
 62
     3
 10
1448.158752
 20
978.32112599999994
 30
0.0
  0
VERTEX
  5
E02
  8
LAYER01
  6
VERDECKT
 62
     3
 10
1448.1487520000001
 20
977.97112600000003
 30
0.0
  0
VERTEX
  5
E03
  8
LAYER01
  6
VERDECKT
 62
     3
 10
1448.1287520000001
 20
977.61112600000001
 30
0.0
  0
VERTEX
  5
E04
  8
LAYER01
  6
VERDECKT
 62
     3
 10
1448.1087520000001
 20
977.26112599999988
 30
0.0
  0
VERTEX
  5
E05
  8
LAYER01
  6
VERDECKT
 62
     3
 10
1448.0987520000001
 20
976.91112599999997
 30
0.0
  0
VERTEX
  5
E06
  8
LAYER01
  6
VERDECKT
 62
     3
 10
1448.0787519999999
 20
976.55112599999995
 30
0.0
  0
VERTEX
  5
E07
  8
LAYER01
  6
VERDECKT
 62
     3
 10
1448.0687519999999
 20
976.20112599999993
 30
0.0
  0
VERTEX
  5
E08
  8
LAYER01
  6
VERDECKT
 62
     3
 10
1448.0487519999999
 20
975.85112600000002
 30
0.0
  0
VERTEX
  5
E09
  8
LAYER01
  6
VERDECKT
 62
     3
 10
1448.0387519999999
 20
975.49112600000001
 30
0.0
  0
VERTEX
  5
E0A
  8
LAYER01
  6
VERDECKT
 62
     3
 10
1448.0187519999999
 20
975.14112599999987
 30
0.0
  0
VERTEX
  5
E0B
  8
LAYER01
  6
VERDECKT
 62
     3
 10
1447.998752
 20
974.78112599999997
 30
0.0
  0
VERTEX
  5
E0C
  8
LAYER01
  6
VERDECKT
 62
     3
 10
1447.988752
 20
974.43112599999995
 30
0.0
  0
VERTEX
  5
E0D
  8
LAYER01
  6
VERDECKT
 62
     3
 10
1447.968752
 20
974.07112599999994
 30
0.0
  0
VERTEX
  5
E0E
  8
LAYER01
  6
VERDECKT
 62
     3
 10
1447.958752
 20
973.72112600000003
 30
0.0
  0
VERTEX
  5
E0F
  8
LAYER01
  6
VERDECKT
 62
     3
 10
1447.938752
 20
973.3611259999999
 30
0.0
  0
VERTEX
  5
E10
  8
LAYER01
  6
VERDECKT
 62
     3
 10
1447.918752
 20
973.01112599999988
 30
0.0
  0
VERTEX
  5
E11
  8
LAYER01
  6
VERDECKT
 62
     3
 10
1447.908752
 20
972.65112599999998
 30
0.0
  0
VERTEX
  5
E12
  8
LAYER01
  6
VERDECKT
 62
     3
 10
1447.8887520000001
 20
972.29112599999996
 30
0.0
  0
VERTEX
  5
E13
  8
LAYER01
  6
VERDECKT
 62
     3
 10
1447.8787520000001
 20
971.94112599999994
 30
0.0
  0
VERTEX
  5
E14
  8
LAYER01
  6
VERDECKT
 62
     3
 10
1447.8587520000001
 20
971.58112599999981
 30
0.0
  0
VERTEX
  5
E15
  8
LAYER01
  6
VERDECKT
 62
     3
 10
1447.8487520000001
 20
971.22112600000003
 30
0.0
  0
VERTEX
  5
E16
  8
LAYER01
  6
VERDECKT
 62
     3
 10
1447.8287519999999
 20
970.87112599999989
 30
0.0
  0
VERTEX
  5
E17
  8
LAYER01
  6
VERDECKT
 62
     3
 10
1447.8187519999999
 20
970.51112599999999
 30
0.0
  0
VERTEX
  5
E18
  8
LAYER01
  6
VERDECKT
 62
     3
 10
1447.7987519999999
 20
970.15112599999998
 30
0.0
  0
VERTEX
  5
E19
  8
LAYER01
  6
VERDECKT
 62
     3
 10
1447.7787519999999
 20
969.80112599999995
 30
0.0
  0
VERTEX
  5
E1A
  8
LAYER01
  6
VERDECKT
 62
     3
 10
1447.7687519999999
 20
969.44112599999983
 30
0.0
  0
VERTEX
  5
E1B
  8
LAYER01
  6
VERDECKT
 62
     3
 10
1447.748752
 20
969.08112600000004
 30
0.0
  0
VERTEX
  5
E1C
  8
LAYER01
  6
VERDECKT
 62
     3
 10
1447.738752
 20
968.72112599999991
 30
0.0
  0
VERTEX
  5
E1D
  8
LAYER01
  6
VERDECKT
 62
     3
 10
1447.718752
 20
968.36112600000013
 30
0.0
  0
VERTEX
  5
E1E
  8
LAYER01
  6
VERDECKT
 62
     3
 10
1447.708752
 20
968.001126
 30
0.0
  0
VERTEX
  5
E1F
  8
LAYER01
  6
VERDECKT
 62
     3
 10
1447.688752
 20
967.65112599999986
 30
0.0
  0
VERTEX
  5
E20
  8
LAYER01
  6
VERDECKT
 62
     3
 10
1447.668752
 20
967.29112599999985
 30
0.0
  0
VERTEX
  5
E21
  8
LAYER01
  6
VERDECKT
 62
     3
 10
1447.658752
 20
966.93112599999984
 30
0.0
  0
VERTEX
  5
E22
  8
LAYER01
  6
VERDECKT
 62
     3
 10
1447.6387520000001
 20
966.57112600000005
 30
0.0
  0
VERTEX
  5
E23
  8
LAYER01
  6
VERDECKT
 62
     3
 10
1447.6287520000001
 20
966.21112599999992
 30
0.0
  0
VERTEX
  5
E24
  8
LAYER01
  6
VERDECKT
 62
     3
 10
1447.6087520000001
 20
965.85112600000002
 30
0.0
  0
VERTEX
  5
E25
  8
LAYER01
  6
VERDECKT
 62
     3
 10
1447.5987520000001
 20
965.49112600000001
 30
0.0
  0
VERTEX
  5
E26
  8
LAYER01
  6
VERDECKT
 62
     3
 10
1447.5787519999999
 20
965.13112599999988
 30
0.0
  0
VERTEX
  5
E27
  8
LAYER01
  6
VERDECKT
 62
     3
 10
1447.5687519999999
 20
964.77112599999987
 30
0.0
  0
VERTEX
  5
E28
  8
LAYER01
  6
VERDECKT
 62
     3
 10
1447.5487519999999
 20
964.41112599999997
 30
0.0
  0
VERTEX
  5
E29
  8
LAYER01
  6
VERDECKT
 62
     3
 10
1447.5387519999999
 20
964.05112599999995
 30
0.0
  0
VERTEX
  5
E2A
  8
LAYER01
  6
VERDECKT
 62
     3
 10
1447.5187519999999
 20
963.69112599999994
 30
0.0
  0
VERTEX
  5
E2B
  8
LAYER01
  6
VERDECKT
 62
     3
 10
1447.508752
 20
963.32112599999994
 30
0.0
  0
VERTEX
  5
E2C
  8
LAYER01
  6
VERDECKT
 62
     3
 10
1447.488752
 20
962.96112599999992
 30
0.0
  0
VERTEX
  5
E2D
  8
LAYER01
  6
VERDECKT
 62
     3
 10
1447.468752
 20
962.60112600000002
 30
0.0
  0
VERTEX
  5
E2E
  8
LAYER01
  6
VERDECKT
 62
     3
 10
1447.458752
 20
962.24112599999989
 30
0.0
  0
VERTEX
  5
E2F
  8
LAYER01
  6
VERDECKT
 62
     3
 10
1447.438752
 20
961.88112599999988
 30
0.0
  0
VERTEX
  5
E30
  8
LAYER01
  6
VERDECKT
 62
     3
 10
1447.428752
 20
961.52112599999998
 30
0.0
  0
VERTEX
  5
E31
  8
LAYER01
  6
VERDECKT
 62
     3
 10
1447.408752
 20
961.15112599999998
 30
0.0
  0
VERTEX
  5
E32
  8
LAYER01
  6
VERDECKT
 62
     3
 10
1447.3987520000001
 20
960.79112599999985
 30
0.0
  0
VERTEX
  5
E33
  8
LAYER01
  6
VERDECKT
 62
     3
 10
1447.3787520000001
 20
960.43112599999995
 30
0.0
  0
VERTEX
  5
E34
  8
LAYER01
  6
VERDECKT
 62
     3
 10
1447.3687520000001
 20
960.06112599999994
 30
0.0
  0
VERTEX
  5
E35
  8
LAYER01
  6
VERDECKT
 62
     3
 10
1447.3487520000001
 20
959.70112600000004
 30
0.0
  0
VERTEX
  5
E36
  8
LAYER01
  6
VERDECKT
 62
     3
 10
1447.3387520000001
 20
959.34112599999992
 30
0.0
  0
VERTEX
  5
E37
  8
LAYER01
  6
VERDECKT
 62
     3
 10
1447.3187519999999
 20
958.97112599999991
 30
0.0
  0
VERTEX
  5
E38
  8
LAYER01
  6
VERDECKT
 62
     3
 10
1447.3087519999999
 20
958.61112600000001
 30
0.0
  0
VERTEX
  5
E39
  8
LAYER01
  6
VERDECKT
 62
     3
 10
1447.2887519999999
 20
958.251126
 30
0.0
  0
VERTEX
  5
E3A
  8
LAYER01
  6
VERDECKT
 62
     3
 10
1447.2787519999999
 20
957.88112599999999
 30
0.0
  0
VERTEX
  5
E3B
  8
LAYER01
  6
VERDECKT
 62
     3
 10
1447.258752
 20
957.52112599999987
 30
0.0
  0
VERTEX
  5
E3C
  8
LAYER01
  6
VERDECKT
 62
     3
 10
1447.248752
 20
957.15112599999986
 30
0.0
  0
VERTEX
  5
E3D
  8
LAYER01
  6
VERDECKT
 62
     3
 10
1447.228752
 20
956.79112599999996
 30
0.0
  0
VERTEX
  5
E3E
  8
LAYER01
  6
VERDECKT
 62
     3
 10
1447.218752
 20
956.42112599999996
 30
0.0
  0
VERTEX
  5
E3F
  8
LAYER01
  6
VERDECKT
 62
     3
 10
1447.198752
 20
956.06112599999994
 30
0.0
  0
VERTEX
  5
E40
  8
LAYER01
  6
VERDECKT
 62
     3
 10
1447.188752
 20
955.69112599999994
 30
0.0
  0
VERTEX
  5
E41
  8
LAYER01
  6
VERDECKT
 62
     3
 10
1447.168752
 20
955.33112599999993
 30
0.0
  0
VERTEX
  5
E42
  8
LAYER01
  6
VERDECKT
 62
     3
 10
1447.158752
 20
954.96112599999981
 30
0.0
  0
SEQEND
  5
E43
  8
LAYER01
  6
VERDECKT
 62
     3
  0
LINE
  5
78F
  8
LAYER01
  6
CONTINUOUS
 62
     7
 10
1527.6651690000001
 20
939.96117500000003
 30
0.0
 11
1502.776196
 21
939.96117500000003
 31
0.0
  0
LINE
  5
790
  8
LAYER01
  6
CONTINUOUS
 62
     7
 10
1606.334429
 20
954.96117500000003
 30
0.0
 11
1527.6651690000001
 21
939.96117500000003
 31
0.0
  0
LINE
  5
791
  8
LAYER01
  6
CONTINUOUS
 62
     7
 10
1502.776196
 20
939.96117500000003
 30
0.0
 11
1446.554142
 21
939.96117500000003
 31
0.0
  0
LINE
  5
792
  8
LAYER01
  6
VERDECKT
 62
     3
 10
1606.334429
 20
954.96117500000003
 30
0.0
 11
1730.3214720000001
 21
978.60199299999999
 31
0.0
  0
LINE
  5
793
  8
LAYER01
  6
VERDECKT
 62
     3
 10
1532.1651690000001
 20
960.06876799999998
 30
0.0
 11
1498.599352
 21
954.96117500000003
 31
0.0
  0
LINE
  5
794
  8
LAYER01
  6
VERDECKT
 62
     3
 10
1532.1651690000001
 20
960.06876799999998
 30
0.0
 11
1532.1651690000001
 21
962.96117500000003
 31
0.0
  0
LINE
  5
795
  8
LAYER01
  6
VERDECKT
 62
     3
 10
1534.6651690000001
 20
962.96117500000003
 30
0.0
 11
1534.6651690000001
 21
964.96117500000003
 31
0.0
  0
LINE
  5
796
  8
LAYER01
  6
VERDECKT
 62
     3
 10
1497.6651690000001
 20
939.96117500000003
 30
0.0
 11
1497.6651690000001
 21
954.96117500000003
 31
0.0
  0
LINE
  5
797
  8
LAYER01
  6
VERDECKT
 62
     3
 10
1451.6651690000001
 20
954.96117500000003
 30
0.0
 11
1451.6651690000001
 21
939.96117500000003
 31
0.0
  0
POLYLINE
  5
798
  8
LAYER01
  6
VERDECKT
 62
     3
 66
     1
 10
0.0
 20
0.0
 30
0.0
  0
VERTEX
  5
E44
  8
LAYER01
  6
VERDECKT
 62
     3
 10
1447.158752
 20
954.96112599999981
 30
0.0
  0
VERTEX
  5
E45
  8
LAYER01
  6
VERDECKT
 62
     3
 10
1447.1487520000001
 20
954.84112599999992
 30
0.0
  0
VERTEX
  5
E46
  8
LAYER01
  6
VERDECKT
 62
     3
 10
1447.1487520000001
 20
954.73112600000002
 30
0.0
  0
VERTEX
  5
E47
  8
LAYER01
  6
VERDECKT
 62
     3
 10
1447.1387520000001
 20
954.6111259999999
 30
0.0
  0
VERTEX
  5
E48
  8
LAYER01
  6
VERDECKT
 62
     3
 10
1447.1387520000001
 20
954.501126
 30
0.0
  0
VERTEX
  5
E49
  8
LAYER01
  6
VERDECKT
 62
     3
 10
1447.1287520000001
 20
954.38112599999999
 30
0.0
  0
VERTEX
  5
E4A
  8
LAYER01
  6
VERDECKT
 62
     3
 10
1447.1287520000001
 20
954.26112599999988
 30
0.0
  0
VERTEX
  5
E4B
  8
LAYER01
  6
VERDECKT
 62
     3
 10
1447.1187520000001
 20
954.15112599999998
 30
0.0
  0
VERTEX
  5
E4C
  8
LAYER01
  6
VERDECKT
 62
     3
 10
1447.1187520000001
 20
954.03112599999986
 30
0.0
  0
VERTEX
  5
E4D
  8
LAYER01
  6
VERDECKT
 62
     3
 10
1447.1087520000001
 20
953.92112599999996
 30
0.0
  0
VERTEX
  5
E4E
  8
LAYER01
  6
VERDECKT
 62
     3
 10
1447.1087520000001
 20
953.80112599999995
 30
0.0
  0
VERTEX
  5
E4F
  8
LAYER01
  6
VERDECKT
 62
     3
 10
1447.0987520000001
 20
953.68112599999995
 30
0.0
  0
VERTEX
  5
E50
  8
LAYER01
  6
VERDECKT
 62
     3
 10
1447.0987520000001
 20
953.57112599999994
 30
0.0
  0
VERTEX
  5
E51
  8
LAYER01
  6
VERDECKT
 62
     3
 10
1447.0887520000001
 20
953.45112600000004
 30
0.0
  0
VERTEX
  5
E52
  8
LAYER01
  6
VERDECKT
 62
     3
 10
1447.0887520000001
 20
953.34112600000014
 30
0.0
  0
VERTEX
  5
E53
  8
LAYER01
  6
VERDECKT
 62
     3
 10
1447.0787519999999
 20
953.22112600000003
 30
0.0
  0
VERTEX
  5
E54
  8
LAYER01
  6
VERDECKT
 62
     3
 10
1447.0787519999999
 20
953.10112599999991
 30
0.0
  0
VERTEX
  5
E55
  8
LAYER01
  6
VERDECKT
 62
     3
 10
1447.0687519999999
 20
952.99112600000001
 30
0.0
  0
VERTEX
  5
E56
  8
LAYER01
  6
VERDECKT
 62
     3
 10
1447.0687519999999
 20
952.87112599999989
 30
0.0
  0
VERTEX
  5
E57
  8
LAYER01
  6
VERDECKT
 62
     3
 10
1447.0587519999999
 20
952.751126
 30
0.0
  0
VERTEX
  5
E58
  8
LAYER01
  6
VERDECKT
 62
     3
 10
1447.0587519999999
 20
952.64112599999987
 30
0.0
  0
VERTEX
  5
E59
  8
LAYER01
  6
VERDECKT
 62
     3
 10
1447.0587519999999
 20
952.52112599999998
 30
0.0
  0
VERTEX
  5
E5A
  8
LAYER01
  6
VERDECKT
 62
     3
 10
1447.0487519999999
 20
952.41112599999985
 30
0.0
  0
VERTEX
  5
E5B
  8
LAYER01
  6
VERDECKT
 62
     3
 10
1447.0487519999999
 20
952.29112599999985
 30
0.0
  0
VERTEX
  5
E5C
  8
LAYER01
  6
VERDECKT
 62
     3
 10
1447.0387519999999
 20
952.17112599999996
 30
0.0
  0
VERTEX
  5
E5D
  8
LAYER01
  6
VERDECKT
 62
     3
 10
1447.0387519999999
 20
952.06112599999994
 30
0.0
  0
VERTEX
  5
E5E
  8
LAYER01
  6
VERDECKT
 62
     3
 10
1447.0287519999999
 20
951.94112600000005
 30
0.0
  0
VERTEX
  5
E5F
  8
LAYER01
  6
VERDECKT
 62
     3
 10
1447.0287519999999
 20
951.82112599999994
 30
0.0
  0
VERTEX
  5
E60
  8
LAYER01
  6
VERDECKT
 62
     3
 10
1447.0187519999999
 20
951.71112600000004
 30
0.0
  0
VERTEX
  5
E61
  8
LAYER01
  6
VERDECKT
 62
     3
 10
1447.0187519999999
 20
951.59112600000014
 30
0.0
  0
VERTEX
  5
E62
  8
LAYER01
  6
VERDECKT
 62
     3
 10
1447.008752
 20
951.47112600000003
 30
0.0
  0
VERTEX
  5
E63
  8
LAYER01
  6
VERDECKT
 62
     3
 10
1447.008752
 20
951.36112600000013
 30
0.0
  0
VERTEX
  5
E64
  8
LAYER01
  6
VERDECKT
 62
     3
 10
1446.998752
 20
951.24112600000001
 30
0.0
  0
VERTEX
  5
E65
  8
LAYER01
  6
VERDECKT
 62
     3
 10
1446.998752
 20
951.12112599999989
 30
0.0
  0
VERTEX
  5
E66
  8
LAYER01
  6
VERDECKT
 62
     3
 10
1446.988752
 20
951.01112599999999
 30
0.0
  0
VERTEX
  5
E67
  8
LAYER01
  6
VERDECKT
 62
     3
 10
1446.988752
 20
950.89112599999987
 30
0.0
  0
VERTEX
  5
E68
  8
LAYER01
  6
VERDECKT
 62
     3
 10
1446.978752
 20
950.77112599999998
 30
0.0
  0
VERTEX
  5
E69
  8
LAYER01
  6
VERDECKT
 62
     3
 10
1446.978752
 20
950.66112599999985
 30
0.0
  0
VERTEX
  5
E6A
  8
LAYER01
  6
VERDECKT
 62
     3
 10
1446.968752
 20
950.54112599999996
 30
0.0
  0
VERTEX
  5
E6B
  8
LAYER01
  6
VERDECKT
 62
     3
 10
1446.968752
 20
950.42112599999984
 30
0.0
  0
VERTEX
  5
E6C
  8
LAYER01
  6
VERDECKT
 62
     3
 10
1446.968752
 20
950.31112599999983
 30
0.0
  0
VERTEX
  5
E6D
  8
LAYER01
  6
VERDECKT
 62
     3
 10
1446.958752
 20
950.19112599999994
 30
0.0
  0
VERTEX
  5
E6E
  8
LAYER01
  6
VERDECKT
 62
     3
 10
1446.958752
 20
950.07112599999994
 30
0.0
  0
VERTEX
  5
E6F
  8
LAYER01
  6
VERDECKT
 62
     3
 10
1446.948752
 20
949.96112600000004
 30
0.0
  0
VERTEX
  5
E70
  8
LAYER01
  6
VERDECKT
 62
     3
 10
1446.948752
 20
949.84112600000014
 30
0.0
  0
VERTEX
  5
E71
  8
LAYER01
  6
VERDECKT
 62
     3
 10
1446.938752
 20
949.72112600000003
 30
0.0
  0
VERTEX
  5
E72
  8
LAYER01
  6
VERDECKT
 62
     3
 10
1446.938752
 20
949.61112600000013
 30
0.0
  0
VERTEX
  5
E73
  8
LAYER01
  6
VERDECKT
 62
     3
 10
1446.928752
 20
949.49112600000001
 30
0.0
  0
VERTEX
  5
E74
  8
LAYER01
  6
VERDECKT
 62
     3
 10
1446.928752
 20
949.37112599999989
 30
0.0
  0
VERTEX
  5
E75
  8
LAYER01
  6
VERDECKT
 62
     3
 10
1446.918752
 20
949.26112599999999
 30
0.0
  0
VERTEX
  5
E76
  8
LAYER01
  6
VERDECKT
 62
     3
 10
1446.918752
 20
949.14112599999987
 30
0.0
  0
VERTEX
  5
E77
  8
LAYER01
  6
VERDECKT
 62
     3
 10
1446.908752
 20
949.02112599999998
 30
0.0
  0
VERTEX
  5
E78
  8
LAYER01
  6
VERDECKT
 62
     3
 10
1446.908752
 20
948.91112599999985
 30
0.0
  0
VERTEX
  5
E79
  8
LAYER01
  6
VERDECKT
 62
     3
 10
1446.8987520000001
 20
948.79112599999996
 30
0.0
  0
VERTEX
  5
E7A
  8
LAYER01
  6
VERDECKT
 62
     3
 10
1446.8987520000001
 20
948.67112599999984
 30
0.0
  0
VERTEX
  5
E7B
  8
LAYER01
  6
VERDECKT
 62
     3
 10
1446.8887520000001
 20
948.55112599999995
 30
0.0
  0
VERTEX
  5
E7C
  8
LAYER01
  6
VERDECKT
 62
     3
 10
1446.8887520000001
 20
948.44112599999994
 30
0.0
  0
VERTEX
  5
E7D
  8
LAYER01
  6
VERDECKT
 62
     3
 10
1446.8887520000001
 20
948.32112599999994
 30
0.0
  0
VERTEX
  5
E7E
  8
LAYER01
  6
VERDECKT
 62
     3
 10
1446.8787520000001
 20
948.20112600000004
 30
0.0
  0
VERTEX
  5
E7F
  8
LAYER01
  6
VERDECKT
 62
     3
 10
1446.8787520000001
 20
948.09112600000003
 30
0.0
  0
VERTEX
  5
E80
  8
LAYER01
  6
VERDECKT
 62
     3
 10
1446.8687520000001
 20
947.97112600000003
 30
0.0
  0
VERTEX
  5
E81
  8
LAYER01
  6
VERDECKT
 62
     3
 10
1446.8687520000001
 20
947.85112600000014
 30
0.0
  0
VERTEX
  5
E82
  8
LAYER01
  6
VERDECKT
 62
     3
 10
1446.8587520000001
 20
947.73112600000002
 30
0.0
  0
VERTEX
  5
E83
  8
LAYER01
  6
VERDECKT
 62
     3
 10
1446.8587520000001
 20
947.62112599999989
 30
0.0
  0
VERTEX
  5
E84
  8
LAYER01
  6
VERDECKT
 62
     3
 10
1446.8487520000001
 20
947.501126
 30
0.0
  0
VERTEX
  5
E85
  8
LAYER01
  6
VERDECKT
 62
     3
 10
1446.8487520000001
 20
947.38112599999988
 30
0.0
  0
VERTEX
  5
E86
  8
LAYER01
  6
VERDECKT
 62
     3
 10
1446.8387520000001
 20
947.27112599999998
 30
0.0
  0
VERTEX
  5
E87
  8
LAYER01
  6
VERDECKT
 62
     3
 10
1446.8387520000001
 20
947.15112599999986
 30
0.0
  0
VERTEX
  5
E88
  8
LAYER01
  6
VERDECKT
 62
     3
 10
1446.8287519999999
 20
947.03112599999997
 30
0.0
  0
VERTEX
  5
E89
  8
LAYER01
  6
VERDECKT
 62
     3
 10
1446.8287519999999
 20
946.91112599999997
 30
0.0
  0
VERTEX
  5
E8A
  8
LAYER01
  6
VERDECKT
 62
     3
 10
1446.8187519999999
 20
946.80112599999995
 30
0.0
  0
VERTEX
  5
E8B
  8
LAYER01
  6
VERDECKT
 62
     3
 10
1446.8187519999999
 20
946.68112599999995
 30
0.0
  0
VERTEX
  5
E8C
  8
LAYER01
  6
VERDECKT
 62
     3
 10
1446.8187519999999
 20
946.56112599999994
 30
0.0
  0
VERTEX
  5
E8D
  8
LAYER01
  6
VERDECKT
 62
     3
 10
1446.8087519999999
 20
946.44112600000005
 30
0.0
  0
VERTEX
  5
E8E
  8
LAYER01
  6
VERDECKT
 62
     3
 10
1446.8087519999999
 20
946.33112599999993
 30
0.0
  0
VERTEX
  5
E8F
  8
LAYER01
  6
VERDECKT
 62
     3
 10
1446.7987519999999
 20
946.21112599999981
 30
0.0
  0
VERTEX
  5
E90
  8
LAYER01
  6
VERDECKT
 62
     3
 10
1446.7987519999999
 20
946.09112600000014
 30
0.0
  0
VERTEX
  5
E91
  8
LAYER01
  6
VERDECKT
 62
     3
 10
1446.7887519999999
 20
945.98112600000002
 30
0.0
  0
VERTEX
  5
E92
  8
LAYER01
  6
VERDECKT
 62
     3
 10
1446.7887519999999
 20
945.8611259999999
 30
0.0
  0
VERTEX
  5
E93
  8
LAYER01
  6
VERDECKT
 62
     3
 10
1446.7787519999999
 20
945.74112600000001
 30
0.0
  0
VERTEX
  5
E94
  8
LAYER01
  6
VERDECKT
 62
     3
 10
1446.7787519999999
 20
945.62112599999989
 30
0.0
  0
VERTEX
  5
E95
  8
LAYER01
  6
VERDECKT
 62
     3
 10
1446.7687519999999
 20
945.51112599999999
 30
0.0
  0
VERTEX
  5
E96
  8
LAYER01
  6
VERDECKT
 62
     3
 10
1446.7687519999999
 20
945.39112599999987
 30
0.0
  0
VERTEX
  5
E97
  8
LAYER01
  6
VERDECKT
 62
     3
 10
1446.758752
 20
945.27112599999987
 30
0.0
  0
VERTEX
  5
E98
  8
LAYER01
  6
VERDECKT
 62
     3
 10
1446.758752
 20
945.15112599999998
 30
0.0
  0
VERTEX
  5
E99
  8
LAYER01
  6
VERDECKT
 62
     3
 10
1446.748752
 20
945.04112599999985
 30
0.0
  0
VERTEX
  5
E9A
  8
LAYER01
  6
VERDECKT
 62
     3
 10
1446.748752
 20
944.92112599999996
 30
0.0
  0
VERTEX
  5
E9B
  8
LAYER01
  6
VERDECKT
 62
     3
 10
1446.748752
 20
944.80112599999995
 30
0.0
  0
VERTEX
  5
E9C
  8
LAYER01
  6
VERDECKT
 62
     3
 10
1446.738752
 20
944.68112599999995
 30
0.0
  0
VERTEX
  5
E9D
  8
LAYER01
  6
VERDECKT
 62
     3
 10
1446.738752
 20
944.56112599999994
 30
0.0
  0
VERTEX
  5
E9E
  8
LAYER01
  6
VERDECKT
 62
     3
 10
1446.728752
 20
944.45112599999982
 30
0.0
  0
VERTEX
  5
E9F
  8
LAYER01
  6
VERDECKT
 62
     3
 10
1446.728752
 20
944.33112599999993
 30
0.0
  0
VERTEX
  5
EA0
  8
LAYER01
  6
VERDECKT
 62
     3
 10
1446.718752
 20
944.21112599999992
 30
0.0
  0
VERTEX
  5
EA1
  8
LAYER01
  6
VERDECKT
 62
     3
 10
1446.718752
 20
944.09112600000003
 30
0.0
  0
VERTEX
  5
EA2
  8
LAYER01
  6
VERDECKT
 62
     3
 10
1446.708752
 20
943.98112600000002
 30
0.0
  0
VERTEX
  5
EA3
  8
LAYER01
  6
VERDECKT
 62
     3
 10
1446.708752
 20
943.86112600000001
 30
0.0
  0
VERTEX
  5
EA4
  8
LAYER01
  6
VERDECKT
 62
     3
 10
1446.698752
 20
943.74112600000012
 30
0.0
  0
VERTEX
  5
EA5
  8
LAYER01
  6
VERDECKT
 62
     3
 10
1446.698752
 20
943.621126
 30
0.0
  0
VERTEX
  5
EA6
  8
LAYER01
  6
VERDECKT
 62
     3
 10
1446.688752
 20
943.50112599999989
 30
0.0
  0
VERTEX
  5
EA7
  8
LAYER01
  6
VERDECKT
 62
     3
 10
1446.688752
 20
943.39112599999999
 30
0.0
  0
VERTEX
  5
EA8
  8
LAYER01
  6
VERDECKT
 62
     3
 10
1446.678752
 20
943.27112599999987
 30
0.0
  0
VERTEX
  5
EA9
  8
LAYER01
  6
VERDECKT
 62
     3
 10
1446.678752
 20
943.15112599999998
 30
0.0
  0
VERTEX
  5
EAA
  8
LAYER01
  6
VERDECKT
 62
     3
 10
1446.678752
 20
943.03112599999986
 30
0.0
  0
VERTEX
  5
EAB
  8
LAYER01
  6
VERDECKT
 62
     3
 10
1446.668752
 20
942.92112599999996
 30
0.0
  0
VERTEX
  5
EAC
  8
LAYER01
  6
VERDECKT
 62
     3
 10
1446.668752
 20
942.80112599999995
 30
0.0
  0
VERTEX
  5
EAD
  8
LAYER01
  6
VERDECKT
 62
     3
 10
1446.658752
 20
942.68112599999995
 30
0.0
  0
VERTEX
  5
EAE
  8
LAYER01
  6
VERDECKT
 62
     3
 10
1446.658752
 20
942.56112599999994
 30
0.0
  0
VERTEX
  5
EAF
  8
LAYER01
  6
VERDECKT
 62
     3
 10
1446.6487520000001
 20
942.44112599999994
 30
0.0
  0
VERTEX
  5
EB0
  8
LAYER01
  6
VERDECKT
 62
     3
 10
1446.6487520000001
 20
942.33112600000004
 30
0.0
  0
VERTEX
  5
EB1
  8
LAYER01
  6
VERDECKT
 62
     3
 10
1446.6387520000001
 20
942.21112599999992
 30
0.0
  0
VERTEX
  5
EB2
  8
LAYER01
  6
VERDECKT
 62
     3
 10
1446.6387520000001
 20
942.09112600000003
 30
0.0
  0
VERTEX
  5
EB3
  8
LAYER01
  6
VERDECKT
 62
     3
 10
1446.6287520000001
 20
941.97112599999991
 30
0.0
  0
VERTEX
  5
EB4
  8
LAYER01
  6
VERDECKT
 62
     3
 10
1446.6287520000001
 20
941.85112600000002
 30
0.0
  0
VERTEX
  5
EB5
  8
LAYER01
  6
VERDECKT
 62
     3
 10
1446.6187520000001
 20
941.7311259999999
 30
0.0
  0
VERTEX
  5
EB6
  8
LAYER01
  6
VERDECKT
 62
     3
 10
1446.6187520000001
 20
941.621126
 30
0.0
  0
VERTEX
  5
EB7
  8
LAYER01
  6
VERDECKT
 62
     3
 10
1446.6187520000001
 20
941.50112599999989
 30
0.0
  0
VERTEX
  5
EB8
  8
LAYER01
  6
VERDECKT
 62
     3
 10
1446.6087520000001
 20
941.38112600000011
 30
0.0
  0
VERTEX
  5
EB9
  8
LAYER01
  6
VERDECKT
 62
     3
 10
1446.6087520000001
 20
941.26112599999999
 30
0.0
  0
VERTEX
  5
EBA
  8
LAYER01
  6
VERDECKT
 62
     3
 10
1446.5987520000001
 20
941.14112599999987
 30
0.0
  0
VERTEX
  5
EBB
  8
LAYER01
  6
VERDECKT
 62
     3
 10
1446.5987520000001
 20
941.03112599999997
 30
0.0
  0
VERTEX
  5
EBC
  8
LAYER01
  6
VERDECKT
 62
     3
 10
1446.5887520000001
 20
940.91112599999985
 30
0.0
  0
VERTEX
  5
EBD
  8
LAYER01
  6
VERDECKT
 62
     3
 10
1446.5887520000001
 20
940.79112599999996
 30
0.0
  0
VERTEX
  5
EBE
  8
LAYER01
  6
VERDECKT
 62
     3
 10
1446.5787519999999
 20
940.67112599999984
 30
0.0
  0
VERTEX
  5
EBF
  8
LAYER01
  6
VERDECKT
 62
     3
 10
1446.5787519999999
 20
940.55112599999995
 30
0.0
  0
VERTEX
  5
EC0
  8
LAYER01
  6
VERDECKT
 62
     3
 10
1446.5687519999999
 20
940.43112599999995
 30
0.0
  0
VERTEX
  5
EC1
  8
LAYER01
  6
VERDECKT
 62
     3
 10
1446.5687519999999
 20
940.32112599999994
 30
0.0
  0
VERTEX
  5
EC2
  8
LAYER01
  6
VERDECKT
 62
     3
 10
1446.5587519999999
 20
940.20112600000004
 30
0.0
  0
VERTEX
  5
EC3
  8
LAYER01
  6
VERDECKT
 62
     3
 10
1446.5587519999999
 20
940.08112599999993
 30
0.0
  0
VERTEX
  5
EC4
  8
LAYER01
  6
VERDECKT
 62
     3
 10
1446.5587519999999
 20
939.96112599999981
 30
0.0
  0
SEQEND
  5
EC5
  8
LAYER01
  6
VERDECKT
 62
     3
  0
POLYLINE
  5
81B
  8
LAYER01
  6
VERDECKT
 62
     3
 66
     1
 10
0.0
 20
0.0
 30
0.0
  0
VERTEX
  5
EC6
  8
LAYER01
  6
VERDECKT
 62
     3
 10
1502.7787519999999
 20
939.96112599999981
 30
0.0
  0
VERTEX
  5
EC7
  8
LAYER01
  6
VERDECKT
 62
     3
 10
1502.7687519999999
 20
940.08112599999993
 30
0.0
  0
VERTEX
  5
EC8
  8
LAYER01
  6
VERDECKT
 62
     3
 10
1502.7687519999999
 20
940.20112600000004
 30
0.0
  0
VERTEX
  5
EC9
  8
LAYER01
  6
VERDECKT
 62
     3
 10
1502.758752
 20
940.32112599999994
 30
0.0
  0
VERTEX
  5
ECA
  8
LAYER01
  6
VERDECKT
 62
     3
 10
1502.758752
 20
940.43112599999995
 30
0.0
  0
VERTEX
  5
ECB
  8
LAYER01
  6
VERDECKT
 62
     3
 10
1502.748752
 20
940.55112599999995
 30
0.0
  0
VERTEX
  5
ECC
  8
LAYER01
  6
VERDECKT
 62
     3
 10
1502.748752
 20
940.67112599999984
 30
0.0
  0
VERTEX
  5
ECD
  8
LAYER01
  6
VERDECKT
 62
     3
 10
1502.748752
 20
940.79112599999996
 30
0.0
  0
VERTEX
  5
ECE
  8
LAYER01
  6
VERDECKT
 62
     3
 10
1502.738752
 20
940.91112599999985
 30
0.0
  0
VERTEX
  5
ECF
  8
LAYER01
  6
VERDECKT
 62
     3
 10
1502.738752
 20
941.03112599999997
 30
0.0
  0
VERTEX
  5
ED0
  8
LAYER01
  6
VERDECKT
 62
     3
 10
1502.728752
 20
941.14112599999987
 30
0.0
  0
VERTEX
  5
ED1
  8
LAYER01
  6
VERDECKT
 62
     3
 10
1502.728752
 20
941.26112599999999
 30
0.0
  0
VERTEX
  5
ED2
  8
LAYER01
  6
VERDECKT
 62
     3
 10
1502.718752
 20
941.38112600000011
 30
0.0
  0
VERTEX
  5
ED3
  8
LAYER01
  6
VERDECKT
 62
     3
 10
1502.718752
 20
941.50112599999989
 30
0.0
  0
VERTEX
  5
ED4
  8
LAYER01
  6
VERDECKT
 62
     3
 10
1502.708752
 20
941.621126
 30
0.0
  0
VERTEX
  5
ED5
  8
LAYER01
  6
VERDECKT
 62
     3
 10
1502.708752
 20
941.7311259999999
 30
0.0
  0
VERTEX
  5
ED6
  8
LAYER01
  6
VERDECKT
 62
     3
 10
1502.698752
 20
941.85112600000002
 30
0.0
  0
VERTEX
  5
ED7
  8
LAYER01
  6
VERDECKT
 62
     3
 10
1502.698752
 20
941.97112599999991
 30
0.0
  0
VERTEX
  5
ED8
  8
LAYER01
  6
VERDECKT
 62
     3
 10
1502.688752
 20
942.09112600000003
 30
0.0
  0
VERTEX
  5
ED9
  8
LAYER01
  6
VERDECKT
 62
     3
 10
1502.688752
 20
942.21112599999992
 30
0.0
  0
VERTEX
  5
EDA
  8
LAYER01
  6
VERDECKT
 62
     3
 10
1502.688752
 20
942.33112600000004
 30
0.0
  0
VERTEX
  5
EDB
  8
LAYER01
  6
VERDECKT
 62
     3
 10
1502.678752
 20
942.44112599999994
 30
0.0
  0
VERTEX
  5
EDC
  8
LAYER01
  6
VERDECKT
 62
     3
 10
1502.678752
 20
942.56112599999994
 30
0.0
  0
VERTEX
  5
EDD
  8
LAYER01
  6
VERDECKT
 62
     3
 10
1502.668752
 20
942.68112599999995
 30
0.0
  0
VERTEX
  5
EDE
  8
LAYER01
  6
VERDECKT
 62
     3
 10
1502.668752
 20
942.80112599999995
 30
0.0
  0
VERTEX
  5
EDF
  8
LAYER01
  6
VERDECKT
 62
     3
 10
1502.658752
 20
942.92112599999996
 30
0.0
  0
VERTEX
  5
EE0
  8
LAYER01
  6
VERDECKT
 62
     3
 10
1502.658752
 20
943.03112599999986
 30
0.0
  0
VERTEX
  5
EE1
  8
LAYER01
  6
VERDECKT
 62
     3
 10
1502.6487520000001
 20
943.15112599999998
 30
0.0
  0
VERTEX
  5
EE2
  8
LAYER01
  6
VERDECKT
 62
     3
 10
1502.6487520000001
 20
943.27112599999987
 30
0.0
  0
VERTEX
  5
EE3
  8
LAYER01
  6
VERDECKT
 62
     3
 10
1502.6387520000001
 20
943.39112599999999
 30
0.0
  0
VERTEX
  5
EE4
  8
LAYER01
  6
VERDECKT
 62
     3
 10
1502.6387520000001
 20
943.50112599999989
 30
0.0
  0
VERTEX
  5
EE5
  8
LAYER01
  6
VERDECKT
 62
     3
 10
1502.6287520000001
 20
943.621126
 30
0.0
  0
VERTEX
  5
EE6
  8
LAYER01
  6
VERDECKT
 62
     3
 10
1502.6287520000001
 20
943.74112600000012
 30
0.0
  0
VERTEX
  5
EE7
  8
LAYER01
  6
VERDECKT
 62
     3
 10
1502.6187520000001
 20
943.86112600000001
 30
0.0
  0
VERTEX
  5
EE8
  8
LAYER01
  6
VERDECKT
 62
     3
 10
1502.6187520000001
 20
943.98112600000002
 30
0.0
  0
VERTEX
  5
EE9
  8
LAYER01
  6
VERDECKT
 62
     3
 10
1502.6187520000001
 20
944.09112600000003
 30
0.0
  0
VERTEX
  5
EEA
  8
LAYER01
  6
VERDECKT
 62
     3
 10
1502.6087520000001
 20
944.21112599999992
 30
0.0
  0
VERTEX
  5
EEB
  8
LAYER01
  6
VERDECKT
 62
     3
 10
1502.6087520000001
 20
944.33112599999993
 30
0.0
  0
VERTEX
  5
EEC
  8
LAYER01
  6
VERDECKT
 62
     3
 10
1502.5987520000001
 20
944.45112599999982
 30
0.0
  0
VERTEX
  5
EED
  8
LAYER01
  6
VERDECKT
 62
     3
 10
1502.5987520000001
 20
944.56112599999994
 30
0.0
  0
VERTEX
  5
EEE
  8
LAYER01
  6
VERDECKT
 62
     3
 10
1502.5887520000001
 20
944.68112599999995
 30
0.0
  0
VERTEX
  5
EEF
  8
LAYER01
  6
VERDECKT
 62
     3
 10
1502.5887520000001
 20
944.80112599999995
 30
0.0
  0
VERTEX
  5
EF0
  8
LAYER01
  6
VERDECKT
 62
     3
 10
1502.5787519999999
 20
944.92112599999996
 30
0.0
  0
VERTEX
  5
EF1
  8
LAYER01
  6
VERDECKT
 62
     3
 10
1502.5787519999999
 20
945.04112599999985
 30
0.0
  0
VERTEX
  5
EF2
  8
LAYER01
  6
VERDECKT
 62
     3
 10
1502.5687519999999
 20
945.15112599999998
 30
0.0
  0
VERTEX
  5
EF3
  8
LAYER01
  6
VERDECKT
 62
     3
 10
1502.5687519999999
 20
945.27112599999987
 30
0.0
  0
VERTEX
  5
EF4
  8
LAYER01
  6
VERDECKT
 62
     3
 10
1502.5587519999999
 20
945.39112599999987
 30
0.0
  0
VERTEX
  5
EF5
  8
LAYER01
  6
VERDECKT
 62
     3
 10
1502.5587519999999
 20
945.51112599999999
 30
0.0
  0
VERTEX
  5
EF6
  8
LAYER01
  6
VERDECKT
 62
     3
 10
1502.5587519999999
 20
945.62112599999989
 30
0.0
  0
VERTEX
  5
EF7
  8
LAYER01
  6
VERDECKT
 62
     3
 10
1502.5487519999999
 20
945.74112600000001
 30
0.0
  0
VERTEX
  5
EF8
  8
LAYER01
  6
VERDECKT
 62
     3
 10
1502.5487519999999
 20
945.8611259999999
 30
0.0
  0
VERTEX
  5
EF9
  8
LAYER01
  6
VERDECKT
 62
     3
 10
1502.5387519999999
 20
945.98112600000002
 30
0.0
  0
VERTEX
  5
EFA
  8
LAYER01
  6
VERDECKT
 62
     3
 10
1502.5387519999999
 20
946.09112600000014
 30
0.0
  0
VERTEX
  5
EFB
  8
LAYER01
  6
VERDECKT
 62
     3
 10
1502.5287519999999
 20
946.21112599999981
 30
0.0
  0
VERTEX
  5
EFC
  8
LAYER01
  6
VERDECKT
 62
     3
 10
1502.5287519999999
 20
946.33112599999993
 30
0.0
  0
VERTEX
  5
EFD
  8
LAYER01
  6
VERDECKT
 62
     3
 10
1502.5187519999999
 20
946.44112600000005
 30
0.0
  0
VERTEX
  5
EFE
  8
LAYER01
  6
VERDECKT
 62
     3
 10
1502.5187519999999
 20
946.56112599999994
 30
0.0
  0
VERTEX
  5
EFF
  8
LAYER01
  6
VERDECKT
 62
     3
 10
1502.508752
 20
946.68112599999995
 30
0.0
  0
VERTEX
  5
F00
  8
LAYER01
  6
VERDECKT
 62
     3
 10
1502.508752
 20
946.80112599999995
 30
0.0
  0
VERTEX
  5
F01
  8
LAYER01
  6
VERDECKT
 62
     3
 10
1502.498752
 20
946.91112599999997
 30
0.0
  0
VERTEX
  5
F02
  8
LAYER01
  6
VERDECKT
 62
     3
 10
1502.498752
 20
947.03112599999997
 30
0.0
  0
VERTEX
  5
F03
  8
LAYER01
  6
VERDECKT
 62
     3
 10
1502.488752
 20
947.15112599999986
 30
0.0
  0
VERTEX
  5
F04
  8
LAYER01
  6
VERDECKT
 62
     3
 10
1502.488752
 20
947.27112599999998
 30
0.0
  0
VERTEX
  5
F05
  8
LAYER01
  6
VERDECKT
 62
     3
 10
1502.488752
 20
947.38112599999988
 30
0.0
  0
VERTEX
  5
F06
  8
LAYER01
  6
VERDECKT
 62
     3
 10
1502.478752
 20
947.501126
 30
0.0
  0
VERTEX
  5
F07
  8
LAYER01
  6
VERDECKT
 62
     3
 10
1502.478752
 20
947.62112599999989
 30
0.0
  0
VERTEX
  5
F08
  8
LAYER01
  6
VERDECKT
 62
     3
 10
1502.468752
 20
947.73112600000002
 30
0.0
  0
VERTEX
  5
F09
  8
LAYER01
  6
VERDECKT
 62
     3
 10
1502.468752
 20
947.85112600000014
 30
0.0
  0
VERTEX
  5
F0A
  8
LAYER01
  6
VERDECKT
 62
     3
 10
1502.458752
 20
947.97112600000003
 30
0.0
  0
VERTEX
  5
F0B
  8
LAYER01
  6
VERDECKT
 62
     3
 10
1502.458752
 20
948.09112600000003
 30
0.0
  0
VERTEX
  5
F0C
  8
LAYER01
  6
VERDECKT
 62
     3
 10
1502.448752
 20
948.20112600000004
 30
0.0
  0
VERTEX
  5
F0D
  8
LAYER01
  6
VERDECKT
 62
     3
 10
1502.448752
 20
948.32112599999994
 30
0.0
  0
VERTEX
  5
F0E
  8
LAYER01
  6
VERDECKT
 62
     3
 10
1502.438752
 20
948.44112599999994
 30
0.0
  0
VERTEX
  5
F0F
  8
LAYER01
  6
VERDECKT
 62
     3
 10
1502.438752
 20
948.55112599999995
 30
0.0
  0
VERTEX
  5
F10
  8
LAYER01
  6
VERDECKT
 62
     3
 10
1502.428752
 20
948.67112599999984
 30
0.0
  0
VERTEX
  5
F11
  8
LAYER01
  6
VERDECKT
 62
     3
 10
1502.428752
 20
948.79112599999996
 30
0.0
  0
VERTEX
  5
F12
  8
LAYER01
  6
VERDECKT
 62
     3
 10
1502.418752
 20
948.91112599999985
 30
0.0
  0
VERTEX
  5
F13
  8
LAYER01
  6
VERDECKT
 62
     3
 10
1502.418752
 20
949.02112599999998
 30
0.0
  0
VERTEX
  5
F14
  8
LAYER01
  6
VERDECKT
 62
     3
 10
1502.408752
 20
949.14112599999987
 30
0.0
  0
VERTEX
  5
F15
  8
LAYER01
  6
VERDECKT
 62
     3
 10
1502.408752
 20
949.26112599999999
 30
0.0
  0
VERTEX
  5
F16
  8
LAYER01
  6
VERDECKT
 62
     3
 10
1502.408752
 20
949.37112599999989
 30
0.0
  0
VERTEX
  5
F17
  8
LAYER01
  6
VERDECKT
 62
     3
 10
1502.3987520000001
 20
949.49112600000001
 30
0.0
  0
VERTEX
  5
F18
  8
LAYER01
  6
VERDECKT
 62
     3
 10
1502.3987520000001
 20
949.61112600000013
 30
0.0
  0
VERTEX
  5
F19
  8
LAYER01
  6
VERDECKT
 62
     3
 10
1502.3887520000001
 20
949.72112600000003
 30
0.0
  0
VERTEX
  5
F1A
  8
LAYER01
  6
VERDECKT
 62
     3
 10
1502.3887520000001
 20
949.84112600000014
 30
0.0
  0
VERTEX
  5
F1B
  8
LAYER01
  6
VERDECKT
 62
     3
 10
1502.3787520000001
 20
949.96112600000004
 30
0.0
  0
VERTEX
  5
F1C
  8
LAYER01
  6
VERDECKT
 62
     3
 10
1502.3787520000001
 20
950.07112599999994
 30
0.0
  0
VERTEX
  5
F1D
  8
LAYER01
  6
VERDECKT
 62
     3
 10
1502.3687520000001
 20
950.19112599999994
 30
0.0
  0
VERTEX
  5
F1E
  8
LAYER01
  6
VERDECKT
 62
     3
 10
1502.3687520000001
 20
950.31112599999983
 30
0.0
  0
VERTEX
  5
F1F
  8
LAYER01
  6
VERDECKT
 62
     3
 10
1502.3587520000001
 20
950.42112599999984
 30
0.0
  0
VERTEX
  5
F20
  8
LAYER01
  6
VERDECKT
 62
     3
 10
1502.3587520000001
 20
950.54112599999996
 30
0.0
  0
VERTEX
  5
F21
  8
LAYER01
  6
VERDECKT
 62
     3
 10
1502.3487520000001
 20
950.66112599999985
 30
0.0
  0
VERTEX
  5
F22
  8
LAYER01
  6
VERDECKT
 62
     3
 10
1502.3487520000001
 20
950.77112599999998
 30
0.0
  0
VERTEX
  5
F23
  8
LAYER01
  6
VERDECKT
 62
     3
 10
1502.3387520000001
 20
950.89112599999987
 30
0.0
  0
VERTEX
  5
F24
  8
LAYER01
  6
VERDECKT
 62
     3
 10
1502.3387520000001
 20
951.01112599999999
 30
0.0
  0
VERTEX
  5
F25
  8
LAYER01
  6
VERDECKT
 62
     3
 10
1502.3287519999999
 20
951.12112599999989
 30
0.0
  0
VERTEX
  5
F26
  8
LAYER01
  6
VERDECKT
 62
     3
 10
1502.3287519999999
 20
951.24112600000001
 30
0.0
  0
VERTEX
  5
F27
  8
LAYER01
  6
VERDECKT
 62
     3
 10
1502.3287519999999
 20
951.36112600000013
 30
0.0
  0
VERTEX
  5
F28
  8
LAYER01
  6
VERDECKT
 62
     3
 10
1502.3187519999999
 20
951.47112600000003
 30
0.0
  0
VERTEX
  5
F29
  8
LAYER01
  6
VERDECKT
 62
     3
 10
1502.3187519999999
 20
951.59112600000014
 30
0.0
  0
VERTEX
  5
F2A
  8
LAYER01
  6
VERDECKT
 62
     3
 10
1502.3087519999999
 20
951.71112600000004
 30
0.0
  0
VERTEX
  5
F2B
  8
LAYER01
  6
VERDECKT
 62
     3
 10
1502.3087519999999
 20
951.82112599999994
 30
0.0
  0
VERTEX
  5
F2C
  8
LAYER01
  6
VERDECKT
 62
     3
 10
1502.2987519999999
 20
951.94112600000005
 30
0.0
  0
VERTEX
  5
F2D
  8
LAYER01
  6
VERDECKT
 62
     3
 10
1502.2987519999999
 20
952.06112599999994
 30
0.0
  0
VERTEX
  5
F2E
  8
LAYER01
  6
VERDECKT
 62
     3
 10
1502.2887519999999
 20
952.17112599999996
 30
0.0
  0
VERTEX
  5
F2F
  8
LAYER01
  6
VERDECKT
 62
     3
 10
1502.2887519999999
 20
952.29112599999985
 30
0.0
  0
VERTEX
  5
F30
  8
LAYER01
  6
VERDECKT
 62
     3
 10
1502.2787519999999
 20
952.41112599999985
 30
0.0
  0
VERTEX
  5
F31
  8
LAYER01
  6
VERDECKT
 62
     3
 10
1502.2787519999999
 20
952.52112599999998
 30
0.0
  0
VERTEX
  5
F32
  8
LAYER01
  6
VERDECKT
 62
     3
 10
1502.2687519999999
 20
952.64112599999987
 30
0.0
  0
VERTEX
  5
F33
  8
LAYER01
  6
VERDECKT
 62
     3
 10
1502.2687519999999
 20
952.751126
 30
0.0
  0
VERTEX
  5
F34
  8
LAYER01
  6
VERDECKT
 62
     3
 10
1502.258752
 20
952.87112599999989
 30
0.0
  0
VERTEX
  5
F35
  8
LAYER01
  6
VERDECKT
 62
     3
 10
1502.258752
 20
952.99112600000001
 30
0.0
  0
VERTEX
  5
F36
  8
LAYER01
  6
VERDECKT
 62
     3
 10
1502.248752
 20
953.10112599999991
 30
0.0
  0
VERTEX
  5
F37
  8
LAYER01
  6
VERDECKT
 62
     3
 10
1502.248752
 20
953.22112600000003
 30
0.0
  0
VERTEX
  5
F38
  8
LAYER01
  6
VERDECKT
 62
     3
 10
1502.238752
 20
953.34112600000014
 30
0.0
  0
VERTEX
  5
F39
  8
LAYER01
  6
VERDECKT
 62
     3
 10
1502.238752
 20
953.45112600000004
 30
0.0
  0
VERTEX
  5
F3A
  8
LAYER01
  6
VERDECKT
 62
     3
 10
1502.228752
 20
953.57112599999994
 30
0.0
  0
VERTEX
  5
F3B
  8
LAYER01
  6
VERDECKT
 62
     3
 10
1502.228752
 20
953.68112599999995
 30
0.0
  0
VERTEX
  5
F3C
  8
LAYER01
  6
VERDECKT
 62
     3
 10
1502.228752
 20
953.80112599999995
 30
0.0
  0
VERTEX
  5
F3D
  8
LAYER01
  6
VERDECKT
 62
     3
 10
1502.218752
 20
953.92112599999996
 30
0.0
  0
VERTEX
  5
F3E
  8
LAYER01
  6
VERDECKT
 62
     3
 10
1502.218752
 20
954.03112599999986
 30
0.0
  0
VERTEX
  5
F3F
  8
LAYER01
  6
VERDECKT
 62
     3
 10
1502.208752
 20
954.15112599999998
 30
0.0
  0
VERTEX
  5
F40
  8
LAYER01
  6
VERDECKT
 62
     3
 10
1502.208752
 20
954.26112599999988
 30
0.0
  0
VERTEX
  5
F41
  8
LAYER01
  6
VERDECKT
 62
     3
 10
1502.198752
 20
954.38112599999999
 30
0.0
  0
VERTEX
  5
F42
  8
LAYER01
  6
VERDECKT
 62
     3
 10
1502.198752
 20
954.501126
 30
0.0
  0
VERTEX
  5
F43
  8
LAYER01
  6
VERDECKT
 62
     3
 10
1502.188752
 20
954.6111259999999
 30
0.0
  0
VERTEX
  5
F44
  8
LAYER01
  6
VERDECKT
 62
     3
 10
1502.188752
 20
954.73112600000002
 30
0.0
  0
VERTEX
  5
F45
  8
LAYER01
  6
VERDECKT
 62
     3
 10
1502.178752
 20
954.84112599999992
 30
0.0
  0
VERTEX
  5
F46
  8
LAYER01
  6
VERDECKT
 62
     3
 10
1502.178752
 20
954.96112599999981
 30
0.0
  0
SEQEND
  5
F47
  8
LAYER01
  6
VERDECKT
 62
     3
  0
LINE
  5
89E
  8
LAYER01
  6
VERDECKT
 62
     3
 10
1494.722072
 20
1087.974213
 30
0.0
 11
1500.1187520000001
 21
1000.456126
 31
0.0
  0
LINE
  5
89F
  8
LAYER01
  6
VERDECKT
 62
     3
 10
1449.0702510000001
 20
1000.107018
 30
0.0
 11
1454.6101470000001
 21
1087.974213
 31
0.0
  0
POLYLINE
  5
8A0
  8
LAYER01
  6
VERDECKT
 62
     3
 66
     1
 10
0.0
 20
0.0
 30
0.0
  0
VERTEX
  5
F48
  8
LAYER01
  6
VERDECKT
 62
     3
 10
1500.1387520000001
 20
1000.111126
 30
0.0
  0
VERTEX
  5
F49
  8
LAYER01
  6
VERDECKT
 62
     3
 10
1499.8287519999999
 20
1000.171126
 30
0.0
  0
VERTEX
  5
F4A
  8
LAYER01
  6
VERDECKT
 62
     3
 10
1499.5187519999999
 20
1000.241126
 30
0.0
  0
VERTEX
  5
F4B
  8
LAYER01
  6
VERDECKT
 62
     3
 10
1499.208752
 20
1000.3111259999999
 30
0.0
  0
VERTEX
  5
F4C
  8
LAYER01
  6
VERDECKT
 62
     3
 10
1498.8887520000001
 20
1000.371126
 30
0.0
  0
VERTEX
  5
F4D
  8
LAYER01
  6
VERDECKT
 62
     3
 10
1498.5587519999999
 20
1000.4311259999999
 30
0.0
  0
VERTEX
  5
F4E
  8
LAYER01
  6
VERDECKT
 62
     3
 10
1498.238752
 20
1000.501126
 30
0.0
  0
VERTEX
  5
F4F
  8
LAYER01
  6
VERDECKT
 62
     3
 10
1497.8987520000001
 20
1000.5611259999999
 30
0.0
  0
VERTEX
  5
F50
  8
LAYER01
  6
VERDECKT
 62
     3
 10
1497.5687519999999
 20
1000.621126
 30
0.0
  0
VERTEX
  5
F51
  8
LAYER01
  6
VERDECKT
 62
     3
 10
1497.228752
 20
1000.6811259999999
 30
0.0
  0
VERTEX
  5
F52
  8
LAYER01
  6
VERDECKT
 62
     3
 10
1496.8887520000001
 20
1000.741126
 30
0.0
  0
VERTEX
  5
F53
  8
LAYER01
  6
VERDECKT
 62
     3
 10
1496.5387519999999
 20
1000.801126
 30
0.0
  0
VERTEX
  5
F54
  8
LAYER01
  6
VERDECKT
 62
     3
 10
1496.188752
 20
1000.861126
 30
0.0
  0
VERTEX
  5
F55
  8
LAYER01
  6
VERDECKT
 62
     3
 10
1495.8387520000001
 20
1000.921126
 30
0.0
  0
VERTEX
  5
F56
  8
LAYER01
  6
VERDECKT
 62
     3
 10
1495.478752
 20
1000.971126
 30
0.0
  0
VERTEX
  5
F57
  8
LAYER01
  6
VERDECKT
 62
     3
 10
1495.1187520000001
 20
1001.031126
 30
0.0
  0
VERTEX
  5
F58
  8
LAYER01
  6
VERDECKT
 62
     3
 10
1494.758752
 20
1001.081126
 30
0.0
  0
VERTEX
  5
F59
  8
LAYER01
  6
VERDECKT
 62
     3
 10
1494.3887520000001
 20
1001.131126
 30
0.0
  0
VERTEX
  5
F5A
  8
LAYER01
  6
VERDECKT
 62
     3
 10
1494.0187519999999
 20
1001.1911260000001
 30
0.0
  0
VERTEX
  5
F5B
  8
LAYER01
  6
VERDECKT
 62
     3
 10
1493.6487520000001
 20
1001.241126
 30
0.0
  0
VERTEX
  5
F5C
  8
LAYER01
  6
VERDECKT
 62
     3
 10
1493.2687519999999
 20
1001.291126
 30
0.0
  0
VERTEX
  5
F5D
  8
LAYER01
  6
VERDECKT
 62
     3
 10
1492.8887520000001
 20
1001.341126
 30
0.0
  0
VERTEX
  5
F5E
  8
LAYER01
  6
VERDECKT
 62
     3
 10
1492.508752
 20
1001.381126
 30
0.0
  0
VERTEX
  5
F5F
  8
LAYER01
  6
VERDECKT
 62
     3
 10
1492.1287520000001
 20
1001.4311259999999
 30
0.0
  0
VERTEX
  5
F60
  8
LAYER01
  6
VERDECKT
 62
     3
 10
1491.738752
 20
1001.481126
 30
0.0
  0
VERTEX
  5
F61
  8
LAYER01
  6
VERDECKT
 62
     3
 10
1491.3487520000001
 20
1001.521126
 30
0.0
  0
VERTEX
  5
F62
  8
LAYER01
  6
VERDECKT
 62
     3
 10
1490.948752
 20
1001.571126
 30
0.0
  0
VERTEX
  5
F63
  8
LAYER01
  6
VERDECKT
 62
     3
 10
1490.5587519999999
 20
1001.611126
 30
0.0
  0
VERTEX
  5
F64
  8
LAYER01
  6
VERDECKT
 62
     3
 10
1490.158752
 20
1001.651126
 30
0.0
  0
VERTEX
  5
F65
  8
LAYER01
  6
VERDECKT
 62
     3
 10
1489.758752
 20
1001.6911260000001
 30
0.0
  0
VERTEX
  5
F66
  8
LAYER01
  6
VERDECKT
 62
     3
 10
1489.3587520000001
 20
1001.731126
 30
0.0
  0
VERTEX
  5
F67
  8
LAYER01
  6
VERDECKT
 62
     3
 10
1488.948752
 20
1001.771126
 30
0.0
  0
VERTEX
  5
F68
  8
LAYER01
  6
VERDECKT
 62
     3
 10
1488.5387519999999
 20
1001.8111259999999
 30
0.0
  0
VERTEX
  5
F69
  8
LAYER01
  6
VERDECKT
 62
     3
 10
1488.1287520000001
 20
1001.841126
 30
0.0
  0
VERTEX
  5
F6A
  8
LAYER01
  6
VERDECKT
 62
     3
 10
1487.718752
 20
1001.881126
 30
0.0
  0
VERTEX
  5
F6B
  8
LAYER01
  6
VERDECKT
 62
     3
 10
1487.2987519999999
 20
1001.911126
 30
0.0
  0
VERTEX
  5
F6C
  8
LAYER01
  6
VERDECKT
 62
     3
 10
1486.8887520000001
 20
1001.951126
 30
0.0
  0
VERTEX
  5
F6D
  8
LAYER01
  6
VERDECKT
 62
     3
 10
1486.468752
 20
1001.981126
 30
0.0
  0
VERTEX
  5
F6E
  8
LAYER01
  6
VERDECKT
 62
     3
 10
1486.0487519999999
 20
1002.011126
 30
0.0
  0
VERTEX
  5
F6F
  8
LAYER01
  6
VERDECKT
 62
     3
 10
1485.6187520000001
 20
1002.041126
 30
0.0
  0
VERTEX
  5
F70
  8
LAYER01
  6
VERDECKT
 62
     3
 10
1485.198752
 20
1002.071126
 30
0.0
  0
VERTEX
  5
F71
  8
LAYER01
  6
VERDECKT
 62
     3
 10
1484.7687519999999
 20
1002.091126
 30
0.0
  0
VERTEX
  5
F72
  8
LAYER01
  6
VERDECKT
 62
     3
 10
1484.3487520000001
 20
1002.121126
 30
0.0
  0
VERTEX
  5
F73
  8
LAYER01
  6
VERDECKT
 62
     3
 10
1483.918752
 20
1002.151126
 30
0.0
  0
VERTEX
  5
F74
  8
LAYER01
  6
VERDECKT
 62
     3
 10
1483.488752
 20
1002.171126
 30
0.0
  0
VERTEX
  5
F75
  8
LAYER01
  6
VERDECKT
 62
     3
 10
1483.0487519999999
 20
1002.1911260000001
 30
0.0
  0
VERTEX
  5
F76
  8
LAYER01
  6
VERDECKT
 62
     3
 10
1482.6187520000001
 20
1002.221126
 30
0.0
  0
VERTEX
  5
F77
  8
LAYER01
  6
VERDECKT
 62
     3
 10
1482.188752
 20
1002.241126
 30
0.0
  0
VERTEX
  5
F78
  8
LAYER01
  6
VERDECKT
 62
     3
 10
1481.748752
 20
1002.261126
 30
0.0
  0
VERTEX
  5
F79
  8
LAYER01
  6
VERDECKT
 62
     3
 10
1481.3087519999999
 20
1002.271126
 30
0.0
  0
VERTEX
  5
F7A
  8
LAYER01
  6
VERDECKT
 62
     3
 10
1480.8787520000001
 20
1002.291126
 30
0.0
  0
VERTEX
  5
F7B
  8
LAYER01
  6
VERDECKT
 62
     3
 10
1480.438752
 20
1002.3111259999999
 30
0.0
  0
VERTEX
  5
F7C
  8
LAYER01
  6
VERDECKT
 62
     3
 10
1479.998752
 20
1002.321126
 30
0.0
  0
VERTEX
  5
F7D
  8
LAYER01
  6
VERDECKT
 62
     3
 10
1479.5487519999999
 20
1002.341126
 30
0.0
  0
VERTEX
  5
F7E
  8
LAYER01
  6
VERDECKT
 62
     3
 10
1479.1087520000001
 20
1002.351126
 30
0.0
  0
VERTEX
  5
F7F
  8
LAYER01
  6
VERDECKT
 62
     3
 10
1478.668752
 20
1002.361126
 30
0.0
  0
VERTEX
  5
F80
  8
LAYER01
  6
VERDECKT
 62
     3
 10
1478.228752
 20
1002.371126
 30
0.0
  0
VERTEX
  5
F81
  8
LAYER01
  6
VERDECKT
 62
     3
 10
1477.7787519999999
 20
1002.381126
 30
0.0
  0
VERTEX
  5
F82
  8
LAYER01
  6
VERDECKT
 62
     3
 10
1477.3387520000001
 20
1002.391126
 30
0.0
  0
VERTEX
  5
F83
  8
LAYER01
  6
VERDECKT
 62
     3
 10
1476.8887520000001
 20
1002.391126
 30
0.0
  0
VERTEX
  5
F84
  8
LAYER01
  6
VERDECKT
 62
     3
 10
1476.448752
 20
1002.401126
 30
0.0
  0
VERTEX
  5
F85
  8
LAYER01
  6
VERDECKT
 62
     3
 10
1475.998752
 20
1002.401126
 30
0.0
  0
VERTEX
  5
F86
  8
LAYER01
  6
VERDECKT
 62
     3
 10
1475.5587519999999
 20
1002.401126
 30
0.0
  0
VERTEX
  5
F87
  8
LAYER01
  6
VERDECKT
 62
     3
 10
1475.1087520000001
 20
1002.411126
 30
0.0
  0
VERTEX
  5
F88
  8
LAYER01
  6
VERDECKT
 62
     3
 10
1474.668752
 20
1002.411126
 30
0.0
  0
VERTEX
  5
F89
  8
LAYER01
  6
VERDECKT
 62
     3
 10
1474.218752
 20
1002.411126
 30
0.0
  0
VERTEX
  5
F8A
  8
LAYER01
  6
VERDECKT
 62
     3
 10
1473.7687519999999
 20
1002.401126
 30
0.0
  0
VERTEX
  5
F8B
  8
LAYER01
  6
VERDECKT
 62
     3
 10
1473.3287519999999
 20
1002.401126
 30
0.0
  0
VERTEX
  5
F8C
  8
LAYER01
  6
VERDECKT
 62
     3
 10
1472.8787520000001
 20
1002.401126
 30
0.0
  0
VERTEX
  5
F8D
  8
LAYER01
  6
VERDECKT
 62
     3
 10
1472.438752
 20
1002.391126
 30
0.0
  0
VERTEX
  5
F8E
  8
LAYER01
  6
VERDECKT
 62
     3
 10
1471.988752
 20
1002.391126
 30
0.0
  0
VERTEX
  5
F8F
  8
LAYER01
  6
VERDECKT
 62
     3
 10
1471.5487519999999
 20
1002.381126
 30
0.0
  0
VERTEX
  5
F90
  8
LAYER01
  6
VERDECKT
 62
     3
 10
1471.1087520000001
 20
1002.371126
 30
0.0
  0
VERTEX
  5
F91
  8
LAYER01
  6
VERDECKT
 62
     3
 10
1470.658752
 20
1002.361126
 30
0.0
  0
VERTEX
  5
F92
  8
LAYER01
  6
VERDECKT
 62
     3
 10
1470.218752
 20
1002.351126
 30
0.0
  0
VERTEX
  5
F93
  8
LAYER01
  6
VERDECKT
 62
     3
 10
1469.7787519999999
 20
1002.341126
 30
0.0
  0
VERTEX
  5
F94
  8
LAYER01
  6
VERDECKT
 62
     3
 10
1469.3387520000001
 20
1002.321126
 30
0.0
  0
VERTEX
  5
F95
  8
LAYER01
  6
VERDECKT
 62
     3
 10
1468.8987520000001
 20
1002.3111259999999
 30
0.0
  0
VERTEX
  5
F96
  8
LAYER01
  6
VERDECKT
 62
     3
 10
1468.458752
 20
1002.291126
 30
0.0
  0
VERTEX
  5
F97
  8
LAYER01
  6
VERDECKT
 62
     3
 10
1468.0187519999999
 20
1002.271126
 30
0.0
  0
VERTEX
  5
F98
  8
LAYER01
  6
VERDECKT
 62
     3
 10
1467.5787519999999
 20
1002.261126
 30
0.0
  0
VERTEX
  5
F99
  8
LAYER01
  6
VERDECKT
 62
     3
 10
1467.1487520000001
 20
1002.241126
 30
0.0
  0
VERTEX
  5
F9A
  8
LAYER01
  6
VERDECKT
 62
     3
 10
1466.708752
 20
1002.221126
 30
0.0
  0
VERTEX
  5
F9B
  8
LAYER01
  6
VERDECKT
 62
     3
 10
1466.2787519999999
 20
1002.1911260000001
 30
0.0
  0
VERTEX
  5
F9C
  8
LAYER01
  6
VERDECKT
 62
     3
 10
1465.8487520000001
 20
1002.171126
 30
0.0
  0
VERTEX
  5
F9D
  8
LAYER01
  6
VERDECKT
 62
     3
 10
1465.418752
 20
1002.151126
 30
0.0
  0
VERTEX
  5
F9E
  8
LAYER01
  6
VERDECKT
 62
     3
 10
1464.988752
 20
1002.121126
 30
0.0
  0
VERTEX
  5
F9F
  8
LAYER01
  6
VERDECKT
 62
     3
 10
1464.5587519999999
 20
1002.091126
 30
0.0
  0
VERTEX
  5
FA0
  8
LAYER01
  6
VERDECKT
 62
     3
 10
1464.1287520000001
 20
1002.071126
 30
0.0
  0
VERTEX
  5
FA1
  8
LAYER01
  6
VERDECKT
 62
     3
 10
1463.708752
 20
1002.041126
 30
0.0
  0
VERTEX
  5
FA2
  8
LAYER01
  6
VERDECKT
 62
     3
 10
1463.2887519999999
 20
1002.011126
 30
0.0
  0
VERTEX
  5
FA3
  8
LAYER01
  6
VERDECKT
 62
     3
 10
1462.858751999999
 20
1001.981126
 30
0.0
  0
VERTEX
  5
FA4
  8
LAYER01
  6
VERDECKT
 62
     3
 10
1462.448752
 20
1001.951126
 30
0.0
  0
VERTEX
  5
FA5
  8
LAYER01
  6
VERDECKT
 62
     3
 10
1462.0287519999999
 20
1001.911126
 30
0.0
  0
VERTEX
  5
FA6
  8
LAYER01
  6
VERDECKT
 62
     3
 10
1461.6087520000001
 20
1001.881126
 30
0.0
  0
VERTEX
  5
FA7
  8
LAYER01
  6
VERDECKT
 62
     3
 10
1461.198752
 20
1001.841126
 30
0.0
  0
VERTEX
  5
FA8
  8
LAYER01
  6
VERDECKT
 62
     3
 10
1460.7887519999999
 20
1001.8111259999999
 30
0.0
  0
VERTEX
  5
FA9
  8
LAYER01
  6
VERDECKT
 62
     3
 10
1460.3787520000001
 20
1001.771126
 30
0.0
  0
VERTEX
  5
FAA
  8
LAYER01
  6
VERDECKT
 62
     3
 10
1459.978752
 20
1001.731126
 30
0.0
  0
VERTEX
  5
FAB
  8
LAYER01
  6
VERDECKT
 62
     3
 10
1459.5687519999999
 20
1001.6911260000001
 30
0.0
  0
VERTEX
  5
FAC
  8
LAYER01
  6
VERDECKT
 62
     3
 10
1459.168752
 20
1001.651126
 30
0.0
  0
VERTEX
  5
FAD
  8
LAYER01
  6
VERDECKT
 62
     3
 10
1458.7687519999999
 20
1001.611126
 30
0.0
  0
VERTEX
  5
FAE
  8
LAYER01
  6
VERDECKT
 62
     3
 10
1458.3787520000001
 20
1001.571126
 30
0.0
  0
VERTEX
  5
FAF
  8
LAYER01
  6
VERDECKT
 62
     3
 10
1457.988752
 20
1001.521126
 30
0.0
  0
VERTEX
  5
FB0
  8
LAYER01
  6
VERDECKT
 62
     3
 10
1457.5887520000001
 20
1001.481126
 30
0.0
  0
VERTEX
  5
FB1
  8
LAYER01
  6
VERDECKT
 62
     3
 10
1457.208752
 20
1001.4311259999999
 30
0.0
  0
VERTEX
  5
FB2
  8
LAYER01
  6
VERDECKT
 62
     3
 10
1456.8187519999999
 20
1001.381126
 30
0.0
  0
VERTEX
  5
FB3
  8
LAYER01
  6
VERDECKT
 62
     3
 10
1456.438752
 20
1001.341126
 30
0.0
  0
VERTEX
  5
FB4
  8
LAYER01
  6
VERDECKT
 62
     3
 10
1456.0587519999999
 20
1001.291126
 30
0.0
  0
VERTEX
  5
FB5
  8
LAYER01
  6
VERDECKT
 62
     3
 10
1455.678752
 20
1001.241126
 30
0.0
  0
VERTEX
  5
FB6
  8
LAYER01
  6
VERDECKT
 62
     3
 10
1455.3087519999999
 20
1001.1911260000001
 30
0.0
  0
VERTEX
  5
FB7
  8
LAYER01
  6
VERDECKT
 62
     3
 10
1454.938752
 20
1001.131126
 30
0.0
  0
VERTEX
  5
FB8
  8
LAYER01
  6
VERDECKT
 62
     3
 10
1454.5687519999999
 20
1001.081126
 30
0.0
  0
VERTEX
  5
FB9
  8
LAYER01
  6
VERDECKT
 62
     3
 10
1454.208752
 20
1001.031126
 30
0.0
  0
VERTEX
  5
FBA
  8
LAYER01
  6
VERDECKT
 62
     3
 10
1453.8487520000001
 20
1000.971126
 30
0.0
  0
VERTEX
  5
FBB
  8
LAYER01
  6
VERDECKT
 62
     3
 10
1453.488752
 20
1000.921126
 30
0.0
  0
VERTEX
  5
FBC
  8
LAYER01
  6
VERDECKT
 62
     3
 10
1453.1387520000001
 20
1000.861126
 30
0.0
  0
VERTEX
  5
FBD
  8
LAYER01
  6
VERDECKT
 62
     3
 10
1452.7887519999999
 20
1000.801126
 30
0.0
  0
VERTEX
  5
FBE
  8
LAYER01
  6
VERDECKT
 62
     3
 10
1452.448752
 20
1000.741126
 30
0.0
  0
VERTEX
  5
FBF
  8
LAYER01
  6
VERDECKT
 62
     3
 10
1452.0987520000001
 20
1000.6811259999999
 30
0.0
  0
VERTEX
  5
FC0
  8
LAYER01
  6
VERDECKT
 62
     3
 10
1451.758752
 20
1000.621126
 30
0.0
  0
VERTEX
  5
FC1
  8
LAYER01
  6
VERDECKT
 62
     3
 10
1451.428752
 20
1000.5611259999999
 30
0.0
  0
VERTEX
  5
FC2
  8
LAYER01
  6
VERDECKT
 62
     3
 10
1451.0987520000001
 20
1000.501126
 30
0.0
  0
VERTEX
  5
FC3
  8
LAYER01
  6
VERDECKT
 62
     3
 10
1450.7687519999999
 20
1000.4311259999999
 30
0.0
  0
VERTEX
  5
FC4
  8
LAYER01
  6
VERDECKT
 62
     3
 10
1450.448752
 20
1000.371126
 30
0.0
  0
VERTEX
  5
FC5
  8
LAYER01
  6
VERDECKT
 62
     3
 10
1450.1287520000001
 20
1000.3111259999999
 30
0.0
  0
VERTEX
  5
FC6
  8
LAYER01
  6
VERDECKT
 62
     3
 10
1449.8087519999999
 20
1000.241126
 30
0.0
  0
VERTEX
  5
FC7
  8
LAYER01
  6
VERDECKT
 62
     3
 10
1449.498752
 20
1000.171126
 30
0.0
  0
VERTEX
  5
FC8
  8
LAYER01
  6
VERDECKT
 62
     3
 10
1449.188752
 20
1000.111126
 30
0.0
  0
SEQEND
  5
FC9
  8
LAYER01
  6
VERDECKT
 62
     3
  0
LINE
  5
923
  8
LAYER01
  6
VERDECKT
 62
     3
 10
1731.4485030000001
 20
1000.107018
 30
0.0
 11
1500.141474
 21
1000.107018
 31
0.0
  0
LINE
  5
924
  8
LAYER01
  6
CONTINUOUS
 62
     7
 10
2474.6651689999999
 20
1249.9611749999999
 30
0.0
 11
2474.6651689999999
 21
1244.9611749999999
 31
0.0
  0
LINE
  5
925
  8
LAYER01
  6
CONTINUOUS
 62
     7
 10
2474.6651689999999
 20
1107.9611749999999
 30
0.0
 11
2474.6651689999999
 21
1099.9611749999999
 31
0.0
  0
LINE
  5
926
  8
LAYER01
  6
CONTINUOUS
 62
     7
 10
2474.6651689999999
 20
1099.9611749999999
 30
0.0
 11
2474.6651689999999
 21
1094.9611749999999
 31
0.0
  0
LINE
  5
927
  8
LAYER01
  6
CONTINUOUS
 62
     7
 10
2474.6651689999999
 20
1244.9611749999999
 30
0.0
 11
2474.6651689999999
 21
1107.9611749999999
 31
0.0
  0
LINE
  5
928
  8
LAYER01
  6
CONTINUOUS
 62
     7
 10
2474.6651689999999
 20
1544.395278
 30
0.0
 11
2474.6651689999999
 21
1539.395278
 31
0.0
  0
DIMENSION
  5
929
  8
LAYER01
 62
     7
  2
*D35
 10
3406.1430009999999
 20
1014.858323
 30
0.0
 11
3090.6109689999998
 21
1303.3821049999999
 31
0.0
 70
     4
 15
3404.2897440000002
 25
1019.5021829999999
 35
0.0
 40
305.65078999999997
  0
DIMENSION
  5
92A
  8
LAYER01
 62
     7
  2
*D36
 10
3100.9376860000002
 20
1169.8583229999999
 30
0.0
 11
3030.9376860000002
 21
1096.1652079999999
 31
0.0
 53
90.0
 13
3401.1430009999999
 23
1019.858323
 33
0.0
 14
3401.1430009999999
 24
1169.8583229999999
 34
0.0
 50
90.0
  0
DIMENSION
  5
92B
  8
LAYER01
 62
     7
  2
*D37
 10
3298.9677470000001
 20
929.85832300000004
 30
0.0
 11
3228.9677470000001
 21
974.16489899999988
 31
0.0
 53
90.0
 13
3401.1430009999999
 23
1019.858323
 33
0.0
 14
3401.1430009999999
 24
929.85832300000004
 34
0.0
 50
90.0
  0
LINE
  5
92C
  8
LAYER01
  6
CONTINUOUS
 62
     7
 10
3413.1430009999999
 20
874.85832300000015
 30
0.0
 11
3413.1430009999999
 21
1007.858323
 31
0.0
  0
LINE
  5
92D
  8
LAYER01
  6
CONTINUOUS
 62
     7
 10
3401.1430009999999
 20
874.85832300000015
 30
0.0
 11
3401.1430009999999
 21
1014.858323
 31
0.0
  0
LINE
  5
92E
  8
LAYER01
  6
CONTINUOUS
 62
     7
 10
3413.1430009999999
 20
874.85832300000015
 30
0.0
 11
3401.1430009999999
 21
874.85832300000015
 31
0.0
  0
LINE
  5
92F
  8
LAYER01
  6
CONTINUOUS
 62
     7
 10
3406.1430009999999
 20
1019.858323
 30
0.0
 11
3461.1430009999999
 21
1019.858323
 31
0.0
  0
LINE
  5
930
  8
LAYER01
  6
CONTINUOUS
 62
     7
 10
3413.1430009999999
 20
1007.858323
 30
0.0
 11
3459.9014480000001
 21
1007.858323
 31
0.0
  0
ARC
  5
931
  8
LAYER01
  6
CONTINUOUS
 62
     7
 10
3406.1430009999999
 20
1014.858323
 30
0.0
 40
5.0
 50
90.0
 51
180.0
  0
DIMENSION
  5
932
  8
LAYER01
 62
     7
  2
*D38
 10
3100.9376860000002
 20
1019.858323
 30
0.0
 11
3030.9376860000002
 21
948.66520800000001
 31
0.0
 53
90.0
 13
3401.1430009999999
 23
874.85832300000015
 33
0.0
 14
3401.1430009999999
 24
1019.858323
 34
0.0
 50
90.0
  0
ENDSEC
  0
EOF