  0
SECTION
  2
HEADER
  9
$ACADVER
  1
AC1009
  9
$INSBASE
 10
0.0
 20
0.0
 30
0.0
  9
$EXTMIN
 10
-1956.6547149999999
 20
-1946.8376049999999
 30
0.0
  9
$EXTMAX
 10
3008.4973460000001
 20
1149.033287
 30
0.0
  9
$LIMMIN
 10
-2073.3082420000001
 20
-1995.2540570000001
  9
$LIMMAX
 10
3366.2818579999998
 20
1232.509415
  9
$ORTHOMODE
 70
     1
  9
$REGENMODE
 70
     1
  9
$FILLMODE
 70
     1
  9
$QTEXTMODE
 70
     0
  9
$MIRRTEXT
 70
     0
  9
$DRAGMODE
 70
     2
  9
$LTSCALE
 40
100.0
  9
$OSMODE
 70
    39
  9
$ATTMODE
 70
     1
  9
$TEXTSIZE
 40
0.0
  9
$TRACEWID
 40
0.05
  9
$TEXTSTYLE
  7
STANDARD
  9
$CLAYER
  8
LAYER01
  9
$CELTYPE
  6
STRICHPUNKTIERT
  9
$CECOLOR
 62
     7
  9
$DIMSCALE
 40
1.0
  9
$DIMASZ
 40
0.18
  9
$DIMEXO
 40
0.0625
  9
$DIMDLI
 40
0.38
  9
$DIMRND
 40
0.0
  9
$DIMDLE
 40
0.0
  9
$DIMEXE
 40
0.18
  9
$DIMTP
 40
0.0
  9
$DIMTM
 40
0.0
  9
$DIMTXT
 40
0.18
  9
$DIMCEN
 40
0.09
  9
$DIMTSZ
 40
0.0
  9
$DIMTOL
 70
     0
  9
$DIMLIM
 70
     0
  9
$DIMTIH
 70
     1
  9
$DIMTOH
 70
     1
  9
$DIMSE1
 70
     0
  9
$DIMSE2
 70
     0
  9
$DIMTAD
 70
     0
  9
$DIMZIN
 70
     0
  9
$DIMBLK
  1

  9
$DIMASO
 70
     1
  9
$DIMSHO
 70
     1
  9
$DIMPOST
  1

  9
$DIMAPOST
  1

  9
$DIMALT
 70
     0
  9
$DIMALTD
 70
     2
  9
$DIMALTF
 40
25.399999999999999
  9
$DIMLFAC
 40
1.0
  9
$DIMTOFL
 70
     0
  9
$DIMTVP
 40
0.0
  9
$DIMTIX
 70
     0
  9
$DIMSOXD
 70
     0
  9
$DIMSAH
 70
     0
  9
$DIMBLK1
  1

  9
$DIMBLK2
  1

  9
$DIMSTYLE
  2
STANDARD
  9
$DIMCLRD
 70
     0
  9
$DIMCLRE
 70
     0
  9
$DIMCLRT
 70
     0
  9
$DIMTFAC
 40
1.0
  9
$DIMGAP
 40
0.09
  9
$LUNITS
 70
     2
  9
$LUPREC
 70
     4
  9
$SKETCHINC
 40
0.1
  9
$FILLETRAD
 40
10.0
  9
$AUNITS
 70
     0
  9
$AUPREC
 70
     0
  9
$MENU
  1
acad
  9
$ELEVATION
 40
0.0
  9
$PELEVATION
 40
0.0
  9
$THICKNESS
 40
0.0
  9
$LIMCHECK
 70
     0
  9
$BLIPMODE
 70
     0
  9
$CHAMFERA
 40
10.0
  9
$CHAMFERB
 40
10.0
  9
$SKPOLY
 70
     0
  9
$TDCREATE
 40
2305814.0418634722
  9
$TDUPDATE
 40
2457078.406566991
  9
$TDINDWG
 40
0.0183929398
  9
$TDUSRTIMER
 40
0.0183929051
  9
$USRTIMER
 70
     1
  9
$ANGBASE
 50
0.0
  9
$ANGDIR
 70
     0
  9
$PDMODE
 70
     0
  9
$PDSIZE
 40
0.0
  9
$PLINEWID
 40
0.0
  9
$COORDS
 70
     1
  9
$SPLFRAME
 70
     0
  9
$SPLINETYPE
 70
     6
  9
$SPLINESEGS
 70
    10
  9
$ATTDIA
 70
     0
  9
$ATTREQ
 70
     1
  9
$HANDLING
 70
     1
  9
$HANDSEED
  5
9CC
  9
$SURFTAB1
 70
     6
  9
$SURFTAB2
 70
     6
  9
$SURFTYPE
 70
     6
  9
$SURFU
 70
     6
  9
$SURFV
 70
     6
  9
$UCSNAME
  2

  9
$UCSORG
 10
0.0
 20
0.0
 30
0.0
  9
$UCSXDIR
 10
1.0
 20
0.0
 30
0.0
  9
$UCSYDIR
 10
0.0
 20
1.0
 30
0.0
  9
$PUCSNAME
  2

  9
$PUCSORG
 10
0.0
 20
0.0
 30
0.0
  9
$PUCSXDIR
 10
1.0
 20
0.0
 30
0.0
  9
$PUCSYDIR
 10
0.0
 20
1.0
 30
0.0
  9
$USERI1
 70
     0
  9
$USERI2
 70
     0
  9
$USERI3
 70
     0
  9
$USERI4
 70
     0
  9
$USERI5
 70
     0
  9
$USERR1
 40
0.0
  9
$USERR2
 40
0.0
  9
$USERR3
 40
0.0
  9
$USERR4
 40
0.0
  9
$USERR5
 40
0.0
  9
$WORLDVIEW
 70
     1
  9
$SHADEDGE
 70
     3
  9
$SHADEDIF
 70
    70
  9
$TILEMODE
 70
     1
  9
$MAXACTVP
 70
    64
  9
$PLIMCHECK
 70
     0
  9
$PEXTMIN
 10
1.0000000000000000E+020
 20
1.0000000000000000E+020
 30
1.0000000000000000E+020
  9
$PEXTMAX
 10
-1.0000000000000000E+020
 20
-1.0000000000000000E+020
 30
-1.0000000000000000E+020
  9
$PLIMMIN
 10
0.0
 20
0.0
  9
$PLIMMAX
 10
12.0
 20
9.0
  9
$UNITMODE
 70
     0
  9
$VISRETAIN
 70
     1
  9
$PLINEGEN
 70
     0
  9
$PSLTSCALE
 70
     1
  0
ENDSEC
  0
SECTION
  2
TABLES
  0
TABLE
  2
VPORT
 70
     1
  0
VPORT
  2
*ACTIVE
 70
     0
 10
0.0
 20
0.0
 11
1.0
 21
1.0
 12
865.45348668448548
 22
-20.203138584581211
 13
0.0
 23
0.0
 14
1.0
 24
1.0
 15
0.0
 25
0.0
 16
0.0
 26
0.0
 36
1.0
 17
0.0
 27
0.0
 37
0.0
 40
4145.7335709578711
 41
1.4396082698585411
 42
50.0
 43
0.0
 44
0.0
 50
0.0
 51
0.0
 71
     0
 72
   100
 73
     1
 74
     1
 75
     0
 76
     0
 77
     0
 78
     0
  0
ENDTAB
  0
TABLE
  2
LTYPE
 70
    11
  0
LTYPE
  2
CONTINUOUS
 70
     0
  3
Solid line
 72
    65
 73
     0
 40
0.0
  0
LTYPE
  2
STRICHPUNKTIERT
 70
     0
  3
__ . __ . __ . __ . __ . __ . __ . __ . __ .
 72
    65
 73
     4
 40
1.0
 49
0.5
 49
-0.25
 49
0.0
 49
-0.25
  0
LTYPE
  2
GESTRICHELT
 70
     0
  3
__ __ __ __ __ __ __ __ __ __ __ __ __ __ __
 72
    65
 73
     2
 40
0.75
 49
0.5
 49
-0.25
  0
LTYPE
  2
VERDECKT
 70
     0
  3
_ _ _ _ _ _ _ _ _ _ _ _ _ _ _ _ _ _ _ _ _ _ 
 72
    65
 73
     2
 40
0.25
 49
0.125
 49
-0.125
  0
LTYPE
  2
MITTELLINIE
 70
     0
  3
____ _ ____ _ ____ _ ____ _ ____ _ ____ _ __
 72
    65
 73
     4
 40
2.0
 49
1.25
 49
-0.25
 49
0.25
 49
-0.25
  0
LTYPE
  2
PHANTOM
 70
     0
  3
_____ _ _ _____ _ _ _____ _ _ _____ _ _ ____
 72
    65
 73
     6
 40
2.5
 49
1.25
 49
-0.25
 49
0.25
 49
-0.25
 49
0.25
 49
-0.25
  0
LTYPE
  2
PUNKTIERT
 70
     0
  3
............................................
 72
    65
 73
     2
 40
0.25
 49
0.0
 49
-0.25
  0
LTYPE
  2
RAND
 70
     0
  3
__ __ . __ __ . __ __ . __ __ . __ __ . __ _
 72
    65
 73
     6
 40
1.75
 49
0.5
 49
-0.25
 49
0.5
 49
-0.25
 49
0.0
 49
-0.25
  0
LTYPE
  2
TRENNLINIE
 70
     0
  3
__ . . __ . . __ . . __ . . __ . . __ . . __
 72
    65
 73
     6
 40
1.25
 49
0.5
 49
-0.25
 49
0.0
 49
-0.25
 49
0.0
 49
-0.25
  0
LTYPE
  2
ENG_PUNKTIERT
 70
     0
  3
Schließen                                   
 72
    65
 73
     2
 40
0.1
 49
0.05
 49
-0.05
  0
LTYPE
  2
CLOSE
 70
     0
  3
                                            
 72
    65
 73
     0
 40
0.0
  0
ENDTAB
  0
TABLE
  2
LAYER
 70
    14
  0
LAYER
  2
0
 70
     0
 62
     7
  6
CONTINUOUS
  0
LAYER
  2
LAYER01
 70
     0
 62
     7
  6
CONTINUOUS
  0
LAYER
  2
LAYER02
 70
     0
 62
     7
  6
CONTINUOUS
  0
LAYER
  2
LAYER03
 70
     0
 62
     7
  6
CONTINUOUS
  0
LAYER
  2
LAYER04
 70
     0
 62
     7
  6
CONTINUOUS
  0
LAYER
  2
LAYER05
 70
     0
 62
     7
  6
CONTINUOUS
  0
LAYER
  2
LAYER06
 70
     0
 62
     7
  6
CONTINUOUS
  0
LAYER
  2
LAYER07
 70
     0
 62
     7
  6
CONTINUOUS
  0
LAYER
  2
LAYER08
 70
     0
 62
     7
  6
CONTINUOUS
  0
LAYER
  2
LAYER09
 70
     0
 62
     7
  6
CONTINUOUS
  0
LAYER
  2
LAYER10
 70
     0
 62
     7
  6
CONTINUOUS
  0
LAYER
  2
KERA4
 70
     0
 62
     7
  6
CONTINUOUS
  0
LAYER
  2
KERA4___1
 70
     0
 62
     1
  6
CONTINUOUS
  0
LAYER
  2
Defpoints
 70
     0
 62
     7
  6
CONTINUOUS
  0
ENDTAB
  0
TABLE
  2
STYLE
 70
     3
  0
STYLE
  2
STANDARD
 70
     0
 40
0.0
 41
1.0
 50
0.0
 71
     0
 42
0.0
  3
txt
  4

  0
STYLE
  2
ANNOTATIVE
 70
     0
 40
0.0
 41
1.0
 50
0.0
 71
     0
 42
0.2
  3
txt
  4

  0
STYLE
  2
SIMPLEX
 70
     0
 40
0.0
 41
1.0
 50
0.0
 71
     0
 42
0.0
  3
simplex
  4

  0
ENDTAB
  0
TABLE
  2
VIEW
 70
     0
  0
ENDTAB
  0
TABLE
  2
UCS
 70
     0
  0
ENDTAB
  0
TABLE
  2
APPID
 70
     4
  0
APPID
  2
ACAD
 70
     0
  0
APPID
  2
ACADANNOTATIVE
 70
     0
  0
APPID
  2
ACAD_MLEADERVER
 70
     0
  0
APPID
  2
DCO15
 70
     0
  0
ENDTAB
  0
TABLE
  2
DIMSTYLE
 70
     2
  0
DIMSTYLE
  2
STANDARD
 70
     0
  3

  4

  5

  6

  7

 40
1.0
 41
0.18
 42
0.0625
 43
0.38
 44
0.18
 45
0.0
 46
0.0
 47
0.0
 48
0.0
140
0.18
141
0.09
142
0.0
143
25.399999999999999
144
1.0
145
0.0
146
1.0
147
0.09
 71
     0
 72
     0
 73
     1
 74
     1
 75
     0
 76
     0
 77
     0
 78
     0
170
     0
171
     2
172
     0
173
     0
174
     0
175
     0
176
     0
177
     0
178
     0
  0
DIMSTYLE
  2
ANNOTATIVE
 70
     0
  3

  4

  5

  6

  7

 40
1.0
 41
0.18
 42
0.0625
 43
0.38
 44
0.18
 45
0.0
 46
0.0
 47
0.0
 48
0.0
140
0.18
141
0.09
142
0.0
143
25.399999999999999
144
1.0
145
0.0
146
1.0
147
0.09
 71
     0
 72
     0
 73
     1
 74
     1
 75
     0
 76
     0
 77
     0
 78
     0
170
     0
171
     2
172
     0
173
     0
174
     0
175
     0
176
     0
177
     0
178
     0
  0
ENDTAB
  0
ENDSEC
  0
SECTION
  2
BLOCKS
  0
BLOCK
  8
0
  2
$MODEL_SPACE
 70
     0
 10
0.0
 20
0.0
 30
0.0
  3
$MODEL_SPACE
  1

  0
ENDBLK
  5
76
  8
0
  0
BLOCK
 67
     1
  8
0
  2
$PAPER_SPACE
 70
     0
 10
0.0
 20
0.0
 30
0.0
  3
$PAPER_SPACE
  1

  0
ENDBLK
  5
72
 67
     1
  8
0
  0
BLOCK
  8
0
  2
*D0
 70
     1
 10
0.0
 20
0.0
 30
0.0
  3
*D0
  1

  0
LINE
  5
93
  8
LAYER01
 62
     7
 10
125.050787
 20
-363.40941800000002
 30
0.0
 11
175.09476100000001
 21
-471.14784800000012
 31
0.0
  0
LINE
  5
94
  8
LAYER01
 62
     7
 10
175.09476100000001
 20
-471.14784800000012
 30
0.0
 11
208.505889
 21
-471.14784800000012
 31
0.0
  0
SOLID
  5
95
  8
LAYER01
 62
     7
 10
131.53360699999999
 20
-386.86089500000003
 30
0.0
 11
125.050787
 21
-363.40941800000002
 31
0.0
 12
138.78880799999999
 22
-383.49088899999998
 32
0.0
 13
138.78880799999999
 23
-383.49088899999998
 33
0.0
  0
TEXT
  5
96
  8
LAYER01
  6
STRICHPUNKTIERT
 62
     7
 10
223.505889
 20
-486.14784800000001
 30
0.0
 40
30.0
  1
%%c325
  0
POINT
  5
97
  8
LAYER01
 62
     7
 10
56.594813000000002
 20
-216.03225
 30
0.0
  0
POINT
  5
98
  8
LAYER01
 62
     7
 10
175.09476100000001
 20
-471.14784800000012
 30
0.0
  0
ENDBLK
  5
99
  8
0
  0
BLOCK
  8
0
  2
*D1
 70
     1
 10
0.0
 20
0.0
 30
0.0
  3
*D1
  1

  0
LINE
  5
9C
  8
LAYER01
 62
     7
 10
-205.190663
 20
-691.63082899999995
 30
0.0
 11
293.80933700000003
 21
-691.63082899999995
 31
0.0
  0
LINE
  5
9D
  8
LAYER01
 62
     7
 10
-205.190663
 20
-777.58468400000004
 30
0.0
 11
-205.190663
 21
-676.63082899999995
 31
0.0
  0
LINE
  5
9E
  8
LAYER01
 62
     7
 10
293.80933700000003
 20
-777.58468400000004
 30
0.0
 11
293.80933700000003
 21
-676.63082899999995
 31
0.0
  0
SOLID
  5
9F
  8
LAYER01
 62
     7
 10
-181.190663
 20
-695.6306689999999
 30
0.0
 11
-205.190663
 21
-691.63082899999995
 31
0.0
 12
-181.190663
 22
-687.63098899999989
 32
0.0
 13
-181.190663
 23
-687.63098899999989
 33
0.0
  0
SOLID
  5
A0
  8
LAYER01
 62
     7
 10
269.80933700000003
 20
-695.6306689999999
 30
0.0
 11
293.80933700000003
 21
-691.63082899999995
 31
0.0
 12
269.80933700000003
 22
-687.63098899999989
 32
0.0
 13
269.80933700000003
 23
-687.63098899999989
 33
0.0
  0
TEXT
  5
A1
  8
LAYER01
  6
CONTINUOUS
 62
     7
 10
4.3093370000000002
 20
-676.63082899999995
 30
0.0
 40
30.0
  1
500
  0
POINT
  5
A2
  8
LAYER01
 62
     7
 10
-205.190663
 20
-789.58468400000004
 30
0.0
  0
POINT
  5
A3
  8
LAYER01
 62
     7
 10
293.80933700000003
 20
-789.58468400000004
 30
0.0
  0
POINT
  5
A4
  8
LAYER01
 62
     7
 10
293.80933700000003
 20
-691.63082899999995
 30
0.0
  0
ENDBLK
  5
A5
  8
0
  0
BLOCK
  8
0
  2
*D2
 70
     1
 10
0.0
 20
0.0
 30
0.0
  3
*D2
  1

  0
LINE
  5
A8
  8
LAYER01
 62
     7
 10
107.309337
 20
-1119.343145
 30
0.0
 11
-205.190663
 21
-1119.343145
 31
0.0
  0
LINE
  5
A9
  8
LAYER01
 62
     7
 10
107.309337
 20
-1100.113568
 30
0.0
 11
107.309337
 21
-1134.343145
 31
0.0
  0
LINE
  5
AA
  8
LAYER01
 62
     7
 10
-205.190663
 20
-1100.113568
 30
0.0
 11
-205.190663
 21
-1134.343145
 31
0.0
  0
SOLID
  5
AB
  8
LAYER01
 62
     7
 10
83.309336999999999
 20
-1115.3433050000001
 30
0.0
 11
107.309337
 21
-1119.343145
 31
0.0
 12
83.309336999999999
 22
-1123.342985
 32
0.0
 13
83.309336999999999
 23
-1123.342985
 33
0.0
  0
SOLID
  5
AC
  8
LAYER01
 62
     7
 10
-181.190663
 20
-1115.3433050000001
 30
0.0
 11
-205.190663
 21
-1119.343145
 31
0.0
 12
-181.190663
 22
-1123.342985
 32
0.0
 13
-181.190663
 23
-1123.342985
 33
0.0
  0
TEXT
  5
AD
  8
LAYER01
  6
CONTINUOUS
 62
     7
 10
-83.940663000000001
 20
-1104.343145
 30
0.0
 40
30.0
  1
313
  0
POINT
  5
AE
  8
LAYER01
 62
     7
 10
107.309337
 20
-1088.113568
 30
0.0
  0
POINT
  5
AF
  8
LAYER01
 62
     7
 10
-205.190663
 20
-1088.113568
 30
0.0
  0
POINT
  5
B0
  8
LAYER01
 62
     7
 10
-205.190663
 20
-1119.343145
 30
0.0
  0
ENDBLK
  5
B1
  8
0
  0
BLOCK
  8
0
  2
*D3
 70
     1
 10
0.0
 20
0.0
 30
0.0
  3
*D3
  1

  0
LINE
  5
B4
  8
LAYER01
 62
     7
 10
-55.190663000000001
 20
-752.98001199999987
 30
0.0
 11
269.80933700000003
 21
-752.98001199999987
 31
0.0
  0
LINE
  5
B5
  8
LAYER01
 62
     7
 10
-55.190663000000001
 20
-777.58468400000004
 30
0.0
 11
-55.190663000000001
 21
-737.98001199999987
 31
0.0
  0
LINE
  5
B6
  8
LAYER01
 62
     7
 10
269.80933700000003
 20
-777.58468400000004
 30
0.0
 11
269.80933700000003
 21
-737.98001199999987
 31
0.0
  0
SOLID
  5
B7
  8
LAYER01
 62
     7
 10
-31.190663000000001
 20
-756.97985199999994
 30
0.0
 11
-55.190663000000001
 21
-752.98001199999987
 31
0.0
 12
-31.190663000000001
 22
-748.98017199999992
 32
0.0
 13
-31.190663000000001
 23
-748.98017199999992
 33
0.0
  0
SOLID
  5
B8
  8
LAYER01
 62
     7
 10
245.809337
 20
-756.97985199999994
 30
0.0
 11
269.80933700000003
 21
-752.98001199999987
 31
0.0
 12
245.809337
 22
-748.98017199999992
 32
0.0
 13
245.809337
 23
-748.98017199999992
 33
0.0
  0
TEXT
  5
B9
  8
LAYER01
  6
CONTINUOUS
 62
     7
 10
67.309336999999999
 20
-737.98001199999987
 30
0.0
 40
30.0
  1
325
  0
POINT
  5
BA
  8
LAYER01
 62
     7
 10
-55.190663000000001
 20
-789.58468400000004
 30
0.0
  0
POINT
  5
BB
  8
LAYER01
 62
     7
 10
269.80933700000003
 20
-789.58468400000004
 30
0.0
  0
POINT
  5
BC
  8
LAYER01
 62
     7
 10
269.80933700000003
 20
-752.98001199999987
 30
0.0
  0
ENDBLK
  5
BD
  8
0
  0
BLOCK
  8
0
  2
*D4
 70
     1
 10
0.0
 20
0.0
 30
0.0
  3
*D4
  1

  0
LINE
  5
C0
  8
LAYER01
 62
     7
 10
-205.190663
 20
-752.98001199999987
 30
0.0
 11
-55.190663000000001
 21
-752.98001199999987
 31
0.0
  0
LINE
  5
C1
  8
LAYER01
 62
     7
 10
-205.190663
 20
-777.58468400000004
 30
0.0
 11
-205.190663
 21
-737.98001199999987
 31
0.0
  0
LINE
  5
C2
  8
LAYER01
 62
     7
 10
-55.190663000000001
 20
-777.58468400000004
 30
0.0
 11
-55.190663000000001
 21
-737.98001199999987
 31
0.0
  0
SOLID
  5
C3
  8
LAYER01
 62
     7
 10
-181.190663
 20
-756.97985199999994
 30
0.0
 11
-205.190663
 21
-752.98001199999987
 31
0.0
 12
-181.190663
 22
-748.98017199999992
 32
0.0
 13
-181.190663
 23
-748.98017199999992
 33
0.0
  0
SOLID
  5
C4
  8
LAYER01
 62
     7
 10
-79.190663000000001
 20
-756.97985199999994
 30
0.0
 11
-55.190663000000001
 21
-752.98001199999987
 31
0.0
 12
-79.190663000000001
 22
-748.98017199999992
 32
0.0
 13
-79.190663000000001
 23
-748.98017199999992
 33
0.0
  0
TEXT
  5
C5
  8
LAYER01
  6
CONTINUOUS
 62
     7
 10
-162.690663
 20
-737.98001199999987
 30
0.0
 40
30.0
  1
150
  0
POINT
  5
C6
  8
LAYER01
 62
     7
 10
-205.190663
 20
-789.58468400000004
 30
0.0
  0
POINT
  5
C7
  8
LAYER01
 62
     7
 10
-55.190663000000001
 20
-789.58468400000004
 30
0.0
  0
POINT
  5
C8
  8
LAYER01
 62
     7
 10
-55.190663000000001
 20
-752.98001199999987
 30
0.0
  0
ENDBLK
  5
C9
  8
0
  0
BLOCK
  8
0
  2
*D5
 70
     1
 10
0.0
 20
0.0
 30
0.0
  3
*D5
  1

  0
LINE
  5
CC
  8
LAYER01
 62
     7
 10
-268.63793900000002
 20
-789.58468400000004
 30
0.0
 11
-268.63793900000002
 21
-994.58468399999992
 31
0.0
  0
LINE
  5
CD
  8
LAYER01
 62
     7
 10
-217.190663
 20
-789.58468400000004
 30
0.0
 11
-283.63793900000002
 21
-789.58468400000004
 31
0.0
  0
LINE
  5
CE
  8
LAYER01
 62
     7
 10
-217.190663
 20
-994.58468399999992
 30
0.0
 11
-283.63793900000002
 21
-994.58468399999992
 31
0.0
  0
SOLID
  5
CF
  8
LAYER01
 62
     7
 10
-272.63777900000002
 20
-813.58468400000015
 30
0.0
 11
-268.63793900000002
 21
-789.58468400000004
 31
0.0
 12
-264.63809900000001
 22
-813.58468400000015
 32
0.0
 13
-264.63809900000001
 23
-813.58468400000015
 33
0.0
  0
SOLID
  5
D0
  8
LAYER01
 62
     7
 10
-272.63777900000002
 20
-970.58468400000015
 30
0.0
 11
-268.63793900000002
 21
-994.58468399999992
 31
0.0
 12
-264.63809900000001
 22
-970.58468400000015
 32
0.0
 13
-264.63809900000001
 23
-970.58468400000015
 33
0.0
  0
TEXT
  5
D1
  8
LAYER01
  6
STRICHPUNKTIERT
 62
     7
 10
-283.63793900000002
 20
-929.58468400000015
 30
0.0
 40
30.0
  1
205
 50
90.0
  0
POINT
  5
D2
  8
LAYER01
 62
     7
 10
-205.190663
 20
-789.58468400000004
 30
0.0
  0
POINT
  5
D3
  8
LAYER01
 62
     7
 10
-205.190663
 20
-994.58468399999992
 30
0.0
  0
POINT
  5
D4
  8
LAYER01
 62
     7
 10
-268.63793900000002
 20
-994.58468399999992
 30
0.0
  0
ENDBLK
  5
D5
  8
0
  0
BLOCK
  8
0
  2
*D6
 70
     1
 10
0.0
 20
0.0
 30
0.0
  3
*D6
  1

  0
LINE
  5
D8
  8
LAYER01
 62
     7
 10
406.26477799999992
 20
-869.58468399999992
 30
0.0
 11
406.26477799999992
 21
-789.58468400000004
 31
0.0
  0
LINE
  5
D9
  8
LAYER01
 62
     7
 10
317.94535999999999
 20
-869.58468399999992
 30
0.0
 11
421.26477799999998
 21
-869.58468399999992
 31
0.0
  0
LINE
  5
DA
  8
LAYER01
 62
     7
 10
317.94535999999999
 20
-789.58468400000004
 30
0.0
 11
421.26477799999998
 21
-789.58468400000004
 31
0.0
  0
SOLID
  5
DB
  8
LAYER01
 62
     7
 10
410.26461799999998
 20
-845.58468400000015
 30
0.0
 11
406.26477799999992
 21
-869.58468399999992
 31
0.0
 12
402.26493799999992
 22
-845.58468400000015
 32
0.0
 13
402.26493799999992
 23
-845.58468400000015
 33
0.0
  0
SOLID
  5
DC
  8
LAYER01
 62
     7
 10
410.26461799999998
 20
-813.58468400000015
 30
0.0
 11
406.26477799999992
 21
-789.58468400000004
 31
0.0
 12
402.26493799999992
 22
-813.58468400000015
 32
0.0
 13
402.26493799999992
 23
-813.58468400000015
 33
0.0
  0
TEXT
  5
DD
  8
LAYER01
  6
CONTINUOUS
 62
     7
 10
391.26477799999998
 20
-852.08468400000004
 30
0.0
 40
30.0
  1
80
 50
90.0
  0
POINT
  5
DE
  8
LAYER01
 62
     7
 10
305.94535999999999
 20
-869.58468399999992
 30
0.0
  0
POINT
  5
DF
  8
LAYER01
 62
     7
 10
305.94535999999999
 20
-789.58468400000004
 30
0.0
  0
POINT
  5
E0
  8
LAYER01
 62
     7
 10
406.26477799999992
 20
-789.58468400000004
 30
0.0
  0
ENDBLK
  5
E1
  8
0
  0
BLOCK
  8
0
  2
*D7
 70
     1
 10
0.0
 20
0.0
 30
0.0
  3
*D7
  1

  0
LINE
  5
E4
  8
LAYER01
 62
     7
 10
497.753919
 20
-789.58468400000004
 30
0.0
 11
497.753919
 21
-949.58468400000004
 31
0.0
  0
LINE
  5
E5
  8
LAYER01
 62
     7
 10
317.94535999999999
 20
-789.58468400000004
 30
0.0
 11
512.753919
 21
-789.58468400000004
 31
0.0
  0
LINE
  5
E6
  8
LAYER01
 62
     7
 10
317.94535999999999
 20
-949.58468400000004
 30
0.0
 11
512.753919
 21
-949.58468400000004
 31
0.0
  0
SOLID
  5
E7
  8
LAYER01
 62
     7
 10
493.75407899999988
 20
-813.58468400000015
 30
0.0
 11
497.753919
 21
-789.58468400000004
 31
0.0
 12
501.75375899999989
 22
-813.58468400000015
 32
0.0
 13
501.75375899999989
 23
-813.58468400000015
 33
0.0
  0
SOLID
  5
E8
  8
LAYER01
 62
     7
 10
493.75407899999988
 20
-925.58468400000004
 30
0.0
 11
497.753919
 21
-949.58468400000004
 31
0.0
 12
501.75375899999989
 22
-925.58468400000004
 32
0.0
 13
501.75375899999989
 23
-925.58468400000004
 33
0.0
  0
TEXT
  5
E9
  8
LAYER01
  6
CONTINUOUS
 62
     7
 10
482.753919
 20
-902.08468400000004
 30
0.0
 40
30.0
  1
160
 50
90.0
  0
POINT
  5
EA
  8
LAYER01
 62
     7
 10
305.94535999999999
 20
-789.58468400000004
 30
0.0
  0
POINT
  5
EB
  8
LAYER01
 62
     7
 10
305.94535999999999
 20
-949.58468400000004
 30
0.0
  0
POINT
  5
EC
  8
LAYER01
 62
     7
 10
497.753919
 20
-949.58468400000004
 30
0.0
  0
ENDBLK
  5
ED
  8
0
  0
BLOCK
  8
0
  2
*D8
 70
     1
 10
0.0
 20
0.0
 30
0.0
  3
*D8
  1

  0
LINE
  5
F0
  8
LAYER01
 62
     7
 10
130.309337
 20
-1055.2094380000001
 30
0.0
 11
178.309337
 21
-1055.2094380000001
 31
0.0
  0
LINE
  5
F1
  8
LAYER01
 62
     7
 10
84.309336999999999
 20
-1055.2094380000001
 30
0.0
 11
36.309336999999999
 21
-1055.2094380000001
 31
0.0
  0
LINE
  5
F2
  8
LAYER01
 62
     7
 10
130.309337
 20
-1006.584684
 30
0.0
 11
130.309337
 21
-1070.2094380000001
 31
0.0
  0
LINE
  5
F3
  8
LAYER01
 62
     7
 10
84.309336999999999
 20
-1006.584684
 30
0.0
 11
84.309336999999999
 21
-1070.2094380000001
 31
0.0
  0
SOLID
  5
F4
  8
LAYER01
 62
     7
 10
154.309337
 20
-1051.2095979999999
 30
0.0
 11
130.309337
 21
-1055.2094380000001
 31
0.0
 12
154.309337
 22
-1059.209278
 32
0.0
 13
154.309337
 23
-1059.209278
 33
0.0
  0
SOLID
  5
F5
  8
LAYER01
 62
     7
 10
60.309336999999999
 20
-1051.2095979999999
 30
0.0
 11
84.309336999999999
 21
-1055.2094380000001
 31
0.0
 12
60.309336999999999
 22
-1059.209278
 32
0.0
 13
60.309336999999999
 23
-1059.209278
 33
0.0
  0
TEXT
  5
F6
  8
LAYER01
  6
CONTINUOUS
 62
     7
 10
193.309337
 20
-1040.2094380000001
 30
0.0
 40
30.0
  1
46
  0
POINT
  5
F7
  8
LAYER01
 62
     7
 10
130.309337
 20
-994.58468399999992
 30
0.0
  0
POINT
  5
F8
  8
LAYER01
 62
     7
 10
84.309336999999999
 20
-994.58468399999992
 30
0.0
  0
POINT
  5
F9
  8
LAYER01
 62
     7
 10
84.309336999999999
 20
-1055.2094380000001
 30
0.0
  0
ENDBLK
  5
FA
  8
0
  0
BLOCK
  8
0
  2
*D9
 70
     1
 10
0.0
 20
0.0
 30
0.0
  3
*D9
  1

  0
LINE
  5
FD
  8
LAYER01
 62
     7
 10
-8.6976610000000001
 20
191.03710599999999
 30
0.0
 11
-418.27368300000001
 21
-95.751112000000006
 31
0.0
  0
LINE
  5
FE
  8
LAYER01
 62
     7
 10
49.912708000000002
 20
107.332825
 30
0.0
 11
-17.301307999999999
 21
203.324387
 31
0.0
  0
LINE
  5
FF
  8
LAYER01
 62
     7
 10
-359.66331400000001
 20
-179.45539400000001
 30
0.0
 11
-426.87732999999992
 21
-83.463830999999999
 31
0.0
  0
SOLID
  5
100
  8
LAYER01
 62
     7
 10
-30.651523999999998
 20
180.54774900000001
 30
0.0
 11
-8.6976610000000001
 21
191.03710599999999
 31
0.0
 12
-26.063096000000002
 22
173.99479500000001
 32
0.0
 13
-26.063096000000002
 23
173.99479500000001
 33
0.0
  0
SOLID
  5
101
  8
LAYER01
 62
     7
 10
-400.90824800000001
 20
-78.708799999999997
 30
0.0
 11
-418.27368300000001
 21
-95.751112000000006
 31
0.0
 12
-396.31981999999999
 22
-85.261754999999994
 32
0.0
 13
-396.31981999999999
 23
-85.261754999999994
 33
0.0
  0
TEXT
  5
102
  8
LAYER01
  6
CONTINUOUS
 62
     7
 10
-250.75963999999999
 20
39.855102000000002
 30
0.0
 40
30.0
  1
500
 50
35.0
  0
POINT
  5
103
  8
LAYER01
 62
     7
 10
56.795625000000001
 20
97.502999999999986
 30
0.0
  0
POINT
  5
104
  8
LAYER01
 62
     7
 10
-352.78039699999999
 20
-189.28521799999999
 30
0.0
  0
POINT
  5
105
  8
LAYER01
 62
     7
 10
-418.27368300000001
 20
-95.751112000000006
 30
0.0
  0
ENDBLK
  5
106
  8
0
  0
BLOCK
  8
0
  2
*D10
 70
     1
 10
0.0
 20
0.0
 30
0.0
  3
*D10
  1

  0
LINE
  5
109
  8
LAYER01
 62
     7
 10
41.799418000000003
 20
-11.517188000000001
 30
0.0
 11
-1.6228370000000001
 21
-37.635586000000004
 31
0.0
  0
LINE
  5
10A
  8
LAYER01
 62
     7
 10
-1.6228370000000001
 20
-37.635586000000004
 30
0.0
 11
-14.001874000000001
 21
-37.635586000000004
 31
0.0
  0
SOLID
  5
10B
  8
LAYER01
 62
     7
 10
19.171517000000001
 20
-20.460163999999999
 30
0.0
 11
41.799418000000003
 21
-11.517188000000001
 31
0.0
 12
23.294867
 22
-27.315297999999999
 32
0.0
 13
23.294867
 23
-27.315297999999999
 33
0.0
  0
TEXT
  5
10C
  8
LAYER01
  6
CONTINUOUS
 62
     7
 10
-109.001874
 20
-52.635585999999989
 30
0.0
 40
30.0
  1
%%c35
  0
POINT
  5
10D
  8
LAYER01
 62
     7
 10
56.795625000000001
 20
-2.496999999999999
 30
0.0
  0
POINT
  5
10E
  8
LAYER01
 62
     7
 10
-1.6228370000000001
 20
-37.635586000000004
 30
0.0
  0
ENDBLK
  5
10F
  8
0
  0
BLOCK
  8
0
  2
*D11
 70
     1
 10
0.0
 20
0.0
 30
0.0
  3
*D11
  1

  0
LINE
  5
112
  8
LAYER01
 62
     7
 10
541.73910100000001
 20
-81.649338999999983
 30
0.0
 11
132.16307900000001
 21
205.138879
 31
0.0
  0
LINE
  5
113
  8
LAYER01
 62
     7
 10
473.2545639999999
 20
-179.45539400000001
 30
0.0
 11
550.34274800000003
 21
-69.36205799999999
 31
0.0
  0
LINE
  5
114
  8
LAYER01
 62
     7
 10
63.678542
 20
107.332825
 30
0.0
 11
140.76672600000001
 21
217.42616000000001
 31
0.0
  0
SOLID
  5
115
  8
LAYER01
 62
     7
 10
524.37366599999996
 20
-64.607027000000002
 30
0.0
 11
541.73910100000001
 21
-81.649338999999983
 31
0.0
 12
519.78523799999994
 22
-71.159981000000002
 32
0.0
 13
519.78523799999994
 23
-71.159981000000002
 33
0.0
  0
SOLID
  5
116
  8
LAYER01
 62
     7
 10
154.11694199999999
 20
194.64952199999999
 30
0.0
 11
132.16307900000001
 21
205.138879
 31
0.0
 12
149.528514
 22
188.09656799999999
 32
0.0
 13
149.528514
 23
188.09656799999999
 33
0.0
  0
TEXT
  5
117
  8
LAYER01
  6
CONTINUOUS
 62
     7
 10
316.88441499999999
 20
94.107225999999983
 30
0.0
 40
30.0
  1
500
 50
325.0
  0
POINT
  5
118
  8
LAYER01
 62
     7
 10
466.37164699999988
 20
-189.28521799999999
 30
0.0
  0
POINT
  5
119
  8
LAYER01
 62
     7
 10
56.795625000000001
 20
97.502999999999986
 30
0.0
  0
POINT
  5
11A
  8
LAYER01
 62
     7
 10
132.16307900000001
 20
205.138879
 30
0.0
  0
ENDBLK
  5
11B
  8
0
  0
BLOCK
  8
0
  2
*D12
 70
     1
 10
0.0
 20
0.0
 30
0.0
  3
*D12
  1

  0
ARC
  5
11E
  8
LAYER01
 62
     7
 10
56.795625000000001
 20
97.502999999999986
 30
0.0
 40
74.871793999999994
 50
215.0
 51
226.16880699999999
  0
ARC
  5
11F
  8
LAYER01
 62
     7
 10
56.795625000000001
 20
97.502999999999986
 30
0.0
 40
74.871793999999994
 50
313.83119299999998
 51
325.0
  0
SOLID
  5
120
  8
LAYER01
 62
     7
 10
15.069467
 20
40.148796999999988
 30
0.0
 11
-4.5357580000000004
 21
54.558303000000002
 31
0.0
 12
9.3366310000000006
 22
34.569417999999999
 32
0.0
 13
9.3366310000000006
 23
34.569417999999999
 33
0.0
  0
SOLID
  5
121
  8
LAYER01
 62
     7
 10
98.521782999999999
 20
40.148796999999988
 30
0.0
 11
118.127008
 21
54.558303000000002
 31
0.0
 12
104.25461900000001
 22
34.569417999999999
 32
0.0
 13
104.25461900000001
 23
34.569417999999999
 33
0.0
  0
TEXT
  5
122
  8
LAYER01
  6
CONTINUOUS
 62
     7
 10
19.295625000000001
 20
7.6312059999999988
 30
0.0
 40
30.0
  1
110%%d
  0
ENDBLK
  5
123
  8
0
  0
BLOCK
  8
0
  2
SARDANE-G15
 70
     0
 10
0.0
 20
0.0
 30
0.0
  3
SARDANE-G15
  1

  0
TEXT
  5
126
  8
LAYER01
  6
VERDECKT
 62
     1
 10
1446.35151
 20
-1498.7253430000001
 30
0.0
 40
14.0
  1
A. Sprenger GmbH
  7
SIMPLEX
  0
TEXT
  5
127
  8
LAYER01
  6
VERDECKT
 62
     1
 10
1446.35151
 20
-1522.7253430000001
 30
0.0
 40
14.0
  1
Berner Str. 10
  7
SIMPLEX
  0
TEXT
  5
128
  8
LAYER01
  6
VERDECKT
 62
     1
 10
1446.35151
 20
-1546.7253430000001
 30
0.0
 40
14.0
  1
60437 Frankfurt
  7
SIMPLEX
  0
TEXT
  5
129
  8
LAYER01
  6
VERDECKT
 62
     1
 10
1446.35151
 20
-1570.7253430000001
 30
0.0
 40
14.0
  1
Tel.: 069 - 507 27 41
  7
SIMPLEX
  0
TEXT
  5
12A
  8
LAYER01
  6
VERDECKT
 62
     1
 10
1446.35151
 20
-1594.7253430000001
 30
0.0
 40
14.0
  1
Fax: 069 - 507 72 91
  7
SIMPLEX
  0
TEXT
  5
12B
  8
LAYER01
  6
VERDECKT
 62
     1
 10
1446.35151
 20
-1618.7253430000001
 30
0.0
 40
14.0
  1
info@varicor.org
  7
SIMPLEX
  0
ENDBLK
  5
12C
  8
0
  0
BLOCK
  8
0
  2
SARDANE-G14
 70
     0
 10
0.0
 20
0.0
 30
0.0
  3
SARDANE-G14
  1

  0
TEXT
  5
12F
  8
LAYER01
  6
CONTINUOUS
 62
     1
 10
2917.4973460000001
 20
-1827.8376049999999
 30
0.0
 40
14.0
  1
Blatt
  7
SIMPLEX
  0
LINE
  5
130
  8
LAYER01
  6
CONTINUOUS
 62
     1
 10
1426.4973460000001
 20
-1729.8376049999999
 30
0.0
 11
2266.4973460000001
 21
-1729.8376049999999
 31
0.0
  0
LINE
  5
131
  8
LAYER01
  6
CONTINUOUS
 62
     1
 10
1426.4973460000001
 20
-1764.8376049999999
 30
0.0
 11
2266.4973460000001
 21
-1764.8376049999999
 31
0.0
  0
LINE
  5
132
  8
LAYER01
  6
CONTINUOUS
 62
     1
 10
1426.4973460000001
 20
-1799.8376049999999
 30
0.0
 11
3008.4973460000001
 21
-1799.8376049999999
 31
0.0
  0
LINE
  5
133
  8
LAYER01
  6
CONTINUOUS
 62
     1
 10
1426.4973460000001
 20
-1904.8376049999999
 30
0.0
 11
3008.4973460000001
 21
-1904.8376049999999
 31
0.0
  0
LINE
  5
134
  8
LAYER01
  6
CONTINUOUS
 62
     1
 10
1426.4973460000001
 20
-1624.8376049999999
 30
0.0
 11
3008.4973460000001
 21
-1624.8376049999999
 31
0.0
  0
POLYLINE
  5
135
  8
LAYER01
  6
CONTINUOUS
 62
     1
 66
     1
 10
0.0
 20
0.0
 30
0.0
 70
     1
  0
VERTEX
  5
5FB
  8
LAYER01
  6
CONTINUOUS
 62
     1
 10
1426.4973460000001
 20
-1946.8376049999999
 30
0.0
  0
VERTEX
  5
5FC
  8
LAYER01
  6
CONTINUOUS
 62
     1
 10
1426.4973460000001
 20
-1477.8376049999999
 30
0.0
  0
VERTEX
  5
5FD
  8
LAYER01
  6
CONTINUOUS
 62
     1
 10
3008.4973460000001
 20
-1477.8376049999999
 30
0.0
  0
VERTEX
  5
5FE
  8
LAYER01
  6
CONTINUOUS
 62
     1
 10
3008.4973460000001
 20
-1946.8376049999999
 30
0.0
  0
SEQEND
  5
5FF
  8
LAYER01
  6
CONTINUOUS
 62
     1
  0
LINE
  5
13B
  8
LAYER01
  6
CONTINUOUS
 62
     1
 10
1426.4973460000001
 20
-1659.8376049999999
 30
0.0
 11
2266.4973460000001
 21
-1659.8376049999999
 31
0.0
  0
LINE
  5
13C
  8
LAYER01
  6
CONTINUOUS
 62
     1
 10
1426.4973460000001
 20
-1694.8376049999999
 30
0.0
 11
2266.4973460000001
 21
-1694.8376049999999
 31
0.0
  0
LINE
  5
13D
  8
LAYER01
  6
CONTINUOUS
 62
     1
 10
1881.4973460000001
 20
-1477.8376049999999
 30
0.0
 11
1881.4973460000001
 21
-1946.8376049999999
 31
0.0
  0
INSERT
  5
13E
  8
LAYER01
  2
SARDANE-G15
 10
0.0
 20
0.0
 30
0.0
  0
LINE
  5
13F
  8
LAYER01
  6
CONTINUOUS
 62
     1
 10
1426.4973460000001
 20
-1869.8376049999999
 30
0.0
 11
1881.4973460000001
 21
-1869.8376049999999
 31
0.0
  0
LINE
  5
140
  8
LAYER01
  6
CONTINUOUS
 62
     1
 10
1426.4973460000001
 20
-1834.8376049999999
 30
0.0
 11
1881.4973460000001
 21
-1834.8376049999999
 31
0.0
  0
LINE
  5
141
  8
LAYER01
  6
CONTINUOUS
 62
     1
 10
1489.4973460000001
 20
-1624.8376049999999
 30
0.0
 11
1489.4973460000001
 21
-1946.8376049999999
 31
0.0
  0
TEXT
  5
142
  8
LAYER01
  6
CONTINUOUS
 62
     1
 10
1438.256318
 20
-1932.8376049999999
 30
0.0
 40
13.300000000000001
  1
Zust
  7
SIMPLEX
  0
LINE
  5
143
  8
LAYER01
  6
CONTINUOUS
 62
     1
 10
1710.395808
 20
-1946.8376049999999
 30
0.0
 11
1710.395808
 21
-1624.8376049999999
 31
0.0
  0
LINE
  5
144
  8
LAYER01
  6
CONTINUOUS
 62
     1
 10
1818.4973460000001
 20
-1624.8376049999999
 30
0.0
 11
1818.4973460000001
 21
-1946.8376049999999
 31
0.0
  0
TEXT
  5
145
  8
LAYER01
  6
CONTINUOUS
 62
     1
 10
1551.2773050000001
 20
-1932.8376049999999
 30
0.0
 40
13.300000000000001
  1
Änderung
  7
SIMPLEX
  0
TEXT
  5
146
  8
LAYER01
  6
CONTINUOUS
 62
     1
 10
1730.093149
 20
-1932.8376049999999
 30
0.0
 40
13.300000000000001
  1
Datum
  7
SIMPLEX
  0
TEXT
  5
147
  8
LAYER01
  6
CONTINUOUS
 62
     1
 10
1823.766811
 20
-1932.8376049999999
 30
0.0
 40
13.300000000000001
  1
Name
  7
SIMPLEX
  0
LINE
  5
148
  8
LAYER01
  6
CONTINUOUS
 62
     1
 10
3008.4973460000001
 20
-1533.8376049999999
 30
0.0
 11
2266.4973460000001
 21
-1533.8376049999999
 31
0.0
  0
LINE
  5
149
  8
LAYER01
  6
CONTINUOUS
 62
     1
 10
1972.4973460000001
 20
-1764.8376049999999
 30
0.0
 11
1972.4973460000001
 21
-1624.8376049999999
 31
0.0
  0
TEXT
  5
14A
  8
LAYER01
  6
CONTINUOUS
 62
     1
 10
1895.4973460000001
 20
-1687.8376049999999
 30
0.0
 40
14.0
  1
Bearb.
  7
SIMPLEX
  0
TEXT
  5
14B
  8
LAYER01
  6
CONTINUOUS
 62
     1
 10
1895.4973460000001
 20
-1757.8376049999999
 30
0.0
 40
14.0
  1
Norm
  7
SIMPLEX
  0
TEXT
  5
14C
  8
LAYER01
  6
CONTINUOUS
 62
     1
 10
1895.4973460000001
 20
-1722.8376049999999
 30
0.0
 40
14.0
  1
Gepr.
  7
SIMPLEX
  0
TEXT
  5
14D
  8
LAYER01
  6
CONTINUOUS
 62
     1
 10
2007.4973460000001
 20
-1652.8376049999999
 30
0.0
 40
14.0
  1
Datum
  7
SIMPLEX
  0
TEXT
  5
14E
  8
LAYER01
  6
CONTINUOUS
 62
     1
 10
2147.4973460000001
 20
-1652.8376049999999
 30
0.0
 40
14.0
  1
Name
  7
SIMPLEX
  0
TEXT
  5
14F
  8
LAYER01
  6
CONTINUOUS
 62
     1
 10
2973.4973460000001
 20
-1897.8376049999999
 30
0.0
 40
14.0
  1
Bl.
  7
SIMPLEX
  0
LINE
  5
150
  8
LAYER01
  6
CONTINUOUS
 62
     1
 10
2266.4973460000001
 20
-1946.8376049999999
 30
0.0
 11
2266.4973460000001
 21
-1477.8376049999999
 31
0.0
  0
LINE
  5
151
  8
LAYER01
  6
CONTINUOUS
 62
     1
 10
2105.4973460000001
 20
-1799.8376049999999
 30
0.0
 11
2105.4973460000001
 21
-1477.8376049999999
 31
0.0
  0
LINE
  5
152
  8
LAYER01
  6
CONTINUOUS
 62
     1
 10
2707.4973460000001
 20
-1477.8376049999999
 30
0.0
 11
2707.4973460000001
 21
-1533.8376049999999
 31
0.0
  0
TEXT
  5
153
  8
LAYER01
  6
CONTINUOUS
 62
     1
 10
2281.7489460000002
 20
-1513.579608
 30
0.0
 40
14.0
  1
Maßstab
  7
SIMPLEX
  0
LINE
  5
154
  8
LAYER01
  6
CONTINUOUS
 62
     1
 10
2903.4973460000001
 20
-1799.8376049999999
 30
0.0
 11
2903.4973460000001
 21
-1904.8376049999999
 31
0.0
  0
LINE
  5
155
  8
LAYER01
  6
CONTINUOUS
 62
     1
 10
2903.4973460000001
 20
-1869.8376049999999
 30
0.0
 11
3008.4973460000001
 21
-1869.8376049999999
 31
0.0
  0
ENDBLK
  5
156
  8
0
  0
BLOCK
  8
0
  2
SARDANE-G16
 70
     0
 10
0.0
 20
0.0
 30
0.0
  3
SARDANE-G16
  1

  0
POLYLINE
  5
159
  8
LAYER01
  6
CONTINUOUS
 62
     7
 66
     1
 10
0.0
 20
0.0
 30
0.0
 70
     1
  0
VERTEX
  5
600
  8
LAYER01
  6
CONTINUOUS
 62
     7
 10
1672.0523209999999
 20
-1004.190079
 30
0.0
  0
VERTEX
  5
601
  8
LAYER01
  6
CONTINUOUS
 62
     7
 10
1714.6754550000001
 20
-1004.190079
 30
0.0
  0
VERTEX
  5
602
  8
LAYER01
  6
CONTINUOUS
 62
     7
 10
1768.202182
 20
-1126.112069
 30
0.0
  0
VERTEX
  5
603
  8
LAYER01
  6
CONTINUOUS
 62
     7
 10
1821.7289089999999
 20
-1004.190079
 30
0.0
  0
VERTEX
  5
604
  8
LAYER01
  6
CONTINUOUS
 62
     7
 10
1866.334515
 20
-1004.190079
 30
0.0
  0
VERTEX
  5
605
  8
LAYER01
  6
CONTINUOUS
 62
     7
 10
1768.202182
 20
-1222.261931
 30
0.0
  0
VERTEX
  5
606
  8
LAYER01
  6
CONTINUOUS
 62
     7
 10
1672.0523209999999
 20
-1004.190079
 30
0.0
  0
VERTEX
  5
607
  8
LAYER01
  6
CONTINUOUS
 62
     7
 10
1672.0523209999999
 20
-1004.190079
 30
0.0
  0
SEQEND
  5
608
  8
LAYER01
  6
CONTINUOUS
 62
     7
  0
POLYLINE
  5
163
  8
LAYER01
  6
CONTINUOUS
 62
     7
 66
     1
 10
0.0
 20
0.0
 30
0.0
 70
     1
  0
VERTEX
  5
609
  8
LAYER01
  6
CONTINUOUS
 62
     7
 10
1817.7639670000001
 20
-1152.8754329999999
 30
0.0
  0
VERTEX
  5
60A
  8
LAYER01
  6
CONTINUOUS
 62
     7
 10
1832.6325019999999
 20
-1118.182184
 30
0.0
  0
VERTEX
  5
60B
  8
LAYER01
  6
CONTINUOUS
 62
     7
 10
1897.0628220000001
 20
-1118.182184
 30
0.0
  0
VERTEX
  5
60C
  8
LAYER01
  6
CONTINUOUS
 62
     7
 10
1864.352044
 20
-1046.813214
 30
0.0
  0
VERTEX
  5
60D
  8
LAYER01
  6
CONTINUOUS
 62
     7
 10
1883.185522
 20
-1001.216372
 30
0.0
  0
VERTEX
  5
60E
  8
LAYER01
  6
CONTINUOUS
 62
     7
 10
1971.4054980000001
 20
-1187.5686820000001
 30
0.0
  0
VERTEX
  5
60F
  8
LAYER01
  6
CONTINUOUS
 62
     7
 10
1971.4054980000001
 20
-1004.190079
 30
0.0
  0
VERTEX
  5
610
  8
LAYER01
  6
CONTINUOUS
 62
     7
 10
2089.362545
 20
-1004.190079
 30
0.0
  0
VERTEX
  5
611
  8
LAYER01
  6
CONTINUOUS
 62
     7
 10
2089.362545
 20
-1004.190079
 30
0.0
  0
VERTEX
  5
612
  8
LAYER01
  6
CONTINUOUS
 62
     7
 10
2100.2661370000001
 20
-1006.172551
 30
0.0
  0
VERTEX
  5
613
  8
LAYER01
  6
CONTINUOUS
 62
     7
 10
2110.1784939999998
 20
-1010.1374939999999
 30
0.0
  0
VERTEX
  5
614
  8
LAYER01
  6
CONTINUOUS
 62
     7
 10
2119.099616
 20
-1017.076143
 30
0.0
  0
VERTEX
  5
615
  8
LAYER01
  6
CONTINUOUS
 62
     7
 10
2127.029501
 20
-1024.0147930000001
 30
0.0
  0
VERTEX
  5
616
  8
LAYER01
  6
CONTINUOUS
 62
     7
 10
2133.968151
 20
-1032.9359139999999
 30
0.0
  0
VERTEX
  5
617
  8
LAYER01
  6
CONTINUOUS
 62
     7
 10
2138.9243289999999
 20
-1042.8482710000001
 30
0.0
  0
VERTEX
  5
618
  8
LAYER01
  6
CONTINUOUS
 62
     7
 10
2142.8892719999999
 20
-1054.7430999999999
 30
0.0
  0
VERTEX
  5
619
  8
LAYER01
  6
CONTINUOUS
 62
     7
 10
2143.8805080000002
 20
-1065.646692
 30
0.0
  0
VERTEX
  5
61A
  8
LAYER01
  6
CONTINUOUS
 62
     7
 10
2143.8805080000002
 20
-1065.646692
 30
0.0
  0
VERTEX
  5
61B
  8
LAYER01
  6
CONTINUOUS
 62
     7
 10
2143.8805080000002
 20
-1077.54152
 30
0.0
  0
VERTEX
  5
61C
  8
LAYER01
  6
CONTINUOUS
 62
     7
 10
2141.898036
 20
-1087.4538769999999
 30
0.0
  0
VERTEX
  5
61D
  8
LAYER01
  6
CONTINUOUS
 62
     7
 10
2137.933094
 20
-1097.3662340000001
 30
0.0
  0
VERTEX
  5
61E
  8
LAYER01
  6
CONTINUOUS
 62
     7
 10
2132.9769150000002
 20
-1106.2873549999999
 30
0.0
  0
VERTEX
  5
61F
  8
LAYER01
  6
CONTINUOUS
 62
     7
 10
2126.0382650000001
 20
-1114.2172410000001
 30
0.0
  0
VERTEX
  5
620
  8
LAYER01
  6
CONTINUOUS
 62
     7
 10
2118.1083800000001
 20
-1121.1558910000001
 30
0.0
  0
VERTEX
  5
621
  8
LAYER01
  6
CONTINUOUS
 62
     7
 10
2109.1872589999998
 20
-1126.112069
 30
0.0
  0
VERTEX
  5
622
  8
LAYER01
  6
CONTINUOUS
 62
     7
 10
2098.2836659999998
 20
-1130.077012
 30
0.0
  0
VERTEX
  5
623
  8
LAYER01
  6
CONTINUOUS
 62
     7
 10
2161.7227499999999
 20
-1214.3320450000001
 30
0.0
  0
VERTEX
  5
624
  8
LAYER01
  6
CONTINUOUS
 62
     7
 10
2161.7227499999999
 20
-1004.190079
 30
0.0
  0
VERTEX
  5
625
  8
LAYER01
  6
CONTINUOUS
 62
     7
 10
2203.3546489999999
 20
-1004.190079
 30
0.0
  0
VERTEX
  5
626
  8
LAYER01
  6
CONTINUOUS
 62
     7
 10
2203.3546489999999
 20
-1216.314517
 30
0.0
  0
VERTEX
  5
627
  8
LAYER01
  6
CONTINUOUS
 62
     7
 10
2114.1434370000002
 20
-1216.314517
 30
0.0
  0
VERTEX
  5
628
  8
LAYER01
  6
CONTINUOUS
 62
     7
 10
2027.9059319999999
 20
-1106.2873549999999
 30
0.0
  0
VERTEX
  5
629
  8
LAYER01
  6
CONTINUOUS
 62
     7
 10
2071.5203029999998
 20
-1106.2873549999999
 30
0.0
  0
VERTEX
  5
62A
  8
LAYER01
  6
CONTINUOUS
 62
     7
 10
2071.5203029999998
 20
-1106.2873549999999
 30
0.0
  0
VERTEX
  5
62B
  8
LAYER01
  6
CONTINUOUS
 62
     7
 10
2077.467717
 20
-1105.29612
 30
0.0
  0
VERTEX
  5
62C
  8
LAYER01
  6
CONTINUOUS
 62
     7
 10
2083.4151310000002
 20
-1103.3136480000001
 30
0.0
  0
VERTEX
  5
62D
  8
LAYER01
  6
CONTINUOUS
 62
     7
 10
2088.3713090000001
 20
-1100.339941
 30
0.0
  0
VERTEX
  5
62E
  8
LAYER01
  6
CONTINUOUS
 62
     7
 10
2093.3274879999999
 20
-1096.374998
 30
0.0
  0
VERTEX
  5
62F
  8
LAYER01
  6
CONTINUOUS
 62
     7
 10
2096.301195
 20
-1091.4188200000001
 30
0.0
  0
VERTEX
  5
630
  8
LAYER01
  6
CONTINUOUS
 62
     7
 10
2099.2749020000001
 20
-1085.4714059999999
 30
0.0
  0
VERTEX
  5
631
  8
LAYER01
  6
CONTINUOUS
 62
     7
 10
2101.2573729999999
 20
-1079.5239919999999
 30
0.0
  0
VERTEX
  5
632
  8
LAYER01
  6
CONTINUOUS
 62
     7
 10
2101.2573729999999
 20
-1072.5853420000001
 30
0.0
  0
VERTEX
  5
633
  8
LAYER01
  6
CONTINUOUS
 62
     7
 10
2101.2573729999999
 20
-1072.5853420000001
 30
0.0
  0
VERTEX
  5
634
  8
LAYER01
  6
CONTINUOUS
 62
     7
 10
2101.2573729999999
 20
-1066.6379280000001
 30
0.0
  0
VERTEX
  5
635
  8
LAYER01
  6
CONTINUOUS
 62
     7
 10
2099.2749020000001
 20
-1060.6905139999999
 30
0.0
  0
VERTEX
  5
636
  8
LAYER01
  6
CONTINUOUS
 62
     7
 10
2097.29243
 20
-1054.7430999999999
 30
0.0
  0
VERTEX
  5
637
  8
LAYER01
  6
CONTINUOUS
 62
     7
 10
2093.3274879999999
 20
-1049.7869209999999
 30
0.0
  0
VERTEX
  5
638
  8
LAYER01
  6
CONTINUOUS
 62
     7
 10
2089.362545
 20
-1045.8219779999999
 30
0.0
  0
VERTEX
  5
639
  8
LAYER01
  6
CONTINUOUS
 62
     7
 10
2083.4151310000002
 20
-1042.8482710000001
 30
0.0
  0
VERTEX
  5
63A
  8
LAYER01
  6
CONTINUOUS
 62
     7
 10
2077.467717
 20
-1040.8658
 30
0.0
  0
VERTEX
  5
63B
  8
LAYER01
  6
CONTINUOUS
 62
     7
 10
2071.5203029999998
 20
-1039.874564
 30
0.0
  0
VERTEX
  5
63C
  8
LAYER01
  6
CONTINUOUS
 62
     7
 10
2016.0111039999999
 20
-1039.874564
 30
0.0
  0
VERTEX
  5
63D
  8
LAYER01
  6
CONTINUOUS
 62
     7
 10
2016.0111039999999
 20
-1216.314517
 30
0.0
  0
VERTEX
  5
63E
  8
LAYER01
  6
CONTINUOUS
 62
     7
 10
1944.6421350000001
 20
-1216.314517
 30
0.0
  0
VERTEX
  5
63F
  8
LAYER01
  6
CONTINUOUS
 62
     7
 10
1914.905064
 20
-1152.8754329999999
 30
0.0
  0
VERTEX
  5
640
  8
LAYER01
  6
CONTINUOUS
 62
     7
 10
1817.7639670000001
 20
-1152.8754329999999
 30
0.0
  0
VERTEX
  5
641
  8
LAYER01
  6
CONTINUOUS
 62
     7
 10
1817.7639670000001
 20
-1152.8754329999999
 30
0.0
  0
SEQEND
  5
642
  8
LAYER01
  6
CONTINUOUS
 62
     7
  0
POLYLINE
  5
19E
  8
LAYER01
  6
CONTINUOUS
 62
     7
 66
     1
 10
0.0
 20
0.0
 30
0.0
 70
     1
  0
VERTEX
  5
643
  8
LAYER01
  6
CONTINUOUS
 62
     7
 10
2395.654372
 20
-1018.067379
 30
0.0
  0
VERTEX
  5
644
  8
LAYER01
  6
CONTINUOUS
 62
     7
 10
2368.8910089999999
 20
-1051.7693919999999
 30
0.0
  0
VERTEX
  5
645
  8
LAYER01
  6
CONTINUOUS
 62
     7
 10
2368.8910089999999
 20
-1051.7693919999999
 30
0.0
  0
VERTEX
  5
646
  8
LAYER01
  6
CONTINUOUS
 62
     7
 10
2359.9698880000001
 20
-1045.8219779999999
 30
0.0
  0
VERTEX
  5
647
  8
LAYER01
  6
CONTINUOUS
 62
     7
 10
2351.0487659999999
 20
-1040.8658
 30
0.0
  0
VERTEX
  5
648
  8
LAYER01
  6
CONTINUOUS
 62
     7
 10
2341.1364100000001
 20
-1037.8920929999999
 30
0.0
  0
VERTEX
  5
649
  8
LAYER01
  6
CONTINUOUS
 62
     7
 10
2330.2328170000001
 20
-1037.8920929999999
 30
0.0
  0
VERTEX
  5
64A
  8
LAYER01
  6
CONTINUOUS
 62
     7
 10
2330.2328170000001
 20
-1037.8920929999999
 30
0.0
  0
VERTEX
  5
64B
  8
LAYER01
  6
CONTINUOUS
 62
     7
 10
2323.294167
 20
-1037.8920929999999
 30
0.0
  0
VERTEX
  5
64C
  8
LAYER01
  6
CONTINUOUS
 62
     7
 10
2316.355517
 20
-1038.883329
 30
0.0
  0
VERTEX
  5
64D
  8
LAYER01
  6
CONTINUOUS
 62
     7
 10
2309.4168679999998
 20
-1040.8658
 30
0.0
  0
VERTEX
  5
64E
  8
LAYER01
  6
CONTINUOUS
 62
     7
 10
2302.4782180000002
 20
-1043.8395069999999
 30
0.0
  0
VERTEX
  5
64F
  8
LAYER01
  6
CONTINUOUS
 62
     7
 10
2296.530804
 20
-1046.813214
 30
0.0
  0
VERTEX
  5
650
  8
LAYER01
  6
CONTINUOUS
 62
     7
 10
2291.5746250000002
 20
-1050.778157
 30
0.0
  0
VERTEX
  5
651
  8
LAYER01
  6
CONTINUOUS
 62
     7
 10
2285.627211
 20
-1054.7430999999999
 30
0.0
  0
VERTEX
  5
652
  8
LAYER01
  6
CONTINUOUS
 62
     7
 10
2281.662268
 20
-1059.699278
 30
0.0
  0
VERTEX
  5
653
  8
LAYER01
  6
CONTINUOUS
 62
     7
 10
2276.7060900000001
 20
-1065.646692
 30
0.0
  0
VERTEX
  5
654
  8
LAYER01
  6
CONTINUOUS
 62
     7
 10
2273.732383
 20
-1071.594106
 30
0.0
  0
VERTEX
  5
655
  8
LAYER01
  6
CONTINUOUS
 62
     7
 10
2269.7674400000001
 20
-1077.54152
 30
0.0
  0
VERTEX
  5
656
  8
LAYER01
  6
CONTINUOUS
 62
     7
 10
2266.793733
 20
-1083.488934
 30
0.0
  0
VERTEX
  5
657
  8
LAYER01
  6
CONTINUOUS
 62
     7
 10
2264.8112620000002
 20
-1090.427584
 30
0.0
  0
VERTEX
  5
658
  8
LAYER01
  6
CONTINUOUS
 62
     7
 10
2263.8200260000008
 20
-1097.3662340000001
 30
0.0
  0
VERTEX
  5
659
  8
LAYER01
  6
CONTINUOUS
 62
     7
 10
2262.82879
 20
-1104.3048839999999
 30
0.0
  0
VERTEX
  5
65A
  8
LAYER01
  6
CONTINUOUS
 62
     7
 10
2261.8375550000001
 20
-1112.2347689999999
 30
0.0
  0
VERTEX
  5
65B
  8
LAYER01
  6
CONTINUOUS
 62
     7
 10
2261.8375550000001
 20
-1112.2347689999999
 30
0.0
  0
VERTEX
  5
65C
  8
LAYER01
  6
CONTINUOUS
 62
     7
 10
2262.82879
 20
-1119.173419
 30
0.0
  0
VERTEX
  5
65D
  8
LAYER01
  6
CONTINUOUS
 62
     7
 10
2263.8200260000008
 20
-1126.112069
 30
0.0
  0
VERTEX
  5
65E
  8
LAYER01
  6
CONTINUOUS
 62
     7
 10
2264.8112620000002
 20
-1133.0507190000001
 30
0.0
  0
VERTEX
  5
65F
  8
LAYER01
  6
CONTINUOUS
 62
     7
 10
2267.7849689999998
 20
-1138.9981330000001
 30
0.0
  0
VERTEX
  5
660
  8
LAYER01
  6
CONTINUOUS
 62
     7
 10
2269.7674400000001
 20
-1144.945547
 30
0.0
  0
VERTEX
  5
661
  8
LAYER01
  6
CONTINUOUS
 62
     7
 10
2273.732383
 20
-1150.892961
 30
0.0
  0
VERTEX
  5
662
  8
LAYER01
  6
CONTINUOUS
 62
     7
 10
2277.697326
 20
-1156.840375
 30
0.0
  0
VERTEX
  5
663
  8
LAYER01
  6
CONTINUOUS
 62
     7
 10
2281.662268
 20
-1161.796554
 30
0.0
  0
VERTEX
  5
664
  8
LAYER01
  6
CONTINUOUS
 62
     7
 10
2286.6184469999998
 20
-1166.7527319999999
 30
0.0
  0
VERTEX
  5
665
  8
LAYER01
  6
CONTINUOUS
 62
     7
 10
2291.5746250000002
 20
-1170.7176750000001
 30
0.0
  0
VERTEX
  5
666
  8
LAYER01
  6
CONTINUOUS
 62
     7
 10
2297.5220389999999
 20
-1173.691382
 30
0.0
  0
VERTEX
  5
667
  8
LAYER01
  6
CONTINUOUS
 62
     7
 10
2303.4694530000002
 20
-1176.6650890000001
 30
0.0
  0
VERTEX
  5
668
  8
LAYER01
  6
CONTINUOUS
 62
     7
 10
2310.4081030000002
 20
-1179.638796
 30
0.0
  0
VERTEX
  5
669
  8
LAYER01
  6
CONTINUOUS
 62
     7
 10
2316.355517
 20
-1181.6212680000001
 30
0.0
  0
VERTEX
  5
66A
  8
LAYER01
  6
CONTINUOUS
 62
     7
 10
2323.294167
 20
-1182.6125030000001
 30
0.0
  0
VERTEX
  5
66B
  8
LAYER01
  6
CONTINUOUS
 62
     7
 10
2331.2240529999999
 20
-1182.6125030000001
 30
0.0
  0
VERTEX
  5
66C
  8
LAYER01
  6
CONTINUOUS
 62
     7
 10
2331.2240529999999
 20
-1182.6125030000001
 30
0.0
  0
VERTEX
  5
66D
  8
LAYER01
  6
CONTINUOUS
 62
     7
 10
2342.127645
 20
-1181.6212680000001
 30
0.0
  0
VERTEX
  5
66E
  8
LAYER01
  6
CONTINUOUS
 62
     7
 10
2351.0487659999999
 20
-1179.638796
 30
0.0
  0
VERTEX
  5
66F
  8
LAYER01
  6
CONTINUOUS
 62
     7
 10
2359.9698880000001
 20
-1174.682618
 30
0.0
  0
VERTEX
  5
670
  8
LAYER01
  6
CONTINUOUS
 62
     7
 10
2368.8910089999999
 20
-1168.7352040000001
 30
0.0
  0
VERTEX
  5
671
  8
LAYER01
  6
CONTINUOUS
 62
     7
 10
2394.663137
 20
-1203.428453
 30
0.0
  0
VERTEX
  5
672
  8
LAYER01
  6
CONTINUOUS
 62
     7
 10
2394.663137
 20
-1203.428453
 30
0.0
  0
VERTEX
  5
673
  8
LAYER01
  6
CONTINUOUS
 62
     7
 10
2379.7946010000001
 20
-1212.3495740000001
 30
0.0
  0
VERTEX
  5
674
  8
LAYER01
  6
CONTINUOUS
 62
     7
 10
2371.864716
 20
-1215.323281
 30
0.0
  0
VERTEX
  5
675
  8
LAYER01
  6
CONTINUOUS
 62
     7
 10
2364.926066
 20
-1218.2969880000001
 30
0.0
  0
VERTEX
  5
676
  8
LAYER01
  6
CONTINUOUS
 62
     7
 10
2356.996181
 20
-1220.2794590000001
 30
0.0
  0
VERTEX
  5
677
  8
LAYER01
  6
CONTINUOUS
 62
     7
 10
2349.0662950000001
 20
-1221.2706949999999
 30
0.0
  0
VERTEX
  5
678
  8
LAYER01
  6
CONTINUOUS
 62
     7
 10
2331.2240529999999
 20
-1222.261931
 30
0.0
  0
VERTEX
  5
679
  8
LAYER01
  6
CONTINUOUS
 62
     7
 10
2331.2240529999999
 20
-1222.261931
 30
0.0
  0
VERTEX
  5
67A
  8
LAYER01
  6
CONTINUOUS
 62
     7
 10
2319.3292240000001
 20
-1221.2706949999999
 30
0.0
  0
VERTEX
  5
67B
  8
LAYER01
  6
CONTINUOUS
 62
     7
 10
2308.425632
 20
-1219.2882239999999
 30
0.0
  0
VERTEX
  5
67C
  8
LAYER01
  6
CONTINUOUS
 62
     7
 10
2297.5220389999999
 20
-1217.305752
 30
0.0
  0
VERTEX
  5
67D
  8
LAYER01
  6
CONTINUOUS
 62
     7
 10
2287.6096820000012
 20
-1213.3408099999999
 30
0.0
  0
VERTEX
  5
67E
  8
LAYER01
  6
CONTINUOUS
 62
     7
 10
2277.697326
 20
-1208.3846309999999
 30
0.0
  0
VERTEX
  5
67F
  8
LAYER01
  6
CONTINUOUS
 62
     7
 10
2268.7762039999998
 20
-1203.428453
 30
0.0
  0
VERTEX
  5
680
  8
LAYER01
  6
CONTINUOUS
 62
     7
 10
2259.8550829999999
 20
-1196.4898029999999
 30
0.0
  0
VERTEX
  5
681
  8
LAYER01
  6
CONTINUOUS
 62
     7
 10
2251.9251979999999
 20
-1189.5511530000001
 30
0.0
  0
VERTEX
  5
682
  8
LAYER01
  6
CONTINUOUS
 62
     7
 10
2243.995312
 20
-1181.6212680000001
 30
0.0
  0
VERTEX
  5
683
  8
LAYER01
  6
CONTINUOUS
 62
     7
 10
2238.0478979999998
 20
-1172.7001459999999
 30
0.0
  0
VERTEX
  5
684
  8
LAYER01
  6
CONTINUOUS
 62
     7
 10
2232.1004840000001
 20
-1163.779025
 30
0.0
  0
VERTEX
  5
685
  8
LAYER01
  6
CONTINUOUS
 62
     7
 10
2227.1443049999998
 20
-1153.8666679999999
 30
0.0
  0
VERTEX
  5
686
  8
LAYER01
  6
CONTINUOUS
 62
     7
 10
2224.1705980000002
 20
-1143.954311
 30
0.0
  0
VERTEX
  5
687
  8
LAYER01
  6
CONTINUOUS
 62
     7
 10
2221.1968910000001
 20
-1133.0507190000001
 30
0.0
  0
VERTEX
  5
688
  8
LAYER01
  6
CONTINUOUS
 62
     7
 10
2219.2144199999998
 20
-1122.1471260000001
 30
0.0
  0
VERTEX
  5
689
  8
LAYER01
  6
CONTINUOUS
 62
     7
 10
2218.2231839999999
 20
-1110.2522980000001
 30
0.0
  0
VERTEX
  5
68A
  8
LAYER01
  6
CONTINUOUS
 62
     7
 10
2218.2231839999999
 20
-1110.2522980000001
 30
0.0
  0
VERTEX
  5
68B
  8
LAYER01
  6
CONTINUOUS
 62
     7
 10
2219.2144199999998
 20
-1099.3487050000001
 30
0.0
  0
VERTEX
  5
68C
  8
LAYER01
  6
CONTINUOUS
 62
     7
 10
2221.1968910000001
 20
-1087.4538769999999
 30
0.0
  0
VERTEX
  5
68D
  8
LAYER01
  6
CONTINUOUS
 62
     7
 10
2223.1793630000002
 20
-1077.54152
 30
0.0
  0
VERTEX
  5
68E
  8
LAYER01
  6
CONTINUOUS
 62
     7
 10
2227.1443049999998
 20
-1066.6379280000001
 30
0.0
  0
VERTEX
  5
68F
  8
LAYER01
  6
CONTINUOUS
 62
     7
 10
2232.1004840000001
 20
-1056.7255709999999
 30
0.0
  0
VERTEX
  5
690
  8
LAYER01
  6
CONTINUOUS
 62
     7
 10
2237.056662
 20
-1047.8044500000001
 30
0.0
  0
VERTEX
  5
691
  8
LAYER01
  6
CONTINUOUS
 62
     7
 10
2243.995312
 20
-1038.883329
 30
0.0
  0
VERTEX
  5
692
  8
LAYER01
  6
CONTINUOUS
 62
     7
 10
2250.9339620000001
 20
-1030.9534430000001
 30
0.0
  0
VERTEX
  5
693
  8
LAYER01
  6
CONTINUOUS
 62
     7
 10
2258.8638470000001
 20
-1024.0147930000001
 30
0.0
  0
VERTEX
  5
694
  8
LAYER01
  6
CONTINUOUS
 62
     7
 10
2267.7849689999998
 20
-1017.076143
 30
0.0
  0
VERTEX
  5
695
  8
LAYER01
  6
CONTINUOUS
 62
     7
 10
2276.7060900000001
 20
-1012.119965
 30
0.0
  0
VERTEX
  5
696
  8
LAYER01
  6
CONTINUOUS
 62
     7
 10
2286.6184469999998
 20
-1007.163787
 30
0.0
  0
VERTEX
  5
697
  8
LAYER01
  6
CONTINUOUS
 62
     7
 10
2296.530804
 20
-1003.198844
 30
0.0
  0
VERTEX
  5
698
  8
LAYER01
  6
CONTINUOUS
 62
     7
 10
2307.4343960000001
 20
-1000.225137
 30
0.0
  0
VERTEX
  5
699
  8
LAYER01
  6
CONTINUOUS
 62
     7
 10
2319.3292240000001
 20
-999.23390099999995
 30
0.0
  0
VERTEX
  5
69A
  8
LAYER01
  6
CONTINUOUS
 62
     7
 10
2330.2328170000001
 20
-998.24266499999999
 30
0.0
  0
VERTEX
  5
69B
  8
LAYER01
  6
CONTINUOUS
 62
     7
 10
2330.2328170000001
 20
-998.24266499999999
 30
0.0
  0
VERTEX
  5
69C
  8
LAYER01
  6
CONTINUOUS
 62
     7
 10
2348.0750589999998
 20
-999.23390099999995
 30
0.0
  0
VERTEX
  5
69D
  8
LAYER01
  6
CONTINUOUS
 62
     7
 10
2356.996181
 20
-1000.225137
 30
0.0
  0
VERTEX
  5
69E
  8
LAYER01
  6
CONTINUOUS
 62
     7
 10
2364.926066
 20
-1002.2076080000001
 30
0.0
  0
VERTEX
  5
69F
  8
LAYER01
  6
CONTINUOUS
 62
     7
 10
2371.864716
 20
-1005.181315
 30
0.0
  0
VERTEX
  5
6A0
  8
LAYER01
  6
CONTINUOUS
 62
     7
 10
2379.7946010000001
 20
-1008.155022
 30
0.0
  0
VERTEX
  5
6A1
  8
LAYER01
  6
CONTINUOUS
 62
     7
 10
2387.724487
 20
-1013.1112010000001
 30
0.0
  0
VERTEX
  5
6A2
  8
LAYER01
  6
CONTINUOUS
 62
     7
 10
2395.654372
 20
-1018.067379
 30
0.0
  0
VERTEX
  5
6A3
  8
LAYER01
  6
CONTINUOUS
 62
     7
 10
2395.654372
 20
-1018.067379
 30
0.0
  0
SEQEND
  5
6A4
  8
LAYER01
  6
CONTINUOUS
 62
     7
  0
POLYLINE
  5
201
  8
LAYER01
  6
CONTINUOUS
 62
     7
 66
     1
 10
0.0
 20
0.0
 30
0.0
 70
     1
  0
VERTEX
  5
6A5
  8
LAYER01
  6
CONTINUOUS
 62
     7
 10
2491.8042340000002
 20
-999.23390099999995
 30
0.0
  0
VERTEX
  5
6A6
  8
LAYER01
  6
CONTINUOUS
 62
     7
 10
2491.8042340000002
 20
-999.23390099999995
 30
0.0
  0
VERTEX
  5
6A7
  8
LAYER01
  6
CONTINUOUS
 62
     7
 10
2480.9006410000002
 20
-1000.225137
 30
0.0
  0
VERTEX
  5
6A8
  8
LAYER01
  6
CONTINUOUS
 62
     7
 10
2469.0058130000002
 20
-1001.216372
 30
0.0
  0
VERTEX
  5
6A9
  8
LAYER01
  6
CONTINUOUS
 62
     7
 10
2459.0934560000001
 20
-1004.190079
 30
0.0
  0
VERTEX
  5
6AA
  8
LAYER01
  6
CONTINUOUS
 62
     7
 10
2448.1898639999999
 20
-1008.155022
 30
0.0
  0
VERTEX
  5
6AB
  8
LAYER01
  6
CONTINUOUS
 62
     7
 10
2438.2775069999998
 20
-1012.119965
 30
0.0
  0
VERTEX
  5
6AC
  8
LAYER01
  6
CONTINUOUS
 62
     7
 10
2429.3563859999999
 20
-1018.067379
 30
0.0
  0
VERTEX
  5
6AD
  8
LAYER01
  6
CONTINUOUS
 62
     7
 10
2420.4352650000001
 20
-1024.0147930000001
 30
0.0
  0
VERTEX
  5
6AE
  8
LAYER01
  6
CONTINUOUS
 62
     7
 10
2412.5053790000002
 20
-1031.944679
 30
0.0
  0
VERTEX
  5
6AF
  8
LAYER01
  6
CONTINUOUS
 62
     7
 10
2405.5667290000001
 20
-1039.874564
 30
0.0
  0
VERTEX
  5
6B0
  8
LAYER01
  6
CONTINUOUS
 62
     7
 10
2398.6280790000001
 20
-1047.8044500000001
 30
0.0
  0
VERTEX
  5
6B1
  8
LAYER01
  6
CONTINUOUS
 62
     7
 10
2392.6806649999999
 20
-1056.7255709999999
 30
0.0
  0
VERTEX
  5
6B2
  8
LAYER01
  6
CONTINUOUS
 62
     7
 10
2387.724487
 20
-1066.6379280000001
 30
0.0
  0
VERTEX
  5
6B3
  8
LAYER01
  6
CONTINUOUS
 62
     7
 10
2384.7507799999998
 20
-1077.54152
 30
0.0
  0
VERTEX
  5
6B4
  8
LAYER01
  6
CONTINUOUS
 62
     7
 10
2381.7770730000002
 20
-1087.4538769999999
 30
0.0
  0
VERTEX
  5
6B5
  8
LAYER01
  6
CONTINUOUS
 62
     7
 10
2379.7946010000001
 20
-1099.3487050000001
 30
0.0
  0
VERTEX
  5
6B6
  8
LAYER01
  6
CONTINUOUS
 62
     7
 10
2378.8033660000001
 20
-1110.2522980000001
 30
0.0
  0
VERTEX
  5
6B7
  8
LAYER01
  6
CONTINUOUS
 62
     7
 10
2378.8033660000001
 20
-1110.2522980000001
 30
0.0
  0
VERTEX
  5
6B8
  8
LAYER01
  6
CONTINUOUS
 62
     7
 10
2379.7946010000001
 20
-1122.1471260000001
 30
0.0
  0
VERTEX
  5
6B9
  8
LAYER01
  6
CONTINUOUS
 62
     7
 10
2380.7858369999999
 20
-1133.0507190000001
 30
0.0
  0
VERTEX
  5
6BA
  8
LAYER01
  6
CONTINUOUS
 62
     7
 10
2383.759544
 20
-1143.954311
 30
0.0
  0
VERTEX
  5
6BB
  8
LAYER01
  6
CONTINUOUS
 62
     7
 10
2387.724487
 20
-1153.8666679999999
 30
0.0
  0
VERTEX
  5
6BC
  8
LAYER01
  6
CONTINUOUS
 62
     7
 10
2391.6894299999999
 20
-1163.779025
 30
0.0
  0
VERTEX
  5
6BD
  8
LAYER01
  6
CONTINUOUS
 62
     7
 10
2397.6368440000001
 20
-1172.7001459999999
 30
0.0
  0
VERTEX
  5
6BE
  8
LAYER01
  6
CONTINUOUS
 62
     7
 10
2403.5842579999999
 20
-1181.6212680000001
 30
0.0
  0
VERTEX
  5
6BF
  8
LAYER01
  6
CONTINUOUS
 62
     7
 10
2410.5229079999999
 20
-1189.5511530000001
 30
0.0
  0
VERTEX
  5
6C0
  8
LAYER01
  6
CONTINUOUS
 62
     7
 10
2418.4527929999999
 20
-1197.481039
 30
0.0
  0
VERTEX
  5
6C1
  8
LAYER01
  6
CONTINUOUS
 62
     7
 10
2427.3739139999998
 20
-1203.428453
 30
0.0
  0
VERTEX
  5
6C2
  8
LAYER01
  6
CONTINUOUS
 62
     7
 10
2436.295036
 20
-1209.375867
 30
0.0
  0
VERTEX
  5
6C3
  8
LAYER01
  6
CONTINUOUS
 62
     7
 10
2446.2073919999998
 20
-1214.3320450000001
 30
0.0
  0
VERTEX
  5
6C4
  8
LAYER01
  6
CONTINUOUS
 62
     7
 10
2456.119749
 20
-1218.2969880000001
 30
0.0
  0
VERTEX
  5
6C5
  8
LAYER01
  6
CONTINUOUS
 62
     7
 10
2467.023342
 20
-1220.2794590000001
 30
0.0
  0
VERTEX
  5
6C6
  8
LAYER01
  6
CONTINUOUS
 62
     7
 10
2477.9269340000001
 20
-1222.261931
 30
0.0
  0
VERTEX
  5
6C7
  8
LAYER01
  6
CONTINUOUS
 62
     7
 10
2488.8305270000001
 20
-1223.253166
 30
0.0
  0
VERTEX
  5
6C8
  8
LAYER01
  6
CONTINUOUS
 62
     7
 10
2488.8305270000001
 20
-1223.253166
 30
0.0
  0
VERTEX
  5
6C9
  8
LAYER01
  6
CONTINUOUS
 62
     7
 10
2500.725355
 20
-1222.261931
 30
0.0
  0
VERTEX
  5
6CA
  8
LAYER01
  6
CONTINUOUS
 62
     7
 10
2511.628948
 20
-1220.2794590000001
 30
0.0
  0
VERTEX
  5
6CB
  8
LAYER01
  6
CONTINUOUS
 62
     7
 10
2522.5325400000002
 20
-1217.305752
 30
0.0
  0
VERTEX
  5
6CC
  8
LAYER01
  6
CONTINUOUS
 62
     7
 10
2532.4448969999999
 20
-1213.3408099999999
 30
0.0
  0
VERTEX
  5
6CD
  8
LAYER01
  6
CONTINUOUS
 62
     7
 10
2542.3572540000009
 20
-1208.3846309999999
 30
0.0
  0
VERTEX
  5
6CE
  8
LAYER01
  6
CONTINUOUS
 62
     7
 10
2551.2783749999999
 20
-1202.4372169999999
 30
0.0
  0
VERTEX
  5
6CF
  8
LAYER01
  6
CONTINUOUS
 62
     7
 10
2560.1994960000002
 20
-1196.4898029999999
 30
0.0
  0
VERTEX
  5
6D0
  8
LAYER01
  6
CONTINUOUS
 62
     7
 10
2568.1293820000001
 20
-1188.559917
 30
0.0
  0
VERTEX
  5
6D1
  8
LAYER01
  6
CONTINUOUS
 62
     7
 10
2575.0680320000001
 20
-1180.630032
 30
0.0
  0
VERTEX
  5
6D2
  8
LAYER01
  6
CONTINUOUS
 62
     7
 10
2581.0154459999999
 20
-1171.7089109999999
 30
0.0
  0
VERTEX
  5
6D3
  8
LAYER01
  6
CONTINUOUS
 62
     7
 10
2585.9716239999998
 20
-1162.787789
 30
0.0
  0
VERTEX
  5
6D4
  8
LAYER01
  6
CONTINUOUS
 62
     7
 10
2590.927803
 20
-1152.8754329999999
 30
0.0
  0
VERTEX
  5
6D5
  8
LAYER01
  6
CONTINUOUS
 62
     7
 10
2594.8927450000001
 20
-1141.9718399999999
 30
0.0
  0
VERTEX
  5
6D6
  8
LAYER01
  6
CONTINUOUS
 62
     7
 10
2596.8752169999998
 20
-1131.0682469999999
 30
0.0
  0
VERTEX
  5
6D7
  8
LAYER01
  6
CONTINUOUS
 62
     7
 10
2597.8664530000001
 20
-1120.164655
 30
0.0
  0
VERTEX
  5
6D8
  8
LAYER01
  6
CONTINUOUS
 62
     7
 10
2598.8576880000001
 20
-1108.2698269999989
 30
0.0
  0
VERTEX
  5
6D9
  8
LAYER01
  6
CONTINUOUS
 62
     7
 10
2598.8576880000001
 20
-1108.2698269999989
 30
0.0
  0
VERTEX
  5
6DA
  8
LAYER01
  6
CONTINUOUS
 62
     7
 10
2597.8664530000001
 20
-1097.3662340000001
 30
0.0
  0
VERTEX
  5
6DB
  8
LAYER01
  6
CONTINUOUS
 62
     7
 10
2595.8839809999999
 20
-1086.462642
 30
0.0
  0
VERTEX
  5
6DC
  8
LAYER01
  6
CONTINUOUS
 62
     7
 10
2592.9102739999998
 20
-1076.550285
 30
0.0
  0
VERTEX
  5
6DD
  8
LAYER01
  6
CONTINUOUS
 62
     7
 10
2589.9365670000002
 20
-1066.6379280000001
 30
0.0
  0
VERTEX
  5
6DE
  8
LAYER01
  6
CONTINUOUS
 62
     7
 10
2584.9803889999998
 20
-1057.716807
 30
0.0
  0
VERTEX
  5
6DF
  8
LAYER01
  6
CONTINUOUS
 62
     7
 10
2580.02421
 20
-1048.795685
 30
0.0
  0
VERTEX
  5
6E0
  8
LAYER01
  6
CONTINUOUS
 62
     7
 10
2574.0767959999998
 20
-1039.874564
 30
0.0
  0
VERTEX
  5
6E1
  8
LAYER01
  6
CONTINUOUS
 62
     7
 10
2567.1381459999998
 20
-1032.9359139999999
 30
0.0
  0
VERTEX
  5
6E2
  8
LAYER01
  6
CONTINUOUS
 62
     7
 10
2559.2082610000002
 20
-1025.997265
 30
0.0
  0
VERTEX
  5
6E3
  8
LAYER01
  6
CONTINUOUS
 62
     7
 10
2551.2783749999999
 20
-1019.058615
 30
0.0
  0
VERTEX
  5
6E4
  8
LAYER01
  6
CONTINUOUS
 62
     7
 10
2542.3572540000009
 20
-1014.102436
 30
0.0
  0
VERTEX
  5
6E5
  8
LAYER01
  6
CONTINUOUS
 62
     7
 10
2533.4361330000002
 20
-1009.146258
 30
0.0
  0
VERTEX
  5
6E6
  8
LAYER01
  6
CONTINUOUS
 62
     7
 10
2523.523776
 20
-1005.181315
 30
0.0
  0
VERTEX
  5
6E7
  8
LAYER01
  6
CONTINUOUS
 62
     7
 10
2513.6114189999998
 20
-1002.2076080000001
 30
0.0
  0
VERTEX
  5
6E8
  8
LAYER01
  6
CONTINUOUS
 62
     7
 10
2502.7078270000002
 20
-1000.225137
 30
0.0
  0
VERTEX
  5
6E9
  8
LAYER01
  6
CONTINUOUS
 62
     7
 10
2491.8042340000002
 20
-999.23390099999995
 30
0.0
  0
VERTEX
  5
6EA
  8
LAYER01
  6
CONTINUOUS
 62
     7
 10
2491.8042340000002
 20
-999.23390099999995
 30
0.0
  0
SEQEND
  5
6EB
  8
LAYER01
  6
CONTINUOUS
 62
     7
  0
POLYLINE
  5
249
  8
LAYER01
  6
CONTINUOUS
 62
     7
 66
     1
 10
0.0
 20
0.0
 30
0.0
 70
     1
  0
VERTEX
  5
6EC
  8
LAYER01
  6
CONTINUOUS
 62
     7
 10
2488.8305270000001
 20
-1182.6125030000001
 30
0.0
  0
VERTEX
  5
6ED
  8
LAYER01
  6
CONTINUOUS
 62
     7
 10
2488.8305270000001
 20
-1182.6125030000001
 30
0.0
  0
VERTEX
  5
6EE
  8
LAYER01
  6
CONTINUOUS
 62
     7
 10
2481.891877
 20
-1181.6212680000001
 30
0.0
  0
VERTEX
  5
6EF
  8
LAYER01
  6
CONTINUOUS
 62
     7
 10
2474.953227
 20
-1180.630032
 30
0.0
  0
VERTEX
  5
6F0
  8
LAYER01
  6
CONTINUOUS
 62
     7
 10
2468.0145769999999
 20
-1179.638796
 30
0.0
  0
VERTEX
  5
6F1
  8
LAYER01
  6
CONTINUOUS
 62
     7
 10
2461.0759280000002
 20
-1176.6650890000001
 30
0.0
  0
VERTEX
  5
6F2
  8
LAYER01
  6
CONTINUOUS
 62
     7
 10
2455.128514
 20
-1173.691382
 30
0.0
  0
VERTEX
  5
6F3
  8
LAYER01
  6
CONTINUOUS
 62
     7
 10
2449.1810989999999
 20
-1169.726439
 30
0.0
  0
VERTEX
  5
6F4
  8
LAYER01
  6
CONTINUOUS
 62
     7
 10
2444.224921
 20
-1165.761497
 30
0.0
  0
VERTEX
  5
6F5
  8
LAYER01
  6
CONTINUOUS
 62
     7
 10
2439.2687430000001
 20
-1160.8053179999999
 30
0.0
  0
VERTEX
  5
6F6
  8
LAYER01
  6
CONTINUOUS
 62
     7
 10
2434.3125639999998
 20
-1155.84914
 30
0.0
  0
VERTEX
  5
6F7
  8
LAYER01
  6
CONTINUOUS
 62
     7
 10
2430.3476209999999
 20
-1150.892961
 30
0.0
  0
VERTEX
  5
6F8
  8
LAYER01
  6
CONTINUOUS
 62
     7
 10
2427.3739139999998
 20
-1144.945547
 30
0.0
  0
VERTEX
  5
6F9
  8
LAYER01
  6
CONTINUOUS
 62
     7
 10
2424.4002070000001
 20
-1138.006897
 30
0.0
  0
VERTEX
  5
6FA
  8
LAYER01
  6
CONTINUOUS
 62
     7
 10
2421.4265
 20
-1132.059483
 30
0.0
  0
VERTEX
  5
6FB
  8
LAYER01
  6
CONTINUOUS
 62
     7
 10
2420.4352650000001
 20
-1125.1208329999999
 30
0.0
  0
VERTEX
  5
6FC
  8
LAYER01
  6
CONTINUOUS
 62
     7
 10
2418.4527929999999
 20
-1118.182184
 30
0.0
  0
VERTEX
  5
6FD
  8
LAYER01
  6
CONTINUOUS
 62
     7
 10
2418.4527929999999
 20
-1110.2522980000001
 30
0.0
  0
VERTEX
  5
6FE
  8
LAYER01
  6
CONTINUOUS
 62
     7
 10
2418.4527929999999
 20
-1110.2522980000001
 30
0.0
  0
VERTEX
  5
6FF
  8
LAYER01
  6
CONTINUOUS
 62
     7
 10
2419.4440289999998
 20
-1103.3136480000001
 30
0.0
  0
VERTEX
  5
700
  8
LAYER01
  6
CONTINUOUS
 62
     7
 10
2420.4352650000001
 20
-1096.374998
 30
0.0
  0
VERTEX
  5
701
  8
LAYER01
  6
CONTINUOUS
 62
     7
 10
2422.4177359999999
 20
-1089.4363490000001
 30
0.0
  0
VERTEX
  5
702
  8
LAYER01
  6
CONTINUOUS
 62
     7
 10
2424.4002070000001
 20
-1082.497699
 30
0.0
  0
VERTEX
  5
703
  8
LAYER01
  6
CONTINUOUS
 62
     7
 10
2427.3739139999998
 20
-1076.550285
 30
0.0
  0
VERTEX
  5
704
  8
LAYER01
  6
CONTINUOUS
 62
     7
 10
2431.3388570000002
 20
-1070.6028710000001
 30
0.0
  0
VERTEX
  5
705
  8
LAYER01
  6
CONTINUOUS
 62
     7
 10
2435.3038000000001
 20
-1065.646692
 30
0.0
  0
VERTEX
  5
706
  8
LAYER01
  6
CONTINUOUS
 62
     7
 10
2440.259978
 20
-1060.6905139999999
 30
0.0
  0
VERTEX
  5
707
  8
LAYER01
  6
CONTINUOUS
 62
     7
 10
2445.2161569999998
 20
-1055.7343350000001
 30
0.0
  0
VERTEX
  5
708
  8
LAYER01
  6
CONTINUOUS
 62
     7
 10
2450.1723350000002
 20
-1051.7693919999999
 30
0.0
  0
VERTEX
  5
709
  8
LAYER01
  6
CONTINUOUS
 62
     7
 10
2456.119749
 20
-1047.8044500000001
 30
0.0
  0
VERTEX
  5
70A
  8
LAYER01
  6
CONTINUOUS
 62
     7
 10
2463.058399
 20
-1044.830743
 30
0.0
  0
VERTEX
  5
70B
  8
LAYER01
  6
CONTINUOUS
 62
     7
 10
2469.0058130000002
 20
-1042.8482710000001
 30
0.0
  0
VERTEX
  5
70C
  8
LAYER01
  6
CONTINUOUS
 62
     7
 10
2475.9444629999998
 20
-1040.8658
 30
0.0
  0
VERTEX
  5
70D
  8
LAYER01
  6
CONTINUOUS
 62
     7
 10
2482.8831129999999
 20
-1039.874564
 30
0.0
  0
VERTEX
  5
70E
  8
LAYER01
  6
CONTINUOUS
 62
     7
 10
2490.8129979999999
 20
-1039.874564
 30
0.0
  0
VERTEX
  5
70F
  8
LAYER01
  6
CONTINUOUS
 62
     7
 10
2490.8129979999999
 20
-1039.874564
 30
0.0
  0
VERTEX
  5
710
  8
LAYER01
  6
CONTINUOUS
 62
     7
 10
2497.7516479999999
 20
-1040.8658
 30
0.0
  0
VERTEX
  5
711
  8
LAYER01
  6
CONTINUOUS
 62
     7
 10
2504.690298
 20
-1041.8570360000001
 30
0.0
  0
VERTEX
  5
712
  8
LAYER01
  6
CONTINUOUS
 62
     7
 10
2510.6377120000002
 20
-1043.8395069999999
 30
0.0
  0
VERTEX
  5
713
  8
LAYER01
  6
CONTINUOUS
 62
     7
 10
2517.5763619999998
 20
-1045.8219779999999
 30
0.0
  0
VERTEX
  5
714
  8
LAYER01
  6
CONTINUOUS
 62
     7
 10
2522.5325400000002
 20
-1048.795685
 30
0.0
  0
VERTEX
  5
715
  8
LAYER01
  6
CONTINUOUS
 62
     7
 10
2528.4799539999999
 20
-1052.760628
 30
0.0
  0
VERTEX
  5
716
  8
LAYER01
  6
CONTINUOUS
 62
     7
 10
2533.4361330000002
 20
-1056.7255709999999
 30
0.0
  0
VERTEX
  5
717
  8
LAYER01
  6
CONTINUOUS
 62
     7
 10
2538.3923110000001
 20
-1060.6905139999999
 30
0.0
  0
VERTEX
  5
718
  8
LAYER01
  6
CONTINUOUS
 62
     7
 10
2542.3572540000009
 20
-1065.646692
 30
0.0
  0
VERTEX
  5
719
  8
LAYER01
  6
CONTINUOUS
 62
     7
 10
2546.322197
 20
-1071.594106
 30
0.0
  0
VERTEX
  5
71A
  8
LAYER01
  6
CONTINUOUS
 62
     7
 10
2550.2871399999999
 20
-1076.550285
 30
0.0
  0
VERTEX
  5
71B
  8
LAYER01
  6
CONTINUOUS
 62
     7
 10
2553.260847
 20
-1082.497699
 30
0.0
  0
VERTEX
  5
71C
  8
LAYER01
  6
CONTINUOUS
 62
     7
 10
2555.2433179999998
 20
-1089.4363490000001
 30
0.0
  0
VERTEX
  5
71D
  8
LAYER01
  6
CONTINUOUS
 62
     7
 10
2557.2257890000001
 20
-1095.383763
 30
0.0
  0
VERTEX
  5
71E
  8
LAYER01
  6
CONTINUOUS
 62
     7
 10
2558.2170249999999
 20
-1102.3224130000001
 30
0.0
  0
VERTEX
  5
71F
  8
LAYER01
  6
CONTINUOUS
 62
     7
 10
2558.2170249999999
 20
-1109.261062
 30
0.0
  0
VERTEX
  5
720
  8
LAYER01
  6
CONTINUOUS
 62
     7
 10
2558.2170249999999
 20
-1109.261062
 30
0.0
  0
VERTEX
  5
721
  8
LAYER01
  6
CONTINUOUS
 62
     7
 10
2558.2170249999999
 20
-1117.1909479999999
 30
0.0
  0
VERTEX
  5
722
  8
LAYER01
  6
CONTINUOUS
 62
     7
 10
2557.2257890000001
 20
-1124.129598
 30
0.0
  0
VERTEX
  5
723
  8
LAYER01
  6
CONTINUOUS
 62
     7
 10
2556.2345540000001
 20
-1131.0682469999999
 30
0.0
  0
VERTEX
  5
724
  8
LAYER01
  6
CONTINUOUS
 62
     7
 10
2553.260847
 20
-1137.015662
 30
0.0
  0
VERTEX
  5
725
  8
LAYER01
  6
CONTINUOUS
 62
     7
 10
2551.2783749999999
 20
-1143.954311
 30
0.0
  0
VERTEX
  5
726
  8
LAYER01
  6
CONTINUOUS
 62
     7
 10
2547.3134319999999
 20
-1149.9017260000001
 30
0.0
  0
VERTEX
  5
727
  8
LAYER01
  6
CONTINUOUS
 62
     7
 10
2543.3484899999999
 20
-1155.84914
 30
0.0
  0
VERTEX
  5
728
  8
LAYER01
  6
CONTINUOUS
 62
     7
 10
2538.3923110000001
 20
-1160.8053179999999
 30
0.0
  0
VERTEX
  5
729
  8
LAYER01
  6
CONTINUOUS
 62
     7
 10
2533.4361330000002
 20
-1165.761497
 30
0.0
  0
VERTEX
  5
72A
  8
LAYER01
  6
CONTINUOUS
 62
     7
 10
2528.4799539999999
 20
-1169.726439
 30
0.0
  0
VERTEX
  5
72B
  8
LAYER01
  6
CONTINUOUS
 62
     7
 10
2522.5325400000002
 20
-1173.691382
 30
0.0
  0
VERTEX
  5
72C
  8
LAYER01
  6
CONTINUOUS
 62
     7
 10
2516.5851259999999
 20
-1176.6650890000001
 30
0.0
  0
VERTEX
  5
72D
  8
LAYER01
  6
CONTINUOUS
 62
     7
 10
2509.6464759999999
 20
-1178.6475600000001
 30
0.0
  0
VERTEX
  5
72E
  8
LAYER01
  6
CONTINUOUS
 62
     7
 10
2502.7078270000002
 20
-1180.630032
 30
0.0
  0
VERTEX
  5
72F
  8
LAYER01
  6
CONTINUOUS
 62
     7
 10
2495.7691770000001
 20
-1181.6212680000001
 30
0.0
  0
VERTEX
  5
730
  8
LAYER01
  6
CONTINUOUS
 62
     7
 10
2488.8305270000001
 20
-1182.6125030000001
 30
0.0
  0
VERTEX
  5
731
  8
LAYER01
  6
CONTINUOUS
 62
     7
 10
2488.8305270000001
 20
-1182.6125030000001
 30
0.0
  0
SEQEND
  5
732
  8
LAYER01
  6
CONTINUOUS
 62
     7
  0
POLYLINE
  5
291
  8
LAYER01
  6
CONTINUOUS
 62
     7
 66
     1
 10
0.0
 20
0.0
 30
0.0
 70
     1
  0
VERTEX
  5
733
  8
LAYER01
  6
CONTINUOUS
 62
     7
 10
2568.1293820000001
 20
-1004.190079
 30
0.0
  0
VERTEX
  5
734
  8
LAYER01
  6
CONTINUOUS
 62
     7
 10
2673.2003650000001
 20
-1004.190079
 30
0.0
  0
VERTEX
  5
735
  8
LAYER01
  6
CONTINUOUS
 62
     7
 10
2673.2003650000001
 20
-1004.190079
 30
0.0
  0
VERTEX
  5
736
  8
LAYER01
  6
CONTINUOUS
 62
     7
 10
2685.0951930000001
 20
-1006.172551
 30
0.0
  0
VERTEX
  5
737
  8
LAYER01
  6
CONTINUOUS
 62
     7
 10
2695.9987860000001
 20
-1011.128729
 30
0.0
  0
VERTEX
  5
738
  8
LAYER01
  6
CONTINUOUS
 62
     7
 10
2704.919907
 20
-1017.076143
 30
0.0
  0
VERTEX
  5
739
  8
LAYER01
  6
CONTINUOUS
 62
     7
 10
2712.849792
 20
-1025.0060289999999
 30
0.0
  0
VERTEX
  5
73A
  8
LAYER01
  6
CONTINUOUS
 62
     7
 10
2719.788442
 20
-1032.9359139999999
 30
0.0
  0
VERTEX
  5
73B
  8
LAYER01
  6
CONTINUOUS
 62
     7
 10
2724.7446210000012
 20
-1042.8482710000001
 30
0.0
  0
VERTEX
  5
73C
  8
LAYER01
  6
CONTINUOUS
 62
     7
 10
2727.7183279999999
 20
-1054.7430999999999
 30
0.0
  0
VERTEX
  5
73D
  8
LAYER01
  6
CONTINUOUS
 62
     7
 10
2728.7095629999999
 20
-1065.646692
 30
0.0
  0
VERTEX
  5
73E
  8
LAYER01
  6
CONTINUOUS
 62
     7
 10
2728.7095629999999
 20
-1065.646692
 30
0.0
  0
VERTEX
  5
73F
  8
LAYER01
  6
CONTINUOUS
 62
     7
 10
2727.7183279999999
 20
-1077.54152
 30
0.0
  0
VERTEX
  5
740
  8
LAYER01
  6
CONTINUOUS
 62
     7
 10
2725.7358559999998
 20
-1087.4538769999999
 30
0.0
  0
VERTEX
  5
741
  8
LAYER01
  6
CONTINUOUS
 62
     7
 10
2721.7709129999998
 20
-1097.3662340000001
 30
0.0
  0
VERTEX
  5
742
  8
LAYER01
  6
CONTINUOUS
 62
     7
 10
2716.8147349999999
 20
-1106.2873549999999
 30
0.0
  0
VERTEX
  5
743
  8
LAYER01
  6
CONTINUOUS
 62
     7
 10
2709.8760850000008
 20
-1114.2172410000001
 30
0.0
  0
VERTEX
  5
744
  8
LAYER01
  6
CONTINUOUS
 62
     7
 10
2702.9374350000012
 20
-1120.164655
 30
0.0
  0
VERTEX
  5
745
  8
LAYER01
  6
CONTINUOUS
 62
     7
 10
2693.025079
 20
-1126.112069
 30
0.0
  0
VERTEX
  5
746
  8
LAYER01
  6
CONTINUOUS
 62
     7
 10
2683.1127219999998
 20
-1130.077012
 30
0.0
  0
VERTEX
  5
747
  8
LAYER01
  6
CONTINUOUS
 62
     7
 10
2747.5430409999999
 20
-1216.314517
 30
0.0
  0
VERTEX
  5
748
  8
LAYER01
  6
CONTINUOUS
 62
     7
 10
2697.9812569999999
 20
-1216.314517
 30
0.0
  0
VERTEX
  5
749
  8
LAYER01
  6
CONTINUOUS
 62
     7
 10
2611.7437519999999
 20
-1106.2873549999999
 30
0.0
  0
VERTEX
  5
74A
  8
LAYER01
  6
CONTINUOUS
 62
     7
 10
2660.3143009999999
 20
-1106.2873549999999
 30
0.0
  0
VERTEX
  5
74B
  8
LAYER01
  6
CONTINUOUS
 62
     7
 10
2660.3143009999999
 20
-1106.2873549999999
 30
0.0
  0
VERTEX
  5
74C
  8
LAYER01
  6
CONTINUOUS
 62
     7
 10
2666.2617150000001
 20
-1104.3048839999999
 30
0.0
  0
VERTEX
  5
74D
  8
LAYER01
  6
CONTINUOUS
 62
     7
 10
2671.217893
 20
-1102.3224130000001
 30
0.0
  0
VERTEX
  5
74E
  8
LAYER01
  6
CONTINUOUS
 62
     7
 10
2675.182836
 20
-1098.3574699999999
 30
0.0
  0
VERTEX
  5
74F
  8
LAYER01
  6
CONTINUOUS
 62
     7
 10
2679.1477789999999
 20
-1094.392527
 30
0.0
  0
VERTEX
  5
750
  8
LAYER01
  6
CONTINUOUS
 62
     7
 10
2682.121486
 20
-1089.4363490000001
 30
0.0
  0
VERTEX
  5
751
  8
LAYER01
  6
CONTINUOUS
 62
     7
 10
2685.0951930000001
 20
-1084.4801699999989
 30
0.0
  0
VERTEX
  5
752
  8
LAYER01
  6
CONTINUOUS
 62
     7
 10
2686.086429
 20
-1078.5327560000001
 30
0.0
  0
VERTEX
  5
753
  8
LAYER01
  6
CONTINUOUS
 62
     7
 10
2686.086429
 20
-1072.5853420000001
 30
0.0
  0
VERTEX
  5
754
  8
LAYER01
  6
CONTINUOUS
 62
     7
 10
2686.086429
 20
-1072.5853420000001
 30
0.0
  0
VERTEX
  5
755
  8
LAYER01
  6
CONTINUOUS
 62
     7
 10
2686.086429
 20
-1066.6379280000001
 30
0.0
  0
VERTEX
  5
756
  8
LAYER01
  6
CONTINUOUS
 62
     7
 10
2684.1039569999998
 20
-1061.6817490000001
 30
0.0
  0
VERTEX
  5
757
  8
LAYER01
  6
CONTINUOUS
 62
     7
 10
2682.121486
 20
-1056.7255709999999
 30
0.0
  0
VERTEX
  5
758
  8
LAYER01
  6
CONTINUOUS
 62
     7
 10
2679.1477789999999
 20
-1051.7693919999999
 30
0.0
  0
VERTEX
  5
759
  8
LAYER01
  6
CONTINUOUS
 62
     7
 10
2675.182836
 20
-1047.8044500000001
 30
0.0
  0
VERTEX
  5
75A
  8
LAYER01
  6
CONTINUOUS
 62
     7
 10
2671.217893
 20
-1044.830743
 30
0.0
  0
VERTEX
  5
75B
  8
LAYER01
  6
CONTINUOUS
 62
     7
 10
2665.2704789999998
 20
-1041.8570360000001
 30
0.0
  0
VERTEX
  5
75C
  8
LAYER01
  6
CONTINUOUS
 62
     7
 10
2660.3143009999999
 20
-1039.874564
 30
0.0
  0
VERTEX
  5
75D
  8
LAYER01
  6
CONTINUOUS
 62
     7
 10
2603.8138669999998
 20
-1039.874564
 30
0.0
  0
VERTEX
  5
75E
  8
LAYER01
  6
CONTINUOUS
 62
     7
 10
2568.1293820000001
 20
-1004.190079
 30
0.0
  0
VERTEX
  5
75F
  8
LAYER01
  6
CONTINUOUS
 62
     7
 10
2568.1293820000001
 20
-1004.190079
 30
0.0
  0
SEQEND
  5
760
  8
LAYER01
  6
CONTINUOUS
 62
     7
  0
POLYLINE
  5
2C0
  8
LAYER01
  6
CONTINUOUS
 62
     7
 66
     1
 10
0.0
 20
0.0
 30
0.0
 70
     1
  0
VERTEX
  5
761
  8
LAYER01
  6
CONTINUOUS
 62
     7
 10
2774.3064050000012
 20
-1056.7255709999999
 30
0.0
  0
VERTEX
  5
762
  8
LAYER01
  6
CONTINUOUS
 62
     7
 10
2774.3064050000012
 20
-1056.7255709999999
 30
0.0
  0
VERTEX
  5
763
  8
LAYER01
  6
CONTINUOUS
 62
     7
 10
2779.2625830000002
 20
-1055.7343350000001
 30
0.0
  0
VERTEX
  5
764
  8
LAYER01
  6
CONTINUOUS
 62
     7
 10
2784.218762
 20
-1054.7430999999999
 30
0.0
  0
VERTEX
  5
765
  8
LAYER01
  6
CONTINUOUS
 62
     7
 10
2789.1749399999999
 20
-1051.7693919999999
 30
0.0
  0
VERTEX
  5
766
  8
LAYER01
  6
CONTINUOUS
 62
     7
 10
2793.1398829999998
 20
-1048.795685
 30
0.0
  0
VERTEX
  5
767
  8
LAYER01
  6
CONTINUOUS
 62
     7
 10
2796.1135899999999
 20
-1044.830743
 30
0.0
  0
VERTEX
  5
768
  8
LAYER01
  6
CONTINUOUS
 62
     7
 10
2798.0960610000002
 20
-1040.8658
 30
0.0
  0
VERTEX
  5
769
  8
LAYER01
  6
CONTINUOUS
 62
     7
 10
2800.0785329999999
 20
-1035.909621
 30
0.0
  0
VERTEX
  5
76A
  8
LAYER01
  6
CONTINUOUS
 62
     7
 10
2800.0785329999999
 20
-1029.962207
 30
0.0
  0
VERTEX
  5
76B
  8
LAYER01
  6
CONTINUOUS
 62
     7
 10
2800.0785329999999
 20
-1029.962207
 30
0.0
  0
VERTEX
  5
76C
  8
LAYER01
  6
CONTINUOUS
 62
     7
 10
2800.0785329999999
 20
-1025.0060289999999
 30
0.0
  0
VERTEX
  5
76D
  8
LAYER01
  6
CONTINUOUS
 62
     7
 10
2798.0960610000002
 20
-1020.04985
 30
0.0
  0
VERTEX
  5
76E
  8
LAYER01
  6
CONTINUOUS
 62
     7
 10
2796.1135899999999
 20
-1016.084908
 30
0.0
  0
VERTEX
  5
76F
  8
LAYER01
  6
CONTINUOUS
 62
     7
 10
2793.1398829999998
 20
-1012.119965
 30
0.0
  0
VERTEX
  5
770
  8
LAYER01
  6
CONTINUOUS
 62
     7
 10
2789.1749399999999
 20
-1009.146258
 30
0.0
  0
VERTEX
  5
771
  8
LAYER01
  6
CONTINUOUS
 62
     7
 10
2784.218762
 20
-1006.172551
 30
0.0
  0
VERTEX
  5
772
  8
LAYER01
  6
CONTINUOUS
 62
     7
 10
2779.2625830000002
 20
-1005.181315
 30
0.0
  0
VERTEX
  5
773
  8
LAYER01
  6
CONTINUOUS
 62
     7
 10
2774.3064050000012
 20
-1004.190079
 30
0.0
  0
VERTEX
  5
774
  8
LAYER01
  6
CONTINUOUS
 62
     7
 10
2774.3064050000012
 20
-1004.190079
 30
0.0
  0
VERTEX
  5
775
  8
LAYER01
  6
CONTINUOUS
 62
     7
 10
2769.350226
 20
-1005.181315
 30
0.0
  0
VERTEX
  5
776
  8
LAYER01
  6
CONTINUOUS
 62
     7
 10
2764.3940480000001
 20
-1006.172551
 30
0.0
  0
VERTEX
  5
777
  8
LAYER01
  6
CONTINUOUS
 62
     7
 10
2759.4378700000002
 20
-1009.146258
 30
0.0
  0
VERTEX
  5
778
  8
LAYER01
  6
CONTINUOUS
 62
     7
 10
2755.4729269999998
 20
-1012.119965
 30
0.0
  0
VERTEX
  5
779
  8
LAYER01
  6
CONTINUOUS
 62
     7
 10
2752.4992200000011
 20
-1016.084908
 30
0.0
  0
VERTEX
  5
77A
  8
LAYER01
  6
CONTINUOUS
 62
     7
 10
2750.516748
 20
-1020.04985
 30
0.0
  0
VERTEX
  5
77B
  8
LAYER01
  6
CONTINUOUS
 62
     7
 10
2748.5342770000002
 20
-1025.0060289999999
 30
0.0
  0
VERTEX
  5
77C
  8
LAYER01
  6
CONTINUOUS
 62
     7
 10
2748.5342770000002
 20
-1029.962207
 30
0.0
  0
VERTEX
  5
77D
  8
LAYER01
  6
CONTINUOUS
 62
     7
 10
2748.5342770000002
 20
-1029.962207
 30
0.0
  0
VERTEX
  5
77E
  8
LAYER01
  6
CONTINUOUS
 62
     7
 10
2748.5342770000002
 20
-1035.909621
 30
0.0
  0
VERTEX
  5
77F
  8
LAYER01
  6
CONTINUOUS
 62
     7
 10
2750.516748
 20
-1040.8658
 30
0.0
  0
VERTEX
  5
780
  8
LAYER01
  6
CONTINUOUS
 62
     7
 10
2752.4992200000011
 20
-1044.830743
 30
0.0
  0
VERTEX
  5
781
  8
LAYER01
  6
CONTINUOUS
 62
     7
 10
2755.4729269999998
 20
-1048.795685
 30
0.0
  0
VERTEX
  5
782
  8
LAYER01
  6
CONTINUOUS
 62
     7
 10
2759.4378700000002
 20
-1051.7693919999999
 30
0.0
  0
VERTEX
  5
783
  8
LAYER01
  6
CONTINUOUS
 62
     7
 10
2764.3940480000001
 20
-1054.7430999999999
 30
0.0
  0
VERTEX
  5
784
  8
LAYER01
  6
CONTINUOUS
 62
     7
 10
2769.350226
 20
-1055.7343350000001
 30
0.0
  0
VERTEX
  5
785
  8
LAYER01
  6
CONTINUOUS
 62
     7
 10
2774.3064050000012
 20
-1056.7255709999999
 30
0.0
  0
VERTEX
  5
786
  8
LAYER01
  6
CONTINUOUS
 62
     7
 10
2774.3064050000012
 20
-1056.7255709999999
 30
0.0
  0
SEQEND
  5
787
  8
LAYER01
  6
CONTINUOUS
 62
     7
  0
POLYLINE
  5
2E8
  8
LAYER01
  6
CONTINUOUS
 62
     7
 66
     1
 10
0.0
 20
0.0
 30
0.0
 70
     1
  0
VERTEX
  5
788
  8
LAYER01
  6
CONTINUOUS
 62
     7
 10
2774.3064050000012
 20
-1008.155022
 30
0.0
  0
VERTEX
  5
789
  8
LAYER01
  6
CONTINUOUS
 62
     7
 10
2774.3064050000012
 20
-1008.155022
 30
0.0
  0
VERTEX
  5
78A
  8
LAYER01
  6
CONTINUOUS
 62
     7
 10
2778.2713480000002
 20
-1009.146258
 30
0.0
  0
VERTEX
  5
78B
  8
LAYER01
  6
CONTINUOUS
 62
     7
 10
2782.2362899999998
 20
-1010.1374939999999
 30
0.0
  0
VERTEX
  5
78C
  8
LAYER01
  6
CONTINUOUS
 62
     7
 10
2786.2012329999998
 20
-1012.119965
 30
0.0
  0
VERTEX
  5
78D
  8
LAYER01
  6
CONTINUOUS
 62
     7
 10
2789.1749399999999
 20
-1015.093672
 30
0.0
  0
VERTEX
  5
78E
  8
LAYER01
  6
CONTINUOUS
 62
     7
 10
2792.148647
 20
-1018.067379
 30
0.0
  0
VERTEX
  5
78F
  8
LAYER01
  6
CONTINUOUS
 62
     7
 10
2794.1311190000001
 20
-1022.032322
 30
0.0
  0
VERTEX
  5
790
  8
LAYER01
  6
CONTINUOUS
 62
     7
 10
2796.1135899999999
 20
-1025.997265
 30
0.0
  0
VERTEX
  5
791
  8
LAYER01
  6
CONTINUOUS
 62
     7
 10
2796.1135899999999
 20
-1029.962207
 30
0.0
  0
VERTEX
  5
792
  8
LAYER01
  6
CONTINUOUS
 62
     7
 10
2796.1135899999999
 20
-1029.962207
 30
0.0
  0
VERTEX
  5
793
  8
LAYER01
  6
CONTINUOUS
 62
     7
 10
2796.1135899999999
 20
-1034.9183860000001
 30
0.0
  0
VERTEX
  5
794
  8
LAYER01
  6
CONTINUOUS
 62
     7
 10
2794.1311190000001
 20
-1038.883329
 30
0.0
  0
VERTEX
  5
795
  8
LAYER01
  6
CONTINUOUS
 62
     7
 10
2792.148647
 20
-1042.8482710000001
 30
0.0
  0
VERTEX
  5
796
  8
LAYER01
  6
CONTINUOUS
 62
     7
 10
2789.1749399999999
 20
-1045.8219779999999
 30
0.0
  0
VERTEX
  5
797
  8
LAYER01
  6
CONTINUOUS
 62
     7
 10
2786.2012329999998
 20
-1048.795685
 30
0.0
  0
VERTEX
  5
798
  8
LAYER01
  6
CONTINUOUS
 62
     7
 10
2782.2362899999998
 20
-1050.778157
 30
0.0
  0
VERTEX
  5
799
  8
LAYER01
  6
CONTINUOUS
 62
     7
 10
2778.2713480000002
 20
-1051.7693919999999
 30
0.0
  0
VERTEX
  5
79A
  8
LAYER01
  6
CONTINUOUS
 62
     7
 10
2774.3064050000012
 20
-1051.7693919999999
 30
0.0
  0
VERTEX
  5
79B
  8
LAYER01
  6
CONTINUOUS
 62
     7
 10
2774.3064050000012
 20
-1051.7693919999999
 30
0.0
  0
VERTEX
  5
79C
  8
LAYER01
  6
CONTINUOUS
 62
     7
 10
2770.3414620000008
 20
-1051.7693919999999
 30
0.0
  0
VERTEX
  5
79D
  8
LAYER01
  6
CONTINUOUS
 62
     7
 10
2765.385284
 20
-1050.778157
 30
0.0
  0
VERTEX
  5
79E
  8
LAYER01
  6
CONTINUOUS
 62
     7
 10
2762.4115769999999
 20
-1048.795685
 30
0.0
  0
VERTEX
  5
79F
  8
LAYER01
  6
CONTINUOUS
 62
     7
 10
2758.4466339999999
 20
-1045.8219779999999
 30
0.0
  0
VERTEX
  5
7A0
  8
LAYER01
  6
CONTINUOUS
 62
     7
 10
2756.4641630000001
 20
-1042.8482710000001
 30
0.0
  0
VERTEX
  5
7A1
  8
LAYER01
  6
CONTINUOUS
 62
     7
 10
2754.481691
 20
-1038.883329
 30
0.0
  0
VERTEX
  5
7A2
  8
LAYER01
  6
CONTINUOUS
 62
     7
 10
2752.4992200000011
 20
-1034.9183860000001
 30
0.0
  0
VERTEX
  5
7A3
  8
LAYER01
  6
CONTINUOUS
 62
     7
 10
2752.4992200000011
 20
-1029.962207
 30
0.0
  0
VERTEX
  5
7A4
  8
LAYER01
  6
CONTINUOUS
 62
     7
 10
2752.4992200000011
 20
-1029.962207
 30
0.0
  0
VERTEX
  5
7A5
  8
LAYER01
  6
CONTINUOUS
 62
     7
 10
2752.4992200000011
 20
-1025.997265
 30
0.0
  0
VERTEX
  5
7A6
  8
LAYER01
  6
CONTINUOUS
 62
     7
 10
2754.481691
 20
-1022.032322
 30
0.0
  0
VERTEX
  5
7A7
  8
LAYER01
  6
CONTINUOUS
 62
     7
 10
2756.4641630000001
 20
-1018.067379
 30
0.0
  0
VERTEX
  5
7A8
  8
LAYER01
  6
CONTINUOUS
 62
     7
 10
2758.4466339999999
 20
-1015.093672
 30
0.0
  0
VERTEX
  5
7A9
  8
LAYER01
  6
CONTINUOUS
 62
     7
 10
2762.4115769999999
 20
-1012.119965
 30
0.0
  0
VERTEX
  5
7AA
  8
LAYER01
  6
CONTINUOUS
 62
     7
 10
2765.385284
 20
-1010.1374939999999
 30
0.0
  0
VERTEX
  5
7AB
  8
LAYER01
  6
CONTINUOUS
 62
     7
 10
2770.3414620000008
 20
-1009.146258
 30
0.0
  0
VERTEX
  5
7AC
  8
LAYER01
  6
CONTINUOUS
 62
     7
 10
2774.3064050000012
 20
-1008.155022
 30
0.0
  0
VERTEX
  5
7AD
  8
LAYER01
  6
CONTINUOUS
 62
     7
 10
2774.3064050000012
 20
-1008.155022
 30
0.0
  0
SEQEND
  5
7AE
  8
LAYER01
  6
CONTINUOUS
 62
     7
  0
POLYLINE
  5
310
  8
LAYER01
  6
CONTINUOUS
 62
     7
 66
     1
 10
0.0
 20
0.0
 30
0.0
 70
     1
  0
VERTEX
  5
7AF
  8
LAYER01
  6
CONTINUOUS
 62
     7
 10
2778.2713480000002
 20
-1031.944679
 30
0.0
  0
VERTEX
  5
7B0
  8
LAYER01
  6
CONTINUOUS
 62
     7
 10
2778.2713480000002
 20
-1031.944679
 30
0.0
  0
VERTEX
  5
7B1
  8
LAYER01
  6
CONTINUOUS
 62
     7
 10
2781.2450549999999
 20
-1030.9534430000001
 30
0.0
  0
VERTEX
  5
7B2
  8
LAYER01
  6
CONTINUOUS
 62
     7
 10
2784.218762
 20
-1029.962207
 30
0.0
  0
VERTEX
  5
7B3
  8
LAYER01
  6
CONTINUOUS
 62
     7
 10
2786.2012329999998
 20
-1026.9884999999999
 30
0.0
  0
VERTEX
  5
7B4
  8
LAYER01
  6
CONTINUOUS
 62
     7
 10
2786.2012329999998
 20
-1024.0147930000001
 30
0.0
  0
VERTEX
  5
7B5
  8
LAYER01
  6
CONTINUOUS
 62
     7
 10
2786.2012329999998
 20
-1024.0147930000001
 30
0.0
  0
VERTEX
  5
7B6
  8
LAYER01
  6
CONTINUOUS
 62
     7
 10
2786.2012329999998
 20
-1020.04985
 30
0.0
  0
VERTEX
  5
7B7
  8
LAYER01
  6
CONTINUOUS
 62
     7
 10
2783.227526000001
 20
-1017.076143
 30
0.0
  0
VERTEX
  5
7B8
  8
LAYER01
  6
CONTINUOUS
 62
     7
 10
2780.253819
 20
-1016.084908
 30
0.0
  0
VERTEX
  5
7B9
  8
LAYER01
  6
CONTINUOUS
 62
     7
 10
2776.288876000001
 20
-1016.084908
 30
0.0
  0
VERTEX
  5
7BA
  8
LAYER01
  6
CONTINUOUS
 62
     7
 10
2764.3940480000001
 20
-1016.084908
 30
0.0
  0
VERTEX
  5
7BB
  8
LAYER01
  6
CONTINUOUS
 62
     7
 10
2764.3940480000001
 20
-1044.830743
 30
0.0
  0
VERTEX
  5
7BC
  8
LAYER01
  6
CONTINUOUS
 62
     7
 10
2768.3589910000001
 20
-1044.830743
 30
0.0
  0
VERTEX
  5
7BD
  8
LAYER01
  6
CONTINUOUS
 62
     7
 10
2768.3589910000001
 20
-1031.944679
 30
0.0
  0
VERTEX
  5
7BE
  8
LAYER01
  6
CONTINUOUS
 62
     7
 10
2774.3064050000012
 20
-1031.944679
 30
0.0
  0
VERTEX
  5
7BF
  8
LAYER01
  6
CONTINUOUS
 62
     7
 10
2781.2450549999999
 20
-1044.830743
 30
0.0
  0
VERTEX
  5
7C0
  8
LAYER01
  6
CONTINUOUS
 62
     7
 10
2786.2012329999998
 20
-1044.830743
 30
0.0
  0
VERTEX
  5
7C1
  8
LAYER01
  6
CONTINUOUS
 62
     7
 10
2778.2713480000002
 20
-1031.944679
 30
0.0
  0
VERTEX
  5
7C2
  8
LAYER01
  6
CONTINUOUS
 62
     7
 10
2778.2713480000002
 20
-1031.944679
 30
0.0
  0
SEQEND
  5
7C3
  8
LAYER01
  6
CONTINUOUS
 62
     7
  0
POLYLINE
  5
326
  8
LAYER01
  6
CONTINUOUS
 62
     7
 66
     1
 10
0.0
 20
0.0
 30
0.0
 70
     1
  0
VERTEX
  5
7C4
  8
LAYER01
  6
CONTINUOUS
 62
     7
 10
2775.2976410000001
 20
-1020.04985
 30
0.0
  0
VERTEX
  5
7C5
  8
LAYER01
  6
CONTINUOUS
 62
     7
 10
2775.2976410000001
 20
-1020.04985
 30
0.0
  0
VERTEX
  5
7C6
  8
LAYER01
  6
CONTINUOUS
 62
     7
 10
2780.253819
 20
-1021.041086
 30
0.0
  0
VERTEX
  5
7C7
  8
LAYER01
  6
CONTINUOUS
 62
     7
 10
2782.2362899999998
 20
-1022.032322
 30
0.0
  0
VERTEX
  5
7C8
  8
LAYER01
  6
CONTINUOUS
 62
     7
 10
2782.2362899999998
 20
-1024.0147930000001
 30
0.0
  0
VERTEX
  5
7C9
  8
LAYER01
  6
CONTINUOUS
 62
     7
 10
2782.2362899999998
 20
-1024.0147930000001
 30
0.0
  0
VERTEX
  5
7CA
  8
LAYER01
  6
CONTINUOUS
 62
     7
 10
2781.2450549999999
 20
-1025.997265
 30
0.0
  0
VERTEX
  5
7CB
  8
LAYER01
  6
CONTINUOUS
 62
     7
 10
2779.2625830000002
 20
-1026.9884999999999
 30
0.0
  0
VERTEX
  5
7CC
  8
LAYER01
  6
CONTINUOUS
 62
     7
 10
2773.315169
 20
-1027.979736
 30
0.0
  0
VERTEX
  5
7CD
  8
LAYER01
  6
CONTINUOUS
 62
     7
 10
2768.3589910000001
 20
-1027.979736
 30
0.0
  0
VERTEX
  5
7CE
  8
LAYER01
  6
CONTINUOUS
 62
     7
 10
2768.3589910000001
 20
-1020.04985
 30
0.0
  0
VERTEX
  5
7CF
  8
LAYER01
  6
CONTINUOUS
 62
     7
 10
2775.2976410000001
 20
-1020.04985
 30
0.0
  0
VERTEX
  5
7D0
  8
LAYER01
  6
CONTINUOUS
 62
     7
 10
2775.2976410000001
 20
-1020.04985
 30
0.0
  0
SEQEND
  5
7D1
  8
LAYER01
  6
CONTINUOUS
 62
     7
  0
ENDBLK
  5
335
  8
0
  0
BLOCK
  8
0
 62
     7
  2
WMF0
 70
     0
 10
0.0
 20
0.0
 30
0.0
  3
WMF0
  1

  0
POLYLINE
  5
5D3
  8
LAYER01
 62
     7
 66
     1
 10
0.0
 20
0.0
 30
0.0
 70
     1
  0
VERTEX
  5
7FA
  8
LAYER01
 62
     7
 10
2458.2645046842372
 20
7351.0038575557674
 30
0.0
  0
VERTEX
  5
7FB
  8
LAYER01
 62
     7
 10
2628.7570429123371
 20
7351.0038575557674
 30
0.0
  0
VERTEX
  5
7FC
  8
LAYER01
 62
     7
 10
2842.8639513848352
 20
6863.3158993684092
 30
0.0
  0
VERTEX
  5
7FD
  8
LAYER01
 62
     7
 10
3056.9708598573329
 20
7351.0038575557674
 30
0.0
  0
VERTEX
  5
7FE
  8
LAYER01
 62
     7
 10
3235.3932835844162
 20
7351.0038575557674
 30
0.0
  0
VERTEX
  5
7FF
  8
LAYER01
 62
     7
 10
2842.8639513848352
 20
6478.7164526678098
 30
0.0
  0
VERTEX
  5
800
  8
LAYER01
 62
     7
 10
2458.2645046842372
 20
7351.0038575557674
 30
0.0
  0
VERTEX
  5
801
  8
LAYER01
 62
     7
 10
2458.2645046842372
 20
7351.0038575557674
 30
0.0
  0
SEQEND
  5
802
  8
LAYER01
 62
     7
  0
POLYLINE
  5
5D4
  8
LAYER01
 62
     7
 66
     1
 10
0.0
 20
0.0
 30
0.0
 70
     1
  0
VERTEX
  5
803
  8
LAYER01
 62
     7
 10
3041.1110888593689
 20
6756.2624451321599
 30
0.0
  0
VERTEX
  5
804
  8
LAYER01
 62
     7
 10
3100.5852301017312
 20
6895.0354413643372
 30
0.0
  0
VERTEX
  5
805
  8
LAYER01
 62
     7
 10
3358.3065088186272
 20
6895.0354413643372
 30
0.0
  0
VERTEX
  5
806
  8
LAYER01
 62
     7
 10
3227.4633980854328
 20
7180.5113193276648
 30
0.0
  0
VERTEX
  5
807
  8
LAYER01
 62
     7
 10
3302.7973103257568
 20
7362.8986858042381
 30
0.0
  0
VERTEX
  5
808
  8
LAYER01
 62
     7
 10
3655.67721503043
 20
6617.4894488999853
 30
0.0
  0
VERTEX
  5
809
  8
LAYER01
 62
     7
 10
3655.67721503043
 20
7351.0038575557674
 30
0.0
  0
VERTEX
  5
80A
  8
LAYER01
 62
     7
 10
4127.5054022198219
 20
7351.0038575557674
 30
0.0
  0
VERTEX
  5
80B
  8
LAYER01
 62
     7
 10
4127.5054022198219
 20
7351.0038575557674
 30
0.0
  0
VERTEX
  5
80C
  8
LAYER01
 62
     7
 10
4171.1197724642179
 20
7343.0739720567844
 30
0.0
  0
VERTEX
  5
80D
  8
LAYER01
 62
     7
 10
4210.7691999591279
 20
7327.2142010588213
 30
0.0
  0
VERTEX
  5
80E
  8
LAYER01
 62
     7
 10
4246.4536847045429
 20
7299.4596018123866
 30
0.0
  0
VERTEX
  5
80F
  8
LAYER01
 62
     7
 10
4278.1732267004691
 20
7271.705002565951
 30
0.0
  0
VERTEX
  5
810
  8
LAYER01
 62
     7
 10
4305.9278259469047
 20
7236.0205178205333
 30
0.0
  0
VERTEX
  5
811
  8
LAYER01
 62
     7
 10
4325.7525396943593
 20
7196.3710903256278
 30
0.0
  0
VERTEX
  5
812
  8
LAYER01
 62
     7
 10
4341.6123106923224
 20
7148.7917773317413
 30
0.0
  0
VERTEX
  5
813
  8
LAYER01
 62
     7
 10
4345.577253441812
 20
7105.1774070873416
 30
0.0
  0
VERTEX
  5
814
  8
LAYER01
 62
     7
 10
4345.577253441812
 20
7105.1774070873416
 30
0.0
  0
VERTEX
  5
815
  8
LAYER01
 62
     7
 10
4345.577253441812
 20
7057.5980940934542
 30
0.0
  0
VERTEX
  5
816
  8
LAYER01
 62
     7
 10
4337.6473679428309
 20
7017.948666598546
 30
0.0
  0
VERTEX
  5
817
  8
LAYER01
 62
     7
 10
4321.7875969448678
 20
6978.2992391036396
 30
0.0
  0
VERTEX
  5
818
  8
LAYER01
 62
     7
 10
4301.9628831974142
 20
6942.6147543582238
 30
0.0
  0
VERTEX
  5
819
  8
LAYER01
 62
     7
 10
4274.2082839509794
 20
6910.8952123622976
 30
0.0
  0
VERTEX
  5
81A
  8
LAYER01
 62
     7
 10
4242.4887419550541
 20
6883.1406131158628
 30
0.0
  0
VERTEX
  5
81B
  8
LAYER01
 62
     7
 10
4206.8042572096356
 20
6863.3158993684092
 30
0.0
  0
VERTEX
  5
81C
  8
LAYER01
 62
     7
 10
4163.1898869652387
 20
6847.4561283704461
 30
0.0
  0
VERTEX
  5
81D
  8
LAYER01
 62
     7
 10
4416.9462229326446
 20
6510.4359946637369
 30
0.0
  0
VERTEX
  5
81E
  8
LAYER01
 62
     7
 10
4416.9462229326446
 20
7351.0038575557674
 30
0.0
  0
VERTEX
  5
81F
  8
LAYER01
 62
     7
 10
4583.4738184112539
 20
7351.0038575557674
 30
0.0
  0
VERTEX
  5
820
  8
LAYER01
 62
     7
 10
4583.4738184112539
 20
6502.5061091647531
 30
0.0
  0
VERTEX
  5
821
  8
LAYER01
 62
     7
 10
4226.628970957091
 20
6502.5061091647531
 30
0.0
  0
VERTEX
  5
822
  8
LAYER01
 62
     7
 10
3881.6789517513998
 20
6942.6147543582238
 30
0.0
  0
VERTEX
  5
823
  8
LAYER01
 62
     7
 10
4056.1364327289889
 20
6942.6147543582238
 30
0.0
  0
VERTEX
  5
824
  8
LAYER01
 62
     7
 10
4056.1364327289889
 20
6942.6147543582238
 30
0.0
  0
VERTEX
  5
825
  8
LAYER01
 62
     7
 10
4079.926089225934
 20
6946.5796971077143
 30
0.0
  0
VERTEX
  5
826
  8
LAYER01
 62
     7
 10
4103.7157457228786
 20
6954.5095826066963
 30
0.0
  0
VERTEX
  5
827
  8
LAYER01
 62
     7
 10
4123.5404594703332
 20
6966.4044108551689
 30
0.0
  0
VERTEX
  5
828
  8
LAYER01
 62
     7
 10
4143.3651732177859
 20
6982.264181853131
 30
0.0
  0
VERTEX
  5
829
  8
LAYER01
 62
     7
 10
4155.2600014662594
 20
7002.0888956005829
 30
0.0
  0
VERTEX
  5
82A
  8
LAYER01
 62
     7
 10
4167.1548297147283
 20
7025.878552097528
 30
0.0
  0
VERTEX
  5
82B
  8
LAYER01
 62
     7
 10
4175.0847152137121
 20
7049.6682085944713
 30
0.0
  0
VERTEX
  5
82C
  8
LAYER01
 62
     7
 10
4175.0847152137121
 20
7077.4228078409069
 30
0.0
  0
VERTEX
  5
82D
  8
LAYER01
 62
     7
 10
4175.0847152137121
 20
7077.4228078409069
 30
0.0
  0
VERTEX
  5
82E
  8
LAYER01
 62
     7
 10
4175.0847152137121
 20
7101.212464337852
 30
0.0
  0
VERTEX
  5
82F
  8
LAYER01
 62
     7
 10
4167.1548297147283
 20
7125.0021208347962
 30
0.0
  0
VERTEX
  5
830
  8
LAYER01
 62
     7
 10
4159.224944215749
 20
7148.7917773317413
 30
0.0
  0
VERTEX
  5
831
  8
LAYER01
 62
     7
 10
4143.3651732177859
 20
7168.6164910791931
 30
0.0
  0
VERTEX
  5
832
  8
LAYER01
 62
     7
 10
4127.5054022198219
 20
7184.4762620771562
 30
0.0
  0
VERTEX
  5
833
  8
LAYER01
 62
     7
 10
4103.7157457228786
 20
7196.3710903256278
 30
0.0
  0
VERTEX
  5
834
  8
LAYER01
 62
     7
 10
4079.926089225934
 20
7204.3009758246117
 30
0.0
  0
VERTEX
  5
835
  8
LAYER01
 62
     7
 10
4056.1364327289889
 20
7208.2659185741013
 30
0.0
  0
VERTEX
  5
836
  8
LAYER01
 62
     7
 10
3834.099638757511
 20
7208.2659185741013
 30
0.0
  0
VERTEX
  5
837
  8
LAYER01
 62
     7
 10
3834.099638757511
 20
6502.5061091647531
 30
0.0
  0
VERTEX
  5
838
  8
LAYER01
 62
     7
 10
3548.6237607941812
 20
6502.5061091647531
 30
0.0
  0
VERTEX
  5
839
  8
LAYER01
 62
     7
 10
3429.6754783094589
 20
6756.2624451321599
 30
0.0
  0
VERTEX
  5
83A
  8
LAYER01
 62
     7
 10
3041.1110888593689
 20
6756.2624451321599
 30
0.0
  0
VERTEX
  5
83B
  8
LAYER01
 62
     7
 10
3041.1110888593689
 20
6756.2624451321599
 30
0.0
  0
SEQEND
  5
83C
  8
LAYER01
 62
     7
  0
POLYLINE
  5
5D5
  8
LAYER01
 62
     7
 66
     1
 10
0.0
 20
0.0
 30
0.0
 70
     1
  0
VERTEX
  5
83D
  8
LAYER01
 62
     7
 10
5352.6727118124491
 20
7295.4946590628952
 30
0.0
  0
VERTEX
  5
83E
  8
LAYER01
 62
     7
 10
5245.6192575762007
 20
7160.6866055802111
 30
0.0
  0
VERTEX
  5
83F
  8
LAYER01
 62
     7
 10
5245.6192575762007
 20
7160.6866055802111
 30
0.0
  0
VERTEX
  5
840
  8
LAYER01
 62
     7
 10
5209.9347728307857
 20
7184.4762620771562
 30
0.0
  0
VERTEX
  5
841
  8
LAYER01
 62
     7
 10
5174.250288085369
 20
7204.3009758246117
 30
0.0
  0
VERTEX
  5
842
  8
LAYER01
 62
     7
 10
5134.6008605904626
 20
7216.1958040730824
 30
0.0
  0
VERTEX
  5
843
  8
LAYER01
 62
     7
 10
5090.9864903460648
 20
7216.1958040730824
 30
0.0
  0
VERTEX
  5
844
  8
LAYER01
 62
     7
 10
5090.9864903460648
 20
7216.1958040730824
 30
0.0
  0
VERTEX
  5
845
  8
LAYER01
 62
     7
 10
5063.2318910996291
 20
7216.1958040730824
 30
0.0
  0
VERTEX
  5
846
  8
LAYER01
 62
     7
 10
5035.4772918531944
 20
7212.2308613235937
 30
0.0
  0
VERTEX
  5
847
  8
LAYER01
 62
     7
 10
5007.7226926067578
 20
7204.3009758246117
 30
0.0
  0
VERTEX
  5
848
  8
LAYER01
 62
     7
 10
4979.9680933603249
 20
7192.4061475761382
 30
0.0
  0
VERTEX
  5
849
  8
LAYER01
 62
     7
 10
4956.1784368633807
 20
7180.5113193276648
 30
0.0
  0
VERTEX
  5
84A
  8
LAYER01
 62
     7
 10
4936.3537231159271
 20
7164.6515483297017
 30
0.0
  0
VERTEX
  5
84B
  8
LAYER01
 62
     7
 10
4912.5640666189829
 20
7148.7917773317413
 30
0.0
  0
VERTEX
  5
84C
  8
LAYER01
 62
     7
 10
4896.7042956210198
 20
7128.9670635842867
 30
0.0
  0
VERTEX
  5
84D
  8
LAYER01
 62
     7
 10
4876.8795818735662
 20
7105.1774070873416
 30
0.0
  0
VERTEX
  5
84E
  8
LAYER01
 62
     7
 10
4864.9847536250936
 20
7081.3877505903993
 30
0.0
  0
VERTEX
  5
84F
  8
LAYER01
 62
     7
 10
4849.1249826271314
 20
7057.5980940934542
 30
0.0
  0
VERTEX
  5
850
  8
LAYER01
 62
     7
 10
4837.2301543786589
 20
7033.8084375965091
 30
0.0
  0
VERTEX
  5
851
  8
LAYER01
 62
     7
 10
4829.3002688796769
 20
7006.0538383500743
 30
0.0
  0
VERTEX
  5
852
  8
LAYER01
 62
     7
 10
4825.3353261301863
 20
6978.2992391036396
 30
0.0
  0
VERTEX
  5
853
  8
LAYER01
 62
     7
 10
4821.3703833806958
 20
6950.5446398572049
 30
0.0
  0
VERTEX
  5
854
  8
LAYER01
 62
     7
 10
4817.4054406312061
 20
6918.8250978612787
 30
0.0
  0
VERTEX
  5
855
  8
LAYER01
 62
     7
 10
4817.4054406312061
 20
6918.8250978612787
 30
0.0
  0
VERTEX
  5
856
  8
LAYER01
 62
     7
 10
4821.3703833806958
 20
6891.0704986148439
 30
0.0
  0
VERTEX
  5
857
  8
LAYER01
 62
     7
 10
4825.3353261301863
 20
6863.3158993684092
 30
0.0
  0
VERTEX
  5
858
  8
LAYER01
 62
     7
 10
4829.3002688796769
 20
6835.5613001219781
 30
0.0
  0
VERTEX
  5
859
  8
LAYER01
 62
     7
 10
4841.1950971281503
 20
6811.7716436250303
 30
0.0
  0
VERTEX
  5
85A
  8
LAYER01
 62
     7
 10
4849.1249826271314
 20
6787.9819871280861
 30
0.0
  0
VERTEX
  5
85B
  8
LAYER01
 62
     7
 10
4864.9847536250936
 20
6764.1923306311428
 30
0.0
  0
VERTEX
  5
85C
  8
LAYER01
 62
     7
 10
4880.8445246230567
 20
6740.4026741341977
 30
0.0
  0
VERTEX
  5
85D
  8
LAYER01
 62
     7
 10
4896.7042956210198
 20
6720.5779603867441
 30
0.0
  0
VERTEX
  5
85E
  8
LAYER01
 62
     7
 10
4916.5290093684744
 20
6700.7532466392904
 30
0.0
  0
VERTEX
  5
85F
  8
LAYER01
 62
     7
 10
4936.3537231159271
 20
6684.8934756413273
 30
0.0
  0
VERTEX
  5
860
  8
LAYER01
 62
     7
 10
4960.1433796128722
 20
6672.9986473928557
 30
0.0
  0
VERTEX
  5
861
  8
LAYER01
 62
     7
 10
4983.9330361098146
 20
6661.103819144384
 30
0.0
  0
VERTEX
  5
862
  8
LAYER01
 62
     7
 10
5011.6876353562502
 20
6649.2089908959097
 30
0.0
  0
VERTEX
  5
863
  8
LAYER01
 62
     7
 10
5035.4772918531944
 20
6641.2791053969304
 30
0.0
  0
VERTEX
  5
864
  8
LAYER01
 62
     7
 10
5063.2318910996291
 20
6637.3141626474389
 30
0.0
  0
VERTEX
  5
865
  8
LAYER01
 62
     7
 10
5094.9514330955544
 20
6637.3141626474389
 30
0.0
  0
VERTEX
  5
866
  8
LAYER01
 62
     7
 10
5094.9514330955544
 20
6637.3141626474389
 30
0.0
  0
VERTEX
  5
867
  8
LAYER01
 62
     7
 10
5138.5658033399532
 20
6641.2791053969304
 30
0.0
  0
VERTEX
  5
868
  8
LAYER01
 62
     7
 10
5174.250288085369
 20
6649.2089908959097
 30
0.0
  0
VERTEX
  5
869
  8
LAYER01
 62
     7
 10
5209.9347728307857
 20
6669.0337046433651
 30
0.0
  0
VERTEX
  5
86A
  8
LAYER01
 62
     7
 10
5245.6192575762007
 20
6692.8233611403102
 30
0.0
  0
VERTEX
  5
86B
  8
LAYER01
 62
     7
 10
5348.7077690629603
 20
6554.0503649081338
 30
0.0
  0
VERTEX
  5
86C
  8
LAYER01
 62
     7
 10
5348.7077690629603
 20
6554.0503649081338
 30
0.0
  0
VERTEX
  5
86D
  8
LAYER01
 62
     7
 10
5289.2336278206003
 20
6518.365880162718
 30
0.0
  0
VERTEX
  5
86E
  8
LAYER01
 62
     7
 10
5257.5140858246741
 20
6506.4710519142454
 30
0.0
  0
VERTEX
  5
86F
  8
LAYER01
 62
     7
 10
5229.7594865782394
 20
6494.5762236657738
 30
0.0
  0
VERTEX
  5
870
  8
LAYER01
 62
     7
 10
5198.0399445823132
 20
6486.6463381667909
 30
0.0
  0
VERTEX
  5
871
  8
LAYER01
 62
     7
 10
5166.3204025863879
 20
6482.6813954173012
 30
0.0
  0
VERTEX
  5
872
  8
LAYER01
 62
     7
 10
5094.9514330955544
 20
6478.7164526678098
 30
0.0
  0
VERTEX
  5
873
  8
LAYER01
 62
     7
 10
5094.9514330955544
 20
6478.7164526678098
 30
0.0
  0
VERTEX
  5
874
  8
LAYER01
 62
     7
 10
5047.372120101667
 20
6482.6813954173012
 30
0.0
  0
VERTEX
  5
875
  8
LAYER01
 62
     7
 10
5003.7577498572691
 20
6490.6112809162832
 30
0.0
  0
VERTEX
  5
876
  8
LAYER01
 62
     7
 10
4960.1433796128722
 20
6498.5411664152653
 30
0.0
  0
VERTEX
  5
877
  8
LAYER01
 62
     7
 10
4920.493952117964
 20
6514.4009374132283
 30
0.0
  0
VERTEX
  5
878
  8
LAYER01
 62
     7
 10
4880.8445246230567
 20
6534.2256511606811
 30
0.0
  0
VERTEX
  5
879
  8
LAYER01
 62
     7
 10
4845.16003987764
 20
6554.0503649081338
 30
0.0
  0
VERTEX
  5
87A
  8
LAYER01
 62
     7
 10
4809.4755551322241
 20
6581.8049641545704
 30
0.0
  0
VERTEX
  5
87B
  8
LAYER01
 62
     7
 10
4777.756013136298
 20
6609.5595634010042
 30
0.0
  0
VERTEX
  5
87C
  8
LAYER01
 62
     7
 10
4746.0364711403727
 20
6641.2791053969304
 30
0.0
  0
VERTEX
  5
87D
  8
LAYER01
 62
     7
 10
4722.2468146434294
 20
6676.9635901423471
 30
0.0
  0
VERTEX
  5
87E
  8
LAYER01
 62
     7
 10
4698.4571581464834
 20
6712.648074887763
 30
0.0
  0
VERTEX
  5
87F
  8
LAYER01
 62
     7
 10
4678.6324443990288
 20
6752.2975023826693
 30
0.0
  0
VERTEX
  5
880
  8
LAYER01
 62
     7
 10
4666.737616150559
 20
6791.9469298775748
 30
0.0
  0
VERTEX
  5
881
  8
LAYER01
 62
     7
 10
4654.8427879020883
 20
6835.5613001219781
 30
0.0
  0
VERTEX
  5
882
  8
LAYER01
 62
     7
 10
4646.9129024031063
 20
6879.1756703663723
 30
0.0
  0
VERTEX
  5
883
  8
LAYER01
 62
     7
 10
4642.947959653613
 20
6926.7549833602607
 30
0.0
  0
VERTEX
  5
884
  8
LAYER01
 62
     7
 10
4642.947959653613
 20
6926.7549833602607
 30
0.0
  0
VERTEX
  5
885
  8
LAYER01
 62
     7
 10
4646.9129024031063
 20
6970.3693536046603
 30
0.0
  0
VERTEX
  5
886
  8
LAYER01
 62
     7
 10
4654.8427879020883
 20
7017.948666598546
 30
0.0
  0
VERTEX
  5
887
  8
LAYER01
 62
     7
 10
4662.7726734010676
 20
7057.5980940934542
 30
0.0
  0
VERTEX
  5
888
  8
LAYER01
 62
     7
 10
4678.6324443990288
 20
7101.212464337852
 30
0.0
  0
VERTEX
  5
889
  8
LAYER01
 62
     7
 10
4698.4571581464834
 20
7140.8618918327593
 30
0.0
  0
VERTEX
  5
88A
  8
LAYER01
 62
     7
 10
4718.2818718939379
 20
7176.5463765781742
 30
0.0
  0
VERTEX
  5
88B
  8
LAYER01
 62
     7
 10
4746.0364711403727
 20
7212.2308613235937
 30
0.0
  0
VERTEX
  5
88C
  8
LAYER01
 62
     7
 10
4773.7910703868083
 20
7243.950403319518
 30
0.0
  0
VERTEX
  5
88D
  8
LAYER01
 62
     7
 10
4805.5106123827327
 20
7271.705002565951
 30
0.0
  0
VERTEX
  5
88E
  8
LAYER01
 62
     7
 10
4841.1950971281503
 20
7299.4596018123866
 30
0.0
  0
VERTEX
  5
88F
  8
LAYER01
 62
     7
 10
4876.8795818735662
 20
7319.2843155598421
 30
0.0
  0
VERTEX
  5
890
  8
LAYER01
 62
     7
 10
4916.5290093684744
 20
7339.1090293072939
 30
0.0
  0
VERTEX
  5
891
  8
LAYER01
 62
     7
 10
4956.1784368633807
 20
7354.9688003052588
 30
0.0
  0
VERTEX
  5
892
  8
LAYER01
 62
     7
 10
4999.7928071077777
 20
7366.8636285537268
 30
0.0
  0
VERTEX
  5
893
  8
LAYER01
 62
     7
 10
5047.372120101667
 20
7370.8285713032201
 30
0.0
  0
VERTEX
  5
894
  8
LAYER01
 62
     7
 10
5090.9864903460648
 20
7374.7935140527079
 30
0.0
  0
VERTEX
  5
895
  8
LAYER01
 62
     7
 10
5090.9864903460648
 20
7374.7935140527079
 30
0.0
  0
VERTEX
  5
896
  8
LAYER01
 62
     7
 10
5162.3554598368992
 20
7370.8285713032201
 30
0.0
  0
VERTEX
  5
897
  8
LAYER01
 62
     7
 10
5198.0399445823132
 20
7366.8636285537268
 30
0.0
  0
VERTEX
  5
898
  8
LAYER01
 62
     7
 10
5229.7594865782394
 20
7358.9337430547457
 30
0.0
  0
VERTEX
  5
899
  8
LAYER01
 62
     7
 10
5257.5140858246741
 20
7347.0389148062732
 30
0.0
  0
VERTEX
  5
89A
  8
LAYER01
 62
     7
 10
5289.2336278206003
 20
7335.1440865578052
 30
0.0
  0
VERTEX
  5
89B
  8
LAYER01
 62
     7
 10
5320.9531698165256
 20
7315.3193728103488
 30
0.0
  0
VERTEX
  5
89C
  8
LAYER01
 62
     7
 10
5352.6727118124491
 20
7295.4946590628952
 30
0.0
  0
VERTEX
  5
89D
  8
LAYER01
 62
     7
 10
5352.6727118124491
 20
7295.4946590628952
 30
0.0
  0
SEQEND
  5
89E
  8
LAYER01
 62
     7
  0
POLYLINE
  5
5D6
  8
LAYER01
 62
     7
 66
     1
 10
0.0
 20
0.0
 30
0.0
 70
     1
  0
VERTEX
  5
89F
  8
LAYER01
 62
     7
 10
5737.2721585130503
 20
7370.8285713032201
 30
0.0
  0
VERTEX
  5
8A0
  8
LAYER01
 62
     7
 10
5737.2721585130503
 20
7370.8285713032201
 30
0.0
  0
VERTEX
  5
8A1
  8
LAYER01
 62
     7
 10
5693.6577882686533
 20
7366.8636285537268
 30
0.0
  0
VERTEX
  5
8A2
  8
LAYER01
 62
     7
 10
5646.0784752747632
 20
7362.8986858042381
 30
0.0
  0
VERTEX
  5
8A3
  8
LAYER01
 62
     7
 10
5606.429047779855
 20
7351.0038575557674
 30
0.0
  0
VERTEX
  5
8A4
  8
LAYER01
 62
     7
 10
5562.814677535458
 20
7335.1440865578052
 30
0.0
  0
VERTEX
  5
8A5
  8
LAYER01
 62
     7
 10
5523.1652500405517
 20
7319.2843155598421
 30
0.0
  0
VERTEX
  5
8A6
  8
LAYER01
 62
     7
 10
5487.4807652951349
 20
7295.4946590628952
 30
0.0
  0
VERTEX
  5
8A7
  8
LAYER01
 62
     7
 10
5451.7962805497182
 20
7271.705002565951
 30
0.0
  0
VERTEX
  5
8A8
  8
LAYER01
 62
     7
 10
5420.0767385537929
 20
7239.9854605700248
 30
0.0
  0
VERTEX
  5
8A9
  8
LAYER01
 62
     7
 10
5392.3221393073582
 20
7208.2659185741013
 30
0.0
  0
VERTEX
  5
8AA
  8
LAYER01
 62
     7
 10
5364.5675400609243
 20
7176.5463765781742
 30
0.0
  0
VERTEX
  5
8AB
  8
LAYER01
 62
     7
 10
5340.7778835639801
 20
7140.8618918327593
 30
0.0
  0
VERTEX
  5
8AC
  8
LAYER01
 62
     7
 10
5320.9531698165256
 20
7101.212464337852
 30
0.0
  0
VERTEX
  5
8AD
  8
LAYER01
 62
     7
 10
5309.0583415680539
 20
7057.5980940934542
 30
0.0
  0
VERTEX
  5
8AE
  8
LAYER01
 62
     7
 10
5297.1635133195814
 20
7017.948666598546
 30
0.0
  0
VERTEX
  5
8AF
  8
LAYER01
 62
     7
 10
5289.2336278206003
 20
6970.3693536046603
 30
0.0
  0
VERTEX
  5
8B0
  8
LAYER01
 62
     7
 10
5285.2686850711088
 20
6926.7549833602607
 30
0.0
  0
VERTEX
  5
8B1
  8
LAYER01
 62
     7
 10
5285.2686850711088
 20
6926.7549833602607
 30
0.0
  0
VERTEX
  5
8B2
  8
LAYER01
 62
     7
 10
5289.2336278206003
 20
6879.1756703663723
 30
0.0
  0
VERTEX
  5
8B3
  8
LAYER01
 62
     7
 10
5293.1985705700909
 20
6835.5613001219781
 30
0.0
  0
VERTEX
  5
8B4
  8
LAYER01
 62
     7
 10
5305.0933988185634
 20
6791.9469298775748
 30
0.0
  0
VERTEX
  5
8B5
  8
LAYER01
 62
     7
 10
5320.9531698165256
 20
6752.2975023826693
 30
0.0
  0
VERTEX
  5
8B6
  8
LAYER01
 62
     7
 10
5336.8129408144878
 20
6712.648074887763
 30
0.0
  0
VERTEX
  5
8B7
  8
LAYER01
 62
     7
 10
5360.602597311432
 20
6676.9635901423471
 30
0.0
  0
VERTEX
  5
8B8
  8
LAYER01
 62
     7
 10
5384.3922538083762
 20
6641.2791053969304
 30
0.0
  0
VERTEX
  5
8B9
  8
LAYER01
 62
     7
 10
5412.1468530548118
 20
6609.5595634010042
 30
0.0
  0
VERTEX
  5
8BA
  8
LAYER01
 62
     7
 10
5443.8663950507362
 20
6577.8400214050789
 30
0.0
  0
VERTEX
  5
8BB
  8
LAYER01
 62
     7
 10
5479.5508797961529
 20
6554.0503649081338
 30
0.0
  0
VERTEX
  5
8BC
  8
LAYER01
 62
     7
 10
5515.2353645415697
 20
6530.2607084111914
 30
0.0
  0
VERTEX
  5
8BD
  8
LAYER01
 62
     7
 10
5554.8847920364769
 20
6510.4359946637369
 30
0.0
  0
VERTEX
  5
8BE
  8
LAYER01
 62
     7
 10
5594.5342195313842
 20
6494.5762236657738
 30
0.0
  0
VERTEX
  5
8BF
  8
LAYER01
 62
     7
 10
5638.1485897757821
 20
6486.6463381667909
 30
0.0
  0
VERTEX
  5
8C0
  8
LAYER01
 62
     7
 10
5681.762960020179
 20
6478.7164526678098
 30
0.0
  0
VERTEX
  5
8C1
  8
LAYER01
 62
     7
 10
5725.3773302645768
 20
6474.7515099183202
 30
0.0
  0
VERTEX
  5
8C2
  8
LAYER01
 62
     7
 10
5725.3773302645768
 20
6474.7515099183202
 30
0.0
  0
VERTEX
  5
8C3
  8
LAYER01
 62
     7
 10
5772.9566432584652
 20
6478.7164526678098
 30
0.0
  0
VERTEX
  5
8C4
  8
LAYER01
 62
     7
 10
5816.5710135028621
 20
6486.6463381667909
 30
0.0
  0
VERTEX
  5
8C5
  8
LAYER01
 62
     7
 10
5860.1853837472609
 20
6498.5411664152653
 30
0.0
  0
VERTEX
  5
8C6
  8
LAYER01
 62
     7
 10
5899.8348112421681
 20
6514.4009374132283
 30
0.0
  0
VERTEX
  5
8C7
  8
LAYER01
 62
     7
 10
5939.4842387370763
 20
6534.2256511606811
 30
0.0
  0
VERTEX
  5
8C8
  8
LAYER01
 62
     7
 10
5975.1687234824913
 20
6558.0153076576235
 30
0.0
  0
VERTEX
  5
8C9
  8
LAYER01
 62
     7
 10
6010.853208227908
 20
6581.8049641545704
 30
0.0
  0
VERTEX
  5
8CA
  8
LAYER01
 62
     7
 10
6042.5727502238333
 20
6613.5245061504938
 30
0.0
  0
VERTEX
  5
8CB
  8
LAYER01
 62
     7
 10
6070.3273494702689
 20
6645.2440481464209
 30
0.0
  0
VERTEX
  5
8CC
  8
LAYER01
 62
     7
 10
6094.1170059672131
 20
6680.9285328918368
 30
0.0
  0
VERTEX
  5
8CD
  8
LAYER01
 62
     7
 10
6113.9417197146659
 20
6716.6130176372544
 30
0.0
  0
VERTEX
  5
8CE
  8
LAYER01
 62
     7
 10
6133.7664334621204
 20
6756.2624451321599
 30
0.0
  0
VERTEX
  5
8CF
  8
LAYER01
 62
     7
 10
6149.6262044600817
 20
6799.8768153765577
 30
0.0
  0
VERTEX
  5
8D0
  8
LAYER01
 62
     7
 10
6157.5560899590637
 20
6843.4911856209546
 30
0.0
  0
VERTEX
  5
8D1
  8
LAYER01
 62
     7
 10
6161.5210327085533
 20
6887.1055558653534
 30
0.0
  0
VERTEX
  5
8D2
  8
LAYER01
 62
     7
 10
6165.4859754580457
 20
6934.6848688592418
 30
0.0
  0
VERTEX
  5
8D3
  8
LAYER01
 62
     7
 10
6165.4859754580457
 20
6934.6848688592418
 30
0.0
  0
VERTEX
  5
8D4
  8
LAYER01
 62
     7
 10
6161.5210327085533
 20
6978.2992391036396
 30
0.0
  0
VERTEX
  5
8D5
  8
LAYER01
 62
     7
 10
6153.5911472095731
 20
7021.9136093480374
 30
0.0
  0
VERTEX
  5
8D6
  8
LAYER01
 62
     7
 10
6141.6963189611024
 20
7061.5630368429456
 30
0.0
  0
VERTEX
  5
8D7
  8
LAYER01
 62
     7
 10
6129.8014907126289
 20
7101.212464337852
 30
0.0
  0
VERTEX
  5
8D8
  8
LAYER01
 62
     7
 10
6109.9767769651762
 20
7136.8969490832678
 30
0.0
  0
VERTEX
  5
8D9
  8
LAYER01
 62
     7
 10
6090.1520632177217
 20
7172.5814338286846
 30
0.0
  0
VERTEX
  5
8DA
  8
LAYER01
 62
     7
 10
6066.3624067207766
 20
7208.2659185741013
 30
0.0
  0
VERTEX
  5
8DB
  8
LAYER01
 62
     7
 10
6038.6078074743446
 20
7236.0205178205333
 30
0.0
  0
VERTEX
  5
8DC
  8
LAYER01
 62
     7
 10
6006.8882654784184
 20
7263.7751170669708
 30
0.0
  0
VERTEX
  5
8DD
  8
LAYER01
 62
     7
 10
5975.1687234824913
 20
7291.5297163134037
 30
0.0
  0
VERTEX
  5
8DE
  8
LAYER01
 62
     7
 10
5939.4842387370763
 20
7311.3544300608592
 30
0.0
  0
VERTEX
  5
8DF
  8
LAYER01
 62
     7
 10
5903.7997539916578
 20
7331.1791438083146
 30
0.0
  0
VERTEX
  5
8E0
  8
LAYER01
 62
     7
 10
5864.1503264967514
 20
7347.0389148062732
 30
0.0
  0
VERTEX
  5
8E1
  8
LAYER01
 62
     7
 10
5824.5008990018441
 20
7358.9337430547457
 30
0.0
  0
VERTEX
  5
8E2
  8
LAYER01
 62
     7
 10
5780.8865287574472
 20
7366.8636285537268
 30
0.0
  0
VERTEX
  5
8E3
  8
LAYER01
 62
     7
 10
5737.2721585130503
 20
7370.8285713032201
 30
0.0
  0
VERTEX
  5
8E4
  8
LAYER01
 62
     7
 10
5737.2721585130503
 20
7370.8285713032201
 30
0.0
  0
SEQEND
  5
8E5
  8
LAYER01
 62
     7
  0
POLYLINE
  5
5D7
  8
LAYER01
 62
     7
 66
     1
 10
0.0
 20
0.0
 30
0.0
 70
     1
  0
VERTEX
  5
8E6
  8
LAYER01
 62
     7
 10
5725.3773302645768
 20
6637.3141626474389
 30
0.0
  0
VERTEX
  5
8E7
  8
LAYER01
 62
     7
 10
5725.3773302645768
 20
6637.3141626474389
 30
0.0
  0
VERTEX
  5
8E8
  8
LAYER01
 62
     7
 10
5697.6227310181421
 20
6641.2791053969304
 30
0.0
  0
VERTEX
  5
8E9
  8
LAYER01
 62
     7
 10
5669.8681317717073
 20
6645.2440481464209
 30
0.0
  0
VERTEX
  5
8EA
  8
LAYER01
 62
     7
 10
5642.1135325252717
 20
6649.2089908959097
 30
0.0
  0
VERTEX
  5
8EB
  8
LAYER01
 62
     7
 10
5614.3589332788379
 20
6661.103819144384
 30
0.0
  0
VERTEX
  5
8EC
  8
LAYER01
 62
     7
 10
5590.56927678189
 20
6672.9986473928557
 30
0.0
  0
VERTEX
  5
8ED
  8
LAYER01
 62
     7
 10
5566.7796202849486
 20
6688.8584183908179
 30
0.0
  0
VERTEX
  5
8EE
  8
LAYER01
 62
     7
 10
5546.9549065374968
 20
6704.718189388781
 30
0.0
  0
VERTEX
  5
8EF
  8
LAYER01
 62
     7
 10
5527.1301927900431
 20
6724.5429031362328
 30
0.0
  0
VERTEX
  5
8F0
  8
LAYER01
 62
     7
 10
5507.3054790425886
 20
6744.3676168836892
 30
0.0
  0
VERTEX
  5
8F1
  8
LAYER01
 62
     7
 10
5491.4457080446264
 20
6764.1923306311428
 30
0.0
  0
VERTEX
  5
8F2
  8
LAYER01
 62
     7
 10
5479.5508797961529
 20
6787.9819871280861
 30
0.0
  0
VERTEX
  5
8F3
  8
LAYER01
 62
     7
 10
5467.6560515476813
 20
6815.7365863745208
 30
0.0
  0
VERTEX
  5
8F4
  8
LAYER01
 62
     7
 10
5455.7612232992096
 20
6839.5262428714632
 30
0.0
  0
VERTEX
  5
8F5
  8
LAYER01
 62
     7
 10
5451.7962805497182
 20
6867.2808421178988
 30
0.0
  0
VERTEX
  5
8F6
  8
LAYER01
 62
     7
 10
5443.8663950507362
 20
6895.0354413643372
 30
0.0
  0
VERTEX
  5
8F7
  8
LAYER01
 62
     7
 10
5443.8663950507362
 20
6926.7549833602607
 30
0.0
  0
VERTEX
  5
8F8
  8
LAYER01
 62
     7
 10
5443.8663950507362
 20
6926.7549833602607
 30
0.0
  0
VERTEX
  5
8F9
  8
LAYER01
 62
     7
 10
5447.8313378002258
 20
6954.5095826066963
 30
0.0
  0
VERTEX
  5
8FA
  8
LAYER01
 62
     7
 10
5451.7962805497182
 20
6982.264181853131
 30
0.0
  0
VERTEX
  5
8FB
  8
LAYER01
 62
     7
 10
5459.7261660486993
 20
7010.0187810995658
 30
0.0
  0
VERTEX
  5
8FC
  8
LAYER01
 62
     7
 10
5467.6560515476813
 20
7037.7733803459996
 30
0.0
  0
VERTEX
  5
8FD
  8
LAYER01
 62
     7
 10
5479.5508797961529
 20
7061.5630368429456
 30
0.0
  0
VERTEX
  5
8FE
  8
LAYER01
 62
     7
 10
5495.410650794116
 20
7085.3526933398889
 30
0.0
  0
VERTEX
  5
8FF
  8
LAYER01
 62
     7
 10
5511.27042179208
 20
7105.1774070873416
 30
0.0
  0
VERTEX
  5
900
  8
LAYER01
 62
     7
 10
5531.0951355395327
 20
7125.0021208347962
 30
0.0
  0
VERTEX
  5
901
  8
LAYER01
 62
     7
 10
5550.9198492869864
 20
7144.826834582248
 30
0.0
  0
VERTEX
  5
902
  8
LAYER01
 62
     7
 10
5570.74456303444
 20
7160.6866055802111
 30
0.0
  0
VERTEX
  5
903
  8
LAYER01
 62
     7
 10
5594.5342195313842
 20
7176.5463765781742
 30
0.0
  0
VERTEX
  5
904
  8
LAYER01
 62
     7
 10
5622.288818777819
 20
7188.4412048266468
 30
0.0
  0
VERTEX
  5
905
  8
LAYER01
 62
     7
 10
5646.0784752747632
 20
7196.3710903256278
 30
0.0
  0
VERTEX
  5
906
  8
LAYER01
 62
     7
 10
5673.8330745211979
 20
7204.3009758246117
 30
0.0
  0
VERTEX
  5
907
  8
LAYER01
 62
     7
 10
5701.5876737676326
 20
7208.2659185741013
 30
0.0
  0
VERTEX
  5
908
  8
LAYER01
 62
     7
 10
5733.3072157635588
 20
7208.2659185741013
 30
0.0
  0
VERTEX
  5
909
  8
LAYER01
 62
     7
 10
5733.3072157635588
 20
7208.2659185741013
 30
0.0
  0
VERTEX
  5
90A
  8
LAYER01
 62
     7
 10
5761.0618150099936
 20
7204.3009758246117
 30
0.0
  0
VERTEX
  5
90B
  8
LAYER01
 62
     7
 10
5788.8164142564283
 20
7200.3360330751193
 30
0.0
  0
VERTEX
  5
90C
  8
LAYER01
 62
     7
 10
5812.6060707533707
 20
7192.4061475761382
 30
0.0
  0
VERTEX
  5
90D
  8
LAYER01
 62
     7
 10
5840.3606699998072
 20
7184.4762620771562
 30
0.0
  0
VERTEX
  5
90E
  8
LAYER01
 62
     7
 10
5860.1853837472609
 20
7172.5814338286846
 30
0.0
  0
VERTEX
  5
90F
  8
LAYER01
 62
     7
 10
5883.975040244205
 20
7156.7216628307224
 30
0.0
  0
VERTEX
  5
910
  8
LAYER01
 62
     7
 10
5903.7997539916578
 20
7140.8618918327593
 30
0.0
  0
VERTEX
  5
911
  8
LAYER01
 62
     7
 10
5923.6244677391132
 20
7125.0021208347962
 30
0.0
  0
VERTEX
  5
912
  8
LAYER01
 62
     7
 10
5939.4842387370763
 20
7105.1774070873416
 30
0.0
  0
VERTEX
  5
913
  8
LAYER01
 62
     7
 10
5955.3440097350358
 20
7081.3877505903993
 30
0.0
  0
VERTEX
  5
914
  8
LAYER01
 62
     7
 10
5971.2037807329998
 20
7061.5630368429456
 30
0.0
  0
VERTEX
  5
915
  8
LAYER01
 62
     7
 10
5983.0986089814751
 20
7037.7733803459996
 30
0.0
  0
VERTEX
  5
916
  8
LAYER01
 62
     7
 10
5991.0284944804544
 20
7010.0187810995658
 30
0.0
  0
VERTEX
  5
917
  8
LAYER01
 62
     7
 10
5998.9583799794336
 20
6986.2291246026198
 30
0.0
  0
VERTEX
  5
918
  8
LAYER01
 62
     7
 10
6002.923322728926
 20
6958.4745253561869
 30
0.0
  0
VERTEX
  5
919
  8
LAYER01
 62
     7
 10
6002.923322728926
 20
6930.7199261097512
 30
0.0
  0
VERTEX
  5
91A
  8
LAYER01
 62
     7
 10
6002.923322728926
 20
6930.7199261097512
 30
0.0
  0
VERTEX
  5
91B
  8
LAYER01
 62
     7
 10
6002.923322728926
 20
6899.0003841138259
 30
0.0
  0
VERTEX
  5
91C
  8
LAYER01
 62
     7
 10
5998.9583799794336
 20
6871.2457848673903
 30
0.0
  0
VERTEX
  5
91D
  8
LAYER01
 62
     7
 10
5994.9934372299449
 20
6843.4911856209546
 30
0.0
  0
VERTEX
  5
91E
  8
LAYER01
 62
     7
 10
5983.0986089814751
 20
6819.7015291240123
 30
0.0
  0
VERTEX
  5
91F
  8
LAYER01
 62
     7
 10
5975.1687234824913
 20
6791.9469298775748
 30
0.0
  0
VERTEX
  5
920
  8
LAYER01
 62
     7
 10
5959.3089524845291
 20
6768.1572733806324
 30
0.0
  0
VERTEX
  5
921
  8
LAYER01
 62
     7
 10
5943.449181486566
 20
6744.3676168836892
 30
0.0
  0
VERTEX
  5
922
  8
LAYER01
 62
     7
 10
5923.6244677391132
 20
6724.5429031362328
 30
0.0
  0
VERTEX
  5
923
  8
LAYER01
 62
     7
 10
5903.7997539916578
 20
6704.718189388781
 30
0.0
  0
VERTEX
  5
924
  8
LAYER01
 62
     7
 10
5883.975040244205
 20
6688.8584183908179
 30
0.0
  0
VERTEX
  5
925
  8
LAYER01
 62
     7
 10
5860.1853837472609
 20
6672.9986473928557
 30
0.0
  0
VERTEX
  5
926
  8
LAYER01
 62
     7
 10
5836.3957272503194
 20
6661.103819144384
 30
0.0
  0
VERTEX
  5
927
  8
LAYER01
 62
     7
 10
5808.6411280038801
 20
6653.173933645402
 30
0.0
  0
VERTEX
  5
928
  8
LAYER01
 62
     7
 10
5780.8865287574472
 20
6645.2440481464209
 30
0.0
  0
VERTEX
  5
929
  8
LAYER01
 62
     7
 10
5753.1319295110097
 20
6641.2791053969304
 30
0.0
  0
VERTEX
  5
92A
  8
LAYER01
 62
     7
 10
5725.3773302645768
 20
6637.3141626474389
 30
0.0
  0
VERTEX
  5
92B
  8
LAYER01
 62
     7
 10
5725.3773302645768
 20
6637.3141626474389
 30
0.0
  0
SEQEND
  5
92C
  8
LAYER01
 62
     7
  0
POLYLINE
  5
5D8
  8
LAYER01
 62
     7
 66
     1
 10
0.0
 20
0.0
 30
0.0
 70
     1
  0
VERTEX
  5
92D
  8
LAYER01
 62
     7
 10
6042.5727502238333
 20
7351.0038575557674
 30
0.0
  0
VERTEX
  5
92E
  8
LAYER01
 62
     7
 10
6462.8566816698476
 20
7351.0038575557674
 30
0.0
  0
VERTEX
  5
92F
  8
LAYER01
 62
     7
 10
6462.8566816698476
 20
7351.0038575557674
 30
0.0
  0
VERTEX
  5
930
  8
LAYER01
 62
     7
 10
6510.4359946637369
 20
7343.0739720567844
 30
0.0
  0
VERTEX
  5
931
  8
LAYER01
 62
     7
 10
6554.0503649081338
 20
7323.2492583093299
 30
0.0
  0
VERTEX
  5
932
  8
LAYER01
 62
     7
 10
6589.7348496535496
 20
7299.4596018123866
 30
0.0
  0
VERTEX
  5
933
  8
LAYER01
 62
     7
 10
6621.4543916494758
 20
7267.7400598164604
 30
0.0
  0
VERTEX
  5
934
  8
LAYER01
 62
     7
 10
6649.2089908959097
 20
7236.0205178205333
 30
0.0
  0
VERTEX
  5
935
  8
LAYER01
 62
     7
 10
6669.0337046433651
 20
7196.3710903256278
 30
0.0
  0
VERTEX
  5
936
  8
LAYER01
 62
     7
 10
6680.9285328918368
 20
7148.7917773317413
 30
0.0
  0
VERTEX
  5
937
  8
LAYER01
 62
     7
 10
6684.8934756413273
 20
7105.1774070873416
 30
0.0
  0
VERTEX
  5
938
  8
LAYER01
 62
     7
 10
6684.8934756413273
 20
7105.1774070873416
 30
0.0
  0
VERTEX
  5
939
  8
LAYER01
 62
     7
 10
6680.9285328918368
 20
7057.5980940934542
 30
0.0
  0
VERTEX
  5
93A
  8
LAYER01
 62
     7
 10
6672.9986473928557
 20
7017.948666598546
 30
0.0
  0
VERTEX
  5
93B
  8
LAYER01
 62
     7
 10
6657.1388763948926
 20
6978.2992391036396
 30
0.0
  0
VERTEX
  5
93C
  8
LAYER01
 62
     7
 10
6637.3141626474389
 20
6942.6147543582238
 30
0.0
  0
VERTEX
  5
93D
  8
LAYER01
 62
     7
 10
6609.5595634010042
 20
6910.8952123622976
 30
0.0
  0
VERTEX
  5
93E
  8
LAYER01
 62
     7
 10
6581.8049641545704
 20
6887.1055558653534
 30
0.0
  0
VERTEX
  5
93F
  8
LAYER01
 62
     7
 10
6542.1555366596622
 20
6863.3158993684092
 30
0.0
  0
VERTEX
  5
940
  8
LAYER01
 62
     7
 10
6502.5061091647531
 20
6847.4561283704461
 30
0.0
  0
VERTEX
  5
941
  8
LAYER01
 62
     7
 10
6760.2273878816522
 20
6502.5061091647531
 30
0.0
  0
VERTEX
  5
942
  8
LAYER01
 62
     7
 10
6561.9802504071158
 20
6502.5061091647531
 30
0.0
  0
VERTEX
  5
943
  8
LAYER01
 62
     7
 10
6217.0302312014246
 20
6942.6147543582238
 30
0.0
  0
VERTEX
  5
944
  8
LAYER01
 62
     7
 10
6411.3124259264687
 20
6942.6147543582238
 30
0.0
  0
VERTEX
  5
945
  8
LAYER01
 62
     7
 10
6411.3124259264687
 20
6942.6147543582238
 30
0.0
  0
VERTEX
  5
946
  8
LAYER01
 62
     7
 10
6435.102082423412
 20
6950.5446398572049
 30
0.0
  0
VERTEX
  5
947
  8
LAYER01
 62
     7
 10
6454.9267961708647
 20
6958.4745253561869
 30
0.0
  0
VERTEX
  5
948
  8
LAYER01
 62
     7
 10
6470.7865671688287
 20
6974.334296354149
 30
0.0
  0
VERTEX
  5
949
  8
LAYER01
 62
     7
 10
6486.6463381667909
 20
6990.1940673521131
 30
0.0
  0
VERTEX
  5
94A
  8
LAYER01
 62
     7
 10
6498.5411664152653
 20
7010.0187810995658
 30
0.0
  0
VERTEX
  5
94B
  8
LAYER01
 62
     7
 10
6510.4359946637369
 20
7029.8434948470176
 30
0.0
  0
VERTEX
  5
94C
  8
LAYER01
 62
     7
 10
6514.4009374132283
 20
7053.6331513439627
 30
0.0
  0
VERTEX
  5
94D
  8
LAYER01
 62
     7
 10
6514.4009374132283
 20
7077.4228078409069
 30
0.0
  0
VERTEX
  5
94E
  8
LAYER01
 62
     7
 10
6514.4009374132283
 20
7077.4228078409069
 30
0.0
  0
VERTEX
  5
94F
  8
LAYER01
 62
     7
 10
6514.4009374132283
 20
7101.212464337852
 30
0.0
  0
VERTEX
  5
950
  8
LAYER01
 62
     7
 10
6506.4710519142454
 20
7121.0371780853047
 30
0.0
  0
VERTEX
  5
951
  8
LAYER01
 62
     7
 10
6498.5411664152653
 20
7140.8618918327593
 30
0.0
  0
VERTEX
  5
952
  8
LAYER01
 62
     7
 10
6486.6463381667909
 20
7160.6866055802111
 30
0.0
  0
VERTEX
  5
953
  8
LAYER01
 62
     7
 10
6470.7865671688287
 20
7176.5463765781742
 30
0.0
  0
VERTEX
  5
954
  8
LAYER01
 62
     7
 10
6454.9267961708647
 20
7188.4412048266468
 30
0.0
  0
VERTEX
  5
955
  8
LAYER01
 62
     7
 10
6431.1371396739214
 20
7200.3360330751193
 30
0.0
  0
VERTEX
  5
956
  8
LAYER01
 62
     7
 10
6411.3124259264687
 20
7208.2659185741013
 30
0.0
  0
VERTEX
  5
957
  8
LAYER01
 62
     7
 10
6185.3106892055002
 20
7208.2659185741013
 30
0.0
  0
VERTEX
  5
958
  8
LAYER01
 62
     7
 10
6042.5727502238333
 20
7351.0038575557674
 30
0.0
  0
VERTEX
  5
959
  8
LAYER01
 62
     7
 10
6042.5727502238333
 20
7351.0038575557674
 30
0.0
  0
SEQEND
  5
95A
  8
LAYER01
 62
     7
  0
POLYLINE
  5
5D9
  8
LAYER01
 62
     7
 66
     1
 10
0.0
 20
0.0
 30
0.0
 70
     1
  0
VERTEX
  5
95B
  8
LAYER01
 62
     7
 10
6867.2808421178988
 20
7140.8618918327593
 30
0.0
  0
VERTEX
  5
95C
  8
LAYER01
 62
     7
 10
6867.2808421178988
 20
7140.8618918327593
 30
0.0
  0
VERTEX
  5
95D
  8
LAYER01
 62
     7
 10
6887.1055558653534
 20
7144.826834582248
 30
0.0
  0
VERTEX
  5
95E
  8
LAYER01
 62
     7
 10
6906.9302696128061
 20
7148.7917773317413
 30
0.0
  0
VERTEX
  5
95F
  8
LAYER01
 62
     7
 10
6926.7549833602607
 20
7160.6866055802111
 30
0.0
  0
VERTEX
  5
960
  8
LAYER01
 62
     7
 10
6942.6147543582238
 20
7172.5814338286846
 30
0.0
  0
VERTEX
  5
961
  8
LAYER01
 62
     7
 10
6954.5095826066963
 20
7188.4412048266468
 30
0.0
  0
VERTEX
  5
962
  8
LAYER01
 62
     7
 10
6962.4394681056774
 20
7204.3009758246117
 30
0.0
  0
VERTEX
  5
963
  8
LAYER01
 62
     7
 10
6970.3693536046603
 20
7224.1256895720644
 30
0.0
  0
VERTEX
  5
964
  8
LAYER01
 62
     7
 10
6970.3693536046603
 20
7247.9153460690077
 30
0.0
  0
VERTEX
  5
965
  8
LAYER01
 62
     7
 10
6970.3693536046603
 20
7247.9153460690077
 30
0.0
  0
VERTEX
  5
966
  8
LAYER01
 62
     7
 10
6970.3693536046603
 20
7267.7400598164604
 30
0.0
  0
VERTEX
  5
967
  8
LAYER01
 62
     7
 10
6962.4394681056774
 20
7287.5647735639131
 30
0.0
  0
VERTEX
  5
968
  8
LAYER01
 62
     7
 10
6954.5095826066963
 20
7303.4245445618772
 30
0.0
  0
VERTEX
  5
969
  8
LAYER01
 62
     7
 10
6942.6147543582238
 20
7319.2843155598421
 30
0.0
  0
VERTEX
  5
96A
  8
LAYER01
 62
     7
 10
6926.7549833602607
 20
7331.1791438083146
 30
0.0
  0
VERTEX
  5
96B
  8
LAYER01
 62
     7
 10
6906.9302696128061
 20
7343.0739720567844
 30
0.0
  0
VERTEX
  5
96C
  8
LAYER01
 62
     7
 10
6887.1055558653534
 20
7347.0389148062732
 30
0.0
  0
VERTEX
  5
96D
  8
LAYER01
 62
     7
 10
6867.2808421178988
 20
7351.0038575557674
 30
0.0
  0
VERTEX
  5
96E
  8
LAYER01
 62
     7
 10
6867.2808421178988
 20
7351.0038575557674
 30
0.0
  0
VERTEX
  5
96F
  8
LAYER01
 62
     7
 10
6847.4561283704461
 20
7347.0389148062732
 30
0.0
  0
VERTEX
  5
970
  8
LAYER01
 62
     7
 10
6827.6314146229952
 20
7343.0739720567844
 30
0.0
  0
VERTEX
  5
971
  8
LAYER01
 62
     7
 10
6807.8067008755397
 20
7331.1791438083146
 30
0.0
  0
VERTEX
  5
972
  8
LAYER01
 62
     7
 10
6791.9469298775748
 20
7319.2843155598421
 30
0.0
  0
VERTEX
  5
973
  8
LAYER01
 62
     7
 10
6780.0521016291041
 20
7303.4245445618772
 30
0.0
  0
VERTEX
  5
974
  8
LAYER01
 62
     7
 10
6772.122216130123
 20
7287.5647735639131
 30
0.0
  0
VERTEX
  5
975
  8
LAYER01
 62
     7
 10
6764.1923306311428
 20
7267.7400598164604
 30
0.0
  0
VERTEX
  5
976
  8
LAYER01
 62
     7
 10
6764.1923306311428
 20
7247.9153460690077
 30
0.0
  0
VERTEX
  5
977
  8
LAYER01
 62
     7
 10
6764.1923306311428
 20
7247.9153460690077
 30
0.0
  0
VERTEX
  5
978
  8
LAYER01
 62
     7
 10
6764.1923306311428
 20
7224.1256895720644
 30
0.0
  0
VERTEX
  5
979
  8
LAYER01
 62
     7
 10
6772.122216130123
 20
7204.3009758246117
 30
0.0
  0
VERTEX
  5
97A
  8
LAYER01
 62
     7
 10
6780.0521016291041
 20
7188.4412048266468
 30
0.0
  0
VERTEX
  5
97B
  8
LAYER01
 62
     7
 10
6791.9469298775748
 20
7172.5814338286846
 30
0.0
  0
VERTEX
  5
97C
  8
LAYER01
 62
     7
 10
6807.8067008755397
 20
7160.6866055802111
 30
0.0
  0
VERTEX
  5
97D
  8
LAYER01
 62
     7
 10
6827.6314146229952
 20
7148.7917773317413
 30
0.0
  0
VERTEX
  5
97E
  8
LAYER01
 62
     7
 10
6847.4561283704461
 20
7144.826834582248
 30
0.0
  0
VERTEX
  5
97F
  8
LAYER01
 62
     7
 10
6867.2808421178988
 20
7140.8618918327593
 30
0.0
  0
VERTEX
  5
980
  8
LAYER01
 62
     7
 10
6867.2808421178988
 20
7140.8618918327593
 30
0.0
  0
SEQEND
  5
981
  8
LAYER01
 62
     7
  0
POLYLINE
  5
5DA
  8
LAYER01
 62
     7
 66
     1
 10
0.0
 20
0.0
 30
0.0
 70
     1
  0
VERTEX
  5
982
  8
LAYER01
 62
     7
 10
6867.2808421178988
 20
7335.1440865578052
 30
0.0
  0
VERTEX
  5
983
  8
LAYER01
 62
     7
 10
6867.2808421178988
 20
7335.1440865578052
 30
0.0
  0
VERTEX
  5
984
  8
LAYER01
 62
     7
 10
6883.1406131158628
 20
7331.1791438083146
 30
0.0
  0
VERTEX
  5
985
  8
LAYER01
 62
     7
 10
6899.0003841138259
 20
7327.2142010588213
 30
0.0
  0
VERTEX
  5
986
  8
LAYER01
 62
     7
 10
6914.8601551117881
 20
7319.2843155598421
 30
0.0
  0
VERTEX
  5
987
  8
LAYER01
 62
     7
 10
6926.7549833602607
 20
7307.3894873113659
 30
0.0
  0
VERTEX
  5
988
  8
LAYER01
 62
     7
 10
6938.6498116087314
 20
7295.4946590628952
 30
0.0
  0
VERTEX
  5
989
  8
LAYER01
 62
     7
 10
6946.5796971077143
 20
7279.634888064933
 30
0.0
  0
VERTEX
  5
98A
  8
LAYER01
 62
     7
 10
6954.5095826066963
 20
7263.7751170669708
 30
0.0
  0
VERTEX
  5
98B
  8
LAYER01
 62
     7
 10
6954.5095826066963
 20
7247.9153460690077
 30
0.0
  0
VERTEX
  5
98C
  8
LAYER01
 62
     7
 10
6954.5095826066963
 20
7247.9153460690077
 30
0.0
  0
VERTEX
  5
98D
  8
LAYER01
 62
     7
 10
6954.5095826066963
 20
7228.0906323215549
 30
0.0
  0
VERTEX
  5
98E
  8
LAYER01
 62
     7
 10
6946.5796971077143
 20
7212.2308613235937
 30
0.0
  0
VERTEX
  5
98F
  8
LAYER01
 62
     7
 10
6938.6498116087314
 20
7196.3710903256278
 30
0.0
  0
VERTEX
  5
990
  8
LAYER01
 62
     7
 10
6926.7549833602607
 20
7184.4762620771562
 30
0.0
  0
VERTEX
  5
991
  8
LAYER01
 62
     7
 10
6914.8601551117881
 20
7172.5814338286846
 30
0.0
  0
VERTEX
  5
992
  8
LAYER01
 62
     7
 10
6899.0003841138259
 20
7164.6515483297017
 30
0.0
  0
VERTEX
  5
993
  8
LAYER01
 62
     7
 10
6883.1406131158628
 20
7160.6866055802111
 30
0.0
  0
VERTEX
  5
994
  8
LAYER01
 62
     7
 10
6867.2808421178988
 20
7160.6866055802111
 30
0.0
  0
VERTEX
  5
995
  8
LAYER01
 62
     7
 10
6867.2808421178988
 20
7160.6866055802111
 30
0.0
  0
VERTEX
  5
996
  8
LAYER01
 62
     7
 10
6851.4210711199376
 20
7160.6866055802111
 30
0.0
  0
VERTEX
  5
997
  8
LAYER01
 62
     7
 10
6831.5963573724839
 20
7164.6515483297017
 30
0.0
  0
VERTEX
  5
998
  8
LAYER01
 62
     7
 10
6819.7015291240123
 20
7172.5814338286846
 30
0.0
  0
VERTEX
  5
999
  8
LAYER01
 62
     7
 10
6803.8417581260492
 20
7184.4762620771562
 30
0.0
  0
VERTEX
  5
99A
  8
LAYER01
 62
     7
 10
6795.9118726270653
 20
7196.3710903256278
 30
0.0
  0
VERTEX
  5
99B
  8
LAYER01
 62
     7
 10
6787.9819871280861
 20
7212.2308613235937
 30
0.0
  0
VERTEX
  5
99C
  8
LAYER01
 62
     7
 10
6780.0521016291041
 20
7228.0906323215549
 30
0.0
  0
VERTEX
  5
99D
  8
LAYER01
 62
     7
 10
6780.0521016291041
 20
7247.9153460690077
 30
0.0
  0
VERTEX
  5
99E
  8
LAYER01
 62
     7
 10
6780.0521016291041
 20
7247.9153460690077
 30
0.0
  0
VERTEX
  5
99F
  8
LAYER01
 62
     7
 10
6780.0521016291041
 20
7263.7751170669708
 30
0.0
  0
VERTEX
  5
9A0
  8
LAYER01
 62
     7
 10
6787.9819871280861
 20
7279.634888064933
 30
0.0
  0
VERTEX
  5
9A1
  8
LAYER01
 62
     7
 10
6795.9118726270653
 20
7295.4946590628952
 30
0.0
  0
VERTEX
  5
9A2
  8
LAYER01
 62
     7
 10
6803.8417581260492
 20
7307.3894873113659
 30
0.0
  0
VERTEX
  5
9A3
  8
LAYER01
 62
     7
 10
6819.7015291240123
 20
7319.2843155598421
 30
0.0
  0
VERTEX
  5
9A4
  8
LAYER01
 62
     7
 10
6831.5963573724839
 20
7327.2142010588213
 30
0.0
  0
VERTEX
  5
9A5
  8
LAYER01
 62
     7
 10
6851.4210711199376
 20
7331.1791438083146
 30
0.0
  0
VERTEX
  5
9A6
  8
LAYER01
 62
     7
 10
6867.2808421178988
 20
7335.1440865578052
 30
0.0
  0
VERTEX
  5
9A7
  8
LAYER01
 62
     7
 10
6867.2808421178988
 20
7335.1440865578052
 30
0.0
  0
SEQEND
  5
9A8
  8
LAYER01
 62
     7
  0
POLYLINE
  5
5DB
  8
LAYER01
 62
     7
 66
     1
 10
0.0
 20
0.0
 30
0.0
 70
     1
  0
VERTEX
  5
9A9
  8
LAYER01
 62
     7
 10
6883.1406131158628
 20
7239.9854605700248
 30
0.0
  0
VERTEX
  5
9AA
  8
LAYER01
 62
     7
 10
6883.1406131158628
 20
7239.9854605700248
 30
0.0
  0
VERTEX
  5
9AB
  8
LAYER01
 62
     7
 10
6895.0354413643372
 20
7243.950403319518
 30
0.0
  0
VERTEX
  5
9AC
  8
LAYER01
 62
     7
 10
6906.9302696128061
 20
7247.9153460690077
 30
0.0
  0
VERTEX
  5
9AD
  8
LAYER01
 62
     7
 10
6914.8601551117881
 20
7259.8101743174784
 30
0.0
  0
VERTEX
  5
9AE
  8
LAYER01
 62
     7
 10
6914.8601551117881
 20
7271.705002565951
 30
0.0
  0
VERTEX
  5
9AF
  8
LAYER01
 62
     7
 10
6914.8601551117881
 20
7271.705002565951
 30
0.0
  0
VERTEX
  5
9B0
  8
LAYER01
 62
     7
 10
6914.8601551117881
 20
7287.5647735639131
 30
0.0
  0
VERTEX
  5
9B1
  8
LAYER01
 62
     7
 10
6902.9653268633147
 20
7299.4596018123866
 30
0.0
  0
VERTEX
  5
9B2
  8
LAYER01
 62
     7
 10
6891.0704986148439
 20
7303.4245445618772
 30
0.0
  0
VERTEX
  5
9B3
  8
LAYER01
 62
     7
 10
6875.2107276168808
 20
7303.4245445618772
 30
0.0
  0
VERTEX
  5
9B4
  8
LAYER01
 62
     7
 10
6827.6314146229952
 20
7303.4245445618772
 30
0.0
  0
VERTEX
  5
9B5
  8
LAYER01
 62
     7
 10
6827.6314146229952
 20
7188.4412048266468
 30
0.0
  0
VERTEX
  5
9B6
  8
LAYER01
 62
     7
 10
6843.4911856209546
 20
7188.4412048266468
 30
0.0
  0
VERTEX
  5
9B7
  8
LAYER01
 62
     7
 10
6843.4911856209546
 20
7239.9854605700248
 30
0.0
  0
VERTEX
  5
9B8
  8
LAYER01
 62
     7
 10
6867.2808421178988
 20
7239.9854605700248
 30
0.0
  0
VERTEX
  5
9B9
  8
LAYER01
 62
     7
 10
6895.0354413643372
 20
7188.4412048266468
 30
0.0
  0
VERTEX
  5
9BA
  8
LAYER01
 62
     7
 10
6914.8601551117881
 20
7188.4412048266468
 30
0.0
  0
VERTEX
  5
9BB
  8
LAYER01
 62
     7
 10
6883.1406131158628
 20
7239.9854605700248
 30
0.0
  0
VERTEX
  5
9BC
  8
LAYER01
 62
     7
 10
6883.1406131158628
 20
7239.9854605700248
 30
0.0
  0
SEQEND
  5
9BD
  8
LAYER01
 62
     7
  0
POLYLINE
  5
5DC
  8
LAYER01
 62
     7
 66
     1
 10
0.0
 20
0.0
 30
0.0
 70
     1
  0
VERTEX
  5
9BE
  8
LAYER01
 62
     7
 10
6871.2457848673903
 20
7287.5647735639131
 30
0.0
  0
VERTEX
  5
9BF
  8
LAYER01
 62
     7
 10
6871.2457848673903
 20
7287.5647735639131
 30
0.0
  0
VERTEX
  5
9C0
  8
LAYER01
 62
     7
 10
6891.0704986148439
 20
7283.5998308144244
 30
0.0
  0
VERTEX
  5
9C1
  8
LAYER01
 62
     7
 10
6899.0003841138259
 20
7279.634888064933
 30
0.0
  0
VERTEX
  5
9C2
  8
LAYER01
 62
     7
 10
6899.0003841138259
 20
7271.705002565951
 30
0.0
  0
VERTEX
  5
9C3
  8
LAYER01
 62
     7
 10
6899.0003841138259
 20
7271.705002565951
 30
0.0
  0
VERTEX
  5
9C4
  8
LAYER01
 62
     7
 10
6895.0354413643372
 20
7263.7751170669708
 30
0.0
  0
VERTEX
  5
9C5
  8
LAYER01
 62
     7
 10
6887.1055558653534
 20
7259.8101743174784
 30
0.0
  0
VERTEX
  5
9C6
  8
LAYER01
 62
     7
 10
6863.3158993684092
 20
7255.8452315679897
 30
0.0
  0
VERTEX
  5
9C7
  8
LAYER01
 62
     7
 10
6843.4911856209546
 20
7255.8452315679897
 30
0.0
  0
VERTEX
  5
9C8
  8
LAYER01
 62
     7
 10
6843.4911856209546
 20
7287.5647735639131
 30
0.0
  0
VERTEX
  5
9C9
  8
LAYER01
 62
     7
 10
6871.2457848673903
 20
7287.5647735639131
 30
0.0
  0
VERTEX
  5
9CA
  8
LAYER01
 62
     7
 10
6871.2457848673903
 20
7287.5647735639131
 30
0.0
  0
SEQEND
  5
9CB
  8
LAYER01
 62
     7
  0
ENDBLK
  5
5DD
  8
0
 62
     7
  0
BLOCK
  8
0
  2
*U17
 70
     1
 10
0.0
 20
0.0
 30
0.0
  3
*U17
  1

  0
TEXT
  5
5E0
  8
KERA4___1
 62
   250
 10
-3087.4324907162932
 20
-368.73522580536002
 30
0.0
 40
80.0
  1
http://www.varicor.org
  0
ENDBLK
  5
5E1
  8
0
  0
BLOCK
  8
0
 62
     7
  2
*D19
 70
     1
 10
0.0
 20
0.0
 30
0.0
  3
*D19
  1

  0
POINT
  5
7F5
  8
Defpoints
 62
     0
 10
82.967253999999997
 20
27.354361999999998
 30
0.0
  0
POINT
  5
7F6
  8
Defpoints
 62
     0
 10
0.0
 20
0.0
 30
0.0
  0
POINT
  5
7F7
  8
Defpoints
 62
     0
 10
0.0
 20
0.0
 30
0.0
  0
POINT
  5
7F8
  8
Defpoints
 62
     0
 10
0.0
 20
0.0
 30
0.0
  0
POINT
  5
7F9
  8
Defpoints
 62
     0
 10
0.0
 20
0.0
 30
0.0
  0
ENDBLK
  5
7F4
  8
0
 62
     7
  0
ENDSEC
  0
SECTION
  2
ENTITIES
  0
POLYLINE
  5
336
  8
LAYER01
  6
CONTINUOUS
 62
     7
 66
     1
 10
0.0
 20
0.0
 30
0.0
 70
     1
  0
VERTEX
  5
7D2
  8
LAYER01
  6
CONTINUOUS
 62
     7
 10
-1956.6547149999999
 20
-1946.8376049999999
 30
0.0
  0
VERTEX
  5
7D3
  8
LAYER01
  6
CONTINUOUS
 62
     7
 10
-1956.6547149999999
 20
1149.033287
 30
0.0
  0
VERTEX
  5
7D4
  8
LAYER01
  6
CONTINUOUS
 62
     7
 10
3008.4973460000001
 20
1149.033287
 30
0.0
  0
VERTEX
  5
7D5
  8
LAYER01
  6
CONTINUOUS
 62
     7
 10
3008.4973460000001
 20
-1946.8376049999999
 30
0.0
  0
SEQEND
  5
7D6
  8
LAYER01
  6
CONTINUOUS
 62
     7
  0
DIMENSION
  5
33C
  8
LAYER01
 62
     7
  2
*D0
 10
175.09476100000001
 20
-471.14784800000012
 30
0.0
 11
278.50588900000002
 21
-471.14784800000012
 31
0.0
 70
     3
 15
125.050787
 25
-363.40941800000002
 35
0.0
 40
118.793808
  0
ARC
  5
33D
  8
LAYER01
  6
VERDECKT
 62
     7
 10
56.795625000000001
 20
97.502999999999986
 30
0.0
 40
488.0
 50
215.0
 51
325.0
  0
POLYLINE
  5
33E
  8
0
  6
CONTINUOUS
 62
     7
 66
     1
 10
0.0
 20
0.0
 30
0.0
  0
VERTEX
  5
7D7
  8
0
  6
CONTINUOUS
 62
     7
 10
72.455352000000005
 20
-949.58468400000004
 30
0.0
 42
-0.329645
  0
VERTEX
  5
7D8
  8
0
  6
CONTINUOUS
 62
     7
 10
-54.848794999999988
 20
-798.93755699999997
 30
0.0
 42
0.395371
  0
VERTEX
  5
7D9
  8
0
  6
CONTINUOUS
 62
     7
 10
-64.827833999999996
 20
-789.58468400000004
 30
0.0
  0
VERTEX
  5
7DA
  8
0
  6
CONTINUOUS
 62
     7
 10
-205.190663
 20
-789.58468400000004
 30
0.0
  0
SEQEND
  5
7DB
  8
0
  6
CONTINUOUS
 62
     7
  0
POLYLINE
  5
344
  8
0
  6
CONTINUOUS
 62
     7
 66
     1
 10
0.0
 20
0.0
 30
0.0
  0
VERTEX
  5
7DC
  8
0
  6
CONTINUOUS
 62
     7
 10
-205.190663
 20
-801.58468400000004
 30
0.0
  0
VERTEX
  5
7DD
  8
0
  6
CONTINUOUS
 62
     7
 10
-76.296611999999996
 20
-801.58468400000004
 30
0.0
 42
-0.3799619999999999
  0
VERTEX
  5
7DE
  8
0
  6
CONTINUOUS
 62
     7
 10
-66.366551999999984
 20
-810.40404899999987
 30
0.0
 42
0.309893
  0
VERTEX
  5
7DF
  8
0
  6
CONTINUOUS
 62
     7
 10
64.787506000000008
 20
-960.13575900000001
 30
0.0
 42
-0.342628
  0
VERTEX
  5
7E0
  8
0
  6
CONTINUOUS
 62
     7
 10
72.309336999999999
 20
-969.82382799999993
 30
0.0
  0
VERTEX
  5
7E1
  8
0
  6
CONTINUOUS
 62
     7
 10
72.309336999999999
 20
-971.88493400000004
 30
0.0
  0
SEQEND
  5
7E2
  8
0
  6
CONTINUOUS
 62
     7
  0
DIMENSION
  5
34C
  8
LAYER01
 62
     7
  2
*D1
 10
293.80933700000003
 20
-691.63082899999995
 30
0.0
 11
39.309336999999999
 21
-661.63082899999995
 31
0.0
 13
-205.190663
 23
-789.58468400000004
 33
0.0
 14
293.80933700000003
 24
-789.58468400000004
 34
0.0
  0
DIMENSION
  5
34D
  8
LAYER01
 62
     7
  2
*D2
 10
-205.190663
 20
-1119.343145
 30
0.0
 11
-48.940663000000001
 21
-1089.3431449999989
 31
0.0
 13
107.309337
 23
-1088.113568
 33
0.0
 14
-205.190663
 24
-1088.113568
 34
0.0
  0
DIMENSION
  5
34E
  8
LAYER01
 62
     7
  2
*D3
 10
269.80933700000003
 20
-752.98001199999987
 30
0.0
 11
107.309337
 21
-722.98001199999999
 31
0.0
 13
-55.190663000000001
 23
-789.58468400000004
 33
0.0
 14
269.80933700000003
 24
-789.58468400000004
 34
0.0
  0
LINE
  5
34F
  8
0
  6
CONTINUOUS
 62
     7
 10
107.309337
 20
-789.58468400000004
 30
0.0
 11
-55.190663000000001
 21
-789.58468400000004
 31
0.0
  0
DIMENSION
  5
350
  8
LAYER01
 62
     7
  2
*D4
 10
-55.190663000000001
 20
-752.98001199999987
 30
0.0
 11
-130.190663
 21
-722.98001199999999
 31
0.0
 13
-205.190663
 23
-789.58468400000004
 33
0.0
 14
-55.190663000000001
 24
-789.58468400000004
 34
0.0
  0
LINE
  5
351
  8
0
  6
CONTINUOUS
 62
     7
 10
-205.190663
 20
-789.58468400000004
 30
0.0
 11
-205.190663
 21
-801.58468400000004
 31
0.0
  0
DIMENSION
  5
352
  8
LAYER01
 62
     7
  2
*D5
 10
-268.63793900000002
 20
-994.58468399999992
 30
0.0
 11
-298.63793900000002
 21
-892.08468400000015
 31
0.0
 53
90.0
 13
-205.190663
 23
-789.58468400000004
 33
0.0
 14
-205.190663
 24
-994.58468399999992
 34
0.0
 50
90.0
  0
LINE
  5
353
  8
0
  6
CONTINUOUS
 62
     7
 10
84.309336999999999
 20
-957.88493399999993
 30
0.0
 11
130.309337
 21
-957.88493399999993
 31
0.0
  0
LINE
  5
354
  8
0
  6
CONTINUOUS
 62
     7
 10
130.309337
 20
-957.88493399999993
 30
0.0
 11
142.16332299999999
 21
-949.58468400000004
 31
0.0
  0
LINE
  5
355
  8
0
  6
CONTINUOUS
 62
     7
 10
84.309336999999999
 20
-957.88493399999993
 30
0.0
 11
72.455352000000005
 21
-949.58468400000004
 31
0.0
  0
LINE
  5
356
  8
0
  6
CONTINUOUS
 62
     7
 10
72.455352000000005
 20
-949.58468400000004
 30
0.0
 11
142.16332299999999
 21
-949.58468400000004
 31
0.0
  0
LINE
  5
357
  8
0
  6
CONTINUOUS
 62
     7
 10
84.309336999999999
 20
-957.88493399999993
 30
0.0
 11
84.309336999999999
 21
-971.88493400000004
 31
0.0
  0
LINE
  5
358
  8
0
  6
CONTINUOUS
 62
     7
 10
130.309337
 20
-957.88493399999993
 30
0.0
 11
130.309337
 21
-971.88493400000004
 31
0.0
  0
LINE
  5
359
  8
0
  6
CONTINUOUS
 62
     7
 10
107.309337
 20
-789.58468400000004
 30
0.0
 11
269.80933700000003
 21
-789.58468400000004
 31
0.0
  0
LINE
  5
35A
  8
0
  6
CONTINUOUS
 62
     7
 10
293.80933700000003
 20
-869.58468399999992
 30
0.0
 11
281.80933700000003
 21
-869.58468399999992
 31
0.0
  0
DIMENSION
  5
35B
  8
LAYER01
 62
     7
  2
*D6
 10
406.26477799999992
 20
-789.58468400000004
 30
0.0
 11
376.26477799999998
 21
-829.58468400000015
 31
0.0
 53
90.0
 13
305.94535999999999
 23
-869.58468399999992
 33
0.0
 14
305.94535999999999
 24
-789.58468400000004
 34
0.0
 50
90.0
  0
DIMENSION
  5
35C
  8
LAYER01
 62
     7
  2
*D7
 10
497.753919
 20
-949.58468400000004
 30
0.0
 11
467.753919
 21
-869.58468399999992
 31
0.0
 53
90.0
 13
305.94535999999999
 23
-789.58468400000004
 33
0.0
 14
305.94535999999999
 24
-949.58468400000004
 34
0.0
 50
90.0
  0
LINE
  5
35D
  8
LAYER01
  6
STRICHPUNKTIERT
 62
     5
 10
107.309337
 20
-1071.356235
 30
0.0
 11
107.309337
 21
-882.07453299999986
 31
0.0
  0
LINE
  5
35E
  8
0
  6
CONTINUOUS
 62
     7
 10
84.309336999999999
 20
-994.58468399999992
 30
0.0
 11
130.309337
 21
-994.58468399999992
 31
0.0
  0
LINE
  5
35F
  8
0
  6
CONTINUOUS
 62
     7
 10
130.309337
 20
-994.58468399999992
 30
0.0
 11
142.309337
 21
-994.58468399999992
 31
0.0
  0
LINE
  5
360
  8
0
  6
CONTINUOUS
 62
     7
 10
84.309336999999999
 20
-994.58468399999992
 30
0.0
 11
72.309336999999999
 21
-994.58468399999992
 31
0.0
  0
DIMENSION
  5
361
  8
LAYER01
 62
     7
  2
*D8
 10
84.309336999999999
 20
-1055.2094380000001
 30
0.0
 11
218.309337
 21
-1025.2094380000001
 31
0.0
 13
130.309337
 23
-994.58468399999992
 33
0.0
 14
84.309336999999999
 24
-994.58468399999992
 34
0.0
  0
LINE
  5
362
  8
LAYER01
  6
STRICHPUNKTIERT
 62
     7
 10
84.309336999999999
 20
-971.88493400000004
 30
0.0
 11
84.309336999999999
 21
-994.58468399999992
 31
0.0
  0
LINE
  5
363
  8
LAYER01
  6
STRICHPUNKTIERT
 62
     7
 10
130.309337
 20
-971.88493400000004
 30
0.0
 11
130.309337
 21
-994.58468399999992
 31
0.0
  0
LINE
  5
364
  8
LAYER01
  6
STRICHPUNKTIERT
 62
     7
 10
72.309336999999999
 20
-969.82382799999993
 30
0.0
 11
72.309336999999999
 21
-994.58468399999992
 31
0.0
  0
POLYLINE
  5
365
  8
0
  6
CONTINUOUS
 62
     7
 66
     1
 10
0.0
 20
0.0
 30
0.0
  0
VERTEX
  5
7E3
  8
0
  6
CONTINUOUS
 62
     7
 10
142.16332299999999
 20
-949.58468400000004
 30
0.0
 42
0.329645
  0
VERTEX
  5
7E4
  8
0
  6
CONTINUOUS
 62
     7
 10
269.46746999999999
 20
-798.93755699999997
 30
0.0
 42
-0.395371
  0
VERTEX
  5
7E5
  8
0
  6
CONTINUOUS
 62
     7
 10
279.44650899999999
 20
-789.58468400000004
 30
0.0
  0
VERTEX
  5
7E6
  8
0
  6
CONTINUOUS
 62
     7
 10
288.80933700000003
 20
-789.58468400000004
 30
0.0
 42
-0.4142140000000001
  0
VERTEX
  5
7E7
  8
0
  6
CONTINUOUS
 62
     7
 10
293.80933700000003
 20
-794.58468400000004
 30
0.0
  0
VERTEX
  5
7E8
  8
0
  6
CONTINUOUS
 62
     7
 10
293.80933700000003
 20
-869.58468399999992
 30
0.0
  0
SEQEND
  5
7E9
  8
0
  6
CONTINUOUS
 62
     7
  0
POLYLINE
  5
36D
  8
0
  6
CONTINUOUS
 62
     7
 66
     1
 10
0.0
 20
0.0
 30
0.0
  0
VERTEX
  5
7EA
  8
0
  6
CONTINUOUS
 62
     7
 10
142.309337
 20
-971.88493400000004
 30
0.0
  0
VERTEX
  5
7EB
  8
0
  6
CONTINUOUS
 62
     7
 10
142.309337
 20
-969.84732100000008
 30
0.0
 42
-0.343391
  0
VERTEX
  5
7EC
  8
0
  6
CONTINUOUS
 62
     7
 10
149.857641
 20
-960.15251899999998
 30
0.0
 42
0.250632
  0
VERTEX
  5
7ED
  8
0
  6
CONTINUOUS
 62
     7
 10
272.09691099999998
 20
-848.79640099999983
 30
0.0
 42
-0.8426239999999999
  0
VERTEX
  5
7EE
  8
0
  6
CONTINUOUS
 62
     7
 10
281.80933700000003
 20
-850.46763899999996
 30
0.0
  0
VERTEX
  5
7EF
  8
0
  6
CONTINUOUS
 62
     7
 10
281.80933700000003
 20
-869.58468399999992
 30
0.0
  0
SEQEND
  5
7F0
  8
0
  6
CONTINUOUS
 62
     7
  0
LINE
  5
375
  8
LAYER01
  6
STRICHPUNKTIERT
 62
     7
 10
142.309337
 20
-971.88493400000004
 30
0.0
 11
142.309337
 21
-994.58468399999992
 31
0.0
  0
CIRCLE
  5
376
  8
0
  6
CONTINUOUS
 62
     7
 10
56.594813000000002
 20
-216.03225
 30
0.0
 40
162.5
  0
LINE
  5
377
  8
0
  6
CONTINUOUS
 62
     7
 10
56.795625000000001
 20
97.502999999999986
 30
0.0
 11
-352.78039699999999
 21
-189.28521799999999
 31
0.0
  0
ARC
  5
378
  8
0
  6
CONTINUOUS
 62
     7
 10
56.795625000000001
 20
97.502999999999986
 30
0.0
 40
500.0
 50
215.0
 51
325.0
  0
DIMENSION
  5
379
  8
LAYER01
 62
     7
  2
*D9
 10
-418.27368300000001
 20
-95.751112000000006
 30
0.0
 11
-230.69296499999999
 21
72.217557999999997
 31
0.0
 70
     1
 53
35.0
 13
56.795625000000001
 23
97.502999999999986
 33
0.0
 14
-352.78039699999999
 24
-189.28521799999999
 34
0.0
  0
DIMENSION
  5
37A
  8
LAYER01
 62
     7
  2
*D10
 10
-1.6228370000000001
 20
-37.635586000000004
 30
0.0
 11
-69.001874000000001
 21
-37.635586000000004
 31
0.0
 70
     3
 15
41.799418000000003
 25
-11.517188000000001
 35
0.0
 40
50.672111999999998
  0
DIMENSION
  5
37B
  8
LAYER01
 62
     7
  2
*D11
 10
132.16307900000001
 20
205.138879
 30
0.0
 11
354.15838300000001
 21
86.319331999999974
 31
0.0
 70
     1
 53
325.0
 13
466.37164699999988
 23
-189.28521799999999
 33
0.0
 14
56.795625000000001
 24
97.502999999999986
 34
0.0
  0
LINE
  5
37C
  8
0
  6
CONTINUOUS
 62
     7
 10
56.795625000000001
 20
97.502999999999986
 30
0.0
 11
466.37164699999988
 21
-189.28521799999999
 31
0.0
  0
LINE
  5
37D
  8
LAYER01
  6
STRICHPUNKTIERT
 62
     5
 10
56.795625000000001
 20
23.496029
 30
0.0
 11
56.795625000000001
 21
-32.882823999999999
 31
0.0
  0
DIMENSION
  5
37E
  8
LAYER01
 62
     7
  2
*D19
 10
0.0
 20
0.0
 30
0.0
 11
82.967253999999997
 21
27.354361999999998
 31
0.0
 70
     2
 13
0.0
 23
0.0
 33
0.0
 14
0.0
 24
0.0
 34
0.0
 15
0.0
 25
0.0
 35
0.0
 16
82.967253999999997
 26
27.354361999999998
 36
0.0
1001
ACAD
1000
DSTYLE
1002
{
1070
   271
1070
     0
1002
}
  0
CIRCLE
  5
37F
  8
0
  6
CONTINUOUS
 62
     7
 10
56.795625000000001
 20
-2.496999999999999
 30
0.0
 40
17.5
  0
CIRCLE
  5
380
  8
0
  6
CONTINUOUS
 62
     7
 10
56.594813000000002
 20
-216.03225
 30
0.0
 40
23.0
  0
CIRCLE
  5
381
  8
0
  6
CONTINUOUS
 62
     7
 10
56.594813000000002
 20
-216.03225
 30
0.0
 40
35.0
  0
LINE
  5
382
  8
LAYER01
  6
STRICHPUNKTIERT
 62
     5
 10
-15.612273999999999
 20
-216.03225
 30
0.0
 11
128.41073800000001
 21
-216.03225
 31
0.0
  0
LINE
  5
383
  8
LAYER01
  6
STRICHPUNKTIERT
 62
     5
 10
56.795625000000001
 20
-163.433751
 30
0.0
 11
56.795625000000001
 21
-282.43717600000002
 31
0.0
  0
LINE
  5
384
  8
LAYER01
  6
STRICHPUNKTIERT
 62
     5
 10
19.664739999999998
 20
-2.496999999999999
 30
0.0
 11
96.939690999999996
 21
-2.496999999999999
 31
0.0
  0
INSERT
  5
385
  8
LAYER01
  2
SARDANE-G14
 10
0.0
 20
0.0
 30
0.0
  0
TEXT
  5
387
  8
LAYER01
  6
VERDECKT
 62
     1
 10
1984.821365
 20
-1685.549242
 30
0.0
 40
14.0
  1
2015
  7
SIMPLEX
  0
TEXT
  5
388
  8
LAYER01
  6
VERDECKT
 62
     1
 10
2309.1538530000012
 20
-1604.510524
 30
0.0
 40
35.0
  1
A. Sprenger GmbH
  7
SIMPLEX
  0
TEXT
  5
389
  8
LAYER01
  6
CONTINUOUS
 62
     7
 10
2297.799634
 20
-1387.760188
 30
0.0
 40
10.5
  1
Diese Zeichnung ist geistiges Eigentum der A. Sprenger GmbH
  7
SIMPLEX
  0
TEXT
  5
38A
  8
LAYER01
  6
CONTINUOUS
 62
     7
 10
2297.799634
 20
-1405.760188
 30
0.0
 40
10.5
  1
und urheberrechtlich geschützt. Ohne unsere Zustimmung darf 
  7
SIMPLEX
  0
TEXT
  5
38B
  8
LAYER01
  6
CONTINUOUS
 62
     7
 10
2297.799634
 20
-1423.760188
 30
0.0
 40
10.5
  1
sie in keiner Form verwendet oder Dritten zugänglich gemacht
  7
SIMPLEX
  0
TEXT
  5
38C
  8
LAYER01
  6
VERDECKT
 62
     1
 10
2309.1538530000012
 20
-1741.9665620000001
 30
0.0
 40
49.0
  1
Sardane
  7
SIMPLEX
  0
TEXT
  5
38D
  8
LAYER01
  6
CONTINUOUS
 62
     7
 10
2297.799634
 20
-1441.760188
 30
0.0
 40
10.5
  1
werden. (§106 Urheberrecht)
  7
SIMPLEX
  0
TEXT
  5
38E
  8
LAYER01
  6
VERDECKT
 62
     1
 10
2762.2951029999999
 20
-1514.240888
 30
0.0
 40
14.0
  1
xxx.skd
  7
SIMPLEX
  0
INSERT
  5
5EA
  8
LAYER01
  6
CONTINUOUS
 62
     7
  2
WMF0
 10
1046.5014140638491
 20
-2716.8334303276929
 30
0.0
 41
0.25
 42
0.25
 43
0.25
  0
INSERT
  5
5EB
  8
KERA4
  2
*U17
 10
3921.5283032682519
 20
-918.39970964858514
 30
0.0
 41
0.7199999999997999
 42
0.7200000000000273
 43
0.7200000000000001
  0
ENDSEC
  0
EOF
