  0
SECTION
  2
HEADER
  9
$ACADVER
  1
AC1009
  9
$INSBASE
 10
0.0
 20
0.0
 30
0.0
  9
$EXTMIN
 10
-656.79366500000003
 20
-791.83663799999999
 30
-0.00000001
  9
$EXTMAX
 10
3323.8838760000008
 20
1964.2854110000001
 30
0.00000001
  9
$LIMMIN
 10
-765.87413000000004
 20
-901.97868100000005
  9
$LIMMAX
 10
3434.1258700000012
 20
2068.0213189999999
  9
$ORTHOMODE
 70
     1
  9
$REGENMODE
 70
     1
  9
$FILLMODE
 70
     1
  9
$QTEXTMODE
 70
     0
  9
$MIRRTEXT
 70
     0
  9
$DRAGMODE
 70
     2
  9
$LTSCALE
 40
100.0
  9
$OSMODE
 70
    43
  9
$ATTMODE
 70
     1
  9
$TEXTSIZE
 40
0.0
  9
$TRACEWID
 40
0.05
  9
$TEXTSTYLE
  7
STANDARD
  9
$CLAYER
  8
LAYER01
  9
$CELTYPE
  6
VERDECKT
  9
$CECOLOR
 62
     7
  9
$DIMSCALE
 40
1.0
  9
$DIMASZ
 40
0.18
  9
$DIMEXO
 40
0.0625
  9
$DIMDLI
 40
0.38
  9
$DIMRND
 40
0.0
  9
$DIMDLE
 40
0.0
  9
$DIMEXE
 40
0.18
  9
$DIMTP
 40
0.0
  9
$DIMTM
 40
0.0
  9
$DIMTXT
 40
0.18
  9
$DIMCEN
 40
0.09
  9
$DIMTSZ
 40
0.0
  9
$DIMTOL
 70
     0
  9
$DIMLIM
 70
     0
  9
$DIMTIH
 70
     1
  9
$DIMTOH
 70
     1
  9
$DIMSE1
 70
     0
  9
$DIMSE2
 70
     0
  9
$DIMTAD
 70
     0
  9
$DIMZIN
 70
     0
  9
$DIMBLK
  1

  9
$DIMASO
 70
     1
  9
$DIMSHO
 70
     1
  9
$DIMPOST
  1

  9
$DIMAPOST
  1

  9
$DIMALT
 70
     0
  9
$DIMALTD
 70
     2
  9
$DIMALTF
 40
25.399999999999999
  9
$DIMLFAC
 40
1.0
  9
$DIMTOFL
 70
     0
  9
$DIMTVP
 40
0.0
  9
$DIMTIX
 70
     0
  9
$DIMSOXD
 70
     0
  9
$DIMSAH
 70
     0
  9
$DIMBLK1
  1

  9
$DIMBLK2
  1

  9
$DIMSTYLE
  2
STANDARD
  9
$DIMCLRD
 70
     0
  9
$DIMCLRE
 70
     0
  9
$DIMCLRT
 70
     0
  9
$DIMTFAC
 40
1.0
  9
$DIMGAP
 40
0.09
  9
$LUNITS
 70
     2
  9
$LUPREC
 70
     4
  9
$SKETCHINC
 40
0.1
  9
$FILLETRAD
 40
10.0
  9
$AUNITS
 70
     0
  9
$AUPREC
 70
     0
  9
$MENU
  1
acad
  9
$ELEVATION
 40
0.0
  9
$PELEVATION
 40
0.0
  9
$THICKNESS
 40
0.0
  9
$LIMCHECK
 70
     0
  9
$BLIPMODE
 70
     0
  9
$CHAMFERA
 40
10.0
  9
$CHAMFERB
 40
10.0
  9
$SKPOLY
 70
     0
  9
$TDCREATE
 40
2305814.0418137149
  9
$TDUPDATE
 40
2457835.7348462958
  9
$TDINDWG
 40
0.0021771644
  9
$TDUSRTIMER
 40
0.0021770833
  9
$USRTIMER
 70
     1
  9
$ANGBASE
 50
0.0
  9
$ANGDIR
 70
     0
  9
$PDMODE
 70
     0
  9
$PDSIZE
 40
0.0
  9
$PLINEWID
 40
0.0
  9
$COORDS
 70
     1
  9
$SPLFRAME
 70
     0
  9
$SPLINETYPE
 70
     6
  9
$SPLINESEGS
 70
    10
  9
$ATTDIA
 70
     0
  9
$ATTREQ
 70
     1
  9
$HANDLING
 70
     1
  9
$HANDSEED
  5
D5A
  9
$SURFTAB1
 70
     6
  9
$SURFTAB2
 70
     6
  9
$SURFTYPE
 70
     6
  9
$SURFU
 70
     6
  9
$SURFV
 70
     6
  9
$UCSNAME
  2

  9
$UCSORG
 10
0.0
 20
0.0
 30
0.0
  9
$UCSXDIR
 10
1.0
 20
0.0
 30
0.0
  9
$UCSYDIR
 10
0.0
 20
1.0
 30
0.0
  9
$PUCSNAME
  2

  9
$PUCSORG
 10
0.0
 20
0.0
 30
0.0
  9
$PUCSXDIR
 10
1.0
 20
0.0
 30
0.0
  9
$PUCSYDIR
 10
0.0
 20
1.0
 30
0.0
  9
$USERI1
 70
     0
  9
$USERI2
 70
     0
  9
$USERI3
 70
     0
  9
$USERI4
 70
     0
  9
$USERI5
 70
     0
  9
$USERR1
 40
0.0
  9
$USERR2
 40
0.0
  9
$USERR3
 40
0.0
  9
$USERR4
 40
0.0
  9
$USERR5
 40
0.0
  9
$WORLDVIEW
 70
     1
  9
$SHADEDGE
 70
     3
  9
$SHADEDIF
 70
    70
  9
$TILEMODE
 70
     1
  9
$MAXACTVP
 70
    64
  9
$PLIMCHECK
 70
     0
  9
$PEXTMIN
 10
1.0000000000000000E+020
 20
1.0000000000000000E+020
 30
1.0000000000000000E+020
  9
$PEXTMAX
 10
-1.0000000000000000E+020
 20
-1.0000000000000000E+020
 30
-1.0000000000000000E+020
  9
$PLIMMIN
 10
0.0
 20
0.0
  9
$PLIMMAX
 10
12.0
 20
9.0
  9
$UNITMODE
 70
     0
  9
$VISRETAIN
 70
     1
  9
$PLINEGEN
 70
     0
  9
$PSLTSCALE
 70
     1
  0
ENDSEC
  0
SECTION
  2
TABLES
  0
TABLE
  2
VPORT
 70
     1
  0
VPORT
  2
*ACTIVE
 70
     0
 10
0.0
 20
0.0
 11
1.0
 21
1.0
 12
0.0
 22
0.0
 13
0.0
 23
0.0
 14
1.0
 24
1.0
 15
0.0
 25
0.0
 16
0.0
 26
0.0
 36
6474.2035450196336
 17
1334.1258700000001
 27
779.50793811745109
 37
0.0
 40
3432.375627707971
 41
1.38508064516129
 42
50.0
 43
0.0
 44
0.0
 50
0.0
 51
0.0
 71
     0
 72
   100
 73
     1
 74
     1
 75
     0
 76
     0
 77
     0
 78
     0
  0
ENDTAB
  0
TABLE
  2
LTYPE
 70
    11
  0
LTYPE
  2
CONTINUOUS
 70
     0
  3
Solid line
 72
    65
 73
     0
 40
0.0
  0
LTYPE
  2
VERDECKT
 70
     0
  3
_ _ _ _ _ _ _ _ _ _ _ _ _ _ _ _ _ _ _ _ _ _ 
 72
    65
 73
     2
 40
0.25
 49
0.125
 49
-0.125
  0
LTYPE
  2
GESTRICHELT
 70
     0
  3
__ __ __ __ __ __ __ __ __ __ __ __ __ __ __
 72
    65
 73
     2
 40
0.75
 49
0.5
 49
-0.25
  0
LTYPE
  2
MITTELLINIE
 70
     0
  3
____ _ ____ _ ____ _ ____ _ ____ _ ____ _ __
 72
    65
 73
     4
 40
2.0
 49
1.25
 49
-0.25
 49
0.25
 49
-0.25
  0
LTYPE
  2
PHANTOM
 70
     0
  3
_____ _ _ _____ _ _ _____ _ _ _____ _ _ ____
 72
    65
 73
     6
 40
2.5
 49
1.25
 49
-0.25
 49
0.25
 49
-0.25
 49
0.25
 49
-0.25
  0
LTYPE
  2
PUNKTIERT
 70
     0
  3
............................................
 72
    65
 73
     2
 40
0.25
 49
0.0
 49
-0.25
  0
LTYPE
  2
STRICHPUNKTIERT
 70
     0
  3
__ . __ . __ . __ . __ . __ . __ . __ . __ .
 72
    65
 73
     4
 40
1.0
 49
0.5
 49
-0.25
 49
0.0
 49
-0.25
  0
LTYPE
  2
RAND
 70
     0
  3
__ __ . __ __ . __ __ . __ __ . __ __ . __ _
 72
    65
 73
     6
 40
1.75
 49
0.5
 49
-0.25
 49
0.5
 49
-0.25
 49
0.0
 49
-0.25
  0
LTYPE
  2
TRENNLINIE
 70
     0
  3
__ . . __ . . __ . . __ . . __ . . __ . . __
 72
    65
 73
     6
 40
1.25
 49
0.5
 49
-0.25
 49
0.0
 49
-0.25
 49
0.0
 49
-0.25
  0
LTYPE
  2
ENG_PUNKTIERT
 70
     0
  3
Schließen                                   
 72
    65
 73
     2
 40
0.1
 49
0.05
 49
-0.05
  0
LTYPE
  2
CLOSE
 70
     0
  3
                                            
 72
    65
 73
     0
 40
0.0
  0
ENDTAB
  0
TABLE
  2
LAYER
 70
   258
  0
LAYER
  2
0
 70
     0
 62
     7
  6
CONTINUOUS
  0
LAYER
  2
LAYER01
 70
     0
 62
     7
  6
CONTINUOUS
  0
LAYER
  2
LAYER02
 70
     0
 62
     7
  6
CONTINUOUS
  0
LAYER
  2
LAYER03
 70
     0
 62
     7
  6
CONTINUOUS
  0
LAYER
  2
LAYER04
 70
     0
 62
     7
  6
CONTINUOUS
  0
LAYER
  2
LAYER05
 70
     0
 62
     7
  6
CONTINUOUS
  0
LAYER
  2
LAYER06
 70
     0
 62
     7
  6
CONTINUOUS
  0
LAYER
  2
LAYER07
 70
     0
 62
     7
  6
CONTINUOUS
  0
LAYER
  2
LAYER08
 70
     0
 62
     7
  6
CONTINUOUS
  0
LAYER
  2
LAYER09
 70
     0
 62
     7
  6
CONTINUOUS
  0
LAYER
  2
LAYER10
 70
     0
 62
     7
  6
CONTINUOUS
  0
LAYER
  2
1
 70
     0
 62
     7
  6
CONTINUOUS
  0
LAYER
  2
V_FRAES_11_5T332
 70
     0
 62
     7
  6
CONTINUOUS
  0
LAYER
  2
HILFSLINIEN
 70
     0
 62
     7
  6
CONTINUOUS
  0
LAYER
  2
Z_15
 70
     0
 62
     7
  6
CONTINUOUS
  0
LAYER
  2
S_13
 70
     0
 62
     7
  6
CONTINUOUS
  0
LAYER
  2
V_FRAES_-1T104
 70
     0
 62
     7
  6
CONTINUOUS
  0
LAYER
  2
2
 70
     0
 62
     7
  6
CONTINUOUS
  0
LAYER
  2
5
 70
     0
 62
     7
  6
CONTINUOUS
  0
LAYER
  2
RAUMAUFM
 70
     0
 62
     7
  6
CONTINUOUS
  0
LAYER
  2
EINRICHT
 70
     0
 62
     7
  6
CONTINUOUS
  0
LAYER
  2
HILFE
 70
     0
 62
     7
  6
CONTINUOUS
  0
LAYER
  2
SCHNITTE
 70
     0
 62
     7
  6
CONTINUOUS
  0
LAYER
  2
SCHRAFF1
 70
     0
 62
     7
  6
CONTINUOUS
  0
LAYER
  2
SCHRAFF2
 70
     0
 62
     7
  6
CONTINUOUS
  0
LAYER
  2
BEMASS-1
 70
     0
 62
     7
  6
CONTINUOUS
  0
LAYER
  2
BEMASS-2
 70
     0
 62
     7
  6
CONTINUOUS
  0
LAYER
  2
TEXT
 70
     0
 62
     7
  6
CONTINUOUS
  0
LAYER
  2
SYMBOLE
 70
     0
 62
     7
  6
CONTINUOUS
  0
LAYER
  2
RAHMEN
 70
     0
 62
     7
  6
CONTINUOUS
  0
LAYER
  2
SCHRIFTF
 70
     0
 62
     7
  6
CONTINUOUS
  0
LAYER
  2
ACHSEN
 70
     0
 62
     7
  6
CONTINUOUS
  0
LAYER
  2
ZEICHN
 70
     0
 62
     7
  6
CONTINUOUS
  0
LAYER
  2
7
 70
     0
 62
     7
  6
CONTINUOUS
  0
LAYER
  2
6
 70
     0
 62
     7
  6
CONTINUOUS
  0
LAYER
  2
4
 70
     0
 62
     7
  6
CONTINUOUS
  0
LAYER
  2
GRUNDEBENE
 70
     0
 62
     7
  6
CONTINUOUS
  0
LAYER
  2
GRUNDRISS
 70
     0
 62
     7
  6
CONTINUOUS
  0
LAYER
  2
BEMASSUNGGRUNDRISS
 70
     0
 62
     7
  6
CONTINUOUS
  0
LAYER
  2
WANDELEMENTE
 70
     0
 62
     7
  6
CONTINUOUS
  0
LAYER
  2
KUECHE
 70
     0
 62
     7
  6
CONTINUOUS
  0
LAYER
  2
THEKEBROETCHEN
 70
     0
 62
     7
  6
CONTINUOUS
  0
LAYER
  2
CENTERLINIE
 70
     0
 62
     7
  6
CONTINUOUS
  0
LAYER
  2
UMRISSE
 70
     0
 62
     7
  6
CONTINUOUS
  0
LAYER
  2
MAUER
 70
     0
 62
     7
  6
CONTINUOUS
  0
LAYER
  2
SCHRAFFUR
 70
     0
 62
     7
  6
CONTINUOUS
  0
LAYER
  2
MASSLINIE
 70
     0
 62
     7
  6
CONTINUOUS
  0
LAYER
  2
PV
 70
     0
 62
     7
  6
CONTINUOUS
  0
LAYER
  2
BESCHRIFTUNG
 70
     0
 62
     7
  6
CONTINUOUS
  0
LAYER
  2
AS
 70
     0
 62
     7
  6
CONTINUOUS
  0
LAYER
  2
PL
 70
     0
 62
     7
  6
CONTINUOUS
  0
LAYER
  2
UK
 70
     0
 62
     7
  6
CONTINUOUS
  0
LAYER
  2
TEXT3
 70
     0
 62
     7
  6
CONTINUOUS
  0
LAYER
  2
TEXT7
 70
     0
 62
     7
  6
CONTINUOUS
  0
LAYER
  2
BEPL1
 70
     0
 62
     7
  6
CONTINUOUS
  0
LAYER
  2
BEPL2
 70
     0
 62
     7
  6
CONTINUOUS
  0
LAYER
  2
BEPL2V
 70
     0
 62
     7
  6
CONTINUOUS
  0
LAYER
  2
BEPL4
 70
     0
 62
     7
  6
CONTINUOUS
  0
LAYER
  2
BEPL
 70
     0
 62
     7
  6
CONTINUOUS
  0
LAYER
  2
UK1
 70
     0
 62
     7
  6
CONTINUOUS
  0
LAYER
  2
UK2
 70
     0
 62
     7
  6
CONTINUOUS
  0
LAYER
  2
UK2V
 70
     0
 62
     7
  6
CONTINUOUS
  0
LAYER
  2
UK3
 70
     0
 62
     7
  6
CONTINUOUS
  0
LAYER
  2
TEXT2
 70
     0
 62
     7
  6
CONTINUOUS
  0
LAYER
  2
HILF2S
 70
     0
 62
     7
  6
CONTINUOUS
  0
LAYER
  2
UK1V
 70
     0
 62
     7
  6
CONTINUOUS
  0
LAYER
  2
GAIN_ZRA
 70
     0
 62
     7
  6
CONTINUOUS
  0
LAYER
  2
GAIN_ZSF
 70
     0
 62
     7
  6
CONTINUOUS
  0
LAYER
  2
RAHM4
 70
     0
 62
     7
  6
CONTINUOUS
  0
LAYER
  2
KORPUSBAND
 70
     0
 62
     7
  6
CONTINUOUS
  0
LAYER
  2
E---LGPL--------
 70
     0
 62
     7
  6
CONTINUOUS
  0
LAYER
  2
E---NPFL--------
 70
     0
 62
     7
  6
CONTINUOUS
  0
LAYER
  2
E---PLNKTXT-----
 70
     0
 62
     7
  6
CONTINUOUS
  0
LAYER
  2
E---PLNK--------
 70
     0
 62
     7
  6
CONTINUOUS
  0
LAYER
  2
E---PLNR--------
 70
     0
 62
     7
  6
CONTINUOUS
  0
LAYER
  2
D547_ARCHICAD
 70
     0
 62
     7
  6
CONTINUOUS
  0
LAYER
  2
D547_E---TEXT--------
 70
     0
 62
     7
  6
CONTINUOUS
  0
LAYER
  2
E---LEGD--------
 70
     0
 62
     7
  6
CONTINUOUS
  0
LAYER
  2
D43_ARCHICAD
 70
     0
 62
     7
  6
CONTINUOUS
  0
LAYER
  2
D43_FENSTER_VON_B---FASS--
 70
     0
 62
     7
  6
CONTINUOUS
  0
LAYER
  2
D43_E---SCHN--------
 70
     0
 62
     7
  6
CONTINUOUS
  0
LAYER
  2
D43_B---MW-N--------
 70
     0
 62
     7
  6
CONTINUOUS
  0
LAYER
  2
D43_B---DECK--------
 70
     0
 62
     7
  6
CONTINUOUS
  0
LAYER
  2
D43_B---MW-S--------
 70
     0
 62
     7
  6
CONTINUOUS
  0
LAYER
  2
D43_B---MW----------
 70
     0
 62
     7
  6
CONTINUOUS
  0
LAYER
  2
D43_B---FASS--------
 70
     0
 62
     7
  6
CONTINUOUS
  0
LAYER
  2
D43_E---RASG--------
 70
     0
 62
     7
  6
CONTINUOUS
  0
LAYER
  2
D40_ARCHICAD
 70
     0
 62
     7
  6
CONTINUOUS
  0
LAYER
  2
D40_E---MW--------
 70
     0
 62
     7
  6
CONTINUOUS
  0
LAYER
  2
D40_E---FASSKON-----
 70
     0
 62
     7
  6
CONTINUOUS
  0
LAYER
  2
D40_TÜREN_VON_B---MW-N----
 70
     0
 62
     7
  6
CONTINUOUS
  0
LAYER
  2
D40_E---MW-L------
 70
     0
 62
     7
  6
CONTINUOUS
  0
LAYER
  2
D40_TÜREN_VON_B---MW------
 70
     0
 62
     7
  6
CONTINUOUS
  0
LAYER
  2
D40_E---VERM--------
 70
     0
 62
     7
  6
CONTINUOUS
  0
LAYER
  2
D40_FENSTER_VON_E---MW-L--
 70
     0
 62
     7
  6
CONTINUOUS
  0
LAYER
  2
D40_FENSTER_VON_B---MW-N--
 70
     0
 62
     7
  6
CONTINUOUS
  0
LAYER
  2
D40_E---SCHN--------
 70
     0
 62
     7
  6
CONTINUOUS
  0
LAYER
  2
D40_E---AUFZ--------
 70
     0
 62
     7
  6
CONTINUOUS
  0
LAYER
  2
D40_E---DECK--------
 70
     0
 62
     7
  6
CONTINUOUS
  0
LAYER
  2
D40_E---RAUMINF-----
 70
     0
 62
     7
  6
CONTINUOUS
  0
LAYER
  2
D40_E---TEXT--------
 70
     0
 62
     7
  6
CONTINUOUS
  0
LAYER
  2
D40_B---TEXT--------
 70
     0
 62
     7
  6
CONTINUOUS
  0
LAYER
  2
D40_B---MW-N--------
 70
     0
 62
     7
  6
CONTINUOUS
  0
LAYER
  2
D40_B---DECK--------
 70
     0
 62
     7
  6
CONTINUOUS
  0
LAYER
  2
D40_B---AUFZ--------
 70
     0
 62
     7
  6
CONTINUOUS
  0
LAYER
  2
D40_B---MW-S--------
 70
     0
 62
     7
  6
CONTINUOUS
  0
LAYER
  2
D40_B---MW----------
 70
     0
 62
     7
  6
CONTINUOUS
  0
LAYER
  2
D40_E---MOEB--------
 70
     0
 62
     7
  6
CONTINUOUS
  0
LAYER
  2
D40_B---UMGB--------
 70
     0
 62
     7
  6
CONTINUOUS
  0
LAYER
  2
D40_B---FASS--------
 70
     0
 62
     7
  6
CONTINUOUS
  0
LAYER
  2
D40_E---DACH--------
 70
     0
 62
     7
  6
CONTINUOUS
  0
LAYER
  2
D40_E---BODE--------
 70
     0
 62
     7
  6
CONTINUOUS
  0
LAYER
  2
D40_E---TREP--------
 70
     0
 62
     7
  6
CONTINUOUS
  0
LAYER
  2
D40_E---RASG--------
 70
     0
 62
     7
  6
CONTINUOUS
  0
LAYER
  2
D40_B---MW-K--------
 70
     0
 62
     7
  6
CONTINUOUS
  0
LAYER
  2
D40_E---FASSGLA-----
 70
     0
 62
     7
  6
CONTINUOUS
  0
LAYER
  2
D40_B---VERM--------
 70
     0
 62
     7
  6
CONTINUOUS
  0
LAYER
  2
D40_E---UMGBGSG-----
 70
     0
 62
     7
  6
CONTINUOUS
  0
LAYER
  2
D40_E---RASF--------
 70
     0
 62
     7
  6
CONTINUOUS
  0
LAYER
  2
D40_E---PFLA--------
 70
     0
 62
     7
  6
CONTINUOUS
  0
LAYER
  2
D40_E---KONS-ST-----
 70
     0
 62
     7
  6
CONTINUOUS
  0
LAYER
  2
D40_E---WERB--------
 70
     0
 62
     7
  6
CONTINUOUS
  0
LAYER
  2
D40_E---TUERINF-----
 70
     0
 62
     7
  6
CONTINUOUS
  0
LAYER
  2
D40_E---WOLK--------
 70
     0
 62
     7
  6
CONTINUOUS
  0
LAYER
  2
D40_B---MW-L--------
 70
     0
 62
     7
  6
CONTINUOUS
  0
LAYER
  2
D40_B---SANI--------
 70
     0
 62
     7
  6
CONTINUOUS
  0
LAYER
  2
D40_E---SANI--------
 70
     0
 62
     7
  6
CONTINUOUS
  0
LAYER
  2
D40_E---MW-K------
 70
     0
 62
     7
  6
CONTINUOUS
  0
LAYER
  2
D40_E---OBJE--------
 70
     0
 62
     7
  6
CONTINUOUS
  0
LAYER
  2
D40_E---ASPR--------
 70
     0
 62
     7
  6
CONTINUOUS
  0
LAYER
  2
D40_E---VERMTGA-----
 70
     0
 62
     7
  6
CONTINUOUS
  0
LAYER
  2
D40_E---PARK--------
 70
     0
 62
     7
  6
CONTINUOUS
  0
LAYER
  2
D40_E---ISOL--------
 70
     0
 62
     7
  6
CONTINUOUS
  0
LAYER
  2
D40_E---TUER--------
 70
     0
 62
     7
  6
CONTINUOUS
  0
LAYER
  2
D40_E---MW--BRA---
 70
     0
 62
     7
  6
CONTINUOUS
  0
LAYER
  2
D41_ARCHICAD
 70
     0
 62
     7
  6
CONTINUOUS
  0
LAYER
  2
D41_E---MW--------
 70
     0
 62
     7
  6
CONTINUOUS
  0
LAYER
  2
D41_E---FASSKON-----
 70
     0
 62
     7
  6
CONTINUOUS
  0
LAYER
  2
D41_TÜREN_VON_B---MW-N----
 70
     0
 62
     7
  6
CONTINUOUS
  0
LAYER
  2
D41_E---MW-L------
 70
     0
 62
     7
  6
CONTINUOUS
  0
LAYER
  2
D41_TÜREN_VON_B---MW------
 70
     0
 62
     7
  6
CONTINUOUS
  0
LAYER
  2
D41_E---VERM--------
 70
     0
 62
     7
  6
CONTINUOUS
  0
LAYER
  2
D41_FENSTER_VON_E---MW-L--
 70
     0
 62
     7
  6
CONTINUOUS
  0
LAYER
  2
D41_FENSTER_VON_B---MW-N--
 70
     0
 62
     7
  6
CONTINUOUS
  0
LAYER
  2
D41_E---SCHN--------
 70
     0
 62
     7
  6
CONTINUOUS
  0
LAYER
  2
D41_E---AUFZ--------
 70
     0
 62
     7
  6
CONTINUOUS
  0
LAYER
  2
D41_E---DECK--------
 70
     0
 62
     7
  6
CONTINUOUS
  0
LAYER
  2
D41_E---RAUMINF-----
 70
     0
 62
     7
  6
CONTINUOUS
  0
LAYER
  2
D41_E---TEXT--------
 70
     0
 62
     7
  6
CONTINUOUS
  0
LAYER
  2
D41_B---TEXT--------
 70
     0
 62
     7
  6
CONTINUOUS
  0
LAYER
  2
D41_B---MW-N--------
 70
     0
 62
     7
  6
CONTINUOUS
  0
LAYER
  2
D41_B---DECK--------
 70
     0
 62
     7
  6
CONTINUOUS
  0
LAYER
  2
D41_B---AUFZ--------
 70
     0
 62
     7
  6
CONTINUOUS
  0
LAYER
  2
D41_B---MW-S--------
 70
     0
 62
     7
  6
CONTINUOUS
  0
LAYER
  2
D41_B---MW----------
 70
     0
 62
     7
  6
CONTINUOUS
  0
LAYER
  2
D41_E---MOEB--------
 70
     0
 62
     7
  6
CONTINUOUS
  0
LAYER
  2
D41_B---UMGB--------
 70
     0
 62
     7
  6
CONTINUOUS
  0
LAYER
  2
D41_B---FASS--------
 70
     0
 62
     7
  6
CONTINUOUS
  0
LAYER
  2
D41_E---DACH--------
 70
     0
 62
     7
  6
CONTINUOUS
  0
LAYER
  2
D41_E---BODE--------
 70
     0
 62
     7
  6
CONTINUOUS
  0
LAYER
  2
D41_E---TREP--------
 70
     0
 62
     7
  6
CONTINUOUS
  0
LAYER
  2
D41_E---RASG--------
 70
     0
 62
     7
  6
CONTINUOUS
  0
LAYER
  2
D41_B---MW-K--------
 70
     0
 62
     7
  6
CONTINUOUS
  0
LAYER
  2
D41_E---FASSGLA-----
 70
     0
 62
     7
  6
CONTINUOUS
  0
LAYER
  2
D41_B---VERM--------
 70
     0
 62
     7
  6
CONTINUOUS
  0
LAYER
  2
D41_E---UMGBGSG-----
 70
     0
 62
     7
  6
CONTINUOUS
  0
LAYER
  2
D41_E---RASF--------
 70
     0
 62
     7
  6
CONTINUOUS
  0
LAYER
  2
D41_E---PFLA--------
 70
     0
 62
     7
  6
CONTINUOUS
  0
LAYER
  2
D41_E---KONS-ST-----
 70
     0
 62
     7
  6
CONTINUOUS
  0
LAYER
  2
D41_E---WERB--------
 70
     0
 62
     7
  6
CONTINUOUS
  0
LAYER
  2
D41_E---TUERINF-----
 70
     0
 62
     7
  6
CONTINUOUS
  0
LAYER
  2
D41_E---WOLK--------
 70
     0
 62
     7
  6
CONTINUOUS
  0
LAYER
  2
D41_B---MW-L--------
 70
     0
 62
     7
  6
CONTINUOUS
  0
LAYER
  2
D41_B---SANI--------
 70
     0
 62
     7
  6
CONTINUOUS
  0
LAYER
  2
D41_E---SANI--------
 70
     0
 62
     7
  6
CONTINUOUS
  0
LAYER
  2
D41_E---MW-K------
 70
     0
 62
     7
  6
CONTINUOUS
  0
LAYER
  2
D41_E---OBJE--------
 70
     0
 62
     7
  6
CONTINUOUS
  0
LAYER
  2
D41_E---ASPR--------
 70
     0
 62
     7
  6
CONTINUOUS
  0
LAYER
  2
D41_E---VERMTGA-----
 70
     0
 62
     7
  6
CONTINUOUS
  0
LAYER
  2
D41_E---PARK--------
 70
     0
 62
     7
  6
CONTINUOUS
  0
LAYER
  2
D41_E---ISOL--------
 70
     0
 62
     7
  6
CONTINUOUS
  0
LAYER
  2
D41_E---TUER--------
 70
     0
 62
     7
  6
CONTINUOUS
  0
LAYER
  2
D41_E---MW--BRA---
 70
     0
 62
     7
  6
CONTINUOUS
  0
LAYER
  2
D42_ARCHICAD
 70
     0
 62
     7
  6
CONTINUOUS
  0
LAYER
  2
D42_FENSTER_VON_B---FASS--
 70
     0
 62
     7
  6
CONTINUOUS
  0
LAYER
  2
D42_E---SCHN--------
 70
     0
 62
     7
  6
CONTINUOUS
  0
LAYER
  2
D42_B---MW-N--------
 70
     0
 62
     7
  6
CONTINUOUS
  0
LAYER
  2
D42_B---DECK--------
 70
     0
 62
     7
  6
CONTINUOUS
  0
LAYER
  2
D42_B---MW-S--------
 70
     0
 62
     7
  6
CONTINUOUS
  0
LAYER
  2
D42_B---MW----------
 70
     0
 62
     7
  6
CONTINUOUS
  0
LAYER
  2
D42_B---FASS--------
 70
     0
 62
     7
  6
CONTINUOUS
  0
LAYER
  2
D42_E---RASG--------
 70
     0
 62
     7
  6
CONTINUOUS
  0
LAYER
  2
CONSTRUCTION_CLASS
 70
     0
 62
     7
  6
CONTINUOUS
  0
LAYER
  2
PATTERN_CLASS
 70
     0
 62
     7
  6
CONTINUOUS
  0
LAYER
  2
KONSTRUKTION
 70
     0
 62
     7
  6
CONTINUOUS
  0
LAYER
  2
BEMAßUNG
 70
     0
 62
     7
  6
CONTINUOUS
  0
LAYER
  2
HILFSGEOMETRIE
 70
     0
 62
     7
  6
CONTINUOUS
  0
LAYER
  2
UNSICHTBAR
 70
     0
 62
     7
  6
CONTINUOUS
  0
LAYER
  2
LOGO
 70
     0
 62
     7
  6
CONTINUOUS
  0
LAYER
  2
VERWALTUNG
 70
     0
 62
     7
  6
CONTINUOUS
  0
LAYER
  2
UNSICHTBARE_GEWINDE
 70
     0
 62
     7
  6
CONTINUOUS
  0
LAYER
  2
SICHTBARE_GEWINDE
 70
     0
 62
     7
  6
CONTINUOUS
  0
LAYER
  2
DEFPOINTS
 70
     0
 62
     7
  6
CONTINUOUS
  0
LAYER
  2
THICK
 70
     0
 62
     7
  6
CONTINUOUS
  0
LAYER
  2
HIDDEN
 70
     0
 62
     7
  6
CONTINUOUS
  0
LAYER
  2
SCHRAFFURGRUNDRISS
 70
     0
 62
     7
  6
CONTINUOUS
  0
LAYER
  2
BEMASSUNG_GRUNDRISS
 70
     0
 62
     7
  6
CONTINUOUS
  0
LAYER
  2
STATIK
 70
     0
 62
     7
  6
CONTINUOUS
  0
LAYER
  2
TÜREN
 70
     0
 62
     7
  6
CONTINUOUS
  0
LAYER
  2
SANITÄR
 70
     0
 62
     7
  6
CONTINUOUS
  0
LAYER
  2
BEMASSUNG_GIPSKARTON
 70
     0
 62
     7
  6
CONTINUOUS
  0
LAYER
  2
EINRICHTUNGEN
 70
     0
 62
     7
  6
CONTINUOUS
  0
LAYER
  2
BECKEN
 70
     0
 62
     7
  6
CONTINUOUS
  0
LAYER
  2
BELEUCHTUNG
 70
     0
 62
     7
  6
CONTINUOUS
  0
LAYER
  2
BESCHRIFTUNGEN
 70
     0
 62
     7
  6
CONTINUOUS
  0
LAYER
  2
ELEKTRO_1__DOSEN_SCHALTER
 70
     0
 62
     7
  6
CONTINUOUS
  0
LAYER
  2
DEFAULT_1
 70
     0
 62
     7
  6
CONTINUOUS
  0
LAYER
  2
AM_0
 70
     0
 62
     7
  6
CONTINUOUS
  0
LAYER
  2
FRAME0_7
 70
     0
 62
     7
  6
CONTINUOUS
  0
LAYER
  2
AM_BOR
 70
     0
 62
     7
  6
CONTINUOUS
  0
LAYER
  2
RAHM2
 70
     0
 62
     7
  6
CONTINUOUS
  0
LAYER
  2
RAHM3
 70
     0
 62
     7
  6
CONTINUOUS
  0
LAYER
  2
FRAME0_5
 70
     0
 62
     7
  6
CONTINUOUS
  0
LAYER
  2
8
 70
     0
 62
     7
  6
CONTINUOUS
  0
LAYER
  2
AM_5
 70
     0
 62
     7
  6
CONTINUOUS
  0
LAYER
  2
AM_7
 70
     0
 62
     7
  6
CONTINUOUS
  0
LAYER
  2
DRAWING_TEMPLATE
 70
     0
 62
     7
  6
CONTINUOUS
  0
LAYER
  2
TECHNOBOX_EXTERNALREFSYMBO
 70
     0
 62
     7
  6
CONTINUOUS
  0
LAYER
  2
TECHNOBOX_POLYCLIPSYMBOL_L
 70
     0
 62
     7
  6
CONTINUOUS
  0
LAYER
  2
100
 70
     0
 62
     7
  6
CONTINUOUS
  0
LAYER
  2
101
 70
     0
 62
     7
  6
CONTINUOUS
  0
LAYER
  2
KONTUR
 70
     0
 62
     7
  6
CONTINUOUS
  0
LAYER
  2
MITTELLINIE
 70
     0
 62
     7
  6
CONTINUOUS
  0
LAYER
  2
GESTRICHELT
 70
     0
 62
     7
  6
CONTINUOUS
  0
LAYER
  2
HILFSLINIE
 70
     0
 62
     7
  6
CONTINUOUS
  0
LAYER
  2
TEXT-25
 70
     0
 62
     7
  6
CONTINUOUS
  0
LAYER
  2
TEXT35
 70
     0
 62
     7
  6
CONTINUOUS
  0
LAYER
  2
TEXT-50
 70
     0
 62
     7
  6
CONTINUOUS
  0
LAYER
  2
TEXT-70
 70
     0
 62
     7
  6
CONTINUOUS
  0
LAYER
  2
ANSICHTSFENSTER
 70
     0
 62
     7
  6
CONTINUOUS
  0
LAYER
  2
KERA0
 70
     0
 62
     7
  6
CONTINUOUS
  0
LAYER
  2
KERA1
 70
     0
 62
     7
  6
CONTINUOUS
  0
LAYER
  2
KERA2
 70
     0
 62
     7
  6
CONTINUOUS
  0
LAYER
  2
KERA3
 70
     0
 62
     7
  6
CONTINUOUS
  0
LAYER
  2
KERA4
 70
     0
 62
     7
  6
CONTINUOUS
  0
LAYER
  2
KERA5
 70
     0
 62
     7
  6
CONTINUOUS
  0
LAYER
  2
KERA6
 70
     0
 62
     7
  6
CONTINUOUS
  0
LAYER
  2
KERA7
 70
     0
 62
     7
  6
CONTINUOUS
  0
LAYER
  2
20
 70
     0
 62
     7
  6
CONTINUOUS
  0
LAYER
  2
50
 70
     0
 62
     7
  6
CONTINUOUS
  0
LAYER
  2
EBENE_1
 70
     0
 62
     7
  6
CONTINUOUS
  0
LAYER
  2
EBENE_2
 70
     0
 62
     7
  6
CONTINUOUS
  0
LAYER
  2
EBENE_5
 70
     0
 62
     7
  6
CONTINUOUS
  0
LAYER
  2
3
 70
     0
 62
     7
  6
CONTINUOUS
  0
LAYER
  2
GEB-KONTUR-A
 70
     0
 62
     7
  6
CONTINUOUS
  0
LAYER
  2
GEB-SYMETRIE
 70
     0
 62
     7
  6
CONTINUOUS
  0
LAYER
  2
GEB-ART-NR
 70
     0
 62
     7
  6
CONTINUOUS
  0
LAYER
  2
PROJECTION
 70
     0
 62
     7
  6
CONTINUOUS
  0
ENDTAB
  0
TABLE
  2
STYLE
 70
     4
  0
STYLE
  2
STANDARD
 70
     0
 40
0.0
 41
1.0
 50
0.0
 71
     0
 42
0.0
  3
txt
  4

  0
STYLE
  2
ANNOTATIVE
 70
     0
 40
0.0
 41
1.0
 50
0.0
 71
     0
 42
0.2
  3
txt
  4

  0
STYLE
  2
SIMPLEX
 70
     0
 40
0.0
 41
1.0
 50
0.0
 71
     0
 42
0.0
  3
simplex
  4

  0
STYLE
  2

 70
     1
 40
0.0
 41
1.0
 50
0.0
 71
     0
 42
0.2
  3
ltypeshp.shx
  4

  0
ENDTAB
  0
TABLE
  2
VIEW
 70
     0
  0
ENDTAB
  0
TABLE
  2
UCS
 70
     0
  0
ENDTAB
  0
TABLE
  2
APPID
 70
     3
  0
APPID
  2
ACAD
 70
     0
  0
APPID
  2
ACADANNOTATIVE
 70
     0
  0
APPID
  2
ACAD_MLEADERVER
 70
     0
  0
ENDTAB
  0
TABLE
  2
DIMSTYLE
 70
     2
  0
DIMSTYLE
  2
STANDARD
 70
     0
  3

  4

  5

  6

  7

 40
1.0
 41
0.18
 42
0.0625
 43
0.38
 44
0.18
 45
0.0
 46
0.0
 47
0.0
 48
0.0
140
0.18
141
0.09
142
0.0
143
25.399999999999999
144
1.0
145
0.0
146
1.0
147
0.09
 71
     0
 72
     0
 73
     1
 74
     1
 75
     0
 76
     0
 77
     0
 78
     0
170
     0
171
     2
172
     0
173
     0
174
     0
175
     0
176
     0
177
     0
178
     0
  0
DIMSTYLE
  2
ANNOTATIVE
 70
     0
  3

  4

  5

  6

  7

 40
1.0
 41
0.18
 42
0.0625
 43
0.38
 44
0.18
 45
0.0
 46
0.0
 47
0.0
 48
0.0
140
0.18
141
0.09
142
0.0
143
25.399999999999999
144
1.0
145
0.0
146
1.0
147
0.09
 71
     0
 72
     0
 73
     1
 74
     1
 75
     0
 76
     0
 77
     0
 78
     0
170
     0
171
     2
172
     0
173
     0
174
     0
175
     0
176
     0
177
     0
178
     0
  0
ENDTAB
  0
ENDSEC
  0
SECTION
  2
BLOCKS
  0
BLOCK
  8
0
  2
$MODEL_SPACE
 70
     0
 10
0.0
 20
0.0
 30
0.0
  3
$MODEL_SPACE
  1

  0
ENDBLK
  5
76
  8
0
  0
BLOCK
 67
     1
  8
0
  2
$PAPER_SPACE
 70
     0
 10
0.0
 20
0.0
 30
0.0
  3
$PAPER_SPACE
  1

  0
ENDBLK
  5
72
 67
     1
  8
0
  0
BLOCK
  8
0
  2
TRIGO600-G1
 70
     0
 10
0.0
 20
0.0
 30
0.0
  3
TRIGO600-G1
  1

  0
POLYLINE
  5
189
  8
LAYER01
  6
CONTINUOUS
 62
     7
 66
     1
 10
0.0
 20
0.0
 30
0.0
 70
     1
  0
VERTEX
  5
B07
  8
LAYER01
  6
CONTINUOUS
 62
     7
 10
4056.9044349999999
 20
1127.283772
 30
0.0
  0
VERTEX
  5
B08
  8
LAYER01
  6
CONTINUOUS
 62
     7
 10
4099.5275700000002
 20
1127.283772
 30
0.0
  0
VERTEX
  5
B09
  8
LAYER01
  6
CONTINUOUS
 62
     7
 10
4153.0542969999988
 20
1005.3617819999999
 30
0.0
  0
VERTEX
  5
B0A
  8
LAYER01
  6
CONTINUOUS
 62
     7
 10
4206.581024000001
 20
1127.283772
 30
0.0
  0
VERTEX
  5
B0B
  8
LAYER01
  6
CONTINUOUS
 62
     7
 10
4251.1866300000002
 20
1127.283772
 30
0.0
  0
VERTEX
  5
B0C
  8
LAYER01
  6
CONTINUOUS
 62
     7
 10
4153.0542969999988
 20
909.21192100000007
 30
0.0
  0
VERTEX
  5
B0D
  8
LAYER01
  6
CONTINUOUS
 62
     7
 10
4056.9044349999999
 20
1127.283772
 30
0.0
  0
VERTEX
  5
B0E
  8
LAYER01
  6
CONTINUOUS
 62
     7
 10
4056.9044349999999
 20
1127.283772
 30
0.0
  0
SEQEND
  5
B0F
  8
LAYER01
  6
CONTINUOUS
 62
     7
  0
POLYLINE
  5
193
  8
LAYER01
  6
CONTINUOUS
 62
     7
 66
     1
 10
0.0
 20
0.0
 30
0.0
 70
     1
  0
VERTEX
  5
B10
  8
LAYER01
  6
CONTINUOUS
 62
     7
 10
4202.6160810000001
 20
978.59841899999981
 30
0.0
  0
VERTEX
  5
B11
  8
LAYER01
  6
CONTINUOUS
 62
     7
 10
4217.4846170000001
 20
1013.291668
 30
0.0
  0
VERTEX
  5
B12
  8
LAYER01
  6
CONTINUOUS
 62
     7
 10
4281.9149360000001
 20
1013.291668
 30
0.0
  0
VERTEX
  5
B13
  8
LAYER01
  6
CONTINUOUS
 62
     7
 10
4249.2041589999999
 20
1084.660637
 30
0.0
  0
VERTEX
  5
B14
  8
LAYER01
  6
CONTINUOUS
 62
     7
 10
4268.0376369999994
 20
1130.2574790000001
 30
0.0
  0
VERTEX
  5
B15
  8
LAYER01
  6
CONTINUOUS
 62
     7
 10
4356.2576130000007
 20
943.90516999999977
 30
0.0
  0
VERTEX
  5
B16
  8
LAYER01
  6
CONTINUOUS
 62
     7
 10
4356.2576130000007
 20
1127.283772
 30
0.0
  0
VERTEX
  5
B17
  8
LAYER01
  6
CONTINUOUS
 62
     7
 10
4474.2146599999996
 20
1127.283772
 30
0.0
  0
VERTEX
  5
B18
  8
LAYER01
  6
CONTINUOUS
 62
     7
 10
4474.2146599999996
 20
1127.283772
 30
0.0
  0
VERTEX
  5
B19
  8
LAYER01
  6
CONTINUOUS
 62
     7
 10
4485.1182520000002
 20
1125.3013000000001
 30
0.0
  0
VERTEX
  5
B1A
  8
LAYER01
  6
CONTINUOUS
 62
     7
 10
4495.0306090000004
 20
1121.336358
 30
0.0
  0
VERTEX
  5
B1B
  8
LAYER01
  6
CONTINUOUS
 62
     7
 10
4503.9517299999989
 20
1114.397708
 30
0.0
  0
VERTEX
  5
B1C
  8
LAYER01
  6
CONTINUOUS
 62
     7
 10
4511.8816159999988
 20
1107.4590579999999
 30
0.0
  0
VERTEX
  5
B1D
  8
LAYER01
  6
CONTINUOUS
 62
     7
 10
4518.8202659999988
 20
1098.5379370000001
 30
0.0
  0
VERTEX
  5
B1E
  8
LAYER01
  6
CONTINUOUS
 62
     7
 10
4523.7764440000001
 20
1088.6255799999999
 30
0.0
  0
VERTEX
  5
B1F
  8
LAYER01
  6
CONTINUOUS
 62
     7
 10
4527.741387
 20
1076.7307519999999
 30
0.0
  0
VERTEX
  5
B20
  8
LAYER01
  6
CONTINUOUS
 62
     7
 10
4528.732622999999
 20
1065.8271589999999
 30
0.0
  0
VERTEX
  5
B21
  8
LAYER01
  6
CONTINUOUS
 62
     7
 10
4528.732622999999
 20
1065.8271589999999
 30
0.0
  0
VERTEX
  5
B22
  8
LAYER01
  6
CONTINUOUS
 62
     7
 10
4528.732622999999
 20
1053.932331
 30
0.0
  0
VERTEX
  5
B23
  8
LAYER01
  6
CONTINUOUS
 62
     7
 10
4526.7501510000002
 20
1044.019974
 30
0.0
  0
VERTEX
  5
B24
  8
LAYER01
  6
CONTINUOUS
 62
     7
 10
4522.7852080000011
 20
1034.1076169999999
 30
0.0
  0
VERTEX
  5
B25
  8
LAYER01
  6
CONTINUOUS
 62
     7
 10
4517.8290299999999
 20
1025.186496
 30
0.0
  0
VERTEX
  5
B26
  8
LAYER01
  6
CONTINUOUS
 62
     7
 10
4510.8903799999998
 20
1017.25661
 30
0.0
  0
VERTEX
  5
B27
  8
LAYER01
  6
CONTINUOUS
 62
     7
 10
4502.9604950000003
 20
1010.317961
 30
0.0
  0
VERTEX
  5
B28
  8
LAYER01
  6
CONTINUOUS
 62
     7
 10
4494.039373999999
 20
1005.3617819999999
 30
0.0
  0
VERTEX
  5
B29
  8
LAYER01
  6
CONTINUOUS
 62
     7
 10
4483.135781
 20
1001.396839
 30
0.0
  0
VERTEX
  5
B2A
  8
LAYER01
  6
CONTINUOUS
 62
     7
 10
4546.5748649999987
 20
917.14180599999997
 30
0.0
  0
VERTEX
  5
B2B
  8
LAYER01
  6
CONTINUOUS
 62
     7
 10
4546.5748649999987
 20
1127.283772
 30
0.0
  0
VERTEX
  5
B2C
  8
LAYER01
  6
CONTINUOUS
 62
     7
 10
4588.2067639999996
 20
1127.283772
 30
0.0
  0
VERTEX
  5
B2D
  8
LAYER01
  6
CONTINUOUS
 62
     7
 10
4588.2067639999996
 20
915.15933499999983
 30
0.0
  0
VERTEX
  5
B2E
  8
LAYER01
  6
CONTINUOUS
 62
     7
 10
4498.9955520000003
 20
915.15933499999983
 30
0.0
  0
VERTEX
  5
B2F
  8
LAYER01
  6
CONTINUOUS
 62
     7
 10
4412.7580470000003
 20
1025.186496
 30
0.0
  0
VERTEX
  5
B30
  8
LAYER01
  6
CONTINUOUS
 62
     7
 10
4456.3724169999996
 20
1025.186496
 30
0.0
  0
VERTEX
  5
B31
  8
LAYER01
  6
CONTINUOUS
 62
     7
 10
4456.3724169999996
 20
1025.186496
 30
0.0
  0
VERTEX
  5
B32
  8
LAYER01
  6
CONTINUOUS
 62
     7
 10
4462.3198320000001
 20
1026.1777320000001
 30
0.0
  0
VERTEX
  5
B33
  8
LAYER01
  6
CONTINUOUS
 62
     7
 10
4468.2672460000003
 20
1028.1602029999999
 30
0.0
  0
VERTEX
  5
B34
  8
LAYER01
  6
CONTINUOUS
 62
     7
 10
4473.2234239999989
 20
1031.13391
 30
0.0
  0
VERTEX
  5
B35
  8
LAYER01
  6
CONTINUOUS
 62
     7
 10
4478.1796029999996
 20
1035.098853
 30
0.0
  0
VERTEX
  5
B36
  8
LAYER01
  6
CONTINUOUS
 62
     7
 10
4481.1533099999997
 20
1040.0550310000001
 30
0.0
  0
VERTEX
  5
B37
  8
LAYER01
  6
CONTINUOUS
 62
     7
 10
4484.1270169999998
 20
1046.0024450000001
 30
0.0
  0
VERTEX
  5
B38
  8
LAYER01
  6
CONTINUOUS
 62
     7
 10
4486.1094880000001
 20
1051.9498590000001
 30
0.0
  0
VERTEX
  5
B39
  8
LAYER01
  6
CONTINUOUS
 62
     7
 10
4486.1094880000001
 20
1058.8885090000001
 30
0.0
  0
VERTEX
  5
B3A
  8
LAYER01
  6
CONTINUOUS
 62
     7
 10
4486.1094880000001
 20
1058.8885090000001
 30
0.0
  0
VERTEX
  5
B3B
  8
LAYER01
  6
CONTINUOUS
 62
     7
 10
4486.1094880000001
 20
1064.8359230000001
 30
0.0
  0
VERTEX
  5
B3C
  8
LAYER01
  6
CONTINUOUS
 62
     7
 10
4484.1270169999998
 20
1070.783338
 30
0.0
  0
VERTEX
  5
B3D
  8
LAYER01
  6
CONTINUOUS
 62
     7
 10
4482.1445449999992
 20
1076.7307519999999
 30
0.0
  0
VERTEX
  5
B3E
  8
LAYER01
  6
CONTINUOUS
 62
     7
 10
4478.1796029999996
 20
1081.6869300000001
 30
0.0
  0
VERTEX
  5
B3F
  8
LAYER01
  6
CONTINUOUS
 62
     7
 10
4474.2146599999996
 20
1085.651873
 30
0.0
  0
VERTEX
  5
B40
  8
LAYER01
  6
CONTINUOUS
 62
     7
 10
4468.2672460000003
 20
1088.6255799999999
 30
0.0
  0
VERTEX
  5
B41
  8
LAYER01
  6
CONTINUOUS
 62
     7
 10
4462.3198320000001
 20
1090.6080509999999
 30
0.0
  0
VERTEX
  5
B42
  8
LAYER01
  6
CONTINUOUS
 62
     7
 10
4456.3724169999996
 20
1091.599287
 30
0.0
  0
VERTEX
  5
B43
  8
LAYER01
  6
CONTINUOUS
 62
     7
 10
4400.8632189999998
 20
1091.599287
 30
0.0
  0
VERTEX
  5
B44
  8
LAYER01
  6
CONTINUOUS
 62
     7
 10
4400.8632189999998
 20
915.15933499999983
 30
0.0
  0
VERTEX
  5
B45
  8
LAYER01
  6
CONTINUOUS
 62
     7
 10
4329.4942490000003
 20
915.15933499999983
 30
0.0
  0
VERTEX
  5
B46
  8
LAYER01
  6
CONTINUOUS
 62
     7
 10
4299.7571790000002
 20
978.59841899999981
 30
0.0
  0
VERTEX
  5
B47
  8
LAYER01
  6
CONTINUOUS
 62
     7
 10
4202.6160810000001
 20
978.59841899999981
 30
0.0
  0
VERTEX
  5
B48
  8
LAYER01
  6
CONTINUOUS
 62
     7
 10
4202.6160810000001
 20
978.59841899999981
 30
0.0
  0
SEQEND
  5
B49
  8
LAYER01
  6
CONTINUOUS
 62
     7
  0
POLYLINE
  5
1CE
  8
LAYER01
  6
CONTINUOUS
 62
     7
 66
     1
 10
0.0
 20
0.0
 30
0.0
 70
     1
  0
VERTEX
  5
B4A
  8
LAYER01
  6
CONTINUOUS
 62
     7
 10
4780.5064869999987
 20
1113.4064719999999
 30
0.0
  0
VERTEX
  5
B4B
  8
LAYER01
  6
CONTINUOUS
 62
     7
 10
4753.7431239999996
 20
1079.704459
 30
0.0
  0
VERTEX
  5
B4C
  8
LAYER01
  6
CONTINUOUS
 62
     7
 10
4753.7431239999996
 20
1079.704459
 30
0.0
  0
VERTEX
  5
B4D
  8
LAYER01
  6
CONTINUOUS
 62
     7
 10
4744.8220019999999
 20
1085.651873
 30
0.0
  0
VERTEX
  5
B4E
  8
LAYER01
  6
CONTINUOUS
 62
     7
 10
4735.9008809999996
 20
1090.6080509999999
 30
0.0
  0
VERTEX
  5
B4F
  8
LAYER01
  6
CONTINUOUS
 62
     7
 10
4725.9885240000003
 20
1093.581758
 30
0.0
  0
VERTEX
  5
B50
  8
LAYER01
  6
CONTINUOUS
 62
     7
 10
4715.0849319999988
 20
1093.581758
 30
0.0
  0
VERTEX
  5
B51
  8
LAYER01
  6
CONTINUOUS
 62
     7
 10
4715.0849319999988
 20
1093.581758
 30
0.0
  0
VERTEX
  5
B52
  8
LAYER01
  6
CONTINUOUS
 62
     7
 10
4708.1462819999997
 20
1093.581758
 30
0.0
  0
VERTEX
  5
B53
  8
LAYER01
  6
CONTINUOUS
 62
     7
 10
4701.2076319999996
 20
1092.5905230000001
 30
0.0
  0
VERTEX
  5
B54
  8
LAYER01
  6
CONTINUOUS
 62
     7
 10
4694.2689819999987
 20
1090.6080509999999
 30
0.0
  0
VERTEX
  5
B55
  8
LAYER01
  6
CONTINUOUS
 62
     7
 10
4687.3303329999999
 20
1087.6343440000001
 30
0.0
  0
VERTEX
  5
B56
  8
LAYER01
  6
CONTINUOUS
 62
     7
 10
4681.3829180000002
 20
1084.660637
 30
0.0
  0
VERTEX
  5
B57
  8
LAYER01
  6
CONTINUOUS
 62
     7
 10
4676.4267399999999
 20
1080.695694
 30
0.0
  0
VERTEX
  5
B58
  8
LAYER01
  6
CONTINUOUS
 62
     7
 10
4670.4793259999988
 20
1076.7307519999999
 30
0.0
  0
VERTEX
  5
B59
  8
LAYER01
  6
CONTINUOUS
 62
     7
 10
4666.5143829999988
 20
1071.7745729999999
 30
0.0
  0
VERTEX
  5
B5A
  8
LAYER01
  6
CONTINUOUS
 62
     7
 10
4661.5582049999994
 20
1065.8271589999999
 30
0.0
  0
VERTEX
  5
B5B
  8
LAYER01
  6
CONTINUOUS
 62
     7
 10
4658.5844979999983
 20
1059.879745
 30
0.0
  0
VERTEX
  5
B5C
  8
LAYER01
  6
CONTINUOUS
 62
     7
 10
4654.6195549999993
 20
1053.932331
 30
0.0
  0
VERTEX
  5
B5D
  8
LAYER01
  6
CONTINUOUS
 62
     7
 10
4651.6458480000001
 20
1047.984917
 30
0.0
  0
VERTEX
  5
B5E
  8
LAYER01
  6
CONTINUOUS
 62
     7
 10
4649.6633759999986
 20
1041.0462669999999
 30
0.0
  0
VERTEX
  5
B5F
  8
LAYER01
  6
CONTINUOUS
 62
     7
 10
4648.672141
 20
1034.1076169999999
 30
0.0
  0
VERTEX
  5
B60
  8
LAYER01
  6
CONTINUOUS
 62
     7
 10
4647.6809049999993
 20
1027.1689670000001
 30
0.0
  0
VERTEX
  5
B61
  8
LAYER01
  6
CONTINUOUS
 62
     7
 10
4646.6896689999994
 20
1019.2390820000001
 30
0.0
  0
VERTEX
  5
B62
  8
LAYER01
  6
CONTINUOUS
 62
     7
 10
4646.6896689999994
 20
1019.2390820000001
 30
0.0
  0
VERTEX
  5
B63
  8
LAYER01
  6
CONTINUOUS
 62
     7
 10
4647.6809049999993
 20
1012.300432
 30
0.0
  0
VERTEX
  5
B64
  8
LAYER01
  6
CONTINUOUS
 62
     7
 10
4648.672141
 20
1005.3617819999999
 30
0.0
  0
VERTEX
  5
B65
  8
LAYER01
  6
CONTINUOUS
 62
     7
 10
4649.6633759999986
 20
998.42313200000012
 30
0.0
  0
VERTEX
  5
B66
  8
LAYER01
  6
CONTINUOUS
 62
     7
 10
4652.637084
 20
992.4757179999998
 30
0.0
  0
VERTEX
  5
B67
  8
LAYER01
  6
CONTINUOUS
 62
     7
 10
4654.6195549999993
 20
986.52830399999993
 30
0.0
  0
VERTEX
  5
B68
  8
LAYER01
  6
CONTINUOUS
 62
     7
 10
4658.5844979999983
 20
980.58088999999995
 30
0.0
  0
VERTEX
  5
B69
  8
LAYER01
  6
CONTINUOUS
 62
     7
 10
4662.5494399999998
 20
974.63347599999986
 30
0.0
  0
VERTEX
  5
B6A
  8
LAYER01
  6
CONTINUOUS
 62
     7
 10
4666.5143829999988
 20
969.67729700000007
 30
0.0
  0
VERTEX
  5
B6B
  8
LAYER01
  6
CONTINUOUS
 62
     7
 10
4671.4705619999986
 20
964.72111900000004
 30
0.0
  0
VERTEX
  5
B6C
  8
LAYER01
  6
CONTINUOUS
 62
     7
 10
4676.4267399999999
 20
960.75617599999987
 30
0.0
  0
VERTEX
  5
B6D
  8
LAYER01
  6
CONTINUOUS
 62
     7
 10
4682.3741540000001
 20
957.78246899999988
 30
0.0
  0
VERTEX
  5
B6E
  8
LAYER01
  6
CONTINUOUS
 62
     7
 10
4688.3215680000003
 20
954.80876199999977
 30
0.0
  0
VERTEX
  5
B6F
  8
LAYER01
  6
CONTINUOUS
 62
     7
 10
4695.2602180000004
 20
951.83505500000001
 30
0.0
  0
VERTEX
  5
B70
  8
LAYER01
  6
CONTINUOUS
 62
     7
 10
4701.2076319999996
 20
949.85258399999987
 30
0.0
  0
VERTEX
  5
B71
  8
LAYER01
  6
CONTINUOUS
 62
     7
 10
4708.1462819999997
 20
948.86134799999991
 30
0.0
  0
VERTEX
  5
B72
  8
LAYER01
  6
CONTINUOUS
 62
     7
 10
4716.0761679999987
 20
948.86134799999991
 30
0.0
  0
VERTEX
  5
B73
  8
LAYER01
  6
CONTINUOUS
 62
     7
 10
4716.0761679999987
 20
948.86134799999991
 30
0.0
  0
VERTEX
  5
B74
  8
LAYER01
  6
CONTINUOUS
 62
     7
 10
4726.9797600000002
 20
949.85258399999987
 30
0.0
  0
VERTEX
  5
B75
  8
LAYER01
  6
CONTINUOUS
 62
     7
 10
4735.9008809999996
 20
951.83505500000001
 30
0.0
  0
VERTEX
  5
B76
  8
LAYER01
  6
CONTINUOUS
 62
     7
 10
4744.8220019999999
 20
956.79123300000003
 30
0.0
  0
VERTEX
  5
B77
  8
LAYER01
  6
CONTINUOUS
 62
     7
 10
4753.7431239999996
 20
962.73864800000001
 30
0.0
  0
VERTEX
  5
B78
  8
LAYER01
  6
CONTINUOUS
 62
     7
 10
4779.5152520000001
 20
928.04539899999986
 30
0.0
  0
VERTEX
  5
B79
  8
LAYER01
  6
CONTINUOUS
 62
     7
 10
4779.5152520000001
 20
928.04539899999986
 30
0.0
  0
VERTEX
  5
B7A
  8
LAYER01
  6
CONTINUOUS
 62
     7
 10
4764.6467159999993
 20
919.12427700000001
 30
0.0
  0
VERTEX
  5
B7B
  8
LAYER01
  6
CONTINUOUS
 62
     7
 10
4756.7168310000006
 20
916.1505699999999
 30
0.0
  0
VERTEX
  5
B7C
  8
LAYER01
  6
CONTINUOUS
 62
     7
 10
4749.7781809999997
 20
913.17686299999991
 30
0.0
  0
VERTEX
  5
B7D
  8
LAYER01
  6
CONTINUOUS
 62
     7
 10
4741.8482949999998
 20
911.19439199999988
 30
0.0
  0
VERTEX
  5
B7E
  8
LAYER01
  6
CONTINUOUS
 62
     7
 10
4733.9184100000002
 20
910.20315600000004
 30
0.0
  0
VERTEX
  5
B7F
  8
LAYER01
  6
CONTINUOUS
 62
     7
 10
4716.0761679999987
 20
909.21192100000007
 30
0.0
  0
VERTEX
  5
B80
  8
LAYER01
  6
CONTINUOUS
 62
     7
 10
4716.0761679999987
 20
909.21192100000007
 30
0.0
  0
VERTEX
  5
B81
  8
LAYER01
  6
CONTINUOUS
 62
     7
 10
4704.1813389999998
 20
910.20315600000004
 30
0.0
  0
VERTEX
  5
B82
  8
LAYER01
  6
CONTINUOUS
 62
     7
 10
4693.2777470000001
 20
912.18562799999995
 30
0.0
  0
VERTEX
  5
B83
  8
LAYER01
  6
CONTINUOUS
 62
     7
 10
4682.3741540000001
 20
914.16809899999987
 30
0.0
  0
VERTEX
  5
B84
  8
LAYER01
  6
CONTINUOUS
 62
     7
 10
4672.461796999999
 20
918.13304200000005
 30
0.0
  0
VERTEX
  5
B85
  8
LAYER01
  6
CONTINUOUS
 62
     7
 10
4662.5494399999998
 20
923.08921999999995
 30
0.0
  0
VERTEX
  5
B86
  8
LAYER01
  6
CONTINUOUS
 62
     7
 10
4653.6283190000004
 20
928.04539899999986
 30
0.0
  0
VERTEX
  5
B87
  8
LAYER01
  6
CONTINUOUS
 62
     7
 10
4644.7071980000001
 20
934.98404800000014
 30
0.0
  0
VERTEX
  5
B88
  8
LAYER01
  6
CONTINUOUS
 62
     7
 10
4636.7773129999996
 20
941.92269800000008
 30
0.0
  0
VERTEX
  5
B89
  8
LAYER01
  6
CONTINUOUS
 62
     7
 10
4628.8474270000006
 20
949.85258399999987
 30
0.0
  0
VERTEX
  5
B8A
  8
LAYER01
  6
CONTINUOUS
 62
     7
 10
4622.9000130000004
 20
958.77370500000006
 30
0.0
  0
VERTEX
  5
B8B
  8
LAYER01
  6
CONTINUOUS
 62
     7
 10
4616.9525990000002
 20
967.69482599999992
 30
0.0
  0
VERTEX
  5
B8C
  8
LAYER01
  6
CONTINUOUS
 62
     7
 10
4611.9964200000004
 20
977.60718299999985
 30
0.0
  0
VERTEX
  5
B8D
  8
LAYER01
  6
CONTINUOUS
 62
     7
 10
4609.0227130000003
 20
987.51954000000001
 30
0.0
  0
VERTEX
  5
B8E
  8
LAYER01
  6
CONTINUOUS
 62
     7
 10
4606.0490060000002
 20
998.42313200000012
 30
0.0
  0
VERTEX
  5
B8F
  8
LAYER01
  6
CONTINUOUS
 62
     7
 10
4604.0665349999999
 20
1009.326725
 30
0.0
  0
VERTEX
  5
B90
  8
LAYER01
  6
CONTINUOUS
 62
     7
 10
4603.0752990000001
 20
1021.221553
 30
0.0
  0
VERTEX
  5
B91
  8
LAYER01
  6
CONTINUOUS
 62
     7
 10
4603.0752990000001
 20
1021.221553
 30
0.0
  0
VERTEX
  5
B92
  8
LAYER01
  6
CONTINUOUS
 62
     7
 10
4604.0665349999999
 20
1032.1251460000001
 30
0.0
  0
VERTEX
  5
B93
  8
LAYER01
  6
CONTINUOUS
 62
     7
 10
4606.0490060000002
 20
1044.019974
 30
0.0
  0
VERTEX
  5
B94
  8
LAYER01
  6
CONTINUOUS
 62
     7
 10
4608.0314779999999
 20
1053.932331
 30
0.0
  0
VERTEX
  5
B95
  8
LAYER01
  6
CONTINUOUS
 62
     7
 10
4611.9964200000004
 20
1064.8359230000001
 30
0.0
  0
VERTEX
  5
B96
  8
LAYER01
  6
CONTINUOUS
 62
     7
 10
4616.9525990000002
 20
1074.74828
 30
0.0
  0
VERTEX
  5
B97
  8
LAYER01
  6
CONTINUOUS
 62
     7
 10
4621.9087769999996
 20
1083.6694010000001
 30
0.0
  0
VERTEX
  5
B98
  8
LAYER01
  6
CONTINUOUS
 62
     7
 10
4628.8474270000006
 20
1092.5905230000001
 30
0.0
  0
VERTEX
  5
B99
  8
LAYER01
  6
CONTINUOUS
 62
     7
 10
4635.7860770000007
 20
1100.5204080000001
 30
0.0
  0
VERTEX
  5
B9A
  8
LAYER01
  6
CONTINUOUS
 62
     7
 10
4643.7159619999993
 20
1107.4590579999999
 30
0.0
  0
VERTEX
  5
B9B
  8
LAYER01
  6
CONTINUOUS
 62
     7
 10
4652.637084
 20
1114.397708
 30
0.0
  0
VERTEX
  5
B9C
  8
LAYER01
  6
CONTINUOUS
 62
     7
 10
4661.5582049999994
 20
1119.3538860000001
 30
0.0
  0
VERTEX
  5
B9D
  8
LAYER01
  6
CONTINUOUS
 62
     7
 10
4671.4705619999986
 20
1124.3100649999999
 30
0.0
  0
VERTEX
  5
B9E
  8
LAYER01
  6
CONTINUOUS
 62
     7
 10
4681.3829180000002
 20
1128.275007
 30
0.0
  0
VERTEX
  5
B9F
  8
LAYER01
  6
CONTINUOUS
 62
     7
 10
4692.2865110000002
 20
1131.2487140000001
 30
0.0
  0
VERTEX
  5
BA0
  8
LAYER01
  6
CONTINUOUS
 62
     7
 10
4704.1813389999998
 20
1132.2399499999999
 30
0.0
  0
VERTEX
  5
BA1
  8
LAYER01
  6
CONTINUOUS
 62
     7
 10
4715.0849319999988
 20
1133.231186
 30
0.0
  0
VERTEX
  5
BA2
  8
LAYER01
  6
CONTINUOUS
 62
     7
 10
4715.0849319999988
 20
1133.231186
 30
0.0
  0
VERTEX
  5
BA3
  8
LAYER01
  6
CONTINUOUS
 62
     7
 10
4732.9271740000004
 20
1132.2399499999999
 30
0.0
  0
VERTEX
  5
BA4
  8
LAYER01
  6
CONTINUOUS
 62
     7
 10
4741.8482949999998
 20
1131.2487140000001
 30
0.0
  0
VERTEX
  5
BA5
  8
LAYER01
  6
CONTINUOUS
 62
     7
 10
4749.7781809999997
 20
1129.266243
 30
0.0
  0
VERTEX
  5
BA6
  8
LAYER01
  6
CONTINUOUS
 62
     7
 10
4756.7168310000006
 20
1126.2925359999999
 30
0.0
  0
VERTEX
  5
BA7
  8
LAYER01
  6
CONTINUOUS
 62
     7
 10
4764.6467159999993
 20
1123.3188290000001
 30
0.0
  0
VERTEX
  5
BA8
  8
LAYER01
  6
CONTINUOUS
 62
     7
 10
4772.5766020000001
 20
1118.3626509999999
 30
0.0
  0
VERTEX
  5
BA9
  8
LAYER01
  6
CONTINUOUS
 62
     7
 10
4780.5064869999987
 20
1113.4064719999999
 30
0.0
  0
VERTEX
  5
BAA
  8
LAYER01
  6
CONTINUOUS
 62
     7
 10
4780.5064869999987
 20
1113.4064719999999
 30
0.0
  0
SEQEND
  5
BAB
  8
LAYER01
  6
CONTINUOUS
 62
     7
  0
POLYLINE
  5
231
  8
LAYER01
  6
CONTINUOUS
 62
     7
 66
     1
 10
0.0
 20
0.0
 30
0.0
 70
     1
  0
VERTEX
  5
BAC
  8
LAYER01
  6
CONTINUOUS
 62
     7
 10
4876.6563490000008
 20
1132.2399499999999
 30
0.0
  0
VERTEX
  5
BAD
  8
LAYER01
  6
CONTINUOUS
 62
     7
 10
4876.6563490000008
 20
1132.2399499999999
 30
0.0
  0
VERTEX
  5
BAE
  8
LAYER01
  6
CONTINUOUS
 62
     7
 10
4865.7527559999999
 20
1131.2487140000001
 30
0.0
  0
VERTEX
  5
BAF
  8
LAYER01
  6
CONTINUOUS
 62
     7
 10
4853.8579280000004
 20
1130.2574790000001
 30
0.0
  0
VERTEX
  5
BB0
  8
LAYER01
  6
CONTINUOUS
 62
     7
 10
4843.9455710000002
 20
1127.283772
 30
0.0
  0
VERTEX
  5
BB1
  8
LAYER01
  6
CONTINUOUS
 62
     7
 10
4833.0419789999996
 20
1123.3188290000001
 30
0.0
  0
VERTEX
  5
BB2
  8
LAYER01
  6
CONTINUOUS
 62
     7
 10
4823.1296219999986
 20
1119.3538860000001
 30
0.0
  0
VERTEX
  5
BB3
  8
LAYER01
  6
CONTINUOUS
 62
     7
 10
4814.2085010000001
 20
1113.4064719999999
 30
0.0
  0
VERTEX
  5
BB4
  8
LAYER01
  6
CONTINUOUS
 62
     7
 10
4805.2873790000012
 20
1107.4590579999999
 30
0.0
  0
VERTEX
  5
BB5
  8
LAYER01
  6
CONTINUOUS
 62
     7
 10
4797.357493999999
 20
1099.529172
 30
0.0
  0
VERTEX
  5
BB6
  8
LAYER01
  6
CONTINUOUS
 62
     7
 10
4790.4188439999998
 20
1091.599287
 30
0.0
  0
VERTEX
  5
BB7
  8
LAYER01
  6
CONTINUOUS
 62
     7
 10
4783.4801939999998
 20
1083.6694010000001
 30
0.0
  0
VERTEX
  5
BB8
  8
LAYER01
  6
CONTINUOUS
 62
     7
 10
4777.5327799999995
 20
1074.74828
 30
0.0
  0
VERTEX
  5
BB9
  8
LAYER01
  6
CONTINUOUS
 62
     7
 10
4772.5766020000001
 20
1064.8359230000001
 30
0.0
  0
VERTEX
  5
BBA
  8
LAYER01
  6
CONTINUOUS
 62
     7
 10
4769.602895
 20
1053.932331
 30
0.0
  0
VERTEX
  5
BBB
  8
LAYER01
  6
CONTINUOUS
 62
     7
 10
4766.6291879999999
 20
1044.019974
 30
0.0
  0
VERTEX
  5
BBC
  8
LAYER01
  6
CONTINUOUS
 62
     7
 10
4764.6467159999993
 20
1032.1251460000001
 30
0.0
  0
VERTEX
  5
BBD
  8
LAYER01
  6
CONTINUOUS
 62
     7
 10
4763.6554809999998
 20
1021.221553
 30
0.0
  0
VERTEX
  5
BBE
  8
LAYER01
  6
CONTINUOUS
 62
     7
 10
4763.6554809999998
 20
1021.221553
 30
0.0
  0
VERTEX
  5
BBF
  8
LAYER01
  6
CONTINUOUS
 62
     7
 10
4764.6467159999993
 20
1009.326725
 30
0.0
  0
VERTEX
  5
BC0
  8
LAYER01
  6
CONTINUOUS
 62
     7
 10
4765.637952
 20
998.42313200000012
 30
0.0
  0
VERTEX
  5
BC1
  8
LAYER01
  6
CONTINUOUS
 62
     7
 10
4768.6116590000001
 20
987.51954000000001
 30
0.0
  0
VERTEX
  5
BC2
  8
LAYER01
  6
CONTINUOUS
 62
     7
 10
4772.5766020000001
 20
977.60718299999985
 30
0.0
  0
VERTEX
  5
BC3
  8
LAYER01
  6
CONTINUOUS
 62
     7
 10
4776.5415439999988
 20
967.69482599999992
 30
0.0
  0
VERTEX
  5
BC4
  8
LAYER01
  6
CONTINUOUS
 62
     7
 10
4782.4889590000012
 20
958.77370500000006
 30
0.0
  0
VERTEX
  5
BC5
  8
LAYER01
  6
CONTINUOUS
 62
     7
 10
4788.4363729999986
 20
949.85258399999987
 30
0.0
  0
VERTEX
  5
BC6
  8
LAYER01
  6
CONTINUOUS
 62
     7
 10
4795.3750229999996
 20
941.92269800000008
 30
0.0
  0
VERTEX
  5
BC7
  8
LAYER01
  6
CONTINUOUS
 62
     7
 10
4803.304908000001
 20
933.99281299999996
 30
0.0
  0
VERTEX
  5
BC8
  8
LAYER01
  6
CONTINUOUS
 62
     7
 10
4812.2260289999986
 20
928.04539899999986
 30
0.0
  0
VERTEX
  5
BC9
  8
LAYER01
  6
CONTINUOUS
 62
     7
 10
4821.1471499999998
 20
922.097984
 30
0.0
  0
VERTEX
  5
BCA
  8
LAYER01
  6
CONTINUOUS
 62
     7
 10
4831.059506999999
 20
917.14180599999997
 30
0.0
  0
VERTEX
  5
BCB
  8
LAYER01
  6
CONTINUOUS
 62
     7
 10
4840.9718640000001
 20
913.17686299999991
 30
0.0
  0
VERTEX
  5
BCC
  8
LAYER01
  6
CONTINUOUS
 62
     7
 10
4851.8754570000001
 20
911.19439199999988
 30
0.0
  0
VERTEX
  5
BCD
  8
LAYER01
  6
CONTINUOUS
 62
     7
 10
4862.7790489999998
 20
909.21192100000007
 30
0.0
  0
VERTEX
  5
BCE
  8
LAYER01
  6
CONTINUOUS
 62
     7
 10
4873.6826419999998
 20
908.220685
 30
0.0
  0
VERTEX
  5
BCF
  8
LAYER01
  6
CONTINUOUS
 62
     7
 10
4873.6826419999998
 20
908.220685
 30
0.0
  0
VERTEX
  5
BD0
  8
LAYER01
  6
CONTINUOUS
 62
     7
 10
4885.5774700000011
 20
909.21192100000007
 30
0.0
  0
VERTEX
  5
BD1
  8
LAYER01
  6
CONTINUOUS
 62
     7
 10
4896.4810630000002
 20
911.19439199999988
 30
0.0
  0
VERTEX
  5
BD2
  8
LAYER01
  6
CONTINUOUS
 62
     7
 10
4907.3846549999998
 20
914.16809899999987
 30
0.0
  0
VERTEX
  5
BD3
  8
LAYER01
  6
CONTINUOUS
 62
     7
 10
4917.297012
 20
918.13304200000005
 30
0.0
  0
VERTEX
  5
BD4
  8
LAYER01
  6
CONTINUOUS
 62
     7
 10
4927.2093690000002
 20
923.08921999999995
 30
0.0
  0
VERTEX
  5
BD5
  8
LAYER01
  6
CONTINUOUS
 62
     7
 10
4936.1304899999996
 20
929.03663400000005
 30
0.0
  0
VERTEX
  5
BD6
  8
LAYER01
  6
CONTINUOUS
 62
     7
 10
4945.0516109999999
 20
934.98404800000014
 30
0.0
  0
VERTEX
  5
BD7
  8
LAYER01
  6
CONTINUOUS
 62
     7
 10
4952.9814969999989
 20
942.91393400000004
 30
0.0
  0
VERTEX
  5
BD8
  8
LAYER01
  6
CONTINUOUS
 62
     7
 10
4959.9201469999998
 20
950.84381899999994
 30
0.0
  0
VERTEX
  5
BD9
  8
LAYER01
  6
CONTINUOUS
 62
     7
 10
4965.867561
 20
959.76494100000002
 30
0.0
  0
VERTEX
  5
BDA
  8
LAYER01
  6
CONTINUOUS
 62
     7
 10
4970.8237390000004
 20
968.68606199999988
 30
0.0
  0
VERTEX
  5
BDB
  8
LAYER01
  6
CONTINUOUS
 62
     7
 10
4975.7799180000002
 20
978.59841899999981
 30
0.0
  0
VERTEX
  5
BDC
  8
LAYER01
  6
CONTINUOUS
 62
     7
 10
4979.7448599999998
 20
989.50201099999992
 30
0.0
  0
VERTEX
  5
BDD
  8
LAYER01
  6
CONTINUOUS
 62
     7
 10
4981.7273320000013
 20
1000.405604
 30
0.0
  0
VERTEX
  5
BDE
  8
LAYER01
  6
CONTINUOUS
 62
     7
 10
4982.7185669999999
 20
1011.309196
 30
0.0
  0
VERTEX
  5
BDF
  8
LAYER01
  6
CONTINUOUS
 62
     7
 10
4983.7098029999988
 20
1023.204025
 30
0.0
  0
VERTEX
  5
BE0
  8
LAYER01
  6
CONTINUOUS
 62
     7
 10
4983.7098029999988
 20
1023.204025
 30
0.0
  0
VERTEX
  5
BE1
  8
LAYER01
  6
CONTINUOUS
 62
     7
 10
4982.7185669999999
 20
1034.1076169999999
 30
0.0
  0
VERTEX
  5
BE2
  8
LAYER01
  6
CONTINUOUS
 62
     7
 10
4980.7360960000015
 20
1045.0112099999999
 30
0.0
  0
VERTEX
  5
BE3
  8
LAYER01
  6
CONTINUOUS
 62
     7
 10
4977.7623890000013
 20
1054.923567
 30
0.0
  0
VERTEX
  5
BE4
  8
LAYER01
  6
CONTINUOUS
 62
     7
 10
4974.7886820000003
 20
1064.8359230000001
 30
0.0
  0
VERTEX
  5
BE5
  8
LAYER01
  6
CONTINUOUS
 62
     7
 10
4969.8325030000015
 20
1073.7570450000001
 30
0.0
  0
VERTEX
  5
BE6
  8
LAYER01
  6
CONTINUOUS
 62
     7
 10
4964.8763250000002
 20
1082.6781659999999
 30
0.0
  0
VERTEX
  5
BE7
  8
LAYER01
  6
CONTINUOUS
 62
     7
 10
4958.928911
 20
1091.599287
 30
0.0
  0
VERTEX
  5
BE8
  8
LAYER01
  6
CONTINUOUS
 62
     7
 10
4951.9902609999999
 20
1098.5379370000001
 30
0.0
  0
VERTEX
  5
BE9
  8
LAYER01
  6
CONTINUOUS
 62
     7
 10
4944.0603759999995
 20
1105.4765870000001
 30
0.0
  0
VERTEX
  5
BEA
  8
LAYER01
  6
CONTINUOUS
 62
     7
 10
4936.1304899999996
 20
1112.415236
 30
0.0
  0
VERTEX
  5
BEB
  8
LAYER01
  6
CONTINUOUS
 62
     7
 10
4927.2093690000002
 20
1117.3714150000001
 30
0.0
  0
VERTEX
  5
BEC
  8
LAYER01
  6
CONTINUOUS
 62
     7
 10
4918.2882479999989
 20
1122.327593
 30
0.0
  0
VERTEX
  5
BED
  8
LAYER01
  6
CONTINUOUS
 62
     7
 10
4908.3758909999997
 20
1126.2925359999999
 30
0.0
  0
VERTEX
  5
BEE
  8
LAYER01
  6
CONTINUOUS
 62
     7
 10
4898.4635340000013
 20
1129.266243
 30
0.0
  0
VERTEX
  5
BEF
  8
LAYER01
  6
CONTINUOUS
 62
     7
 10
4887.5599410000004
 20
1131.2487140000001
 30
0.0
  0
VERTEX
  5
BF0
  8
LAYER01
  6
CONTINUOUS
 62
     7
 10
4876.6563490000008
 20
1132.2399499999999
 30
0.0
  0
VERTEX
  5
BF1
  8
LAYER01
  6
CONTINUOUS
 62
     7
 10
4876.6563490000008
 20
1132.2399499999999
 30
0.0
  0
SEQEND
  5
BF2
  8
LAYER01
  6
CONTINUOUS
 62
     7
  0
POLYLINE
  5
279
  8
LAYER01
  6
CONTINUOUS
 62
     7
 66
     1
 10
0.0
 20
0.0
 30
0.0
 70
     1
  0
VERTEX
  5
BF3
  8
LAYER01
  6
CONTINUOUS
 62
     7
 10
4873.6826419999998
 20
948.86134799999991
 30
0.0
  0
VERTEX
  5
BF4
  8
LAYER01
  6
CONTINUOUS
 62
     7
 10
4873.6826419999998
 20
948.86134799999991
 30
0.0
  0
VERTEX
  5
BF5
  8
LAYER01
  6
CONTINUOUS
 62
     7
 10
4866.7439919999997
 20
949.85258399999987
 30
0.0
  0
VERTEX
  5
BF6
  8
LAYER01
  6
CONTINUOUS
 62
     7
 10
4859.8053420000006
 20
950.84381899999994
 30
0.0
  0
VERTEX
  5
BF7
  8
LAYER01
  6
CONTINUOUS
 62
     7
 10
4852.8666919999996
 20
951.83505500000001
 30
0.0
  0
VERTEX
  5
BF8
  8
LAYER01
  6
CONTINUOUS
 62
     7
 10
4845.9280429999999
 20
954.80876199999977
 30
0.0
  0
VERTEX
  5
BF9
  8
LAYER01
  6
CONTINUOUS
 62
     7
 10
4839.9806280000012
 20
957.78246899999988
 30
0.0
  0
VERTEX
  5
BFA
  8
LAYER01
  6
CONTINUOUS
 62
     7
 10
4834.033214
 20
961.74741199999983
 30
0.0
  0
VERTEX
  5
BFB
  8
LAYER01
  6
CONTINUOUS
 62
     7
 10
4829.0770359999997
 20
965.71235500000012
 30
0.0
  0
VERTEX
  5
BFC
  8
LAYER01
  6
CONTINUOUS
 62
     7
 10
4824.1208569999999
 20
970.66853300000002
 30
0.0
  0
VERTEX
  5
BFD
  8
LAYER01
  6
CONTINUOUS
 62
     7
 10
4819.1646790000004
 20
975.62471199999993
 30
0.0
  0
VERTEX
  5
BFE
  8
LAYER01
  6
CONTINUOUS
 62
     7
 10
4815.1997359999996
 20
980.58088999999995
 30
0.0
  0
VERTEX
  5
BFF
  8
LAYER01
  6
CONTINUOUS
 62
     7
 10
4812.2260289999986
 20
986.52830399999993
 30
0.0
  0
VERTEX
  5
C00
  8
LAYER01
  6
CONTINUOUS
 62
     7
 10
4809.2523220000003
 20
993.46695399999987
 30
0.0
  0
VERTEX
  5
C01
  8
LAYER01
  6
CONTINUOUS
 62
     7
 10
4806.2786150000002
 20
999.41436799999997
 30
0.0
  0
VERTEX
  5
C02
  8
LAYER01
  6
CONTINUOUS
 62
     7
 10
4805.2873790000012
 20
1006.353018
 30
0.0
  0
VERTEX
  5
C03
  8
LAYER01
  6
CONTINUOUS
 62
     7
 10
4803.304908000001
 20
1013.291668
 30
0.0
  0
VERTEX
  5
C04
  8
LAYER01
  6
CONTINUOUS
 62
     7
 10
4803.304908000001
 20
1021.221553
 30
0.0
  0
VERTEX
  5
C05
  8
LAYER01
  6
CONTINUOUS
 62
     7
 10
4803.304908000001
 20
1021.221553
 30
0.0
  0
VERTEX
  5
C06
  8
LAYER01
  6
CONTINUOUS
 62
     7
 10
4804.2961439999999
 20
1028.1602029999999
 30
0.0
  0
VERTEX
  5
C07
  8
LAYER01
  6
CONTINUOUS
 62
     7
 10
4805.2873790000012
 20
1035.098853
 30
0.0
  0
VERTEX
  5
C08
  8
LAYER01
  6
CONTINUOUS
 62
     7
 10
4807.269851
 20
1042.037503
 30
0.0
  0
VERTEX
  5
C09
  8
LAYER01
  6
CONTINUOUS
 62
     7
 10
4809.2523220000003
 20
1048.976152
 30
0.0
  0
VERTEX
  5
C0A
  8
LAYER01
  6
CONTINUOUS
 62
     7
 10
4812.2260289999986
 20
1054.923567
 30
0.0
  0
VERTEX
  5
C0B
  8
LAYER01
  6
CONTINUOUS
 62
     7
 10
4816.1909720000012
 20
1060.870981
 30
0.0
  0
VERTEX
  5
C0C
  8
LAYER01
  6
CONTINUOUS
 62
     7
 10
4820.1559150000003
 20
1065.8271589999999
 30
0.0
  0
VERTEX
  5
C0D
  8
LAYER01
  6
CONTINUOUS
 62
     7
 10
4825.1120929999997
 20
1070.783338
 30
0.0
  0
VERTEX
  5
C0E
  8
LAYER01
  6
CONTINUOUS
 62
     7
 10
4830.0682720000004
 20
1075.7395160000001
 30
0.0
  0
VERTEX
  5
C0F
  8
LAYER01
  6
CONTINUOUS
 62
     7
 10
4835.0244499999999
 20
1079.704459
 30
0.0
  0
VERTEX
  5
C10
  8
LAYER01
  6
CONTINUOUS
 62
     7
 10
4840.9718640000001
 20
1083.6694010000001
 30
0.0
  0
VERTEX
  5
C11
  8
LAYER01
  6
CONTINUOUS
 62
     7
 10
4847.9105140000001
 20
1086.6431090000001
 30
0.0
  0
VERTEX
  5
C12
  8
LAYER01
  6
CONTINUOUS
 62
     7
 10
4853.8579280000004
 20
1088.6255799999999
 30
0.0
  0
VERTEX
  5
C13
  8
LAYER01
  6
CONTINUOUS
 62
     7
 10
4860.7965780000013
 20
1090.6080509999999
 30
0.0
  0
VERTEX
  5
C14
  8
LAYER01
  6
CONTINUOUS
 62
     7
 10
4867.7352279999996
 20
1091.599287
 30
0.0
  0
VERTEX
  5
C15
  8
LAYER01
  6
CONTINUOUS
 62
     7
 10
4875.665113
 20
1091.599287
 30
0.0
  0
VERTEX
  5
C16
  8
LAYER01
  6
CONTINUOUS
 62
     7
 10
4875.665113
 20
1091.599287
 30
0.0
  0
VERTEX
  5
C17
  8
LAYER01
  6
CONTINUOUS
 62
     7
 10
4882.6037630000001
 20
1090.6080509999999
 30
0.0
  0
VERTEX
  5
C18
  8
LAYER01
  6
CONTINUOUS
 62
     7
 10
4889.5424130000001
 20
1089.616816
 30
0.0
  0
VERTEX
  5
C19
  8
LAYER01
  6
CONTINUOUS
 62
     7
 10
4895.4898270000003
 20
1087.6343440000001
 30
0.0
  0
VERTEX
  5
C1A
  8
LAYER01
  6
CONTINUOUS
 62
     7
 10
4902.4284770000004
 20
1085.651873
 30
0.0
  0
VERTEX
  5
C1B
  8
LAYER01
  6
CONTINUOUS
 62
     7
 10
4907.3846549999998
 20
1082.6781659999999
 30
0.0
  0
VERTEX
  5
C1C
  8
LAYER01
  6
CONTINUOUS
 62
     7
 10
4913.332069
 20
1078.713223
 30
0.0
  0
VERTEX
  5
C1D
  8
LAYER01
  6
CONTINUOUS
 62
     7
 10
4918.2882479999989
 20
1074.74828
 30
0.0
  0
VERTEX
  5
C1E
  8
LAYER01
  6
CONTINUOUS
 62
     7
 10
4923.2444260000002
 20
1070.783338
 30
0.0
  0
VERTEX
  5
C1F
  8
LAYER01
  6
CONTINUOUS
 62
     7
 10
4927.2093690000002
 20
1065.8271589999999
 30
0.0
  0
VERTEX
  5
C20
  8
LAYER01
  6
CONTINUOUS
 62
     7
 10
4931.1743120000001
 20
1059.879745
 30
0.0
  0
VERTEX
  5
C21
  8
LAYER01
  6
CONTINUOUS
 62
     7
 10
4935.1392539999997
 20
1054.923567
 30
0.0
  0
VERTEX
  5
C22
  8
LAYER01
  6
CONTINUOUS
 62
     7
 10
4938.1129609999998
 20
1048.976152
 30
0.0
  0
VERTEX
  5
C23
  8
LAYER01
  6
CONTINUOUS
 62
     7
 10
4940.0954329999986
 20
1042.037503
 30
0.0
  0
VERTEX
  5
C24
  8
LAYER01
  6
CONTINUOUS
 62
     7
 10
4942.0779039999998
 20
1036.0900879999999
 30
0.0
  0
VERTEX
  5
C25
  8
LAYER01
  6
CONTINUOUS
 62
     7
 10
4943.0691399999996
 20
1029.151439
 30
0.0
  0
VERTEX
  5
C26
  8
LAYER01
  6
CONTINUOUS
 62
     7
 10
4943.0691399999996
 20
1022.212789
 30
0.0
  0
VERTEX
  5
C27
  8
LAYER01
  6
CONTINUOUS
 62
     7
 10
4943.0691399999996
 20
1022.212789
 30
0.0
  0
VERTEX
  5
C28
  8
LAYER01
  6
CONTINUOUS
 62
     7
 10
4943.0691399999996
 20
1014.282903
 30
0.0
  0
VERTEX
  5
C29
  8
LAYER01
  6
CONTINUOUS
 62
     7
 10
4942.0779039999998
 20
1007.344254
 30
0.0
  0
VERTEX
  5
C2A
  8
LAYER01
  6
CONTINUOUS
 62
     7
 10
4941.0866689999993
 20
1000.405604
 30
0.0
  0
VERTEX
  5
C2B
  8
LAYER01
  6
CONTINUOUS
 62
     7
 10
4938.1129609999998
 20
994.45819000000006
 30
0.0
  0
VERTEX
  5
C2C
  8
LAYER01
  6
CONTINUOUS
 62
     7
 10
4936.1304899999996
 20
987.51954000000001
 30
0.0
  0
VERTEX
  5
C2D
  8
LAYER01
  6
CONTINUOUS
 62
     7
 10
4932.1655469999996
 20
981.57212600000003
 30
0.0
  0
VERTEX
  5
C2E
  8
LAYER01
  6
CONTINUOUS
 62
     7
 10
4928.200605
 20
975.62471199999993
 30
0.0
  0
VERTEX
  5
C2F
  8
LAYER01
  6
CONTINUOUS
 62
     7
 10
4923.2444260000002
 20
970.66853300000002
 30
0.0
  0
VERTEX
  5
C30
  8
LAYER01
  6
CONTINUOUS
 62
     7
 10
4918.2882479999989
 20
965.71235500000012
 30
0.0
  0
VERTEX
  5
C31
  8
LAYER01
  6
CONTINUOUS
 62
     7
 10
4913.332069
 20
961.74741199999983
 30
0.0
  0
VERTEX
  5
C32
  8
LAYER01
  6
CONTINUOUS
 62
     7
 10
4907.3846549999998
 20
957.78246899999988
 30
0.0
  0
VERTEX
  5
C33
  8
LAYER01
  6
CONTINUOUS
 62
     7
 10
4901.4372409999996
 20
954.80876199999977
 30
0.0
  0
VERTEX
  5
C34
  8
LAYER01
  6
CONTINUOUS
 62
     7
 10
4894.4985909999996
 20
952.82629099999997
 30
0.0
  0
VERTEX
  5
C35
  8
LAYER01
  6
CONTINUOUS
 62
     7
 10
4887.5599410000004
 20
950.84381899999994
 30
0.0
  0
VERTEX
  5
C36
  8
LAYER01
  6
CONTINUOUS
 62
     7
 10
4880.6212919999998
 20
949.85258399999987
 30
0.0
  0
VERTEX
  5
C37
  8
LAYER01
  6
CONTINUOUS
 62
     7
 10
4873.6826419999998
 20
948.86134799999991
 30
0.0
  0
VERTEX
  5
C38
  8
LAYER01
  6
CONTINUOUS
 62
     7
 10
4873.6826419999998
 20
948.86134799999991
 30
0.0
  0
SEQEND
  5
C39
  8
LAYER01
  6
CONTINUOUS
 62
     7
  0
POLYLINE
  5
2C1
  8
LAYER01
  6
CONTINUOUS
 62
     7
 66
     1
 10
0.0
 20
0.0
 30
0.0
 70
     1
  0
VERTEX
  5
C3A
  8
LAYER01
  6
CONTINUOUS
 62
     7
 10
4952.9814969999989
 20
1127.283772
 30
0.0
  0
VERTEX
  5
C3B
  8
LAYER01
  6
CONTINUOUS
 62
     7
 10
5058.0524799999994
 20
1127.283772
 30
0.0
  0
VERTEX
  5
C3C
  8
LAYER01
  6
CONTINUOUS
 62
     7
 10
5058.0524799999994
 20
1127.283772
 30
0.0
  0
VERTEX
  5
C3D
  8
LAYER01
  6
CONTINUOUS
 62
     7
 10
5069.9473079999989
 20
1125.3013000000001
 30
0.0
  0
VERTEX
  5
C3E
  8
LAYER01
  6
CONTINUOUS
 62
     7
 10
5080.8509000000013
 20
1120.3451219999999
 30
0.0
  0
VERTEX
  5
C3F
  8
LAYER01
  6
CONTINUOUS
 62
     7
 10
5089.7720220000001
 20
1114.397708
 30
0.0
  0
VERTEX
  5
C40
  8
LAYER01
  6
CONTINUOUS
 62
     7
 10
5097.7019069999997
 20
1106.4678220000001
 30
0.0
  0
VERTEX
  5
C41
  8
LAYER01
  6
CONTINUOUS
 62
     7
 10
5104.6405569999988
 20
1098.5379370000001
 30
0.0
  0
VERTEX
  5
C42
  8
LAYER01
  6
CONTINUOUS
 62
     7
 10
5109.5967350000001
 20
1088.6255799999999
 30
0.0
  0
VERTEX
  5
C43
  8
LAYER01
  6
CONTINUOUS
 62
     7
 10
5112.5704420000002
 20
1076.7307519999999
 30
0.0
  0
VERTEX
  5
C44
  8
LAYER01
  6
CONTINUOUS
 62
     7
 10
5113.5616779999991
 20
1065.8271589999999
 30
0.0
  0
VERTEX
  5
C45
  8
LAYER01
  6
CONTINUOUS
 62
     7
 10
5113.5616779999991
 20
1065.8271589999999
 30
0.0
  0
VERTEX
  5
C46
  8
LAYER01
  6
CONTINUOUS
 62
     7
 10
5112.5704420000002
 20
1053.932331
 30
0.0
  0
VERTEX
  5
C47
  8
LAYER01
  6
CONTINUOUS
 62
     7
 10
5110.5879710000008
 20
1044.019974
 30
0.0
  0
VERTEX
  5
C48
  8
LAYER01
  6
CONTINUOUS
 62
     7
 10
5106.623028
 20
1034.1076169999999
 30
0.0
  0
VERTEX
  5
C49
  8
LAYER01
  6
CONTINUOUS
 62
     7
 10
5101.6668499999987
 20
1025.186496
 30
0.0
  0
VERTEX
  5
C4A
  8
LAYER01
  6
CONTINUOUS
 62
     7
 10
5094.7281999999987
 20
1017.25661
 30
0.0
  0
VERTEX
  5
C4B
  8
LAYER01
  6
CONTINUOUS
 62
     7
 10
5087.7895500000004
 20
1011.309196
 30
0.0
  0
VERTEX
  5
C4C
  8
LAYER01
  6
CONTINUOUS
 62
     7
 10
5077.8771930000003
 20
1005.3617819999999
 30
0.0
  0
VERTEX
  5
C4D
  8
LAYER01
  6
CONTINUOUS
 62
     7
 10
5067.9648369999986
 20
1001.396839
 30
0.0
  0
VERTEX
  5
C4E
  8
LAYER01
  6
CONTINUOUS
 62
     7
 10
5132.3951560000014
 20
915.15933499999983
 30
0.0
  0
VERTEX
  5
C4F
  8
LAYER01
  6
CONTINUOUS
 62
     7
 10
5082.8333720000001
 20
915.15933499999983
 30
0.0
  0
VERTEX
  5
C50
  8
LAYER01
  6
CONTINUOUS
 62
     7
 10
4996.5958669999991
 20
1025.186496
 30
0.0
  0
VERTEX
  5
C51
  8
LAYER01
  6
CONTINUOUS
 62
     7
 10
5045.166416
 20
1025.186496
 30
0.0
  0
VERTEX
  5
C52
  8
LAYER01
  6
CONTINUOUS
 62
     7
 10
5045.166416
 20
1025.186496
 30
0.0
  0
VERTEX
  5
C53
  8
LAYER01
  6
CONTINUOUS
 62
     7
 10
5051.1138299999993
 20
1027.1689670000001
 30
0.0
  0
VERTEX
  5
C54
  8
LAYER01
  6
CONTINUOUS
 62
     7
 10
5056.0700079999988
 20
1029.151439
 30
0.0
  0
VERTEX
  5
C55
  8
LAYER01
  6
CONTINUOUS
 62
     7
 10
5060.0349509999996
 20
1033.116381
 30
0.0
  0
VERTEX
  5
C56
  8
LAYER01
  6
CONTINUOUS
 62
     7
 10
5063.9998939999996
 20
1037.081324
 30
0.0
  0
VERTEX
  5
C57
  8
LAYER01
  6
CONTINUOUS
 62
     7
 10
5066.9736009999997
 20
1042.037503
 30
0.0
  0
VERTEX
  5
C58
  8
LAYER01
  6
CONTINUOUS
 62
     7
 10
5069.9473079999989
 20
1046.9936809999999
 30
0.0
  0
VERTEX
  5
C59
  8
LAYER01
  6
CONTINUOUS
 62
     7
 10
5070.9385439999996
 20
1052.9410949999999
 30
0.0
  0
VERTEX
  5
C5A
  8
LAYER01
  6
CONTINUOUS
 62
     7
 10
5070.9385439999996
 20
1058.8885090000001
 30
0.0
  0
VERTEX
  5
C5B
  8
LAYER01
  6
CONTINUOUS
 62
     7
 10
5070.9385439999996
 20
1058.8885090000001
 30
0.0
  0
VERTEX
  5
C5C
  8
LAYER01
  6
CONTINUOUS
 62
     7
 10
5070.9385439999996
 20
1064.8359230000001
 30
0.0
  0
VERTEX
  5
C5D
  8
LAYER01
  6
CONTINUOUS
 62
     7
 10
5068.9560719999999
 20
1069.7921020000001
 30
0.0
  0
VERTEX
  5
C5E
  8
LAYER01
  6
CONTINUOUS
 62
     7
 10
5066.9736009999997
 20
1074.74828
 30
0.0
  0
VERTEX
  5
C5F
  8
LAYER01
  6
CONTINUOUS
 62
     7
 10
5063.9998939999996
 20
1079.704459
 30
0.0
  0
VERTEX
  5
C60
  8
LAYER01
  6
CONTINUOUS
 62
     7
 10
5060.0349509999996
 20
1083.6694010000001
 30
0.0
  0
VERTEX
  5
C61
  8
LAYER01
  6
CONTINUOUS
 62
     7
 10
5056.0700079999988
 20
1086.6431090000001
 30
0.0
  0
VERTEX
  5
C62
  8
LAYER01
  6
CONTINUOUS
 62
     7
 10
5050.1225940000004
 20
1089.616816
 30
0.0
  0
VERTEX
  5
C63
  8
LAYER01
  6
CONTINUOUS
 62
     7
 10
5045.166416
 20
1091.599287
 30
0.0
  0
VERTEX
  5
C64
  8
LAYER01
  6
CONTINUOUS
 62
     7
 10
4988.6659820000004
 20
1091.599287
 30
0.0
  0
VERTEX
  5
C65
  8
LAYER01
  6
CONTINUOUS
 62
     7
 10
4952.9814969999989
 20
1127.283772
 30
0.0
  0
VERTEX
  5
C66
  8
LAYER01
  6
CONTINUOUS
 62
     7
 10
4952.9814969999989
 20
1127.283772
 30
0.0
  0
SEQEND
  5
C67
  8
LAYER01
  6
CONTINUOUS
 62
     7
  0
POLYLINE
  5
2F0
  8
LAYER01
  6
CONTINUOUS
 62
     7
 66
     1
 10
0.0
 20
0.0
 30
0.0
 70
     1
  0
VERTEX
  5
C68
  8
LAYER01
  6
CONTINUOUS
 62
     7
 10
5159.15852
 20
1074.74828
 30
0.0
  0
VERTEX
  5
C69
  8
LAYER01
  6
CONTINUOUS
 62
     7
 10
5159.15852
 20
1074.74828
 30
0.0
  0
VERTEX
  5
C6A
  8
LAYER01
  6
CONTINUOUS
 62
     7
 10
5164.1146979999994
 20
1075.7395160000001
 30
0.0
  0
VERTEX
  5
C6B
  8
LAYER01
  6
CONTINUOUS
 62
     7
 10
5169.0708770000001
 20
1076.7307519999999
 30
0.0
  0
VERTEX
  5
C6C
  8
LAYER01
  6
CONTINUOUS
 62
     7
 10
5174.0270549999987
 20
1079.704459
 30
0.0
  0
VERTEX
  5
C6D
  8
LAYER01
  6
CONTINUOUS
 62
     7
 10
5177.9919979999986
 20
1082.6781659999999
 30
0.0
  0
VERTEX
  5
C6E
  8
LAYER01
  6
CONTINUOUS
 62
     7
 10
5180.9657049999996
 20
1086.6431090000001
 30
0.0
  0
VERTEX
  5
C6F
  8
LAYER01
  6
CONTINUOUS
 62
     7
 10
5182.9481759999999
 20
1090.6080509999999
 30
0.0
  0
VERTEX
  5
C70
  8
LAYER01
  6
CONTINUOUS
 62
     7
 10
5184.9306479999987
 20
1095.56423
 30
0.0
  0
VERTEX
  5
C71
  8
LAYER01
  6
CONTINUOUS
 62
     7
 10
5184.9306479999987
 20
1101.5116439999999
 30
0.0
  0
VERTEX
  5
C72
  8
LAYER01
  6
CONTINUOUS
 62
     7
 10
5184.9306479999987
 20
1101.5116439999999
 30
0.0
  0
VERTEX
  5
C73
  8
LAYER01
  6
CONTINUOUS
 62
     7
 10
5184.9306479999987
 20
1106.4678220000001
 30
0.0
  0
VERTEX
  5
C74
  8
LAYER01
  6
CONTINUOUS
 62
     7
 10
5182.9481759999999
 20
1111.4240010000001
 30
0.0
  0
VERTEX
  5
C75
  8
LAYER01
  6
CONTINUOUS
 62
     7
 10
5180.9657049999996
 20
1115.3889429999999
 30
0.0
  0
VERTEX
  5
C76
  8
LAYER01
  6
CONTINUOUS
 62
     7
 10
5177.9919979999986
 20
1119.3538860000001
 30
0.0
  0
VERTEX
  5
C77
  8
LAYER01
  6
CONTINUOUS
 62
     7
 10
5174.0270549999987
 20
1122.327593
 30
0.0
  0
VERTEX
  5
C78
  8
LAYER01
  6
CONTINUOUS
 62
     7
 10
5169.0708770000001
 20
1125.3013000000001
 30
0.0
  0
VERTEX
  5
C79
  8
LAYER01
  6
CONTINUOUS
 62
     7
 10
5164.1146979999994
 20
1126.2925359999999
 30
0.0
  0
VERTEX
  5
C7A
  8
LAYER01
  6
CONTINUOUS
 62
     7
 10
5159.15852
 20
1127.283772
 30
0.0
  0
VERTEX
  5
C7B
  8
LAYER01
  6
CONTINUOUS
 62
     7
 10
5159.15852
 20
1127.283772
 30
0.0
  0
VERTEX
  5
C7C
  8
LAYER01
  6
CONTINUOUS
 62
     7
 10
5154.2023409999993
 20
1126.2925359999999
 30
0.0
  0
VERTEX
  5
C7D
  8
LAYER01
  6
CONTINUOUS
 62
     7
 10
5149.2461629999998
 20
1125.3013000000001
 30
0.0
  0
VERTEX
  5
C7E
  8
LAYER01
  6
CONTINUOUS
 62
     7
 10
5144.289984
 20
1122.327593
 30
0.0
  0
VERTEX
  5
C7F
  8
LAYER01
  6
CONTINUOUS
 62
     7
 10
5140.3250420000004
 20
1119.3538860000001
 30
0.0
  0
VERTEX
  5
C80
  8
LAYER01
  6
CONTINUOUS
 62
     7
 10
5137.3513350000003
 20
1115.3889429999999
 30
0.0
  0
VERTEX
  5
C81
  8
LAYER01
  6
CONTINUOUS
 62
     7
 10
5135.3688629999997
 20
1111.4240010000001
 30
0.0
  0
VERTEX
  5
C82
  8
LAYER01
  6
CONTINUOUS
 62
     7
 10
5133.3863920000013
 20
1106.4678220000001
 30
0.0
  0
VERTEX
  5
C83
  8
LAYER01
  6
CONTINUOUS
 62
     7
 10
5133.3863920000013
 20
1101.5116439999999
 30
0.0
  0
VERTEX
  5
C84
  8
LAYER01
  6
CONTINUOUS
 62
     7
 10
5133.3863920000013
 20
1101.5116439999999
 30
0.0
  0
VERTEX
  5
C85
  8
LAYER01
  6
CONTINUOUS
 62
     7
 10
5133.3863920000013
 20
1095.56423
 30
0.0
  0
VERTEX
  5
C86
  8
LAYER01
  6
CONTINUOUS
 62
     7
 10
5135.3688629999997
 20
1090.6080509999999
 30
0.0
  0
VERTEX
  5
C87
  8
LAYER01
  6
CONTINUOUS
 62
     7
 10
5137.3513350000003
 20
1086.6431090000001
 30
0.0
  0
VERTEX
  5
C88
  8
LAYER01
  6
CONTINUOUS
 62
     7
 10
5140.3250420000004
 20
1082.6781659999999
 30
0.0
  0
VERTEX
  5
C89
  8
LAYER01
  6
CONTINUOUS
 62
     7
 10
5144.289984
 20
1079.704459
 30
0.0
  0
VERTEX
  5
C8A
  8
LAYER01
  6
CONTINUOUS
 62
     7
 10
5149.2461629999998
 20
1076.7307519999999
 30
0.0
  0
VERTEX
  5
C8B
  8
LAYER01
  6
CONTINUOUS
 62
     7
 10
5154.2023409999993
 20
1075.7395160000001
 30
0.0
  0
VERTEX
  5
C8C
  8
LAYER01
  6
CONTINUOUS
 62
     7
 10
5159.15852
 20
1074.74828
 30
0.0
  0
VERTEX
  5
C8D
  8
LAYER01
  6
CONTINUOUS
 62
     7
 10
5159.15852
 20
1074.74828
 30
0.0
  0
SEQEND
  5
C8E
  8
LAYER01
  6
CONTINUOUS
 62
     7
  0
POLYLINE
  5
318
  8
LAYER01
  6
CONTINUOUS
 62
     7
 66
     1
 10
0.0
 20
0.0
 30
0.0
 70
     1
  0
VERTEX
  5
C8F
  8
LAYER01
  6
CONTINUOUS
 62
     7
 10
5159.15852
 20
1123.3188290000001
 30
0.0
  0
VERTEX
  5
C90
  8
LAYER01
  6
CONTINUOUS
 62
     7
 10
5159.15852
 20
1123.3188290000001
 30
0.0
  0
VERTEX
  5
C91
  8
LAYER01
  6
CONTINUOUS
 62
     7
 10
5163.1234629999999
 20
1122.327593
 30
0.0
  0
VERTEX
  5
C92
  8
LAYER01
  6
CONTINUOUS
 62
     7
 10
5167.0884050000004
 20
1121.336358
 30
0.0
  0
VERTEX
  5
C93
  8
LAYER01
  6
CONTINUOUS
 62
     7
 10
5171.0533480000004
 20
1119.3538860000001
 30
0.0
  0
VERTEX
  5
C94
  8
LAYER01
  6
CONTINUOUS
 62
     7
 10
5174.0270549999987
 20
1116.380179
 30
0.0
  0
VERTEX
  5
C95
  8
LAYER01
  6
CONTINUOUS
 62
     7
 10
5177.0007619999997
 20
1113.4064719999999
 30
0.0
  0
VERTEX
  5
C96
  8
LAYER01
  6
CONTINUOUS
 62
     7
 10
5178.9832340000003
 20
1109.4415289999999
 30
0.0
  0
VERTEX
  5
C97
  8
LAYER01
  6
CONTINUOUS
 62
     7
 10
5180.9657049999996
 20
1105.4765870000001
 30
0.0
  0
VERTEX
  5
C98
  8
LAYER01
  6
CONTINUOUS
 62
     7
 10
5180.9657049999996
 20
1101.5116439999999
 30
0.0
  0
VERTEX
  5
C99
  8
LAYER01
  6
CONTINUOUS
 62
     7
 10
5180.9657049999996
 20
1101.5116439999999
 30
0.0
  0
VERTEX
  5
C9A
  8
LAYER01
  6
CONTINUOUS
 62
     7
 10
5180.9657049999996
 20
1096.5554649999999
 30
0.0
  0
VERTEX
  5
C9B
  8
LAYER01
  6
CONTINUOUS
 62
     7
 10
5178.9832340000003
 20
1092.5905230000001
 30
0.0
  0
VERTEX
  5
C9C
  8
LAYER01
  6
CONTINUOUS
 62
     7
 10
5177.0007619999997
 20
1088.6255799999999
 30
0.0
  0
VERTEX
  5
C9D
  8
LAYER01
  6
CONTINUOUS
 62
     7
 10
5174.0270549999987
 20
1085.651873
 30
0.0
  0
VERTEX
  5
C9E
  8
LAYER01
  6
CONTINUOUS
 62
     7
 10
5171.0533480000004
 20
1082.6781659999999
 30
0.0
  0
VERTEX
  5
C9F
  8
LAYER01
  6
CONTINUOUS
 62
     7
 10
5167.0884050000004
 20
1080.695694
 30
0.0
  0
VERTEX
  5
CA0
  8
LAYER01
  6
CONTINUOUS
 62
     7
 10
5163.1234629999999
 20
1079.704459
 30
0.0
  0
VERTEX
  5
CA1
  8
LAYER01
  6
CONTINUOUS
 62
     7
 10
5159.15852
 20
1079.704459
 30
0.0
  0
VERTEX
  5
CA2
  8
LAYER01
  6
CONTINUOUS
 62
     7
 10
5159.15852
 20
1079.704459
 30
0.0
  0
VERTEX
  5
CA3
  8
LAYER01
  6
CONTINUOUS
 62
     7
 10
5155.193577
 20
1079.704459
 30
0.0
  0
VERTEX
  5
CA4
  8
LAYER01
  6
CONTINUOUS
 62
     7
 10
5150.2373990000006
 20
1080.695694
 30
0.0
  0
VERTEX
  5
CA5
  8
LAYER01
  6
CONTINUOUS
 62
     7
 10
5147.2636920000014
 20
1082.6781659999999
 30
0.0
  0
VERTEX
  5
CA6
  8
LAYER01
  6
CONTINUOUS
 62
     7
 10
5143.2987490000014
 20
1085.651873
 30
0.0
  0
VERTEX
  5
CA7
  8
LAYER01
  6
CONTINUOUS
 62
     7
 10
5141.3162769999999
 20
1088.6255799999999
 30
0.0
  0
VERTEX
  5
CA8
  8
LAYER01
  6
CONTINUOUS
 62
     7
 10
5139.3338059999996
 20
1092.5905230000001
 30
0.0
  0
VERTEX
  5
CA9
  8
LAYER01
  6
CONTINUOUS
 62
     7
 10
5137.3513350000003
 20
1096.5554649999999
 30
0.0
  0
VERTEX
  5
CAA
  8
LAYER01
  6
CONTINUOUS
 62
     7
 10
5137.3513350000003
 20
1101.5116439999999
 30
0.0
  0
VERTEX
  5
CAB
  8
LAYER01
  6
CONTINUOUS
 62
     7
 10
5137.3513350000003
 20
1101.5116439999999
 30
0.0
  0
VERTEX
  5
CAC
  8
LAYER01
  6
CONTINUOUS
 62
     7
 10
5137.3513350000003
 20
1105.4765870000001
 30
0.0
  0
VERTEX
  5
CAD
  8
LAYER01
  6
CONTINUOUS
 62
     7
 10
5139.3338059999996
 20
1109.4415289999999
 30
0.0
  0
VERTEX
  5
CAE
  8
LAYER01
  6
CONTINUOUS
 62
     7
 10
5141.3162769999999
 20
1113.4064719999999
 30
0.0
  0
VERTEX
  5
CAF
  8
LAYER01
  6
CONTINUOUS
 62
     7
 10
5143.2987490000014
 20
1116.380179
 30
0.0
  0
VERTEX
  5
CB0
  8
LAYER01
  6
CONTINUOUS
 62
     7
 10
5147.2636920000014
 20
1119.3538860000001
 30
0.0
  0
VERTEX
  5
CB1
  8
LAYER01
  6
CONTINUOUS
 62
     7
 10
5150.2373990000006
 20
1121.336358
 30
0.0
  0
VERTEX
  5
CB2
  8
LAYER01
  6
CONTINUOUS
 62
     7
 10
5155.193577
 20
1122.327593
 30
0.0
  0
VERTEX
  5
CB3
  8
LAYER01
  6
CONTINUOUS
 62
     7
 10
5159.15852
 20
1123.3188290000001
 30
0.0
  0
VERTEX
  5
CB4
  8
LAYER01
  6
CONTINUOUS
 62
     7
 10
5159.15852
 20
1123.3188290000001
 30
0.0
  0
SEQEND
  5
CB5
  8
LAYER01
  6
CONTINUOUS
 62
     7
  0
POLYLINE
  5
340
  8
LAYER01
  6
CONTINUOUS
 62
     7
 66
     1
 10
0.0
 20
0.0
 30
0.0
 70
     1
  0
VERTEX
  5
CB6
  8
LAYER01
  6
CONTINUOUS
 62
     7
 10
5163.1234629999999
 20
1099.529172
 30
0.0
  0
VERTEX
  5
CB7
  8
LAYER01
  6
CONTINUOUS
 62
     7
 10
5163.1234629999999
 20
1099.529172
 30
0.0
  0
VERTEX
  5
CB8
  8
LAYER01
  6
CONTINUOUS
 62
     7
 10
5166.09717
 20
1100.5204080000001
 30
0.0
  0
VERTEX
  5
CB9
  8
LAYER01
  6
CONTINUOUS
 62
     7
 10
5169.0708770000001
 20
1101.5116439999999
 30
0.0
  0
VERTEX
  5
CBA
  8
LAYER01
  6
CONTINUOUS
 62
     7
 10
5171.0533480000004
 20
1104.485351
 30
0.0
  0
VERTEX
  5
CBB
  8
LAYER01
  6
CONTINUOUS
 62
     7
 10
5171.0533480000004
 20
1107.4590579999999
 30
0.0
  0
VERTEX
  5
CBC
  8
LAYER01
  6
CONTINUOUS
 62
     7
 10
5171.0533480000004
 20
1107.4590579999999
 30
0.0
  0
VERTEX
  5
CBD
  8
LAYER01
  6
CONTINUOUS
 62
     7
 10
5171.0533480000004
 20
1111.4240010000001
 30
0.0
  0
VERTEX
  5
CBE
  8
LAYER01
  6
CONTINUOUS
 62
     7
 10
5168.0796409999994
 20
1114.397708
 30
0.0
  0
VERTEX
  5
CBF
  8
LAYER01
  6
CONTINUOUS
 62
     7
 10
5165.1059340000002
 20
1115.3889429999999
 30
0.0
  0
VERTEX
  5
CC0
  8
LAYER01
  6
CONTINUOUS
 62
     7
 10
5161.1409909999993
 20
1115.3889429999999
 30
0.0
  0
VERTEX
  5
CC1
  8
LAYER01
  6
CONTINUOUS
 62
     7
 10
5149.2461629999998
 20
1115.3889429999999
 30
0.0
  0
VERTEX
  5
CC2
  8
LAYER01
  6
CONTINUOUS
 62
     7
 10
5149.2461629999998
 20
1086.6431090000001
 30
0.0
  0
VERTEX
  5
CC3
  8
LAYER01
  6
CONTINUOUS
 62
     7
 10
5153.2111059999997
 20
1086.6431090000001
 30
0.0
  0
VERTEX
  5
CC4
  8
LAYER01
  6
CONTINUOUS
 62
     7
 10
5153.2111059999997
 20
1099.529172
 30
0.0
  0
VERTEX
  5
CC5
  8
LAYER01
  6
CONTINUOUS
 62
     7
 10
5159.15852
 20
1099.529172
 30
0.0
  0
VERTEX
  5
CC6
  8
LAYER01
  6
CONTINUOUS
 62
     7
 10
5166.09717
 20
1086.6431090000001
 30
0.0
  0
VERTEX
  5
CC7
  8
LAYER01
  6
CONTINUOUS
 62
     7
 10
5171.0533480000004
 20
1086.6431090000001
 30
0.0
  0
VERTEX
  5
CC8
  8
LAYER01
  6
CONTINUOUS
 62
     7
 10
5163.1234629999999
 20
1099.529172
 30
0.0
  0
VERTEX
  5
CC9
  8
LAYER01
  6
CONTINUOUS
 62
     7
 10
5163.1234629999999
 20
1099.529172
 30
0.0
  0
SEQEND
  5
CCA
  8
LAYER01
  6
CONTINUOUS
 62
     7
  0
POLYLINE
  5
356
  8
LAYER01
  6
CONTINUOUS
 62
     7
 66
     1
 10
0.0
 20
0.0
 30
0.0
 70
     1
  0
VERTEX
  5
CCB
  8
LAYER01
  6
CONTINUOUS
 62
     7
 10
5160.1497549999985
 20
1111.4240010000001
 30
0.0
  0
VERTEX
  5
CCC
  8
LAYER01
  6
CONTINUOUS
 62
     7
 10
5160.1497549999985
 20
1111.4240010000001
 30
0.0
  0
VERTEX
  5
CCD
  8
LAYER01
  6
CONTINUOUS
 62
     7
 10
5165.1059340000002
 20
1110.432765
 30
0.0
  0
VERTEX
  5
CCE
  8
LAYER01
  6
CONTINUOUS
 62
     7
 10
5167.0884050000004
 20
1109.4415289999999
 30
0.0
  0
VERTEX
  5
CCF
  8
LAYER01
  6
CONTINUOUS
 62
     7
 10
5167.0884050000004
 20
1107.4590579999999
 30
0.0
  0
VERTEX
  5
CD0
  8
LAYER01
  6
CONTINUOUS
 62
     7
 10
5167.0884050000004
 20
1107.4590579999999
 30
0.0
  0
VERTEX
  5
CD1
  8
LAYER01
  6
CONTINUOUS
 62
     7
 10
5166.09717
 20
1105.4765870000001
 30
0.0
  0
VERTEX
  5
CD2
  8
LAYER01
  6
CONTINUOUS
 62
     7
 10
5164.1146979999994
 20
1104.485351
 30
0.0
  0
VERTEX
  5
CD3
  8
LAYER01
  6
CONTINUOUS
 62
     7
 10
5158.167284000001
 20
1103.494115
 30
0.0
  0
VERTEX
  5
CD4
  8
LAYER01
  6
CONTINUOUS
 62
     7
 10
5153.2111059999997
 20
1103.494115
 30
0.0
  0
VERTEX
  5
CD5
  8
LAYER01
  6
CONTINUOUS
 62
     7
 10
5153.2111059999997
 20
1111.4240010000001
 30
0.0
  0
VERTEX
  5
CD6
  8
LAYER01
  6
CONTINUOUS
 62
     7
 10
5160.1497549999985
 20
1111.4240010000001
 30
0.0
  0
VERTEX
  5
CD7
  8
LAYER01
  6
CONTINUOUS
 62
     7
 10
5160.1497549999985
 20
1111.4240010000001
 30
0.0
  0
SEQEND
  5
CD8
  8
LAYER01
  6
CONTINUOUS
 62
     7
  0
ENDBLK
  5
365
  8
0
  0
BLOCK
  8
0
  2
*D1
 70
     1
 10
0.0
 20
0.0
 30
0.0
  3
*D1
  1

  0
LINE
  5
368
  8
LAYER01
 62
     7
 10
1285.695113
 20
1699.2759470000001
 30
0.0
 11
2185.1506549999999
 21
1699.2759470000001
 31
0.0
  0
LINE
  5
369
  8
LAYER01
 62
     7
 10
1285.695113
 20
1643.899793
 30
0.0
 11
1285.695113
 21
1724.2759470000001
 31
0.0
  0
LINE
  5
36A
  8
LAYER01
 62
     7
 10
2185.1506549999999
 20
1643.899793
 30
0.0
 11
2185.1506549999999
 21
1724.2759470000001
 31
0.0
  0
SOLID
  5
36B
  8
LAYER01
 62
     7
 10
1325.695113
 20
1692.609547
 30
0.0
 11
1285.695113
 21
1699.2759470000001
 31
0.0
 12
1325.695113
 22
1705.9423469999999
 32
0.0
 13
1325.695113
 23
1705.9423469999999
 33
0.0
  0
SOLID
  5
36C
  8
LAYER01
 62
     7
 10
2145.1506549999999
 20
1692.609547
 30
0.0
 11
2185.1506549999999
 21
1699.2759470000001
 31
0.0
 12
2145.1506549999999
 22
1705.9423469999999
 32
0.0
 13
2145.1506549999999
 23
1705.9423469999999
 33
0.0
  0
TEXT
  5
36D
  8
LAYER01
  6
CONTINUOUS
 62
     7
 10
1696.8692820000001
 20
1724.2759470000001
 30
0.0
 40
50.0
  1
350-1250
  0
POINT
  5
36E
  8
LAYER01
 62
     7
 10
1285.695113
 20
1623.899793
 30
0.0
  0
POINT
  5
36F
  8
LAYER01
 62
     7
 10
2185.1506549999999
 20
1623.899793
 30
0.0
  0
POINT
  5
370
  8
LAYER01
 62
     7
 10
2185.1506549999999
 20
1699.2759470000001
 30
0.0
  0
ENDBLK
  5
371
  8
0
  0
BLOCK
  8
0
  2
*D2
 70
     1
 10
0.0
 20
0.0
 30
0.0
  3
*D2
  1

  0
LINE
  5
374
  8
LAYER01
 62
     7
 10
2185.1506549999999
 20
1803.6919519999999
 30
0.0
 11
-315.0930259999999
 21
1803.6919519999999
 31
0.0
  0
LINE
  5
375
  8
LAYER01
 62
     7
 10
2185.1506549999999
 20
1643.899793
 30
0.0
 11
2185.1506549999999
 21
1828.691951999999
 31
0.0
  0
LINE
  5
376
  8
LAYER01
 62
     7
 10
-315.0930259999999
 20
1643.899793
 30
0.0
 11
-315.0930259999999
 21
1828.691951999999
 31
0.0
  0
SOLID
  5
377
  8
LAYER01
 62
     7
 10
2145.1506549999999
 20
1810.358352
 30
0.0
 11
2185.1506549999999
 21
1803.6919519999999
 31
0.0
 12
2145.1506549999999
 22
1797.0255520000001
 32
0.0
 13
2145.1506549999999
 23
1797.0255520000001
 33
0.0
  0
SOLID
  5
378
  8
LAYER01
 62
     7
 10
-275.09302600000001
 20
1810.358352
 30
0.0
 11
-315.0930259999999
 21
1803.6919519999999
 31
0.0
 12
-275.09302600000001
 22
1797.0255520000001
 32
0.0
 13
-275.09302600000001
 23
1797.0255520000001
 33
0.0
  0
TEXT
  5
379
  8
LAYER01
  6
CONTINUOUS
 62
     7
 10
883.62401199999988
 20
1828.691951999999
 30
0.0
 40
50.0
  1
1400-3000
  0
POINT
  5
37A
  8
LAYER01
 62
     7
 10
2185.1506549999999
 20
1623.899793
 30
0.0
  0
POINT
  5
37B
  8
LAYER01
 62
     7
 10
-315.0930259999999
 20
1623.899793
 30
0.0
  0
POINT
  5
37C
  8
LAYER01
 62
     7
 10
-315.0930259999999
 20
1803.6919519999999
 30
0.0
  0
ENDBLK
  5
37D
  8
0
  0
BLOCK
  8
0
  2
*D3
 70
     1
 10
0.0
 20
0.0
 30
0.0
  3
*D3
  1

  0
LINE
  5
380
  8
LAYER01
 62
     7
 10
1291.9512790000001
 20
-436.84094099999987
 30
0.0
 11
1211.9512790000001
 21
-436.84094099999987
 31
0.0
  0
LINE
  5
381
  8
LAYER01
 62
     7
 10
1351.9512790000001
 20
-436.84094099999987
 30
0.0
 11
1431.9512790000001
 21
-436.84094099999987
 31
0.0
  0
LINE
  5
382
  8
LAYER01
 62
     7
 10
1291.9512790000001
 20
-518.83033799999987
 30
0.0
 11
1291.9512790000001
 21
-411.84094099999987
 31
0.0
  0
LINE
  5
383
  8
LAYER01
 62
     7
 10
1351.9512790000001
 20
-518.83033799999987
 30
0.0
 11
1351.9512790000001
 21
-411.84094099999987
 31
0.0
  0
SOLID
  5
384
  8
LAYER01
 62
     7
 10
1251.9512790000001
 20
-443.507341
 30
0.0
 11
1291.9512790000001
 21
-436.84094099999987
 31
0.0
 12
1251.9512790000001
 22
-430.17454099999998
 32
0.0
 13
1251.9512790000001
 23
-430.17454099999998
 33
0.0
  0
SOLID
  5
385
  8
LAYER01
 62
     7
 10
1391.9512790000001
 20
-443.507341
 30
0.0
 11
1351.9512790000001
 21
-436.84094099999987
 31
0.0
 12
1391.9512790000001
 22
-430.17454099999998
 32
0.0
 13
1391.9512790000001
 23
-430.17454099999998
 33
0.0
  0
TEXT
  5
386
  8
LAYER01
  6
CONTINUOUS
 62
     7
 10
1456.9512790000001
 20
-411.84094099999987
 30
0.0
 40
50.0
  1
60
  0
POINT
  5
387
  8
LAYER01
 62
     7
 10
1291.9512790000001
 20
-538.83033799999987
 30
0.0
  0
POINT
  5
388
  8
LAYER01
 62
     7
 10
1351.9512790000001
 20
-538.83033799999987
 30
0.0
  0
POINT
  5
389
  8
LAYER01
 62
     7
 10
1351.9512790000001
 20
-436.84094099999987
 30
0.0
  0
ENDBLK
  5
38A
  8
0
  0
BLOCK
  8
0
  2
*D4
 70
     1
 10
0.0
 20
0.0
 30
0.0
  3
*D4
  1

  0
LINE
  5
38D
  8
LAYER01
 62
     7
 10
1535.665467
 20
908.12068499999987
 30
0.0
 11
1035.665467
 21
908.12068499999987
 31
0.0
  0
LINE
  5
38E
  8
LAYER01
 62
     7
 10
1535.665467
 20
996.71092999999996
 30
0.0
 11
1535.665467
 21
883.12068499999987
 31
0.0
  0
LINE
  5
38F
  8
LAYER01
 62
     7
 10
1035.665467
 20
996.71092999999996
 30
0.0
 11
1035.665467
 21
883.12068499999987
 31
0.0
  0
SOLID
  5
390
  8
LAYER01
 62
     7
 10
1495.665467
 20
914.78708500000005
 30
0.0
 11
1535.665467
 21
908.12068499999987
 31
0.0
 12
1495.665467
 22
901.45428499999991
 32
0.0
 13
1495.665467
 23
901.45428499999991
 33
0.0
  0
SOLID
  5
391
  8
LAYER01
 62
     7
 10
1075.665467
 20
914.78708500000005
 30
0.0
 11
1035.665467
 21
908.12068499999987
 31
0.0
 12
1075.665467
 22
901.45428499999991
 32
0.0
 13
1075.665467
 23
901.45428499999991
 33
0.0
  0
TEXT
  5
392
  8
LAYER01
  6
CONTINUOUS
 62
     7
 10
1247.5798010000001
 20
933.12068499999987
 30
0.0
 40
50.0
  1
500
  0
POINT
  5
393
  8
LAYER01
 62
     7
 10
1535.665467
 20
1016.71093
 30
0.0
  0
POINT
  5
394
  8
LAYER01
 62
     7
 10
1035.665467
 20
1016.71093
 30
0.0
  0
POINT
  5
395
  8
LAYER01
 62
     7
 10
1035.665467
 20
908.12068499999987
 30
0.0
  0
ENDBLK
  5
396
  8
0
  0
BLOCK
  8
0
  2
*D5
 70
     1
 10
0.0
 20
0.0
 30
0.0
  3
*D5
  1

  0
LINE
  5
399
  8
LAYER01
 62
     7
 10
1684.906974
 20
654.21624099999985
 30
0.0
 11
-315.0930259999999
 21
654.21624099999985
 31
0.0
  0
LINE
  5
39A
  8
LAYER01
 62
     7
 10
1684.906974
 20
502.96812999999997
 30
0.0
 11
1684.906974
 21
679.21624099999985
 31
0.0
  0
LINE
  5
39B
  8
LAYER01
 62
     7
 10
-315.0930259999999
 20
502.96812999999997
 30
0.0
 11
-315.0930259999999
 21
679.21624099999985
 31
0.0
  0
SOLID
  5
39C
  8
LAYER01
 62
     7
 10
1644.906974
 20
660.88264100000004
 30
0.0
 11
1684.906974
 21
654.21624099999985
 31
0.0
 12
1644.906974
 22
647.54984100000001
 32
0.0
 13
1644.906974
 23
647.54984100000001
 33
0.0
  0
SOLID
  5
39D
  8
LAYER01
 62
     7
 10
-275.09302600000001
 20
660.88264100000004
 30
0.0
 11
-315.0930259999999
 21
654.21624099999985
 31
0.0
 12
-275.09302600000001
 22
647.54984100000001
 32
0.0
 13
-275.09302600000001
 23
647.54984100000001
 33
0.0
  0
TEXT
  5
39E
  8
LAYER01
  6
CONTINUOUS
 62
     7
 10
634.12608499999999
 20
679.21624099999985
 30
0.0
 40
50.0
  1
700-2500
  0
POINT
  5
39F
  8
LAYER01
 62
     7
 10
1684.906974
 20
482.96812999999992
 30
0.0
  0
POINT
  5
3A0
  8
LAYER01
 62
     7
 10
-315.0930259999999
 20
482.96812999999992
 30
0.0
  0
POINT
  5
3A1
  8
LAYER01
 62
     7
 10
-315.0930259999999
 20
654.21624099999985
 30
0.0
  0
ENDBLK
  5
3A2
  8
0
  0
BLOCK
  8
0
  2
*D6
 70
     1
 10
0.0
 20
0.0
 30
0.0
  3
*D6
  1

  0
LINE
  5
3A5
  8
LAYER01
 62
     7
 10
685.45143199999995
 20
552.65446299999996
 30
0.0
 11
1684.906974
 21
552.65446299999996
 31
0.0
  0
LINE
  5
3A6
  8
LAYER01
 62
     7
 10
685.45143199999995
 20
562.33959500000003
 30
0.0
 11
685.45143199999995
 21
577.65446299999996
 31
0.0
  0
LINE
  5
3A7
  8
LAYER01
 62
     7
 10
1684.906974
 20
562.33959500000003
 30
0.0
 11
1684.906974
 21
577.65446299999996
 31
0.0
  0
SOLID
  5
3A8
  8
LAYER01
 62
     7
 10
725.45143200000007
 20
545.9880629999999
 30
0.0
 11
685.45143199999995
 21
552.65446299999996
 31
0.0
 12
725.45143200000007
 22
559.32086300000003
 32
0.0
 13
725.45143200000007
 23
559.32086300000003
 33
0.0
  0
SOLID
  5
3A9
  8
LAYER01
 62
     7
 10
1644.906974
 20
545.9880629999999
 30
0.0
 11
1684.906974
 21
552.65446299999996
 31
0.0
 12
1644.906974
 22
559.32086300000003
 32
0.0
 13
1644.906974
 23
559.32086300000003
 33
0.0
  0
TEXT
  5
3AA
  8
LAYER01
  6
CONTINUOUS
 62
     7
 10
1147.0935360000001
 20
577.65446299999996
 30
0.0
 40
50.0
  1
350-1250
  0
POINT
  5
3AB
  8
LAYER01
 62
     7
 10
685.45143199999995
 20
542.33959500000003
 30
0.0
  0
POINT
  5
3AC
  8
LAYER01
 62
     7
 10
1684.906974
 20
542.33959500000003
 30
0.0
  0
POINT
  5
3AD
  8
LAYER01
 62
     7
 10
1684.906974
 20
552.65446299999996
 30
0.0
  0
ENDBLK
  5
3AE
  8
0
  0
BLOCK
  8
0
  2
TRIGO600-G13
 70
     0
 10
0.0
 20
0.0
 30
0.0
  3
TRIGO600-G13
  1

  0
TEXT
  5
3E2
  8
LAYER01
  6
VERDECKT
 62
     1
 10
-3703.6723499999998
 20
-407.74041299999988
 30
0.0
 40
12.0
  1
A. Sprenger GmbH
  7
SIMPLEX
  0
TEXT
  5
3E3
  8
LAYER01
  6
VERDECKT
 62
     1
 10
-3703.6723499999998
 20
-428.31184200000001
 30
0.0
 40
12.0
  1
Berner Str. 10
  7
SIMPLEX
  0
TEXT
  5
3E4
  8
LAYER01
  6
VERDECKT
 62
     1
 10
-3703.6723499999998
 20
-448.88326999999998
 30
0.0
 40
12.0
  1
60437 Frankfurt
  7
SIMPLEX
  0
TEXT
  5
3E5
  8
LAYER01
  6
VERDECKT
 62
     1
 10
-3703.6723499999998
 20
-469.45469900000001
 30
0.0
 40
12.0
  1
Tel.: 069 - 507 27 41
  7
SIMPLEX
  0
TEXT
  5
3E6
  8
LAYER01
  6
VERDECKT
 62
     1
 10
-3703.6723499999998
 20
-490.02612699999992
 30
0.0
 40
12.0
  1
Fax: 069 - 507 72 91
  7
SIMPLEX
  0
TEXT
  5
3E7
  8
LAYER01
  6
VERDECKT
 62
     1
 10
-3703.6723499999998
 20
-510.59755599999988
 30
0.0
 40
12.0
  1
info@varicor.org
  7
SIMPLEX
  0
ENDBLK
  5
3E8
  8
0
  0
BLOCK
  8
0
  2
TRIGO600-G12
 70
     0
 10
0.0
 20
0.0
 30
0.0
  3
TRIGO600-G12
  1

  0
TEXT
  5
3EB
  8
LAYER01
  6
CONTINUOUS
 62
     1
 10
-2442.690204
 20
-689.83663799999988
 30
0.0
 40
12.0
  1
Blatt
  7
SIMPLEX
  0
LINE
  5
3EC
  8
LAYER01
  6
CONTINUOUS
 62
     1
 10
-3720.690204
 20
-605.83663799999988
 30
0.0
 11
-3000.690204
 21
-605.83663799999988
 31
0.0
  0
LINE
  5
3ED
  8
LAYER01
  6
CONTINUOUS
 62
     1
 10
-3720.690204
 20
-635.83663799999988
 30
0.0
 11
-3000.690204
 21
-635.83663799999988
 31
0.0
  0
LINE
  5
3EE
  8
LAYER01
  6
CONTINUOUS
 62
     1
 10
-3720.690204
 20
-665.83663799999999
 30
0.0
 11
-2364.690204
 21
-665.83663799999999
 31
0.0
  0
LINE
  5
3EF
  8
LAYER01
  6
CONTINUOUS
 62
     1
 10
-3720.690204
 20
-755.83663799999988
 30
0.0
 11
-2364.690204
 21
-755.83663799999988
 31
0.0
  0
LINE
  5
3F0
  8
LAYER01
  6
CONTINUOUS
 62
     1
 10
-3720.690204
 20
-515.83663799999999
 30
0.0
 11
-2364.690204
 21
-515.83663799999999
 31
0.0
  0
POLYLINE
  5
3F1
  8
LAYER01
  6
CONTINUOUS
 62
     1
 66
     1
 10
0.0
 20
0.0
 30
0.0
 70
     1
  0
VERTEX
  5
CD9
  8
LAYER01
  6
CONTINUOUS
 62
     1
 10
-3720.690204
 20
-791.83663799999999
 30
0.0
  0
VERTEX
  5
CDA
  8
LAYER01
  6
CONTINUOUS
 62
     1
 10
-3720.690204
 20
-389.83663799999999
 30
0.0
  0
VERTEX
  5
CDB
  8
LAYER01
  6
CONTINUOUS
 62
     1
 10
-2364.690204
 20
-389.83663799999999
 30
0.0
  0
VERTEX
  5
CDC
  8
LAYER01
  6
CONTINUOUS
 62
     1
 10
-2364.690204
 20
-791.83663799999999
 30
0.0
  0
SEQEND
  5
CDD
  8
LAYER01
  6
CONTINUOUS
 62
     1
  0
LINE
  5
3F7
  8
LAYER01
  6
CONTINUOUS
 62
     1
 10
-3720.690204
 20
-545.83663799999999
 30
0.0
 11
-3000.690204
 21
-545.83663799999999
 31
0.0
  0
LINE
  5
3F8
  8
LAYER01
  6
CONTINUOUS
 62
     1
 10
-3720.690204
 20
-575.83663799999999
 30
0.0
 11
-3000.690204
 21
-575.83663799999999
 31
0.0
  0
LINE
  5
3F9
  8
LAYER01
  6
CONTINUOUS
 62
     1
 10
-3330.690204
 20
-389.83663799999999
 30
0.0
 11
-3330.690204
 21
-791.83663799999999
 31
0.0
  0
INSERT
  5
3FA
  8
LAYER01
  2
TRIGO600-G13
 10
0.0
 20
0.0
 30
0.0
  0
LINE
  5
3FB
  8
LAYER01
  6
CONTINUOUS
 62
     1
 10
-3720.690204
 20
-725.83663799999999
 30
0.0
 11
-3330.690204
 21
-725.83663799999999
 31
0.0
  0
LINE
  5
3FC
  8
LAYER01
  6
CONTINUOUS
 62
     1
 10
-3720.690204
 20
-695.83663799999999
 30
0.0
 11
-3330.690204
 21
-695.83663799999999
 31
0.0
  0
LINE
  5
3FD
  8
LAYER01
  6
CONTINUOUS
 62
     1
 10
-3666.690204
 20
-515.83663799999999
 30
0.0
 11
-3666.690204
 21
-791.83663799999999
 31
0.0
  0
TEXT
  5
3FE
  8
LAYER01
  6
CONTINUOUS
 62
     1
 10
-3710.6110859999999
 20
-779.83663799999999
 30
0.0
 40
11.4
  1
Zust
  7
SIMPLEX
  0
LINE
  5
3FF
  8
LAYER01
  6
CONTINUOUS
 62
     1
 10
-3477.3486659999999
 20
-791.83663799999999
 30
0.0
 11
-3477.3486659999999
 21
-515.83663799999999
 31
0.0
  0
LINE
  5
400
  8
LAYER01
  6
CONTINUOUS
 62
     1
 10
-3384.690204
 20
-515.83663799999999
 30
0.0
 11
-3384.690204
 21
-791.83663799999999
 31
0.0
  0
TEXT
  5
401
  8
LAYER01
  6
CONTINUOUS
 62
     1
 10
-3613.7359540000002
 20
-779.83663799999999
 30
0.0
 40
11.4
  1
Änderung
  7
SIMPLEX
  0
TEXT
  5
402
  8
LAYER01
  6
CONTINUOUS
 62
     1
 10
-3460.4652310000001
 20
-779.83663799999999
 30
0.0
 40
11.4
  1
Datum
  7
SIMPLEX
  0
TEXT
  5
403
  8
LAYER01
  6
CONTINUOUS
 62
     1
 10
-3380.1735199999998
 20
-779.83663799999999
 30
0.0
 40
11.4
  1
Name
  7
SIMPLEX
  0
LINE
  5
404
  8
LAYER01
  6
CONTINUOUS
 62
     1
 10
-2364.690204
 20
-437.83663799999999
 30
0.0
 11
-3000.690204
 21
-437.83663799999999
 31
0.0
  0
LINE
  5
405
  8
LAYER01
  6
CONTINUOUS
 62
     1
 10
-3252.690204
 20
-635.83663799999988
 30
0.0
 11
-3252.690204
 21
-515.83663799999999
 31
0.0
  0
TEXT
  5
406
  8
LAYER01
  6
CONTINUOUS
 62
     1
 10
-3318.690204
 20
-569.83663799999999
 30
0.0
 40
12.0
  1
Bearb.
  7
SIMPLEX
  0
TEXT
  5
407
  8
LAYER01
  6
CONTINUOUS
 62
     1
 10
-3318.690204
 20
-629.83663799999999
 30
0.0
 40
12.0
  1
Norm
  7
SIMPLEX
  0
TEXT
  5
408
  8
LAYER01
  6
CONTINUOUS
 62
     1
 10
-3318.690204
 20
-599.83663799999999
 30
0.0
 40
12.0
  1
Gepr.
  7
SIMPLEX
  0
TEXT
  5
409
  8
LAYER01
  6
CONTINUOUS
 62
     1
 10
-3222.690204
 20
-539.83663799999988
 30
0.0
 40
12.0
  1
Datum
  7
SIMPLEX
  0
TEXT
  5
40A
  8
LAYER01
  6
CONTINUOUS
 62
     1
 10
-3102.690204
 20
-539.83663799999988
 30
0.0
 40
12.0
  1
Name
  7
SIMPLEX
  0
TEXT
  5
40B
  8
LAYER01
  6
CONTINUOUS
 62
     1
 10
-2394.690204
 20
-749.83663799999999
 30
0.0
 40
12.0
  1
Bl.
  7
SIMPLEX
  0
LINE
  5
40C
  8
LAYER01
  6
CONTINUOUS
 62
     1
 10
-3000.690204
 20
-791.83663799999999
 30
0.0
 11
-3000.690204
 21
-389.83663799999999
 31
0.0
  0
LINE
  5
40D
  8
LAYER01
  6
CONTINUOUS
 62
     1
 10
-3138.690204
 20
-665.83663799999999
 30
0.0
 11
-3138.690204
 21
-389.83663799999999
 31
0.0
  0
LINE
  5
40E
  8
LAYER01
  6
CONTINUOUS
 62
     1
 10
-2622.690204
 20
-389.83663799999999
 30
0.0
 11
-2622.690204
 21
-437.83663799999999
 31
0.0
  0
TEXT
  5
40F
  8
LAYER01
  6
CONTINUOUS
 62
     1
 10
-2987.617405
 20
-420.47264000000001
 30
0.0
 40
12.0
  1
Maßstab
  7
SIMPLEX
  0
LINE
  5
410
  8
LAYER01
  6
CONTINUOUS
 62
     1
 10
-2454.690204
 20
-665.83663799999999
 30
0.0
 11
-2454.690204
 21
-755.83663799999988
 31
0.0
  0
LINE
  5
411
  8
LAYER01
  6
CONTINUOUS
 62
     1
 10
-2454.690204
 20
-725.83663799999999
 30
0.0
 11
-2364.690204
 21
-725.83663799999999
 31
0.0
  0
ENDBLK
  5
412
  8
0
  0
BLOCK
  8
0
  2
TRIGO600-G14
 70
     0
 10
0.0
 20
0.0
 30
0.0
  3
TRIGO600-G14
  1

  0
ENDBLK
  5
415
  8
0
  0
BLOCK
  8
0
  2
*D33
 70
     1
 10
0.0
 20
0.0
 30
0.0
  3
*D33
  1

  0
LINE
  5
4FA
  8
LAYER01
 62
     7
 10
-315.0930259999999
 20
552.65446299999996
 30
0.0
 11
685.45143199999995
 21
552.65446299999996
 31
0.0
  0
LINE
  5
4FB
  8
LAYER01
 62
     7
 10
-315.0930259999999
 20
502.96812999999997
 30
0.0
 11
-315.0930259999999
 21
577.65446299999996
 31
0.0
  0
LINE
  5
4FC
  8
LAYER01
 62
     7
 10
685.45143199999995
 20
502.96812999999997
 30
0.0
 11
685.45143199999995
 21
577.65446299999996
 31
0.0
  0
SOLID
  5
4FD
  8
LAYER01
 62
     7
 10
-275.09302600000001
 20
545.9880629999999
 30
0.0
 11
-315.0930259999999
 21
552.65446299999996
 31
0.0
 12
-275.09302600000001
 22
559.32086300000003
 32
0.0
 13
-275.09302600000001
 23
559.32086300000003
 33
0.0
  0
SOLID
  5
4FE
  8
LAYER01
 62
     7
 10
645.45143200000007
 20
545.9880629999999
 30
0.0
 11
685.45143199999995
 21
552.65446299999996
 31
0.0
 12
645.45143200000007
 22
559.32086300000003
 32
0.0
 13
645.45143200000007
 23
559.32086300000003
 33
0.0
  0
TEXT
  5
4FF
  8
LAYER01
  6
CONTINUOUS
 62
     7
 10
134.398314
 20
577.65446299999996
 30
0.0
 40
50.0
  1
350-1250
  0
POINT
  5
500
  8
LAYER01
 62
     7
 10
-315.0930259999999
 20
482.96812999999992
 30
0.0
  0
POINT
  5
501
  8
LAYER01
 62
     7
 10
685.45143199999995
 20
482.96812999999992
 30
0.0
  0
POINT
  5
502
  8
LAYER01
 62
     7
 10
685.45143199999995
 20
552.65446299999996
 30
0.0
  0
ENDBLK
  5
503
  8
0
  0
BLOCK
  8
0
  2
*D34
 70
     1
 10
0.0
 20
0.0
 30
0.0
  3
*D34
  1

  0
LINE
  5
506
  8
LAYER01
 62
     7
 10
-416.14552200000003
 20
-117.03187
 30
0.0
 11
-416.14552200000003
 21
-197.03187
 31
0.0
  0
LINE
  5
507
  8
LAYER01
 62
     7
 10
-416.14552200000003
 20
-56.152431999999997
 30
0.0
 11
-416.14552200000003
 21
23.847567999999999
 31
0.0
  0
LINE
  5
508
  8
LAYER01
 62
     7
 10
-335.09302600000001
 20
-117.03187
 30
0.0
 11
-441.14552199999991
 21
-117.03187
 31
0.0
  0
LINE
  5
509
  8
LAYER01
 62
     7
 10
-335.09302600000001
 20
-56.152431999999997
 30
0.0
 11
-441.14552199999991
 21
-56.152431999999997
 31
0.0
  0
SOLID
  5
50A
  8
LAYER01
 62
     7
 10
-409.47912200000002
 20
-157.03187
 30
0.0
 11
-416.14552200000003
 21
-117.03187
 31
0.0
 12
-422.81192199999992
 22
-157.03187
 32
0.0
 13
-422.81192199999992
 23
-157.03187
 33
0.0
  0
SOLID
  5
50B
  8
LAYER01
 62
     7
 10
-409.47912200000002
 20
-16.152432000000001
 30
0.0
 11
-416.14552200000003
 21
-56.152431999999997
 31
0.0
 12
-422.81192199999992
 22
-16.152432000000001
 32
0.0
 13
-422.81192199999992
 23
-16.152432000000001
 33
0.0
  0
TEXT
  5
50C
  8
LAYER01
  6
CONTINUOUS
 62
     7
 10
-441.14552199999991
 20
48.847568000000003
 30
0.0
 40
50.0
  1
60
 50
90.0
  0
POINT
  5
50D
  8
LAYER01
 62
     7
 10
-315.0930259999999
 20
-117.03187
 30
0.0
  0
POINT
  5
50E
  8
LAYER01
 62
     7
 10
-315.0930259999999
 20
-56.152431999999997
 30
0.0
  0
POINT
  5
50F
  8
LAYER01
 62
     7
 10
-416.14552200000003
 20
-56.152431999999997
 30
0.0
  0
ENDBLK
  5
510
  8
0
  0
BLOCK
  8
0
  2
*D35
 70
     1
 10
0.0
 20
0.0
 30
0.0
  3
*D35
  1

  0
LINE
  5
513
  8
LAYER01
 62
     7
 10
-527.22871599999985
 20
482.96812999999992
 30
0.0
 11
-527.22871599999985
 21
-117.03187
 31
0.0
  0
LINE
  5
514
  8
LAYER01
 62
     7
 10
-335.09302600000001
 20
482.96812999999992
 30
0.0
 11
-552.22871599999985
 21
482.96812999999992
 31
0.0
  0
LINE
  5
515
  8
LAYER01
 62
     7
 10
-335.09302600000001
 20
-117.03187
 30
0.0
 11
-552.22871599999985
 21
-117.03187
 31
0.0
  0
SOLID
  5
516
  8
LAYER01
 62
     7
 10
-533.89511600000003
 20
442.96812999999992
 30
0.0
 11
-527.22871599999985
 21
482.96812999999992
 31
0.0
 12
-520.56231600000001
 22
442.96812999999992
 32
0.0
 13
-520.56231600000001
 23
442.96812999999992
 33
0.0
  0
SOLID
  5
517
  8
LAYER01
 62
     7
 10
-533.89511600000003
 20
-77.031869999999984
 30
0.0
 11
-527.22871599999985
 21
-117.03187
 31
0.0
 12
-520.56231600000001
 22
-77.031869999999984
 32
0.0
 13
-520.56231600000001
 23
-77.031869999999984
 33
0.0
  0
TEXT
  5
518
  8
LAYER01
  6
CONTINUOUS
 62
     7
 10
-552.22871599999985
 20
144.882464
 30
0.0
 40
50.0
  1
600
 50
90.0
  0
POINT
  5
519
  8
LAYER01
 62
     7
 10
-315.0930259999999
 20
482.96812999999992
 30
0.0
  0
POINT
  5
51A
  8
LAYER01
 62
     7
 10
-315.0930259999999
 20
-117.03187
 30
0.0
  0
POINT
  5
51B
  8
LAYER01
 62
     7
 10
-527.22871599999985
 20
-117.03187
 30
0.0
  0
ENDBLK
  5
51C
  8
0
  0
BLOCK
  8
0
  2
*D36
 70
     1
 10
0.0
 20
0.0
 30
0.0
  3
*D36
  1

  0
LINE
  5
51F
  8
LAYER01
 62
     7
 10
-363.77773000000002
 20
-56.152431999999997
 30
0.0
 11
-363.77773000000002
 21
343.84756800000002
 31
0.0
  0
LINE
  5
520
  8
LAYER01
 62
     7
 10
-335.09302600000001
 20
-56.152431999999997
 30
0.0
 11
-388.77773000000002
 21
-56.152431999999997
 31
0.0
  0
LINE
  5
521
  8
LAYER01
 62
     7
 10
-335.09302600000001
 20
343.84756800000002
 30
0.0
 11
-388.77773000000002
 21
343.84756800000002
 31
0.0
  0
SOLID
  5
522
  8
LAYER01
 62
     7
 10
-357.11133000000001
 20
-16.152432000000001
 30
0.0
 11
-363.77773000000002
 21
-56.152431999999997
 31
0.0
 12
-370.44412999999997
 22
-16.152432000000001
 32
0.0
 13
-370.44412999999997
 23
-16.152432000000001
 33
0.0
  0
SOLID
  5
523
  8
LAYER01
 62
     7
 10
-357.11133000000001
 20
303.84756800000002
 30
0.0
 11
-363.77773000000002
 21
343.84756800000002
 31
0.0
 12
-370.44412999999997
 22
303.84756800000002
 32
0.0
 13
-370.44412999999997
 23
303.84756800000002
 33
0.0
  0
TEXT
  5
524
  8
LAYER01
  6
CONTINUOUS
 62
     7
 10
-388.77773000000002
 20
105.76190099999999
 30
0.0
 40
50.0
  1
400
 50
90.0
  0
POINT
  5
525
  8
LAYER01
 62
     7
 10
-315.0930259999999
 20
-56.152431999999997
 30
0.0
  0
POINT
  5
526
  8
LAYER01
 62
     7
 10
-315.0930259999999
 20
343.84756800000002
 30
0.0
  0
POINT
  5
527
  8
LAYER01
 62
     7
 10
-363.77773000000002
 20
343.84756800000002
 30
0.0
  0
ENDBLK
  5
528
  8
0
  0
BLOCK
  8
0
  2
*D37
 70
     1
 10
0.0
 20
0.0
 30
0.0
  3
*D37
  1

  0
LINE
  5
52B
  8
LAYER01
 62
     7
 10
-416.14552200000003
 20
343.84756800000002
 30
0.0
 11
-416.14552200000003
 21
263.84756800000002
 31
0.0
  0
LINE
  5
52C
  8
LAYER01
 62
     7
 10
-416.14552200000003
 20
398.87762400000003
 30
0.0
 11
-416.14552200000003
 21
478.87762400000003
 31
0.0
  0
LINE
  5
52D
  8
LAYER01
 62
     7
 10
-335.09302600000001
 20
343.84756800000002
 30
0.0
 11
-441.14552199999991
 21
343.84756800000002
 31
0.0
  0
LINE
  5
52E
  8
LAYER01
 62
     7
 10
-335.09302600000001
 20
398.87762400000003
 30
0.0
 11
-441.14552199999991
 21
398.87762400000003
 31
0.0
  0
SOLID
  5
52F
  8
LAYER01
 62
     7
 10
-409.47912200000002
 20
303.84756800000002
 30
0.0
 11
-416.14552200000003
 21
343.84756800000002
 31
0.0
 12
-422.81192199999992
 22
303.84756800000002
 32
0.0
 13
-422.81192199999992
 23
303.84756800000002
 33
0.0
  0
SOLID
  5
530
  8
LAYER01
 62
     7
 10
-409.47912200000002
 20
438.87762400000003
 30
0.0
 11
-416.14552200000003
 21
398.87762400000003
 31
0.0
 12
-422.81192199999992
 22
438.87762400000003
 32
0.0
 13
-422.81192199999992
 23
438.87762400000003
 33
0.0
  0
TEXT
  5
531
  8
LAYER01
  6
CONTINUOUS
 62
     7
 10
-441.14552199999991
 20
503.87762400000003
 30
0.0
 40
50.0
  1
55
 50
90.0
  0
POINT
  5
532
  8
LAYER01
 62
     7
 10
-315.0930259999999
 20
343.84756800000002
 30
0.0
  0
POINT
  5
533
  8
LAYER01
 62
     7
 10
-315.0930259999999
 20
398.87762400000003
 30
0.0
  0
POINT
  5
534
  8
LAYER01
 62
     7
 10
-416.14552200000003
 20
398.87762400000003
 30
0.0
  0
ENDBLK
  5
535
  8
0
  0
BLOCK
  8
0
  2
*D38
 70
     1
 10
0.0
 20
0.0
 30
0.0
  3
*D38
  1

  0
LINE
  5
538
  8
LAYER01
 62
     7
 10
935.42178599999977
 20
-247.14453599999999
 30
0.0
 11
435.421786
 21
-247.14453599999999
 31
0.0
  0
LINE
  5
539
  8
LAYER01
 62
     7
 10
935.42178599999977
 20
-137.03187
 30
0.0
 11
935.42178599999977
 21
-272.14453600000002
 31
0.0
  0
LINE
  5
53A
  8
LAYER01
 62
     7
 10
435.421786
 20
-137.03187
 30
0.0
 11
435.421786
 21
-272.14453600000002
 31
0.0
  0
SOLID
  5
53B
  8
LAYER01
 62
     7
 10
895.42178599999977
 20
-240.47813600000001
 30
0.0
 11
935.42178599999977
 21
-247.14453599999999
 31
0.0
 12
895.42178599999977
 22
-253.810936
 32
0.0
 13
895.42178599999977
 23
-253.810936
 33
0.0
  0
SOLID
  5
53C
  8
LAYER01
 62
     7
 10
475.421786
 20
-240.47813600000001
 30
0.0
 11
435.421786
 21
-247.14453599999999
 31
0.0
 12
475.421786
 22
-253.810936
 32
0.0
 13
475.421786
 23
-253.810936
 33
0.0
  0
TEXT
  5
53D
  8
LAYER01
  6
CONTINUOUS
 62
     7
 10
647.33611900000005
 20
-222.14453599999999
 30
0.0
 40
50.0
  1
500
  0
POINT
  5
53E
  8
LAYER01
 62
     7
 10
935.42178599999977
 20
-117.03187
 30
0.0
  0
POINT
  5
53F
  8
LAYER01
 62
     7
 10
435.421786
 20
-117.03187
 30
0.0
  0
POINT
  5
540
  8
LAYER01
 62
     7
 10
435.421786
 20
-247.14453599999999
 30
0.0
  0
ENDBLK
  5
541
  8
0
  0
BLOCK
  8
0
  2
*D39
 70
     1
 10
0.0
 20
0.0
 30
0.0
  3
*D39
  1

  0
LINE
  5
544
  8
LAYER01
 62
     7
 10
891.89418599999999
 20
-501.87087799999989
 30
0.0
 11
751.21204799999998
 21
-501.87087799999989
 31
0.0
  0
LINE
  5
545
  8
LAYER01
 62
     7
 10
891.89418599999999
 20
-518.83033799999987
 30
0.0
 11
891.89418599999999
 21
-476.87087799999989
 31
0.0
  0
LINE
  5
546
  8
LAYER01
 62
     7
 10
751.21204799999998
 20
-518.83033799999987
 30
0.0
 11
751.21204799999998
 21
-476.87087799999989
 31
0.0
  0
SOLID
  5
547
  8
LAYER01
 62
     7
 10
851.89418599999988
 20
-495.20447799999999
 30
0.0
 11
891.89418599999999
 21
-501.87087799999989
 31
0.0
 12
851.89418599999988
 22
-508.53727800000001
 32
0.0
 13
851.89418599999988
 23
-508.53727800000001
 33
0.0
  0
SOLID
  5
548
  8
LAYER01
 62
     7
 10
791.2120480000001
 20
-495.20447799999999
 30
0.0
 11
751.21204799999998
 21
-501.87087799999989
 31
0.0
 12
791.2120480000001
 22
-508.53727800000001
 32
0.0
 13
791.2120480000001
 23
-508.53727800000001
 33
0.0
  0
TEXT
  5
549
  8
LAYER01
  6
CONTINUOUS
 62
     7
 10
783.65797399999985
 20
-476.87087799999989
 30
0.0
 40
50.0
  1
140
  0
POINT
  5
54A
  8
LAYER01
 62
     7
 10
891.89418599999999
 20
-538.83033799999987
 30
0.0
  0
POINT
  5
54B
  8
LAYER01
 62
     7
 10
751.21204799999998
 20
-538.83033799999987
 30
0.0
  0
POINT
  5
54C
  8
LAYER01
 62
     7
 10
751.21204799999998
 20
-501.87087799999989
 30
0.0
  0
ENDBLK
  5
54D
  8
0
  0
BLOCK
  8
0
  2
*D40
 70
     1
 10
0.0
 20
0.0
 30
0.0
  3
*D40
  1

  0
LINE
  5
550
  8
LAYER01
 62
     7
 10
626.890717
 20
-544.35189800000001
 30
0.0
 11
626.890717
 21
-636.35189800000001
 31
0.0
  0
LINE
  5
551
  8
LAYER01
 62
     7
 10
731.21204799999998
 20
-544.35189800000001
 30
0.0
 11
601.890717
 21
-544.35189800000001
 31
0.0
  0
LINE
  5
552
  8
LAYER01
 62
     7
 10
731.21204799999998
 20
-636.35189800000001
 30
0.0
 11
601.890717
 21
-636.35189800000001
 31
0.0
  0
SOLID
  5
553
  8
LAYER01
 62
     7
 10
620.22431700000004
 20
-584.35189799999989
 30
0.0
 11
626.890717
 21
-544.35189800000001
 31
0.0
 12
633.55711699999995
 22
-584.35189799999989
 32
0.0
 13
633.55711699999995
 23
-584.35189799999989
 33
0.0
  0
SOLID
  5
554
  8
LAYER01
 62
     7
 10
620.22431700000004
 20
-596.35189799999989
 30
0.0
 11
626.890717
 21
-636.35189800000001
 31
0.0
 12
633.55711699999995
 22
-596.35189799999989
 32
0.0
 13
633.55711699999995
 23
-596.35189799999989
 33
0.0
  0
TEXT
  5
555
  8
LAYER01
  6
CONTINUOUS
 62
     7
 10
601.890717
 20
-615.61532699999987
 30
0.0
 40
50.0
  1
92
 50
90.0
  0
POINT
  5
556
  8
LAYER01
 62
     7
 10
751.21204799999998
 20
-544.35189800000001
 30
0.0
  0
POINT
  5
557
  8
LAYER01
 62
     7
 10
751.21204799999998
 20
-636.35189800000001
 30
0.0
  0
POINT
  5
558
  8
LAYER01
 62
     7
 10
626.890717
 20
-636.35189800000001
 30
0.0
  0
ENDBLK
  5
559
  8
0
  0
BLOCK
  8
0
  2
*D41
 70
     1
 10
0.0
 20
0.0
 30
0.0
  3
*D41
  1

  0
LINE
  5
55C
  8
LAYER01
 62
     7
 10
891.89418599999999
 20
-501.87087799999989
 30
0.0
 11
1291.9512790000001
 21
-501.87087799999989
 31
0.0
  0
LINE
  5
55D
  8
LAYER01
 62
     7
 10
891.89418599999999
 20
-518.83033799999987
 30
0.0
 11
891.89418599999999
 21
-476.87087799999989
 31
0.0
  0
LINE
  5
55E
  8
LAYER01
 62
     7
 10
1291.9512790000001
 20
-518.83033799999987
 30
0.0
 11
1291.9512790000001
 21
-476.87087799999989
 31
0.0
  0
SOLID
  5
55F
  8
LAYER01
 62
     7
 10
931.89418599999999
 20
-508.53727800000001
 30
0.0
 11
891.89418599999999
 21
-501.87087799999989
 31
0.0
 12
931.89418599999999
 22
-495.20447799999999
 32
0.0
 13
931.89418599999999
 23
-495.20447799999999
 33
0.0
  0
SOLID
  5
560
  8
LAYER01
 62
     7
 10
1251.9512790000001
 20
-508.53727800000001
 30
0.0
 11
1291.9512790000001
 21
-501.87087799999989
 31
0.0
 12
1251.9512790000001
 22
-495.20447799999999
 32
0.0
 13
1251.9512790000001
 23
-495.20447799999999
 33
0.0
  0
TEXT
  5
561
  8
LAYER01
  6
CONTINUOUS
 62
     7
 10
1054.027589
 20
-476.87087799999989
 30
0.0
 40
50.0
  1
400
  0
POINT
  5
562
  8
LAYER01
 62
     7
 10
891.89418599999999
 20
-538.83033799999987
 30
0.0
  0
POINT
  5
563
  8
LAYER01
 62
     7
 10
1291.9512790000001
 20
-538.83033799999987
 30
0.0
  0
POINT
  5
564
  8
LAYER01
 62
     7
 10
1291.9512790000001
 20
-501.87087799999989
 30
0.0
  0
ENDBLK
  5
565
  8
0
  0
BLOCK
  8
0
  2
*D42
 70
     1
 10
0.0
 20
0.0
 30
0.0
  3
*D42
  1

  0
LINE
  5
568
  8
LAYER01
 62
     7
 10
672.58188099999995
 20
410.73615000000001
 30
0.0
 11
623.79342699999995
 21
455.69181099999997
 31
0.0
  0
LINE
  5
569
  8
LAYER01
 62
     7
 10
623.79342699999995
 20
455.69181099999997
 30
0.0
 11
558.59903999999995
 21
455.69181099999997
 31
0.0
  0
SOLID
  5
56A
  8
LAYER01
 62
     7
 10
647.68311700000004
 20
442.74384400000002
 30
0.0
 11
672.58188099999995
 21
410.73615000000001
 31
0.0
 12
638.64841100000001
 22
432.93886399999991
 32
0.0
 13
638.64841100000001
 23
432.93886399999991
 33
0.0
  0
TEXT
  5
56B
  8
LAYER01
  6
CONTINUOUS
 62
     7
 10
454.83627899999988
 20
430.69181099999997
 30
0.0
 40
50.0
  1
%%c35
  0
POINT
  5
56C
  8
LAYER01
 62
     7
 10
685.45143199999995
 20
398.87762400000003
 30
0.0
  0
POINT
  5
56D
  8
LAYER01
 62
     7
 10
623.79342699999995
 20
455.69181099999997
 30
0.0
  0
ENDBLK
  5
56E
  8
0
  0
BLOCK
  8
0
  2
*D43
 70
     1
 10
0.0
 20
0.0
 30
0.0
  3
*D43
  1

  0
LINE
  5
571
  8
LAYER01
 62
     7
 10
-315.0930259999999
 20
1699.2759470000001
 30
0.0
 11
584.36251500000003
 21
1699.2759470000001
 31
0.0
  0
LINE
  5
572
  8
LAYER01
 62
     7
 10
-315.0930259999999
 20
1636.71093
 30
0.0
 11
-315.0930259999999
 21
1724.2759470000001
 31
0.0
  0
LINE
  5
573
  8
LAYER01
 62
     7
 10
584.36251500000003
 20
1636.71093
 30
0.0
 11
584.36251500000003
 21
1724.2759470000001
 31
0.0
  0
SOLID
  5
574
  8
LAYER01
 62
     7
 10
-275.09302600000001
 20
1692.609547
 30
0.0
 11
-315.0930259999999
 21
1699.2759470000001
 31
0.0
 12
-275.09302600000001
 22
1705.9423469999999
 32
0.0
 13
-275.09302600000001
 23
1705.9423469999999
 33
0.0
  0
SOLID
  5
575
  8
LAYER01
 62
     7
 10
544.36251500000003
 20
1692.609547
 30
0.0
 11
584.36251500000003
 21
1699.2759470000001
 31
0.0
 12
544.36251500000003
 22
1705.9423469999999
 32
0.0
 13
544.36251500000003
 23
1705.9423469999999
 33
0.0
  0
TEXT
  5
576
  8
LAYER01
  6
CONTINUOUS
 62
     7
 10
96.081142000000014
 20
1724.2759470000001
 30
0.0
 40
50.0
  1
350-1250
  0
POINT
  5
577
  8
LAYER01
 62
     7
 10
-315.0930259999999
 20
1616.71093
 30
0.0
  0
POINT
  5
578
  8
LAYER01
 62
     7
 10
584.36251500000003
 20
1616.71093
 30
0.0
  0
POINT
  5
579
  8
LAYER01
 62
     7
 10
584.36251500000003
 20
1699.2759470000001
 30
0.0
  0
ENDBLK
  5
57A
  8
0
  0
BLOCK
  8
0
  2
*D44
 70
     1
 10
0.0
 20
0.0
 30
0.0
  3
*D44
  1

  0
LINE
  5
57D
  8
LAYER01
 62
     7
 10
-363.77773000000002
 20
1077.5903679999999
 30
0.0
 11
-363.77773000000002
 21
1477.5903679999999
 31
0.0
  0
LINE
  5
57E
  8
LAYER01
 62
     7
 10
-335.09302600000001
 20
1077.5903679999999
 30
0.0
 11
-388.77773000000002
 21
1077.5903679999999
 31
0.0
  0
LINE
  5
57F
  8
LAYER01
 62
     7
 10
-335.09302600000001
 20
1477.5903679999999
 30
0.0
 11
-388.77773000000002
 21
1477.5903679999999
 31
0.0
  0
SOLID
  5
580
  8
LAYER01
 62
     7
 10
-357.11133000000001
 20
1117.5903679999999
 30
0.0
 11
-363.77773000000002
 21
1077.5903679999999
 31
0.0
 12
-370.44412999999997
 22
1117.5903679999999
 32
0.0
 13
-370.44412999999997
 23
1117.5903679999999
 33
0.0
  0
SOLID
  5
581
  8
LAYER01
 62
     7
 10
-357.11133000000001
 20
1437.5903679999999
 30
0.0
 11
-363.77773000000002
 21
1477.5903679999999
 31
0.0
 12
-370.44412999999997
 22
1437.5903679999999
 32
0.0
 13
-370.44412999999997
 23
1437.5903679999999
 33
0.0
  0
TEXT
  5
582
  8
LAYER01
  6
CONTINUOUS
 62
     7
 10
-388.77773000000002
 20
1239.5047010000001
 30
0.0
 40
50.0
  1
400
 50
90.0
  0
POINT
  5
583
  8
LAYER01
 62
     7
 10
-315.0930259999999
 20
1077.5903679999999
 30
0.0
  0
POINT
  5
584
  8
LAYER01
 62
     7
 10
-315.0930259999999
 20
1477.5903679999999
 30
0.0
  0
POINT
  5
585
  8
LAYER01
 62
     7
 10
-363.77773000000002
 20
1477.5903679999999
 30
0.0
  0
ENDBLK
  5
586
  8
0
  0
BLOCK
  8
0
  2
*D45
 70
     1
 10
0.0
 20
0.0
 30
0.0
  3
*D45
  1

  0
LINE
  5
589
  8
LAYER01
 62
     7
 10
-527.22871599999985
 20
1616.71093
 30
0.0
 11
-527.22871599999985
 21
1016.71093
 31
0.0
  0
LINE
  5
58A
  8
LAYER01
 62
     7
 10
-335.09302600000001
 20
1616.71093
 30
0.0
 11
-552.22871599999985
 21
1616.71093
 31
0.0
  0
LINE
  5
58B
  8
LAYER01
 62
     7
 10
-335.09302600000001
 20
1016.71093
 30
0.0
 11
-552.22871599999985
 21
1016.71093
 31
0.0
  0
SOLID
  5
58C
  8
LAYER01
 62
     7
 10
-533.89511600000003
 20
1576.71093
 30
0.0
 11
-527.22871599999985
 21
1616.71093
 31
0.0
 12
-520.56231600000001
 22
1576.71093
 32
0.0
 13
-520.56231600000001
 23
1576.71093
 33
0.0
  0
SOLID
  5
58D
  8
LAYER01
 62
     7
 10
-533.89511600000003
 20
1056.71093
 30
0.0
 11
-527.22871599999985
 21
1016.71093
 31
0.0
 12
-520.56231600000001
 22
1056.71093
 32
0.0
 13
-520.56231600000001
 23
1056.71093
 33
0.0
  0
TEXT
  5
58E
  8
LAYER01
  6
CONTINUOUS
 62
     7
 10
-552.22871599999985
 20
1278.6252629999999
 30
0.0
 40
50.0
  1
600
 50
90.0
  0
POINT
  5
58F
  8
LAYER01
 62
     7
 10
-315.0930259999999
 20
1616.71093
 30
0.0
  0
POINT
  5
590
  8
LAYER01
 62
     7
 10
-315.0930259999999
 20
1016.71093
 30
0.0
  0
POINT
  5
591
  8
LAYER01
 62
     7
 10
-527.22871599999985
 20
1016.71093
 30
0.0
  0
ENDBLK
  5
592
  8
0
  0
BLOCK
  8
0
  2
*D46
 70
     1
 10
0.0
 20
0.0
 30
0.0
  3
*D46
  1

  0
LINE
  5
595
  8
LAYER01
 62
     7
 10
-416.14552200000003
 20
1016.71093
 30
0.0
 11
-416.14552200000003
 21
936.71092999999996
 31
0.0
  0
LINE
  5
596
  8
LAYER01
 62
     7
 10
-416.14552200000003
 20
1077.5903679999999
 30
0.0
 11
-416.14552200000003
 21
1157.5903679999999
 31
0.0
  0
LINE
  5
597
  8
LAYER01
 62
     7
 10
-335.09302600000001
 20
1016.71093
 30
0.0
 11
-441.14552199999991
 21
1016.71093
 31
0.0
  0
LINE
  5
598
  8
LAYER01
 62
     7
 10
-335.09302600000001
 20
1077.5903679999999
 30
0.0
 11
-441.14552199999991
 21
1077.5903679999999
 31
0.0
  0
SOLID
  5
599
  8
LAYER01
 62
     7
 10
-409.47912200000002
 20
976.71093000000008
 30
0.0
 11
-416.14552200000003
 21
1016.71093
 31
0.0
 12
-422.81192199999992
 22
976.71093000000008
 32
0.0
 13
-422.81192199999992
 23
976.71093000000008
 33
0.0
  0
SOLID
  5
59A
  8
LAYER01
 62
     7
 10
-409.47912200000002
 20
1117.5903679999999
 30
0.0
 11
-416.14552200000003
 21
1077.5903679999999
 31
0.0
 12
-422.81192199999992
 22
1117.5903679999999
 32
0.0
 13
-422.81192199999992
 23
1117.5903679999999
 33
0.0
  0
TEXT
  5
59B
  8
LAYER01
  6
CONTINUOUS
 62
     7
 10
-441.14552199999991
 20
1182.5903679999999
 30
0.0
 40
50.0
  1
60
 50
90.0
  0
POINT
  5
59C
  8
LAYER01
 62
     7
 10
-315.0930259999999
 20
1016.71093
 30
0.0
  0
POINT
  5
59D
  8
LAYER01
 62
     7
 10
-315.0930259999999
 20
1077.5903679999999
 30
0.0
  0
POINT
  5
59E
  8
LAYER01
 62
     7
 10
-416.14552200000003
 20
1077.5903679999999
 30
0.0
  0
ENDBLK
  5
59F
  8
0
  0
BLOCK
  8
0
  2
*D47
 70
     1
 10
0.0
 20
0.0
 30
0.0
  3
*D47
  1

  0
LINE
  5
5A2
  8
LAYER01
 62
     7
 10
-416.14552200000003
 20
1477.5903679999999
 30
0.0
 11
-416.14552200000003
 21
1397.5903679999999
 31
0.0
  0
LINE
  5
5A3
  8
LAYER01
 62
     7
 10
-416.14552200000003
 20
1532.6204230000001
 30
0.0
 11
-416.14552200000003
 21
1612.6204230000001
 31
0.0
  0
LINE
  5
5A4
  8
LAYER01
 62
     7
 10
-335.09302600000001
 20
1477.5903679999999
 30
0.0
 11
-441.14552199999991
 21
1477.5903679999999
 31
0.0
  0
LINE
  5
5A5
  8
LAYER01
 62
     7
 10
-335.09302600000001
 20
1532.6204230000001
 30
0.0
 11
-441.14552199999991
 21
1532.6204230000001
 31
0.0
  0
SOLID
  5
5A6
  8
LAYER01
 62
     7
 10
-409.47912200000002
 20
1437.5903679999999
 30
0.0
 11
-416.14552200000003
 21
1477.5903679999999
 31
0.0
 12
-422.81192199999992
 22
1437.5903679999999
 32
0.0
 13
-422.81192199999992
 23
1437.5903679999999
 33
0.0
  0
SOLID
  5
5A7
  8
LAYER01
 62
     7
 10
-409.47912200000002
 20
1572.6204230000001
 30
0.0
 11
-416.14552200000003
 21
1532.6204230000001
 31
0.0
 12
-422.81192199999992
 22
1572.6204230000001
 32
0.0
 13
-422.81192199999992
 23
1572.6204230000001
 33
0.0
  0
TEXT
  5
5A8
  8
LAYER01
  6
CONTINUOUS
 62
     7
 10
-441.14552199999991
 20
1637.6204230000001
 30
0.0
 40
50.0
  1
55
 50
90.0
  0
POINT
  5
5A9
  8
LAYER01
 62
     7
 10
-315.0930259999999
 20
1477.5903679999999
 30
0.0
  0
POINT
  5
5AA
  8
LAYER01
 62
     7
 10
-315.0930259999999
 20
1532.6204230000001
 30
0.0
  0
POINT
  5
5AB
  8
LAYER01
 62
     7
 10
-416.14552200000003
 20
1532.6204230000001
 30
0.0
  0
ENDBLK
  5
5AC
  8
0
  0
BLOCK
  8
0
  2
*D48
 70
     1
 10
0.0
 20
0.0
 30
0.0
  3
*D48
  1

  0
LINE
  5
5AF
  8
LAYER01
 62
     7
 10
834.39216099999999
 20
910.23655499999995
 30
0.0
 11
334.39216099999999
 21
910.23655499999995
 31
0.0
  0
LINE
  5
5B0
  8
LAYER01
 62
     7
 10
834.39216099999999
 20
996.71092999999996
 30
0.0
 11
834.39216099999999
 21
885.23655499999995
 31
0.0
  0
LINE
  5
5B1
  8
LAYER01
 62
     7
 10
334.39216099999999
 20
996.71092999999996
 30
0.0
 11
334.39216099999999
 21
885.23655499999995
 31
0.0
  0
SOLID
  5
5B2
  8
LAYER01
 62
     7
 10
794.39216099999999
 20
916.90295500000013
 30
0.0
 11
834.39216099999999
 21
910.23655499999995
 31
0.0
 12
794.39216099999999
 22
903.570155
 32
0.0
 13
794.39216099999999
 23
903.570155
 33
0.0
  0
SOLID
  5
5B3
  8
LAYER01
 62
     7
 10
374.39216099999999
 20
916.90295500000013
 30
0.0
 11
334.39216099999999
 21
910.23655499999995
 31
0.0
 12
374.39216099999999
 22
903.570155
 32
0.0
 13
374.39216099999999
 23
903.570155
 33
0.0
  0
TEXT
  5
5B4
  8
LAYER01
  6
CONTINUOUS
 62
     7
 10
546.30649400000004
 20
935.23655499999995
 30
0.0
 40
50.0
  1
500
  0
POINT
  5
5B5
  8
LAYER01
 62
     7
 10
834.39216099999999
 20
1016.71093
 30
0.0
  0
POINT
  5
5B6
  8
LAYER01
 62
     7
 10
334.39216099999999
 20
1016.71093
 30
0.0
  0
POINT
  5
5B7
  8
LAYER01
 62
     7
 10
334.39216099999999
 20
910.23655499999995
 30
0.0
  0
ENDBLK
  5
5B8
  8
0
  0
BLOCK
  8
0
  2
*D49
 70
     1
 10
0.0
 20
0.0
 30
0.0
  3
*D49
  1

  0
LINE
  5
5BB
  8
LAYER01
 62
     7
 10
584.36251500000003
 20
1699.2759470000001
 30
0.0
 11
1285.695113
 21
1699.2759470000001
 31
0.0
  0
LINE
  5
5BC
  8
LAYER01
 62
     7
 10
584.36251500000003
 20
1636.71093
 30
0.0
 11
584.36251500000003
 21
1724.2759470000001
 31
0.0
  0
LINE
  5
5BD
  8
LAYER01
 62
     7
 10
1285.695113
 20
1636.71093
 30
0.0
 11
1285.695113
 21
1724.2759470000001
 31
0.0
  0
SOLID
  5
5BE
  8
LAYER01
 62
     7
 10
624.36251500000003
 20
1692.609547
 30
0.0
 11
584.36251500000003
 21
1699.2759470000001
 31
0.0
 12
624.36251500000003
 22
1705.9423469999999
 32
0.0
 13
624.36251500000003
 23
1705.9423469999999
 33
0.0
  0
SOLID
  5
5BF
  8
LAYER01
 62
     7
 10
1245.695113
 20
1692.609547
 30
0.0
 11
1285.695113
 21
1699.2759470000001
 31
0.0
 12
1245.695113
 22
1705.9423469999999
 32
0.0
 13
1245.695113
 23
1705.9423469999999
 33
0.0
  0
TEXT
  5
5C0
  8
LAYER01
  6
CONTINUOUS
 62
     7
 10
896.47521199999994
 20
1724.2759470000001
 30
0.0
 40
50.0
  1
700-2500
  0
POINT
  5
5C1
  8
LAYER01
 62
     7
 10
584.36251500000003
 20
1616.71093
 30
0.0
  0
POINT
  5
5C2
  8
LAYER01
 62
     7
 10
1285.695113
 20
1616.71093
 30
0.0
  0
POINT
  5
5C3
  8
LAYER01
 62
     7
 10
1285.695113
 20
1699.2759470000001
 30
0.0
  0
ENDBLK
  5
5C4
  8
0
  0
BLOCK
  8
0
  2
*D50
 70
     1
 10
0.0
 20
0.0
 30
0.0
  3
*D50
  1

  0
LINE
  5
5C7
  8
LAYER01
 62
     7
 10
571.49296399999992
 20
1544.4789499999999
 30
0.0
 11
522.7045099999998
 21
1589.4346109999999
 31
0.0
  0
LINE
  5
5C8
  8
LAYER01
 62
     7
 10
522.7045099999998
 20
1589.4346109999999
 30
0.0
 11
457.51012300000002
 21
1589.4346109999999
 31
0.0
  0
SOLID
  5
5C9
  8
LAYER01
 62
     7
 10
546.5942
 20
1576.486643
 30
0.0
 11
571.49296399999992
 21
1544.4789499999999
 31
0.0
 12
537.55949299999997
 22
1566.6816630000001
 32
0.0
 13
537.55949299999997
 23
1566.6816630000001
 33
0.0
  0
TEXT
  5
5CA
  8
LAYER01
  6
CONTINUOUS
 62
     7
 10
353.74736100000001
 20
1564.4346109999999
 30
0.0
 40
50.0
  1
%%c35
  0
POINT
  5
5CB
  8
LAYER01
 62
     7
 10
584.36251500000003
 20
1532.6204230000001
 30
0.0
  0
POINT
  5
5CC
  8
LAYER01
 62
     7
 10
522.7045099999998
 20
1589.4346109999999
 30
0.0
  0
ENDBLK
  5
5CD
  8
0
  0
BLOCK
  8
0
  2
TRIGO600-G53
 70
     0
 10
0.0
 20
0.0
 30
0.0
  3
TRIGO600-G53
  1

  0
TEXT
  5
5D0
  8
LAYER01
  6
VERDECKT
 62
     1
 10
1984.9017309999999
 20
-407.74041299999988
 30
0.0
 40
12.0
  1
A. Sprenger GmbH
  7
SIMPLEX
  0
TEXT
  5
5D1
  8
LAYER01
  6
VERDECKT
 62
     1
 10
1984.9017309999999
 20
-428.31184200000001
 30
0.0
 40
12.0
  1
Berner Str. 10
  7
SIMPLEX
  0
TEXT
  5
5D2
  8
LAYER01
  6
VERDECKT
 62
     1
 10
1984.9017309999999
 20
-448.88326999999998
 30
0.0
 40
12.0
  1
60437 Frankfurt
  7
SIMPLEX
  0
TEXT
  5
5D3
  8
LAYER01
  6
VERDECKT
 62
     1
 10
1984.9017309999999
 20
-469.45469900000001
 30
0.0
 40
12.0
  1
Tel.: 069 - 507 27 41
  7
SIMPLEX
  0
TEXT
  5
5D4
  8
LAYER01
  6
VERDECKT
 62
     1
 10
1984.9017309999999
 20
-490.02612699999992
 30
0.0
 40
12.0
  1
Fax: 069 - 507 72 91
  7
SIMPLEX
  0
TEXT
  5
5D5
  8
LAYER01
  6
VERDECKT
 62
     1
 10
1984.9017309999999
 20
-510.59755599999988
 30
0.0
 40
12.0
  1
info@varicor.org
  7
SIMPLEX
  0
ENDBLK
  5
5D6
  8
0
  0
BLOCK
  8
0
  2
TRIGO600-G52
 70
     0
 10
0.0
 20
0.0
 30
0.0
  3
TRIGO600-G52
  1

  0
TEXT
  5
5D9
  8
LAYER01
  6
CONTINUOUS
 62
     1
 10
3245.8838760000008
 20
-689.83663799999988
 30
0.0
 40
12.0
  1
Blatt
  7
SIMPLEX
  0
LINE
  5
5DA
  8
LAYER01
  6
CONTINUOUS
 62
     1
 10
1967.8838760000001
 20
-605.83663799999988
 30
0.0
 11
2687.8838760000008
 21
-605.83663799999988
 31
0.0
  0
LINE
  5
5DB
  8
LAYER01
  6
CONTINUOUS
 62
     1
 10
1967.8838760000001
 20
-635.83663799999988
 30
0.0
 11
2687.8838760000008
 21
-635.83663799999988
 31
0.0
  0
LINE
  5
5DC
  8
LAYER01
  6
CONTINUOUS
 62
     1
 10
1967.8838760000001
 20
-665.83663799999999
 30
0.0
 11
3323.8838760000008
 21
-665.83663799999999
 31
0.0
  0
LINE
  5
5DD
  8
LAYER01
  6
CONTINUOUS
 62
     1
 10
1967.8838760000001
 20
-755.83663799999988
 30
0.0
 11
3323.8838760000008
 21
-755.83663799999988
 31
0.0
  0
LINE
  5
5DE
  8
LAYER01
  6
CONTINUOUS
 62
     1
 10
1967.8838760000001
 20
-515.83663799999999
 30
0.0
 11
3323.8838760000008
 21
-515.83663799999999
 31
0.0
  0
POLYLINE
  5
5DF
  8
LAYER01
  6
CONTINUOUS
 62
     1
 66
     1
 10
0.0
 20
0.0
 30
0.0
 70
     1
  0
VERTEX
  5
CDE
  8
LAYER01
  6
CONTINUOUS
 62
     1
 10
1967.8838760000001
 20
-791.83663799999999
 30
0.0
  0
VERTEX
  5
CDF
  8
LAYER01
  6
CONTINUOUS
 62
     1
 10
1967.8838760000001
 20
-389.83663799999999
 30
0.0
  0
VERTEX
  5
CE0
  8
LAYER01
  6
CONTINUOUS
 62
     1
 10
3323.8838760000008
 20
-389.83663799999999
 30
0.0
  0
VERTEX
  5
CE1
  8
LAYER01
  6
CONTINUOUS
 62
     1
 10
3323.8838760000008
 20
-791.83663799999999
 30
0.0
  0
SEQEND
  5
CE2
  8
LAYER01
  6
CONTINUOUS
 62
     1
  0
LINE
  5
5E5
  8
LAYER01
  6
CONTINUOUS
 62
     1
 10
1967.8838760000001
 20
-545.83663799999999
 30
0.0
 11
2687.8838760000008
 21
-545.83663799999999
 31
0.0
  0
LINE
  5
5E6
  8
LAYER01
  6
CONTINUOUS
 62
     1
 10
1967.8838760000001
 20
-575.83663799999999
 30
0.0
 11
2687.8838760000008
 21
-575.83663799999999
 31
0.0
  0
LINE
  5
5E7
  8
LAYER01
  6
CONTINUOUS
 62
     1
 10
2357.8838759999999
 20
-389.83663799999999
 30
0.0
 11
2357.8838759999999
 21
-791.83663799999999
 31
0.0
  0
INSERT
  5
5E8
  8
LAYER01
  2
TRIGO600-G53
 10
0.0
 20
0.0
 30
0.0
  0
LINE
  5
5E9
  8
LAYER01
  6
CONTINUOUS
 62
     1
 10
1967.8838760000001
 20
-725.83663799999999
 30
0.0
 11
2357.8838759999999
 21
-725.83663799999999
 31
0.0
  0
LINE
  5
5EA
  8
LAYER01
  6
CONTINUOUS
 62
     1
 10
1967.8838760000001
 20
-695.83663799999999
 30
0.0
 11
2357.8838759999999
 21
-695.83663799999999
 31
0.0
  0
LINE
  5
5EB
  8
LAYER01
  6
CONTINUOUS
 62
     1
 10
2021.8838760000001
 20
-515.83663799999999
 30
0.0
 11
2021.8838760000001
 21
-791.83663799999999
 31
0.0
  0
TEXT
  5
5EC
  8
LAYER01
  6
CONTINUOUS
 62
     1
 10
1977.9629950000001
 20
-779.83663799999999
 30
0.0
 40
11.4
  1
Zust
  7
SIMPLEX
  0
LINE
  5
5ED
  8
LAYER01
  6
CONTINUOUS
 62
     1
 10
2211.2254149999999
 20
-791.83663799999999
 30
0.0
 11
2211.2254149999999
 21
-515.83663799999999
 31
0.0
  0
LINE
  5
5EE
  8
LAYER01
  6
CONTINUOUS
 62
     1
 10
2303.8838759999999
 20
-515.83663799999999
 30
0.0
 11
2303.8838759999999
 21
-791.83663799999999
 31
0.0
  0
TEXT
  5
5EF
  8
LAYER01
  6
CONTINUOUS
 62
     1
 10
2074.838127
 20
-779.83663799999999
 30
0.0
 40
11.4
  1
Änderung
  7
SIMPLEX
  0
TEXT
  5
5F0
  8
LAYER01
  6
CONTINUOUS
 62
     1
 10
2228.1088500000001
 20
-779.83663799999999
 30
0.0
 40
11.4
  1
Datum
  7
SIMPLEX
  0
TEXT
  5
5F1
  8
LAYER01
  6
CONTINUOUS
 62
     1
 10
2308.4005609999999
 20
-779.83663799999999
 30
0.0
 40
11.4
  1
Name
  7
SIMPLEX
  0
LINE
  5
5F2
  8
LAYER01
  6
CONTINUOUS
 62
     1
 10
3323.8838760000008
 20
-437.83663799999999
 30
0.0
 11
2687.8838760000008
 21
-437.83663799999999
 31
0.0
  0
LINE
  5
5F3
  8
LAYER01
  6
CONTINUOUS
 62
     1
 10
2435.8838760000008
 20
-635.83663799999988
 30
0.0
 11
2435.8838760000008
 21
-515.83663799999999
 31
0.0
  0
TEXT
  5
5F4
  8
LAYER01
  6
CONTINUOUS
 62
     1
 10
2369.8838760000008
 20
-569.83663799999999
 30
0.0
 40
12.0
  1
Bearb.
  7
SIMPLEX
  0
TEXT
  5
5F5
  8
LAYER01
  6
CONTINUOUS
 62
     1
 10
2369.8838760000008
 20
-629.83663799999999
 30
0.0
 40
12.0
  1
Norm
  7
SIMPLEX
  0
TEXT
  5
5F6
  8
LAYER01
  6
CONTINUOUS
 62
     1
 10
2369.8838760000008
 20
-599.83663799999999
 30
0.0
 40
12.0
  1
Gepr.
  7
SIMPLEX
  0
TEXT
  5
5F7
  8
LAYER01
  6
CONTINUOUS
 62
     1
 10
2465.8838760000008
 20
-539.83663799999988
 30
0.0
 40
12.0
  1
Datum
  7
SIMPLEX
  0
TEXT
  5
5F8
  8
LAYER01
  6
CONTINUOUS
 62
     1
 10
2585.8838759999999
 20
-539.83663799999988
 30
0.0
 40
12.0
  1
Name
  7
SIMPLEX
  0
TEXT
  5
5F9
  8
LAYER01
  6
CONTINUOUS
 62
     1
 10
3293.8838760000008
 20
-749.83663799999999
 30
0.0
 40
12.0
  1
Bl.
  7
SIMPLEX
  0
LINE
  5
5FA
  8
LAYER01
  6
CONTINUOUS
 62
     1
 10
2687.8838760000008
 20
-791.83663799999999
 30
0.0
 11
2687.8838760000008
 21
-389.83663799999999
 31
0.0
  0
LINE
  5
5FB
  8
LAYER01
  6
CONTINUOUS
 62
     1
 10
2549.8838760000008
 20
-665.83663799999999
 30
0.0
 11
2549.8838760000008
 21
-389.83663799999999
 31
0.0
  0
LINE
  5
5FC
  8
LAYER01
  6
CONTINUOUS
 62
     1
 10
3065.8838760000008
 20
-389.83663799999999
 30
0.0
 11
3065.8838760000008
 21
-437.83663799999999
 31
0.0
  0
TEXT
  5
5FD
  8
LAYER01
  6
CONTINUOUS
 62
     1
 10
2700.9566759999998
 20
-420.47264000000001
 30
0.0
 40
12.0
  1
Maßstab
  7
SIMPLEX
  0
LINE
  5
5FE
  8
LAYER01
  6
CONTINUOUS
 62
     1
 10
3233.8838759999999
 20
-665.83663799999999
 30
0.0
 11
3233.8838759999999
 21
-755.83663799999988
 31
0.0
  0
LINE
  5
5FF
  8
LAYER01
  6
CONTINUOUS
 62
     1
 10
3233.8838759999999
 20
-725.83663799999999
 30
0.0
 11
3323.8838760000008
 21
-725.83663799999999
 31
0.0
  0
ENDBLK
  5
600
  8
0
  0
BLOCK
  8
0
  2
TRIGO600-G54
 70
     0
 10
0.0
 20
0.0
 30
0.0
  3
TRIGO600-G54
  1

  0
ENDBLK
  5
603
  8
0
  0
BLOCK
  8
0
  2
*D54
 70
     1
 10
0.0
 20
0.0
 30
0.0
  3
*D54
  1

  0
LINE
  5
606
  8
LAYER01
 62
     7
 10
1469.940689
 20
-644.6196480000001
 30
0.0
 11
1469.940689
 21
-544.39643699999988
 31
0.0
  0
LINE
  5
607
  8
LAYER01
 62
     7
 10
1371.9512790000001
 20
-644.6196480000001
 30
0.0
 11
1494.940689
 21
-644.6196480000001
 31
0.0
  0
LINE
  5
608
  8
LAYER01
 62
     7
 10
1371.9512790000001
 20
-544.39643699999988
 30
0.0
 11
1494.940689
 21
-544.39643699999988
 31
0.0
  0
SOLID
  5
609
  8
LAYER01
 62
     7
 10
1476.6070890000001
 20
-604.61964799999998
 30
0.0
 11
1469.940689
 21
-644.6196480000001
 31
0.0
 12
1463.274289
 22
-604.61964799999998
 32
0.0
 13
1463.274289
 23
-604.61964799999998
 33
0.0
  0
SOLID
  5
60A
  8
LAYER01
 62
     7
 10
1476.6070890000001
 20
-584.39643699999999
 30
0.0
 11
1469.940689
 21
-544.39643699999988
 31
0.0
 12
1463.274289
 22
-584.39643699999999
 32
0.0
 13
1463.274289
 23
-584.39643699999999
 33
0.0
  0
TEXT
  5
60B
  8
LAYER01
  6
CONTINUOUS
 62
     7
 10
1444.940689
 20
-632.40318499999989
 30
0.0
 40
50.0
  1
100
 50
90.0
  0
POINT
  5
60C
  8
LAYER01
 62
     7
 10
1351.9512790000001
 20
-644.6196480000001
 30
0.0
  0
POINT
  5
60D
  8
LAYER01
 62
     7
 10
1351.9512790000001
 20
-544.39643699999988
 30
0.0
  0
POINT
  5
60E
  8
LAYER01
 62
     7
 10
1469.940689
 20
-544.39643699999988
 30
0.0
  0
ENDBLK
  5
60F
  8
0
  0
ENDSEC
  0
SECTION
  2
ENTITIES
  0
POLYLINE
  5
610
  8
LAYER01
  6
CONTINUOUS
 62
     7
 66
     1
 10
0.0
 20
0.0
 30
0.0
 70
     1
  0
VERTEX
  5
CE3
  8
LAYER01
  6
CONTINUOUS
 62
     7
 10
1535.665467
 20
1477.5903679999999
 30
0.0
  0
VERTEX
  5
CE4
  8
LAYER01
  6
CONTINUOUS
 62
     7
 10
1035.665467
 20
1477.5903679999999
 30
0.0
  0
VERTEX
  5
CE5
  8
LAYER01
  6
CONTINUOUS
 62
     7
 10
1035.665467
 20
1077.5903679999999
 30
0.0
  0
VERTEX
  5
CE6
  8
LAYER01
  6
CONTINUOUS
 62
     7
 10
1535.665467
 20
1077.5903679999999
 30
0.0
  0
SEQEND
  5
CE7
  8
LAYER01
  6
CONTINUOUS
 62
     7
  0
LINE
  5
616
  8
LAYER01
  6
CONTINUOUS
 62
     7
 10
1035.6706389999999
 20
1452.564993
 30
0.0
 11
1535.660515
 21
1452.564993
 31
0.0
  0
LINE
  5
617
  8
LAYER01
  6
CONTINUOUS
 62
     7
 10
2185.1506549999999
 20
1616.71093
 30
0.0
 11
935.69511299999999
 21
1616.71093
 31
0.0
  0
INSERT
  5
618
  8
LAYER01
  2
TRIGO600-G1
 10
-1997.2721060628189
 20
-991.88296849761718
 30
0.0
  0
DIMENSION
  5
619
  8
LAYER01
 62
     7
  2
*D1
 10
2185.1506549999999
 20
1699.2759470000001
 30
0.0
 11
1784.379291
 21
1749.2759470000001
 31
0.0
 13
1285.695113
 23
1623.899793
 33
0.0
 14
2185.1506549999999
 24
1623.899793
 34
0.0
  0
DIMENSION
  5
61A
  8
LAYER01
 62
     7
  2
*D2
 10
-315.0930259999999
 20
1803.6919519999999
 30
0.0
 11
982.3055109999998
 21
1853.6919519999999
 31
0.0
 13
2185.1506549999999
 23
1623.899793
 33
0.0
 14
-315.0930259999999
 24
1623.899793
 34
0.0
  0
LINE
  5
61B
  8
0
  6
CONTINUOUS
 62
     7
 10
-315.0930259999999
 20
-117.03187
 30
0.0
 11
1684.906974
 21
-117.03187
 31
0.0
  0
LINE
  5
61C
  8
0
  6
CONTINUOUS
 62
     7
 10
1684.906974
 20
482.96812999999992
 30
0.0
 11
-315.0930259999999
 21
482.96812999999992
 31
0.0
  0
POLYLINE
  5
61D
  8
LAYER01
  6
CONTINUOUS
 62
     7
 66
     1
 10
0.0
 20
0.0
 30
0.0
 70
     1
  0
VERTEX
  5
CE8
  8
LAYER01
  6
CONTINUOUS
 62
     7
 10
-656.79366500000003
 20
-791.83663799999999
 30
0.0
  0
VERTEX
  5
CE9
  8
LAYER01
  6
CONTINUOUS
 62
     7
 10
-656.79366500000003
 20
1964.2854110000001
 30
0.0
  0
VERTEX
  5
CEA
  8
LAYER01
  6
CONTINUOUS
 62
     7
 10
3323.8838760000008
 20
1964.2854110000001
 30
0.0
  0
VERTEX
  5
CEB
  8
LAYER01
  6
CONTINUOUS
 62
     7
 10
3323.8838760000008
 20
-791.83663799999999
 30
0.0
  0
SEQEND
  5
CEC
  8
LAYER01
  6
CONTINUOUS
 62
     7
  0
DIMENSION
  5
623
  8
LAYER01
 62
     7
  2
*D3
 10
1351.9512790000001
 20
-436.84094099999987
 30
0.0
 11
1483.0180909999999
 21
-386.84094099999999
 31
0.0
 13
1291.9512790000001
 23
-538.83033799999987
 33
0.0
 14
1351.9512790000001
 24
-538.83033799999987
 34
0.0
  0
DIMENSION
  5
624
  8
LAYER01
 62
     7
  2
*D4
 10
1035.665467
 20
908.12068499999987
 30
0.0
 11
1286.680018
 21
958.12068499999987
 31
0.0
 13
1535.665467
 23
1016.71093
 33
0.0
 14
1035.665467
 24
1016.71093
 34
0.0
  0
DIMENSION
  5
625
  8
LAYER01
 62
     7
  2
*D5
 10
-315.0930259999999
 20
654.21624099999985
 30
0.0
 11
721.63609400000007
 21
704.21624099999985
 31
0.0
 13
1684.906974
 23
482.96812999999992
 33
0.0
 14
-315.0930259999999
 24
482.96812999999992
 34
0.0
  0
DIMENSION
  5
626
  8
LAYER01
 62
     7
  2
*D6
 10
1684.906974
 20
552.65446299999996
 30
0.0
 11
1234.6035460000001
 21
602.65446299999996
 31
0.0
 13
685.45143199999995
 23
542.33959500000003
 33
0.0
 14
1684.906974
 24
542.33959500000003
 34
0.0
  0
LINE
  5
627
  8
LAYER01
  6
VERDECKT
 62
     7
 10
-315.0930259999999
 20
-105.03187
 30
0.0
 11
1684.906974
 21
-105.03187
 31
0.0
  0
LINE
  5
628
  8
LAYER01
  6
CONTINUOUS
 62
     7
 10
-315.0930259999999
 20
1016.71093
 30
0.0
 11
2185.1506549999999
 21
1016.71093
 31
0.0
  0
LINE
  5
629
  8
LAYER01
  6
VERDECKT
 62
     7
 10
-315.0930259999999
 20
1028.71093
 30
0.0
 11
2185.1506549999999
 21
1028.71093
 31
0.0
  0
ARC
  5
62A
  8
0
  6
CONTINUOUS
 62
     7
 10
1329.9512790000001
 20
-566.61964799999998
 30
0.0
 40
10.0
 50
0.0
 51
90.0
  0
LINE
  5
62B
  8
0
  6
CONTINUOUS
 62
     7
 10
1291.9512790000001
 20
-544.39643699999988
 30
0.0
 11
1348.9512790000001
 21
-544.39643699999988
 31
0.0
  0
INSERT
  5
739
  8
LAYER01
  2
TRIGO600-G14
 10
0.0
 20
0.0
 30
0.0
  0
DIMENSION
  5
785
  8
LAYER01
 62
     7
  2
*D33
 10
685.45143199999995
 20
552.65446299999996
 30
0.0
 11
221.908323
 21
602.65446299999996
 31
0.0
 13
-315.0930259999999
 23
482.96812999999992
 33
0.0
 14
685.45143199999995
 24
482.96812999999992
 34
0.0
  0
DIMENSION
  5
786
  8
LAYER01
 62
     7
  2
*D34
 10
-416.14552200000003
 20
-56.152431999999997
 30
0.0
 11
-466.14552199999991
 21
73.052464000000001
 31
0.0
 53
90.0
 13
-315.0930259999999
 23
-117.03187
 33
0.0
 14
-315.0930259999999
 24
-56.152431999999997
 34
0.0
 50
90.0
  0
LINE
  5
787
  8
0
  6
CONTINUOUS
 62
     7
 10
-315.0930259999999
 20
482.96812999999992
 30
0.0
 11
-315.0930259999999
 21
-117.03187
 31
0.0
  0
DIMENSION
  5
788
  8
LAYER01
 62
     7
  2
*D35
 10
-527.22871599999985
 20
-117.03187
 30
0.0
 11
-577.22871599999985
 21
183.98268100000001
 31
0.0
 53
90.0
 13
-315.0930259999999
 23
482.96812999999992
 33
0.0
 14
-315.0930259999999
 24
-117.03187
 34
0.0
 50
90.0
  0
DIMENSION
  5
789
  8
LAYER01
 62
     7
  2
*D36
 10
-363.77773000000002
 20
343.84756800000002
 30
0.0
 11
-413.77772999999991
 21
144.8621179999999
 31
0.0
 53
90.0
 13
-315.0930259999999
 23
-56.152431999999997
 33
0.0
 14
-315.0930259999999
 24
343.84756800000002
 34
0.0
 50
90.0
  0
DIMENSION
  5
78A
  8
LAYER01
 62
     7
  2
*D37
 10
-416.14552200000003
 20
398.87762400000003
 30
0.0
 11
-466.14552199999991
 21
529.94443499999988
 31
0.0
 53
90.0
 13
-315.0930259999999
 23
343.84756800000002
 33
0.0
 14
-315.0930259999999
 24
398.87762400000003
 34
0.0
 50
90.0
  0
DIMENSION
  5
78B
  8
LAYER01
 62
     7
  2
*D38
 10
435.421786
 20
-247.14453599999999
 30
0.0
 11
686.43633599999987
 21
-197.14453599999999
 31
0.0
 13
935.42178599999977
 23
-117.03187
 33
0.0
 14
435.421786
 24
-117.03187
 34
0.0
  0
POLYLINE
  5
78C
  8
0
  6
CONTINUOUS
 62
     7
 66
     1
 10
0.0
 20
0.0
 30
0.0
 70
     1
  0
VERTEX
  5
CED
  8
0
  6
CONTINUOUS
 62
     7
 10
879.89418599999988
 20
-693.26609900000005
 30
0.0
  0
VERTEX
  5
CEE
  8
0
  6
CONTINUOUS
 62
     7
 10
879.89418599999988
 20
-566.26609900000005
 30
0.0
  0
VERTEX
  5
CEF
  8
0
  6
CONTINUOUS
 62
     7
 10
879.86335899999995
 20
-565.48150799999985
 30
0.0
  0
VERTEX
  5
CF0
  8
0
  6
CONTINUOUS
 62
     7
 10
879.77106899999978
 20
-564.70175400000005
 30
0.0
  0
VERTEX
  5
CF1
  8
0
  6
CONTINUOUS
 62
     7
 10
879.617885
 20
-563.93164499999989
 30
0.0
  0
VERTEX
  5
CF2
  8
0
  6
CONTINUOUS
 62
     7
 10
879.40475100000003
 20
-563.17592899999988
 30
0.0
  0
VERTEX
  5
CF3
  8
0
  6
CONTINUOUS
 62
     7
 10
879.13298099999997
 20
-562.43926399999987
 30
0.0
  0
VERTEX
  5
CF4
  8
0
  6
CONTINUOUS
 62
     7
 10
878.80425100000002
 20
-561.72619399999996
 30
0.0
  0
VERTEX
  5
CF5
  8
0
  6
CONTINUOUS
 62
     7
 10
878.42058699999995
 20
-561.041113
 30
0.0
  0
VERTEX
  5
CF6
  8
0
  6
CONTINUOUS
 62
     7
 10
877.98435600000005
 20
-560.38824599999998
 30
0.0
  0
VERTEX
  5
CF7
  8
0
  6
CONTINUOUS
 62
     7
 10
877.49824499999988
 20
-559.77161799999988
 30
0.0
  0
VERTEX
  5
CF8
  8
0
  6
CONTINUOUS
 62
     7
 10
876.96525299999996
 20
-559.19503099999986
 30
0.0
  0
VERTEX
  5
CF9
  8
0
  6
CONTINUOUS
 62
     7
 10
876.38866599999994
 20
-558.66203899999994
 30
0.0
  0
VERTEX
  5
CFA
  8
0
  6
CONTINUOUS
 62
     7
 10
875.77203799999995
 20
-558.17592899999988
 30
0.0
  0
VERTEX
  5
CFB
  8
0
  6
CONTINUOUS
 62
     7
 10
875.11917100000005
 20
-557.73969699999986
 30
0.0
  0
VERTEX
  5
CFC
  8
0
  6
CONTINUOUS
 62
     7
 10
874.43409099999997
 20
-557.35603300000002
 30
0.0
  0
VERTEX
  5
CFD
  8
0
  6
CONTINUOUS
 62
     7
 10
873.72101999999995
 20
-557.02730299999996
 30
0.0
  0
VERTEX
  5
CFE
  8
0
  6
CONTINUOUS
 62
     7
 10
872.98435600000005
 20
-556.75553300000001
 30
0.0
  0
VERTEX
  5
CFF
  8
0
  6
CONTINUOUS
 62
     7
 10
872.22863900000004
 20
-556.54239900000005
 30
0.0
  0
VERTEX
  5
D00
  8
0
  6
CONTINUOUS
 62
     7
 10
871.45853000000011
 20
-556.38921500000004
 30
0.0
  0
VERTEX
  5
D01
  8
0
  6
CONTINUOUS
 62
     7
 10
870.67877699999997
 20
-556.29692499999999
 30
0.0
  0
VERTEX
  5
D02
  8
0
  6
CONTINUOUS
 62
     7
 10
869.89418599999988
 20
-556.26609900000005
 30
0.0
  0
VERTEX
  5
D03
  8
0
  6
CONTINUOUS
 62
     7
 10
771.89418599999999
 20
-556.26609900000005
 30
0.0
  0
VERTEX
  5
D04
  8
0
  6
CONTINUOUS
 62
     7
 10
751.21204799999998
 20
-556.26609900000005
 30
0.0
  0
VERTEX
  5
D05
  8
0
  6
CONTINUOUS
 62
     7
 10
751.21204799999998
 20
-544.35189800000001
 30
0.0
  0
VERTEX
  5
D06
  8
0
  6
CONTINUOUS
 62
     7
 10
771.2120480000001
 20
-544.35189800000001
 30
0.0
  0
VERTEX
  5
D07
  8
0
  6
CONTINUOUS
 62
     7
 10
789.89418599999988
 20
-544.26609900000005
 30
0.0
  0
VERTEX
  5
D08
  8
0
  6
CONTINUOUS
 62
     7
 10
887.89418599999988
 20
-544.26609900000005
 30
0.0
  0
VERTEX
  5
D09
  8
0
  6
CONTINUOUS
 62
     7
 10
888.20802200000003
 20
-544.27842899999985
 30
0.0
  0
VERTEX
  5
D0A
  8
0
  6
CONTINUOUS
 62
     7
 10
888.51992399999995
 20
-544.31534499999987
 30
0.0
  0
VERTEX
  5
D0B
  8
0
  6
CONTINUOUS
 62
     7
 10
888.82796699999994
 20
-544.37661899999989
 30
0.0
  0
VERTEX
  5
D0C
  8
0
  6
CONTINUOUS
 62
     7
 10
889.13025399999992
 20
-544.46187300000008
 30
0.0
  0
VERTEX
  5
D0D
  8
0
  6
CONTINUOUS
 62
     7
 10
889.42491900000005
 20
-544.57057999999995
 30
0.0
  0
VERTEX
  5
D0E
  8
0
  6
CONTINUOUS
 62
     7
 10
889.71014799999989
 20
-544.70207199999993
 30
0.0
  0
VERTEX
  5
D0F
  8
0
  6
CONTINUOUS
 62
     7
 10
889.98418000000004
 20
-544.85553800000002
 30
0.0
  0
VERTEX
  5
D10
  8
0
  6
CONTINUOUS
 62
     7
 10
890.24532699999997
 20
-545.03003100000001
 30
0.0
  0
VERTEX
  5
D11
  8
0
  6
CONTINUOUS
 62
     7
 10
890.49197799999979
 20
-545.22447499999998
 30
0.0
  0
VERTEX
  5
D12
  8
0
  6
CONTINUOUS
 62
     7
 10
890.72261300000014
 20
-545.43767100000002
 30
0.0
  0
VERTEX
  5
D13
  8
0
  6
CONTINUOUS
 62
     7
 10
890.93580999999995
 20
-545.66830599999992
 30
0.0
  0
VERTEX
  5
D14
  8
0
  6
CONTINUOUS
 62
     7
 10
891.13025399999992
 20
-545.91495799999996
 30
0.0
  0
VERTEX
  5
D15
  8
0
  6
CONTINUOUS
 62
     7
 10
891.30474600000014
 20
-546.1761039999999
 30
0.0
  0
VERTEX
  5
D16
  8
0
  6
CONTINUOUS
 62
     7
 10
891.45821199999978
 20
-546.45013700000004
 30
0.0
  0
VERTEX
  5
D17
  8
0
  6
CONTINUOUS
 62
     7
 10
891.58970399999987
 20
-546.73536499999989
 30
0.0
  0
VERTEX
  5
D18
  8
0
  6
CONTINUOUS
 62
     7
 10
891.69841199999996
 20
-547.03003099999989
 30
0.0
  0
VERTEX
  5
D19
  8
0
  6
CONTINUOUS
 62
     7
 10
891.78366499999993
 20
-547.33231699999988
 30
0.0
  0
VERTEX
  5
D1A
  8
0
  6
CONTINUOUS
 62
     7
 10
891.84493900000007
 20
-547.64036099999998
 30
0.0
  0
VERTEX
  5
D1B
  8
0
  6
CONTINUOUS
 62
     7
 10
891.88185500000009
 20
-547.95226200000002
 30
0.0
  0
VERTEX
  5
D1C
  8
0
  6
CONTINUOUS
 62
     7
 10
891.89418599999999
 20
-548.26609900000005
 30
0.0
  0
VERTEX
  5
D1D
  8
0
  6
CONTINUOUS
 62
     7
 10
891.89418599999999
 20
-673.26609900000005
 30
0.0
  0
VERTEX
  5
D1E
  8
0
  6
CONTINUOUS
 62
     7
 10
891.91268200000002
 20
-673.736853
 30
0.0
  0
VERTEX
  5
D1F
  8
0
  6
CONTINUOUS
 62
     7
 10
891.96805600000005
 20
-674.20470499999999
 30
0.0
  0
VERTEX
  5
D20
  8
0
  6
CONTINUOUS
 62
     7
 10
892.05996600000003
 20
-674.66677100000004
 30
0.0
  0
VERTEX
  5
D21
  8
0
  6
CONTINUOUS
 62
     7
 10
892.18784700000015
 20
-675.12020099999995
 30
0.0
  0
VERTEX
  5
D22
  8
0
  6
CONTINUOUS
 62
     7
 10
892.350908
 20
-675.56219899999996
 30
0.0
  0
VERTEX
  5
D23
  8
0
  6
CONTINUOUS
 62
     7
 10
892.54814700000009
 20
-675.99004200000002
 30
0.0
  0
VERTEX
  5
D24
  8
0
  6
CONTINUOUS
 62
     7
 10
892.77834499999994
 20
-676.40108999999995
 30
0.0
  0
VERTEX
  5
D25
  8
0
  6
CONTINUOUS
 62
     7
 10
893.04008399999998
 20
-676.7928099999998
 30
0.0
  0
VERTEX
  5
D26
  8
0
  6
CONTINUOUS
 62
     7
 10
893.33175000000006
 20
-677.16278699999987
 30
0.0
  0
VERTEX
  5
D27
  8
0
  6
CONTINUOUS
 62
     7
 10
893.65154499999994
 20
-677.50873899999999
 30
0.0
  0
VERTEX
  5
D28
  8
0
  6
CONTINUOUS
 62
     7
 10
893.99749700000007
 20
-677.82853399999999
 30
0.0
  0
VERTEX
  5
D29
  8
0
  6
CONTINUOUS
 62
     7
 10
894.36747400000002
 20
-678.12020099999995
 30
0.0
  0
VERTEX
  5
D2A
  8
0
  6
CONTINUOUS
 62
     7
 10
894.75919399999998
 20
-678.38193999999987
 30
0.0
  0
VERTEX
  5
D2B
  8
0
  6
CONTINUOUS
 62
     7
 10
895.17024299999991
 20
-678.61213799999985
 30
0.0
  0
VERTEX
  5
D2C
  8
0
  6
CONTINUOUS
 62
     7
 10
895.59808499999986
 20
-678.80937599999993
 30
0.0
  0
VERTEX
  5
D2D
  8
0
  6
CONTINUOUS
 62
     7
 10
896.04008399999998
 20
-678.97243800000001
 30
0.0
  0
VERTEX
  5
D2E
  8
0
  6
CONTINUOUS
 62
     7
 10
896.49351300000001
 20
-679.10031800000002
 30
0.0
  0
VERTEX
  5
D2F
  8
0
  6
CONTINUOUS
 62
     7
 10
896.95557899999994
 20
-679.192229
 30
0.0
  0
VERTEX
  5
D30
  8
0
  6
CONTINUOUS
 62
     7
 10
897.42343099999994
 20
-679.24760300000003
 30
0.0
  0
VERTEX
  5
D31
  8
0
  6
CONTINUOUS
 62
     7
 10
897.89418599999999
 20
-679.26609900000005
 30
0.0
  0
VERTEX
  5
D32
  8
0
  6
CONTINUOUS
 62
     7
 10
897.89418599999999
 20
-693.26609900000005
 30
0.0
  0
SEQEND
  5
D33
  8
0
  6
CONTINUOUS
 62
     7
  0
LINE
  5
7D4
  8
0
  6
CONTINUOUS
 62
     7
 10
887.89418599999988
 20
-544.26609900000005
 30
0.0
 11
789.89418599999988
 21
-544.26609900000005
 31
0.0
  0
LINE
  5
7D5
  8
0
  6
CONTINUOUS
 62
     7
 10
789.89418599999988
 20
-544.26609900000005
 30
0.0
 11
887.89418599999988
 21
-544.26609900000005
 31
0.0
  0
LINE
  5
7D6
  8
0
  6
CONTINUOUS
 62
     7
 10
869.89418599999988
 20
-556.26609900000005
 30
0.0
 11
771.89418599999999
 21
-556.26609900000005
 31
0.0
  0
LINE
  5
7D7
  8
0
  6
CONTINUOUS
 62
     7
 10
771.89418599999999
 20
-556.26609900000005
 30
0.0
 11
869.89418599999988
 21
-556.26609900000005
 31
0.0
  0
DIMENSION
  5
7D8
  8
LAYER01
 62
     7
  2
*D39
 10
751.21204799999998
 20
-501.87087799999989
 30
0.0
 11
819.03436099999988
 21
-451.87087799999989
 31
0.0
 13
891.89418599999999
 23
-538.83033799999987
 33
0.0
 14
751.21204799999998
 24
-538.83033799999987
 34
0.0
  0
DIMENSION
  5
7D9
  8
LAYER01
 62
     7
  2
*D40
 10
626.890717
 20
-636.35189800000001
 30
0.0
 11
576.890717
 21
-589.54851499999995
 31
0.0
 53
90.0
 13
751.21204799999998
 23
-544.35189800000001
 33
0.0
 14
751.21204799999998
 24
-636.35189800000001
 34
0.0
 50
90.0
  0
LINE
  5
7DA
  8
0
  6
CONTINUOUS
 62
     7
 10
771.2120480000001
 20
-544.35189800000001
 30
0.0
 11
751.21204799999998
 21
-544.35189800000001
 31
0.0
  0
LINE
  5
7DB
  8
0
  6
CONTINUOUS
 62
     7
 10
789.89418599999988
 20
-544.26609900000005
 30
0.0
 11
771.2120480000001
 21
-544.35189800000001
 31
0.0
  0
LINE
  5
7DC
  8
0
  6
CONTINUOUS
 62
     7
 10
771.89418599999999
 20
-556.26609900000005
 30
0.0
 11
751.21204799999998
 21
-556.26609900000005
 31
0.0
  0
LINE
  5
7DD
  8
0
  6
CONTINUOUS
 62
     7
 10
751.21204799999998
 20
-544.35189800000001
 30
0.0
 11
751.21204799999998
 21
-556.26609900000005
 31
0.0
  0
DIMENSION
  5
7DE
  8
LAYER01
 62
     7
  2
*D41
 10
1291.9512790000001
 20
-501.87087799999989
 30
0.0
 11
1093.127806
 21
-451.87087799999989
 31
0.0
 13
891.89418599999999
 23
-538.83033799999987
 33
0.0
 14
1291.9512790000001
 24
-538.83033799999987
 34
0.0
  0
LINE
  5
7DF
  8
0
  6
CONTINUOUS
 62
     7
 10
919.70759600000008
 20
-635.33449399999995
 30
0.0
 11
1291.9512790000001
 21
-544.39643699999988
 31
0.0
  0
LINE
  5
7E0
  8
0
  6
CONTINUOUS
 62
     7
 10
888.51992399999995
 20
-544.31534499999987
 30
0.0
 11
1291.9512790000001
 21
-544.39643699999988
 31
0.0
  0
LINE
  5
7E1
  8
0
  6
CONTINUOUS
 62
     7
 10
1278.0108749999999
 20
-556.6196480000001
 30
0.0
 11
962.48087100000009
 21
-636.89591600000006
 31
0.0
  0
POLYLINE
  5
7E2
  8
0
  6
CONTINUOUS
 62
     7
 66
     1
 10
0.0
 20
0.0
 30
0.0
  0
VERTEX
  5
D34
  8
0
  6
CONTINUOUS
 62
     7
 10
879.89418599999988
 20
-566.26609900000005
 30
0.0
  0
VERTEX
  5
D35
  8
0
  6
CONTINUOUS
 62
     7
 10
879.89418599999988
 20
-693.26609900000005
 30
0.0
  0
VERTEX
  5
D36
  8
0
  6
CONTINUOUS
 62
     7
 10
897.89418599999999
 20
-693.26609900000005
 30
0.0
  0
SEQEND
  5
D37
  8
0
  6
CONTINUOUS
 62
     7
  0
LINE
  5
7E7
  8
0
  6
CONTINUOUS
 62
     7
 10
879.89418599999988
 20
-693.26609900000005
 30
0.0
 11
879.89418599999988
 21
-566.26609900000005
 31
0.0
  0
LINE
  5
7E8
  8
0
  6
CONTINUOUS
 62
     7
 10
891.89418599999999
 20
-673.26609900000005
 30
0.0
 11
891.89418599999999
 21
-548.26609900000005
 31
0.0
  0
LINE
  5
7E9
  8
0
  6
CONTINUOUS
 62
     7
 10
891.89418599999999
 20
-548.26609900000005
 30
0.0
 11
891.89418599999999
 21
-673.26609900000005
 31
0.0
  0
POLYLINE
  5
7EA
  8
0
  6
CONTINUOUS
 62
     7
 66
     1
 10
0.0
 20
0.0
 30
0.0
  0
VERTEX
  5
D38
  8
0
  6
CONTINUOUS
 62
     7
 10
891.89418599999999
 20
-673.26609900000005
 30
0.0
 42
0.4142140000000001
  0
VERTEX
  5
D39
  8
0
  6
CONTINUOUS
 62
     7
 10
897.89418599999999
 20
-679.26609900000005
 30
0.0
  0
SEQEND
  5
D3A
  8
0
  6
CONTINUOUS
 62
     7
  0
LINE
  5
7EE
  8
0
  6
CONTINUOUS
 62
     7
 10
891.89418599999999
 20
-673.26609900000005
 30
0.0
 11
891.91268200000002
 21
-673.736853
 31
0.0
  0
LINE
  5
7EF
  8
0
  6
CONTINUOUS
 62
     7
 10
954.88123499999995
 20
-646.60633099999995
 30
0.0
 11
954.89418599999988
 21
-693.26609900000005
 31
0.0
  0
LINE
  5
7F0
  8
0
  6
CONTINUOUS
 62
     7
 10
918.624233
 20
-673.72113100000001
 30
0.0
 11
918.2816929999999
 21
-673.52929900000004
 31
0.0
  0
LINE
  5
7F1
  8
0
  6
CONTINUOUS
 62
     7
 10
897.89418599999999
 20
-693.26609900000005
 30
0.0
 11
943.89418599999988
 21
-693.26609900000005
 31
0.0
  0
LINE
  5
7F2
  8
0
  6
CONTINUOUS
 62
     7
 10
897.89418599999999
 20
-693.26609900000005
 30
0.0
 11
897.89418599999999
 21
-679.26609900000005
 31
0.0
  0
LINE
  5
7F3
  8
0
  6
CONTINUOUS
 62
     7
 10
891.91268200000002
 20
-673.736853
 30
0.0
 11
891.96805600000005
 21
-674.20470499999999
 31
0.0
  0
LINE
  5
7F4
  8
0
  6
CONTINUOUS
 62
     7
 10
891.96805600000005
 20
-674.20470499999999
 30
0.0
 11
892.05996600000003
 21
-674.66677100000004
 31
0.0
  0
LINE
  5
7F5
  8
0
  6
CONTINUOUS
 62
     7
 10
892.05996600000003
 20
-674.66677100000004
 30
0.0
 11
892.18784700000015
 21
-675.12020099999995
 31
0.0
  0
LINE
  5
7F6
  8
0
  6
CONTINUOUS
 62
     7
 10
892.18784700000015
 20
-675.12020099999995
 30
0.0
 11
892.350908
 21
-675.56219899999996
 31
0.0
  0
LINE
  5
7F7
  8
0
  6
CONTINUOUS
 62
     7
 10
892.350908
 20
-675.56219899999996
 30
0.0
 11
892.54814700000009
 21
-675.99004200000002
 31
0.0
  0
LINE
  5
7F8
  8
0
  6
CONTINUOUS
 62
     7
 10
892.54814700000009
 20
-675.99004200000002
 30
0.0
 11
892.77834499999994
 21
-676.40108999999995
 31
0.0
  0
LINE
  5
7F9
  8
0
  6
CONTINUOUS
 62
     7
 10
892.77834499999994
 20
-676.40108999999995
 30
0.0
 11
893.04008399999998
 21
-676.7928099999998
 31
0.0
  0
LINE
  5
7FA
  8
0
  6
CONTINUOUS
 62
     7
 10
893.04008399999998
 20
-676.7928099999998
 30
0.0
 11
893.33175000000006
 21
-677.16278699999987
 31
0.0
  0
LINE
  5
7FB
  8
0
  6
CONTINUOUS
 62
     7
 10
893.33175000000006
 20
-677.16278699999987
 30
0.0
 11
893.65154499999994
 21
-677.50873899999999
 31
0.0
  0
LINE
  5
7FC
  8
0
  6
CONTINUOUS
 62
     7
 10
893.65154499999994
 20
-677.50873899999999
 30
0.0
 11
893.99749700000007
 21
-677.82853399999999
 31
0.0
  0
LINE
  5
7FD
  8
0
  6
CONTINUOUS
 62
     7
 10
893.99749700000007
 20
-677.82853399999999
 30
0.0
 11
894.36747400000002
 21
-678.12020099999995
 31
0.0
  0
LINE
  5
7FE
  8
0
  6
CONTINUOUS
 62
     7
 10
894.36747400000002
 20
-678.12020099999995
 30
0.0
 11
894.75919399999998
 21
-678.38193999999987
 31
0.0
  0
LINE
  5
7FF
  8
0
  6
CONTINUOUS
 62
     7
 10
894.75919399999998
 20
-678.38193999999987
 30
0.0
 11
895.17024299999991
 21
-678.61213799999985
 31
0.0
  0
LINE
  5
800
  8
0
  6
CONTINUOUS
 62
     7
 10
895.17024299999991
 20
-678.61213799999985
 30
0.0
 11
895.59808499999986
 21
-678.80937599999993
 31
0.0
  0
LINE
  5
801
  8
0
  6
CONTINUOUS
 62
     7
 10
895.59808499999986
 20
-678.80937599999993
 30
0.0
 11
896.04008399999998
 21
-678.97243800000001
 31
0.0
  0
LINE
  5
802
  8
0
  6
CONTINUOUS
 62
     7
 10
896.04008399999998
 20
-678.97243800000001
 30
0.0
 11
896.49351300000001
 21
-679.10031800000002
 31
0.0
  0
LINE
  5
803
  8
0
  6
CONTINUOUS
 62
     7
 10
896.49351300000001
 20
-679.10031800000002
 30
0.0
 11
896.95557899999994
 21
-679.192229
 31
0.0
  0
LINE
  5
804
  8
0
  6
CONTINUOUS
 62
     7
 10
896.95557899999994
 20
-679.192229
 30
0.0
 11
897.42343099999994
 21
-679.24760300000003
 31
0.0
  0
LINE
  5
805
  8
0
  6
CONTINUOUS
 62
     7
 10
897.42343099999994
 20
-679.24760300000003
 30
0.0
 11
897.89418599999999
 21
-679.26609900000005
 31
0.0
  0
LINE
  5
806
  8
0
  6
CONTINUOUS
 62
     7
 10
897.89418599999999
 20
-679.26609900000005
 30
0.0
 11
897.89418599999999
 21
-693.26609900000005
 31
0.0
  0
LINE
  5
807
  8
0
  6
CONTINUOUS
 62
     7
 10
897.89418599999999
 20
-693.26609900000005
 30
0.0
 11
879.89418599999988
 21
-693.26609900000005
 31
0.0
  0
LINE
  5
808
  8
0
  6
CONTINUOUS
 62
     7
 10
954.89418599999988
 20
-693.26609900000005
 30
0.0
 11
943.89418599999988
 21
-693.26609900000005
 31
0.0
  0
LINE
  5
809
  8
0
  6
CONTINUOUS
 62
     7
 10
943.89418599999988
 20
-693.26609900000005
 30
0.0
 11
943.89418599999988
 21
-684.26609900000005
 31
0.0
  0
LINE
  5
80A
  8
0
  6
CONTINUOUS
 62
     7
 10
943.89418599999988
 20
-684.26609900000005
 30
0.0
 11
943.86335899999995
 21
-683.48150799999985
 31
0.0
  0
LINE
  5
80B
  8
0
  6
CONTINUOUS
 62
     7
 10
943.86335899999995
 20
-683.48150799999985
 30
0.0
 11
943.7710689999999
 21
-682.70175400000005
 31
0.0
  0
LINE
  5
80C
  8
0
  6
CONTINUOUS
 62
     7
 10
943.7710689999999
 20
-682.70175400000005
 30
0.0
 11
943.61788500000011
 21
-681.931645
 31
0.0
  0
LINE
  5
80D
  8
0
  6
CONTINUOUS
 62
     7
 10
943.61788500000011
 20
-681.931645
 30
0.0
 11
943.40475100000003
 21
-681.175929
 31
0.0
  0
LINE
  5
80E
  8
0
  6
CONTINUOUS
 62
     7
 10
943.40475100000003
 20
-681.175929
 30
0.0
 11
943.13298100000009
 21
-680.43926399999987
 31
0.0
  0
LINE
  5
80F
  8
0
  6
CONTINUOUS
 62
     7
 10
943.13298100000009
 20
-680.43926399999987
 30
0.0
 11
942.80425100000002
 21
-679.72619400000008
 31
0.0
  0
LINE
  5
810
  8
0
  6
CONTINUOUS
 62
     7
 10
942.80425100000002
 20
-679.72619400000008
 30
0.0
 11
942.42058699999995
 21
-679.04111299999988
 31
0.0
  0
LINE
  5
811
  8
0
  6
CONTINUOUS
 62
     7
 10
942.42058699999995
 20
-679.04111299999988
 30
0.0
 11
941.98435600000005
 21
-678.38824599999998
 31
0.0
  0
LINE
  5
812
  8
0
  6
CONTINUOUS
 62
     7
 10
941.98435600000005
 20
-678.38824599999998
 30
0.0
 11
941.49824499999977
 21
-677.77161799999988
 31
0.0
  0
LINE
  5
813
  8
0
  6
CONTINUOUS
 62
     7
 10
941.49824499999977
 20
-677.77161799999988
 30
0.0
 11
940.96525299999996
 21
-677.19503099999997
 31
0.0
  0
LINE
  5
814
  8
0
  6
CONTINUOUS
 62
     7
 10
940.96525299999996
 20
-677.19503099999997
 30
0.0
 11
940.38866600000006
 21
-676.66203899999994
 31
0.0
  0
LINE
  5
815
  8
0
  6
CONTINUOUS
 62
     7
 10
940.38866600000006
 20
-676.66203899999994
 30
0.0
 11
939.77203799999995
 21
-676.175929
 31
0.0
  0
LINE
  5
816
  8
0
  6
CONTINUOUS
 62
     7
 10
939.77203799999995
 20
-676.175929
 30
0.0
 11
939.11917100000005
 21
-675.73969699999998
 31
0.0
  0
LINE
  5
817
  8
0
  6
CONTINUOUS
 62
     7
 10
939.11917100000005
 20
-675.73969699999998
 30
0.0
 11
938.43409099999997
 21
-675.35603300000002
 31
0.0
  0
LINE
  5
818
  8
0
  6
CONTINUOUS
 62
     7
 10
938.43409099999997
 20
-675.35603300000002
 30
0.0
 11
937.72101999999995
 21
-675.02730299999996
 31
0.0
  0
LINE
  5
819
  8
0
  6
CONTINUOUS
 62
     7
 10
937.72101999999995
 20
-675.02730299999996
 30
0.0
 11
936.98435600000005
 21
-674.7555329999999
 31
0.0
  0
LINE
  5
81A
  8
0
  6
CONTINUOUS
 62
     7
 10
936.98435600000005
 20
-674.7555329999999
 30
0.0
 11
936.22863900000004
 21
-674.54239900000005
 31
0.0
  0
LINE
  5
81B
  8
0
  6
CONTINUOUS
 62
     7
 10
936.22863900000004
 20
-674.54239900000005
 30
0.0
 11
935.45853000000011
 21
-674.38921500000004
 31
0.0
  0
LINE
  5
81C
  8
0
  6
CONTINUOUS
 62
     7
 10
935.45853000000011
 20
-674.38921500000004
 30
0.0
 11
934.67877699999997
 21
-674.29692499999987
 31
0.0
  0
LINE
  5
81D
  8
0
  6
CONTINUOUS
 62
     7
 10
934.67877699999997
 20
-674.29692499999987
 30
0.0
 11
933.89418599999999
 21
-674.26609900000005
 31
0.0
  0
LINE
  5
81E
  8
0
  6
CONTINUOUS
 62
     7
 10
933.89418599999999
 20
-674.26609900000005
 30
0.0
 11
920.89418599999988
 21
-674.26609900000005
 31
0.0
  0
LINE
  5
81F
  8
0
  6
CONTINUOUS
 62
     7
 10
920.89418599999988
 20
-674.26609900000005
 30
0.0
 11
920.50189
 21
-674.25068499999986
 31
0.0
  0
LINE
  5
820
  8
0
  6
CONTINUOUS
 62
     7
 10
920.50189
 20
-674.25068499999986
 30
0.0
 11
920.11201300000005
 21
-674.20454000000007
 31
0.0
  0
LINE
  5
821
  8
0
  6
CONTINUOUS
 62
     7
 10
920.11201300000005
 20
-674.20454000000007
 30
0.0
 11
919.72695899999985
 21
-674.12794800000006
 31
0.0
  0
LINE
  5
822
  8
0
  6
CONTINUOUS
 62
     7
 10
919.72695899999985
 20
-674.12794800000006
 30
0.0
 11
919.34910100000002
 21
-674.02138099999991
 31
0.0
  0
LINE
  5
823
  8
0
  6
CONTINUOUS
 62
     7
 10
919.34910100000002
 20
-674.02138099999991
 30
0.0
 11
918.98076899999978
 21
-673.88549599999999
 31
0.0
  0
LINE
  5
824
  8
0
  6
CONTINUOUS
 62
     7
 10
918.98076899999978
 20
-673.88549599999999
 30
0.0
 11
918.624233
 21
-673.72113100000001
 31
0.0
  0
LINE
  5
825
  8
0
  6
CONTINUOUS
 62
     7
 10
962.48087100000009
 20
-636.89591600000006
 30
0.0
 11
961.84172699999999
 21
-637.07667800000002
 31
0.0
  0
LINE
  5
826
  8
0
  6
CONTINUOUS
 62
     7
 10
961.84172699999999
 20
-637.07667800000002
 30
0.0
 11
961.21599300000003
 21
-637.29947000000004
 31
0.0
  0
LINE
  5
827
  8
0
  6
CONTINUOUS
 62
     7
 10
961.21599300000003
 20
-637.29947000000004
 30
0.0
 11
960.60642999999993
 21
-637.563309
 31
0.0
  0
LINE
  5
828
  8
0
  6
CONTINUOUS
 62
     7
 10
960.60642999999993
 20
-637.563309
 30
0.0
 11
960.01572599999986
 21
-637.86703299999999
 31
0.0
  0
LINE
  5
829
  8
0
  6
CONTINUOUS
 62
     7
 10
960.01572599999986
 20
-637.86703299999999
 30
0.0
 11
959.44648800000004
 21
-638.20929999999998
 31
0.0
  0
LINE
  5
82A
  8
0
  6
CONTINUOUS
 62
     7
 10
959.44648800000004
 20
-638.20929999999998
 30
0.0
 11
958.90122599999995
 21
-638.58860099999993
 31
0.0
  0
LINE
  5
82B
  8
0
  6
CONTINUOUS
 62
     7
 10
958.90122599999995
 20
-638.58860099999993
 30
0.0
 11
958.38234699999998
 21
-639.00326199999995
 31
0.0
  0
LINE
  5
82C
  8
0
  6
CONTINUOUS
 62
     7
 10
958.38234699999998
 20
-639.00326199999995
 30
0.0
 11
957.89214000000004
 21
-639.45145400000001
 31
0.0
  0
LINE
  5
82D
  8
0
  6
CONTINUOUS
 62
     7
 10
957.89214000000004
 20
-639.45145400000001
 30
0.0
 11
957.4327679999999
 21
-639.93119899999999
 31
0.0
  0
LINE
  5
82E
  8
0
  6
CONTINUOUS
 62
     7
 10
957.4327679999999
 20
-639.93119899999999
 30
0.0
 11
957.00625600000001
 21
-640.44038199999989
 31
0.0
  0
LINE
  5
82F
  8
0
  6
CONTINUOUS
 62
     7
 10
957.00625600000001
 20
-640.44038199999989
 30
0.0
 11
956.61448700000005
 21
-640.97675500000003
 31
0.0
  0
LINE
  5
830
  8
0
  6
CONTINUOUS
 62
     7
 10
956.61448700000005
 20
-640.97675500000003
 30
0.0
 11
956.25918900000011
 21
-641.5379519999999
 31
0.0
  0
LINE
  5
831
  8
0
  6
CONTINUOUS
 62
     7
 10
956.25918900000011
 20
-641.5379519999999
 30
0.0
 11
955.94192999999996
 21
-642.12149800000009
 31
0.0
  0
LINE
  5
832
  8
0
  6
CONTINUOUS
 62
     7
 10
955.94192999999996
 20
-642.12149800000009
 30
0.0
 11
955.66411000000005
 21
-642.72481799999991
 31
0.0
  0
LINE
  5
833
  8
0
  6
CONTINUOUS
 62
     7
 10
955.66411000000005
 20
-642.72481799999991
 30
0.0
 11
955.42695299999991
 21
-643.34524999999985
 31
0.0
  0
LINE
  5
834
  8
0
  6
CONTINUOUS
 62
     7
 10
955.42695299999991
 20
-643.34524999999985
 30
0.0
 11
955.23150699999997
 21
-643.98005699999999
 31
0.0
  0
LINE
  5
835
  8
0
  6
CONTINUOUS
 62
     7
 10
955.23150699999997
 20
-643.98005699999999
 30
0.0
 11
955.07863299999985
 21
-644.62643800000001
 31
0.0
  0
LINE
  5
836
  8
0
  6
CONTINUOUS
 62
     7
 10
955.07863299999985
 20
-644.62643800000001
 30
0.0
 11
954.96900600000015
 21
-645.28154199999994
 31
0.0
  0
LINE
  5
837
  8
0
  6
CONTINUOUS
 62
     7
 10
954.96900600000015
 20
-645.28154199999994
 30
0.0
 11
954.90310999999997
 21
-645.94247800000005
 31
0.0
  0
LINE
  5
838
  8
0
  6
CONTINUOUS
 62
     7
 10
954.90310999999997
 20
-645.94247800000005
 30
0.0
 11
954.88123499999995
 21
-646.60633099999995
 31
0.0
  0
LINE
  5
839
  8
0
  6
CONTINUOUS
 62
     7
 10
918.2816929999999
 20
-673.52929900000004
 30
0.0
 11
917.95525899999996
 21
-673.31118400000003
 31
0.0
  0
LINE
  5
83A
  8
0
  6
CONTINUOUS
 62
     7
 10
917.95525899999996
 20
-673.31118400000003
 30
0.0
 11
917.64694499999985
 21
-673.06812799999989
 31
0.0
  0
LINE
  5
83B
  8
0
  6
CONTINUOUS
 62
     7
 10
917.64694499999985
 20
-673.06812799999989
 30
0.0
 11
917.35865200000001
 21
-672.80163200000004
 31
0.0
  0
LINE
  5
83C
  8
0
  6
CONTINUOUS
 62
     7
 10
917.35865200000001
 20
-672.80163200000004
 30
0.0
 11
917.09215600000005
 21
-672.51333899999986
 31
0.0
  0
LINE
  5
83D
  8
0
  6
CONTINUOUS
 62
     7
 10
917.09215600000005
 20
-672.51333899999986
 30
0.0
 11
916.84910100000002
 21
-672.20502499999986
 31
0.0
  0
LINE
  5
83E
  8
0
  6
CONTINUOUS
 62
     7
 10
916.84910100000002
 20
-672.20502499999986
 30
0.0
 11
916.63098500000012
 21
-671.87859100000003
 31
0.0
  0
LINE
  5
83F
  8
0
  6
CONTINUOUS
 62
     7
 10
916.63098500000012
 20
-671.87859100000003
 30
0.0
 11
916.43915299999992
 21
-671.53605099999993
 31
0.0
  0
LINE
  5
840
  8
0
  6
CONTINUOUS
 62
     7
 10
916.43915299999992
 20
-671.53605099999993
 30
0.0
 11
916.27478800000006
 21
-671.17951600000004
 31
0.0
  0
LINE
  5
841
  8
0
  6
CONTINUOUS
 62
     7
 10
916.27478800000006
 20
-671.17951600000004
 30
0.0
 11
916.1389029999998
 21
-670.81118400000003
 31
0.0
  0
LINE
  5
842
  8
0
  6
CONTINUOUS
 62
     7
 10
916.1389029999998
 20
-670.81118400000003
 30
0.0
 11
916.03233599999987
 21
-670.43332499999985
 31
0.0
  0
LINE
  5
843
  8
0
  6
CONTINUOUS
 62
     7
 10
916.03233599999987
 20
-670.43332499999985
 30
0.0
 11
915.95574399999998
 21
-670.048271
 31
0.0
  0
LINE
  5
844
  8
0
  6
CONTINUOUS
 62
     7
 10
915.95574399999998
 20
-670.048271
 30
0.0
 11
915.90959899999996
 21
-669.65839400000004
 31
0.0
  0
LINE
  5
845
  8
0
  6
CONTINUOUS
 62
     7
 10
915.90959899999996
 20
-669.65839400000004
 30
0.0
 11
915.89418599999999
 21
-669.26609900000005
 31
0.0
  0
LINE
  5
846
  8
0
  6
CONTINUOUS
 62
     7
 10
915.89418599999999
 20
-669.26609900000005
 30
0.0
 11
915.89418599999999
 21
-640.19165399999997
 31
0.0
  0
LINE
  5
847
  8
0
  6
CONTINUOUS
 62
     7
 10
915.89418599999999
 20
-640.19165399999997
 30
0.0
 11
915.90525700000001
 21
-639.85910100000001
 31
0.0
  0
LINE
  5
848
  8
0
  6
CONTINUOUS
 62
     7
 10
915.90525700000001
 20
-639.85910100000001
 30
0.0
 11
915.93842200000006
 21
-639.52802199999996
 31
0.0
  0
LINE
  5
849
  8
0
  6
CONTINUOUS
 62
     7
 10
915.93842200000006
 20
-639.52802199999996
 30
0.0
 11
915.99353399999995
 21
-639.199881
 31
0.0
  0
LINE
  5
84A
  8
0
  6
CONTINUOUS
 62
     7
 10
915.99353399999995
 20
-639.199881
 30
0.0
 11
916.07034900000008
 21
-638.87613199999998
 31
0.0
  0
LINE
  5
84B
  8
0
  6
CONTINUOUS
 62
     7
 10
916.07034900000008
 20
-638.87613199999998
 30
0.0
 11
916.16852599999982
 21
-638.55820900000003
 31
0.0
  0
LINE
  5
84C
  8
0
  6
CONTINUOUS
 62
     7
 10
916.16852599999982
 20
-638.55820900000003
 30
0.0
 11
916.28763099999992
 21
-638.24752000000001
 31
0.0
  0
LINE
  5
84D
  8
0
  6
CONTINUOUS
 62
     7
 10
916.28763099999992
 20
-638.24752000000001
 30
0.0
 11
916.42713599999979
 21
-637.94544099999996
 31
0.0
  0
LINE
  5
84E
  8
0
  6
CONTINUOUS
 62
     7
 10
916.42713599999979
 20
-637.94544099999996
 30
0.0
 11
916.58642400000008
 21
-637.65330900000004
 31
0.0
  0
LINE
  5
84F
  8
0
  6
CONTINUOUS
 62
     7
 10
916.58642400000008
 20
-637.65330900000004
 30
0.0
 11
916.76478900000006
 21
-637.37241900000004
 31
0.0
  0
LINE
  5
850
  8
0
  6
CONTINUOUS
 62
     7
 10
916.76478900000006
 20
-637.37241900000004
 30
0.0
 11
916.96144200000003
 21
-637.1040129999999
 31
0.0
  0
LINE
  5
851
  8
0
  6
CONTINUOUS
 62
     7
 10
916.96144200000003
 20
-637.1040129999999
 30
0.0
 11
917.1755099999998
 21
-636.84928099999991
 31
0.0
  0
LINE
  5
852
  8
0
  6
CONTINUOUS
 62
     7
 10
917.1755099999998
 20
-636.84928099999991
 30
0.0
 11
917.40604699999994
 21
-636.60935099999995
 31
0.0
  0
LINE
  5
853
  8
0
  6
CONTINUOUS
 62
     7
 10
917.40604699999994
 20
-636.60935099999995
 30
0.0
 11
917.65203200000008
 21
-636.38528599999995
 31
0.0
  0
LINE
  5
854
  8
0
  6
CONTINUOUS
 62
     7
 10
917.65203200000008
 20
-636.38528599999995
 30
0.0
 11
917.91237399999989
 21
-636.17807699999992
 31
0.0
  0
LINE
  5
855
  8
0
  6
CONTINUOUS
 62
     7
 10
917.91237399999989
 20
-636.17807699999992
 30
0.0
 11
918.18592100000001
 21
-635.98864200000003
 31
0.0
  0
LINE
  5
856
  8
0
  6
CONTINUOUS
 62
     7
 10
918.18592100000001
 20
-635.98864200000003
 30
0.0
 11
918.47146299999997
 21
-635.81782099999998
 31
0.0
  0
LINE
  5
857
  8
0
  6
CONTINUOUS
 62
     7
 10
918.47146299999997
 20
-635.81782099999998
 30
0.0
 11
918.76773299999991
 21
-635.66636900000003
 31
0.0
  0
LINE
  5
858
  8
0
  6
CONTINUOUS
 62
     7
 10
918.76773299999991
 20
-635.66636900000003
 30
0.0
 11
919.07341999999994
 21
-635.53495799999985
 31
0.0
  0
LINE
  5
859
  8
0
  6
CONTINUOUS
 62
     7
 10
919.07341999999994
 20
-635.53495799999985
 30
0.0
 11
919.38717100000008
 21
-635.42416900000001
 31
0.0
  0
LINE
  5
85A
  8
0
  6
CONTINUOUS
 62
     7
 10
919.38717100000008
 20
-635.42416900000001
 30
0.0
 11
919.70759600000008
 21
-635.33449399999995
 31
0.0
  0
POLYLINE
  5
85B
  8
0
  6
CONTINUOUS
 62
     7
 66
     1
 10
0.0
 20
0.0
 30
0.0
  0
VERTEX
  5
D3B
  8
0
  6
CONTINUOUS
 62
     7
 10
879.89418599999988
 20
-566.26609900000005
 30
0.0
 42
0.4142140000000001
  0
VERTEX
  5
D3C
  8
0
  6
CONTINUOUS
 62
     7
 10
869.89418599999988
 20
-556.26609900000005
 30
0.0
  0
SEQEND
  5
D3D
  8
0
  6
CONTINUOUS
 62
     7
  0
POLYLINE
  5
85F
  8
0
  6
CONTINUOUS
 62
     7
 66
     1
 10
0.0
 20
0.0
 30
0.0
  0
VERTEX
  5
D3E
  8
0
  6
CONTINUOUS
 62
     7
 10
891.89418599999999
 20
-548.26609900000005
 30
0.0
 42
0.4142140000000001
  0
VERTEX
  5
D3F
  8
0
  6
CONTINUOUS
 62
     7
 10
887.89418599999988
 20
-544.26609900000005
 30
0.0
  0
SEQEND
  5
D40
  8
0
  6
CONTINUOUS
 62
     7
  0
LINE
  5
863
  8
0
  6
CONTINUOUS
 62
     7
 10
887.89418599999988
 20
-544.26609900000005
 30
0.0
 11
888.20802200000003
 21
-544.27842899999985
 31
0.0
  0
LINE
  5
864
  8
0
  6
CONTINUOUS
 62
     7
 10
888.20802200000003
 20
-544.27842899999985
 30
0.0
 11
888.51992399999995
 21
-544.31534499999987
 31
0.0
  0
LINE
  5
865
  8
0
  6
CONTINUOUS
 62
     7
 10
888.51992399999995
 20
-544.31534499999987
 30
0.0
 11
888.82796699999994
 21
-544.37661899999989
 31
0.0
  0
LINE
  5
866
  8
0
  6
CONTINUOUS
 62
     7
 10
888.82796699999994
 20
-544.37661899999989
 30
0.0
 11
889.13025399999992
 21
-544.46187300000008
 31
0.0
  0
LINE
  5
867
  8
0
  6
CONTINUOUS
 62
     7
 10
889.13025399999992
 20
-544.46187300000008
 30
0.0
 11
889.42491900000005
 21
-544.57057999999995
 31
0.0
  0
LINE
  5
868
  8
0
  6
CONTINUOUS
 62
     7
 10
889.42491900000005
 20
-544.57057999999995
 30
0.0
 11
889.71014799999989
 21
-544.70207199999993
 31
0.0
  0
LINE
  5
869
  8
0
  6
CONTINUOUS
 62
     7
 10
889.71014799999989
 20
-544.70207199999993
 30
0.0
 11
889.98418000000004
 21
-544.85553800000002
 31
0.0
  0
LINE
  5
86A
  8
0
  6
CONTINUOUS
 62
     7
 10
889.98418000000004
 20
-544.85553800000002
 30
0.0
 11
890.24532699999997
 21
-545.03003100000001
 31
0.0
  0
LINE
  5
86B
  8
0
  6
CONTINUOUS
 62
     7
 10
890.24532699999997
 20
-545.03003100000001
 30
0.0
 11
890.49197799999979
 21
-545.22447499999998
 31
0.0
  0
LINE
  5
86C
  8
0
  6
CONTINUOUS
 62
     7
 10
890.49197799999979
 20
-545.22447499999998
 30
0.0
 11
890.72261300000014
 21
-545.43767100000002
 31
0.0
  0
LINE
  5
86D
  8
0
  6
CONTINUOUS
 62
     7
 10
890.72261300000014
 20
-545.43767100000002
 30
0.0
 11
890.93580999999995
 21
-545.66830599999992
 31
0.0
  0
LINE
  5
86E
  8
0
  6
CONTINUOUS
 62
     7
 10
890.93580999999995
 20
-545.66830599999992
 30
0.0
 11
891.13025399999992
 21
-545.91495799999996
 31
0.0
  0
LINE
  5
86F
  8
0
  6
CONTINUOUS
 62
     7
 10
891.13025399999992
 20
-545.91495799999996
 30
0.0
 11
891.30474600000014
 21
-546.1761039999999
 31
0.0
  0
LINE
  5
870
  8
0
  6
CONTINUOUS
 62
     7
 10
891.30474600000014
 20
-546.1761039999999
 30
0.0
 11
891.45821199999978
 21
-546.45013700000004
 31
0.0
  0
LINE
  5
871
  8
0
  6
CONTINUOUS
 62
     7
 10
891.45821199999978
 20
-546.45013700000004
 30
0.0
 11
891.58970399999987
 21
-546.73536499999989
 31
0.0
  0
LINE
  5
872
  8
0
  6
CONTINUOUS
 62
     7
 10
891.58970399999987
 20
-546.73536499999989
 30
0.0
 11
891.69841199999996
 21
-547.03003099999989
 31
0.0
  0
LINE
  5
873
  8
0
  6
CONTINUOUS
 62
     7
 10
891.69841199999996
 20
-547.03003099999989
 30
0.0
 11
891.78366499999993
 21
-547.33231699999988
 31
0.0
  0
LINE
  5
874
  8
0
  6
CONTINUOUS
 62
     7
 10
891.78366499999993
 20
-547.33231699999988
 30
0.0
 11
891.84493900000007
 21
-547.64036099999998
 31
0.0
  0
LINE
  5
875
  8
0
  6
CONTINUOUS
 62
     7
 10
891.84493900000007
 20
-547.64036099999998
 30
0.0
 11
891.88185500000009
 21
-547.95226200000002
 31
0.0
  0
LINE
  5
876
  8
0
  6
CONTINUOUS
 62
     7
 10
891.88185500000009
 20
-547.95226200000002
 30
0.0
 11
891.89418599999999
 21
-548.26609900000005
 31
0.0
  0
LINE
  5
877
  8
0
  6
CONTINUOUS
 62
     7
 10
879.89418599999988
 20
-566.26609900000005
 30
0.0
 11
879.86335899999995
 21
-565.48150799999985
 31
0.0
  0
LINE
  5
878
  8
0
  6
CONTINUOUS
 62
     7
 10
879.86335899999995
 20
-565.48150799999985
 30
0.0
 11
879.77106899999978
 21
-564.70175400000005
 31
0.0
  0
LINE
  5
879
  8
0
  6
CONTINUOUS
 62
     7
 10
879.77106899999978
 20
-564.70175400000005
 30
0.0
 11
879.617885
 21
-563.93164499999989
 31
0.0
  0
LINE
  5
87A
  8
0
  6
CONTINUOUS
 62
     7
 10
879.617885
 20
-563.93164499999989
 30
0.0
 11
879.40475100000003
 21
-563.17592899999988
 31
0.0
  0
LINE
  5
87B
  8
0
  6
CONTINUOUS
 62
     7
 10
879.40475100000003
 20
-563.17592899999988
 30
0.0
 11
879.13298099999997
 21
-562.43926399999987
 31
0.0
  0
LINE
  5
87C
  8
0
  6
CONTINUOUS
 62
     7
 10
879.13298099999997
 20
-562.43926399999987
 30
0.0
 11
878.80425100000002
 21
-561.72619399999996
 31
0.0
  0
LINE
  5
87D
  8
0
  6
CONTINUOUS
 62
     7
 10
878.80425100000002
 20
-561.72619399999996
 30
0.0
 11
878.42058699999995
 21
-561.041113
 31
0.0
  0
LINE
  5
87E
  8
0
  6
CONTINUOUS
 62
     7
 10
878.42058699999995
 20
-561.041113
 30
0.0
 11
877.98435600000005
 21
-560.38824599999998
 31
0.0
  0
LINE
  5
87F
  8
0
  6
CONTINUOUS
 62
     7
 10
877.98435600000005
 20
-560.38824599999998
 30
0.0
 11
877.49824499999988
 21
-559.77161799999988
 31
0.0
  0
LINE
  5
880
  8
0
  6
CONTINUOUS
 62
     7
 10
877.49824499999988
 20
-559.77161799999988
 30
0.0
 11
876.96525299999996
 21
-559.19503099999986
 31
0.0
  0
LINE
  5
881
  8
0
  6
CONTINUOUS
 62
     7
 10
876.96525299999996
 20
-559.19503099999986
 30
0.0
 11
876.38866599999994
 21
-558.66203899999994
 31
0.0
  0
LINE
  5
882
  8
0
  6
CONTINUOUS
 62
     7
 10
876.38866599999994
 20
-558.66203899999994
 30
0.0
 11
875.77203799999995
 21
-558.17592899999988
 31
0.0
  0
LINE
  5
883
  8
0
  6
CONTINUOUS
 62
     7
 10
875.77203799999995
 20
-558.17592899999988
 30
0.0
 11
875.11917100000005
 21
-557.73969699999986
 31
0.0
  0
LINE
  5
884
  8
0
  6
CONTINUOUS
 62
     7
 10
875.11917100000005
 20
-557.73969699999986
 30
0.0
 11
874.43409099999997
 21
-557.35603300000002
 31
0.0
  0
LINE
  5
885
  8
0
  6
CONTINUOUS
 62
     7
 10
874.43409099999997
 20
-557.35603300000002
 30
0.0
 11
873.72101999999995
 21
-557.02730299999996
 31
0.0
  0
LINE
  5
886
  8
0
  6
CONTINUOUS
 62
     7
 10
873.72101999999995
 20
-557.02730299999996
 30
0.0
 11
872.98435600000005
 21
-556.75553300000001
 31
0.0
  0
LINE
  5
887
  8
0
  6
CONTINUOUS
 62
     7
 10
872.98435600000005
 20
-556.75553300000001
 30
0.0
 11
872.22863900000004
 21
-556.54239900000005
 31
0.0
  0
LINE
  5
888
  8
0
  6
CONTINUOUS
 62
     7
 10
872.22863900000004
 20
-556.54239900000005
 30
0.0
 11
871.45853000000011
 21
-556.38921500000004
 31
0.0
  0
LINE
  5
889
  8
0
  6
CONTINUOUS
 62
     7
 10
871.45853000000011
 20
-556.38921500000004
 30
0.0
 11
870.67877699999997
 21
-556.29692499999999
 31
0.0
  0
LINE
  5
88A
  8
0
  6
CONTINUOUS
 62
     7
 10
870.67877699999997
 20
-556.29692499999999
 30
0.0
 11
869.89418599999988
 21
-556.26609900000005
 31
0.0
  0
LINE
  5
88B
  8
0
  6
CONTINUOUS
 62
     7
 10
1329.9512790000001
 20
-556.6196480000001
 30
0.0
 11
1278.0108749999999
 21
-556.6196480000001
 31
0.0
  0
POLYLINE
  5
88C
  8
0
  6
CONTINUOUS
 62
     7
 66
     1
 10
0.0
 20
0.0
 30
0.0
 70
     1
  0
VERTEX
  5
D41
  8
0
  6
CONTINUOUS
 62
     7
 10
935.42178599999977
 20
343.84756800000002
 30
0.0
  0
VERTEX
  5
D42
  8
0
  6
CONTINUOUS
 62
     7
 10
435.421786
 20
343.84756800000002
 30
0.0
  0
VERTEX
  5
D43
  8
0
  6
CONTINUOUS
 62
     7
 10
435.421786
 20
-56.152431999999997
 30
0.0
  0
VERTEX
  5
D44
  8
0
  6
CONTINUOUS
 62
     7
 10
935.42178599999977
 20
-56.152431999999997
 30
0.0
  0
SEQEND
  5
D45
  8
0
  6
CONTINUOUS
 62
     7
  0
LINE
  5
892
  8
0
  6
CONTINUOUS
 62
     7
 10
435.42695800000001
 20
318.82219300000003
 30
0.0
 11
935.41683399999988
 21
318.82219300000003
 31
0.0
  0
LINE
  5
893
  8
LAYER01
  6
CONTINUOUS
 62
     7
 10
685.45143199999995
 20
370.56313999999998
 30
0.0
 11
685.45143199999995
 21
430.20974100000001
 31
0.0
  0
POLYLINE
  5
894
  8
0
  6
CONTINUOUS
 62
     7
 66
     1
 10
0.0
 20
0.0
 30
0.0
 70
     1
  0
VERTEX
  5
D46
  8
0
  6
CONTINUOUS
 62
     7
 10
700.51596600000005
 20
324.76898999999997
 30
0.0
 42
-0.4593930000000001
  0
VERTEX
  5
D47
  8
0
  6
CONTINUOUS
 62
     7
 10
700.53482499999996
 20
318.75680199999999
 30
0.0
  0
VERTEX
  5
D48
  8
0
  6
CONTINUOUS
 62
     7
 10
670.53482499999996
 20
318.75680199999999
 30
0.0
 42
-0.394721
  0
VERTEX
  5
D49
  8
0
  6
CONTINUOUS
 62
     7
 10
670.51596600000005
 20
324.76898999999997
 30
0.0
 42
-0.4
  0
SEQEND
  5
D4A
  8
0
  6
CONTINUOUS
 62
     7
  0
DIMENSION
  5
89A
  8
LAYER01
 62
     7
  2
*D42
 10
623.79342699999995
 20
455.69181099999997
 30
0.0
 11
495.79841099999999
 21
455.69181099999997
 31
0.0
 70
     3
 15
672.58188099999995
 25
410.73615000000001
 35
0.0
 40
66.342480000000009
  0
CIRCLE
  5
89B
  8
LAYER01
  6
CONTINUOUS
 62
     7
 10
685.45143199999995
 20
398.87762400000003
 30
0.0
 40
17.5
  0
LINE
  5
89C
  8
LAYER01
  6
CONTINUOUS
 62
     7
 10
654.900531
 20
398.87762400000003
 30
0.0
 11
713.83083499999987
 21
398.87762400000003
 31
0.0
  0
LINE
  5
89D
  8
LAYER01
  6
CONTINUOUS
 62
     7
 10
-315.0930259999999
 20
1616.71093
 30
0.0
 11
937.18134499999985
 21
1616.71093
 31
0.0
  0
DIMENSION
  5
89E
  8
LAYER01
 62
     7
  2
*D43
 10
584.36251500000003
 20
1699.2759470000001
 30
0.0
 11
183.59115199999999
 21
1749.2759470000001
 31
0.0
 13
-315.0930259999999
 23
1616.71093
 33
0.0
 14
584.36251500000003
 24
1616.71093
 34
0.0
  0
LINE
  5
89F
  8
LAYER01
  6
CONTINUOUS
 62
     7
 10
-315.0930259999999
 20
1016.71093
 30
0.0
 11
-315.0930259999999
 21
1616.71093
 31
0.0
  0
DIMENSION
  5
8A0
  8
LAYER01
 62
     7
  2
*D44
 10
-363.77773000000002
 20
1477.5903679999999
 30
0.0
 11
-413.77772999999991
 21
1278.604918
 31
0.0
 53
90.0
 13
-315.0930259999999
 23
1077.5903679999999
 33
0.0
 14
-315.0930259999999
 24
1477.5903679999999
 34
0.0
 50
90.0
  0
DIMENSION
  5
8A1
  8
LAYER01
 62
     7
  2
*D45
 10
-527.22871599999985
 20
1016.71093
 30
0.0
 11
-577.22871599999985
 21
1317.7254800000001
 31
0.0
 53
90.0
 13
-315.0930259999999
 23
1616.71093
 33
0.0
 14
-315.0930259999999
 24
1016.71093
 34
0.0
 50
90.0
  0
DIMENSION
  5
8A2
  8
LAYER01
 62
     7
  2
*D46
 10
-416.14552200000003
 20
1077.5903679999999
 30
0.0
 11
-466.14552199999991
 21
1206.7952640000001
 31
0.0
 53
90.0
 13
-315.0930259999999
 23
1016.71093
 33
0.0
 14
-315.0930259999999
 24
1077.5903679999999
 34
0.0
 50
90.0
  0
DIMENSION
  5
8A3
  8
LAYER01
 62
     7
  2
*D47
 10
-416.14552200000003
 20
1532.6204230000001
 30
0.0
 11
-466.14552199999991
 21
1663.6872350000001
 31
0.0
 53
90.0
 13
-315.0930259999999
 23
1477.5903679999999
 33
0.0
 14
-315.0930259999999
 24
1532.6204230000001
 34
0.0
 50
90.0
  0
POLYLINE
  5
8A4
  8
LAYER01
  6
CONTINUOUS
 62
     7
 66
     1
 10
0.0
 20
0.0
 30
0.0
 70
     1
  0
VERTEX
  5
D4B
  8
LAYER01
  6
CONTINUOUS
 62
     7
 10
334.39216099999999
 20
1477.5903679999999
 30
0.0
  0
VERTEX
  5
D4C
  8
LAYER01
  6
CONTINUOUS
 62
     7
 10
834.39216099999999
 20
1477.5903679999999
 30
0.0
  0
VERTEX
  5
D4D
  8
LAYER01
  6
CONTINUOUS
 62
     7
 10
834.39216099999999
 20
1077.5903679999999
 30
0.0
  0
VERTEX
  5
D4E
  8
LAYER01
  6
CONTINUOUS
 62
     7
 10
334.39216099999999
 20
1077.5903679999999
 30
0.0
  0
SEQEND
  5
D4F
  8
LAYER01
  6
CONTINUOUS
 62
     7
  0
DIMENSION
  5
8AA
  8
LAYER01
 62
     7
  2
*D48
 10
334.39216099999999
 20
910.23655499999995
 30
0.0
 11
585.40671099999997
 21
960.23655499999995
 31
0.0
 13
834.39216099999999
 23
1016.71093
 33
0.0
 14
334.39216099999999
 24
1016.71093
 34
0.0
  0
LINE
  5
8AB
  8
LAYER01
  6
CONTINUOUS
 62
     7
 10
834.38698899999997
 20
1452.564993
 30
0.0
 11
334.39711299999999
 21
1452.564993
 31
0.0
  0
DIMENSION
  5
8AC
  8
LAYER01
 62
     7
  2
*D49
 10
1285.695113
 20
1699.2759470000001
 30
0.0
 11
983.98522200000002
 21
1749.2759470000001
 31
0.0
 13
584.36251500000003
 23
1616.71093
 33
0.0
 14
1285.695113
 24
1616.71093
 34
0.0
  0
DIMENSION
  5
8AD
  8
LAYER01
 62
     7
  2
*D50
 10
522.7045099999998
 20
1589.4346109999999
 30
0.0
 11
394.70949300000001
 21
1589.4346109999999
 31
0.0
 70
     3
 15
571.49296399999992
 25
1544.4789499999999
 35
0.0
 40
66.342480000000009
  0
POLYLINE
  5
8AE
  8
LAYER01
  6
CONTINUOUS
 62
     7
 66
     1
 10
0.0
 20
0.0
 30
0.0
 70
     1
  0
VERTEX
  5
D50
  8
LAYER01
  6
CONTINUOUS
 62
     7
 10
569.29798099999994
 20
1458.5117889999999
 30
0.0
 42
0.4593930000000001
  0
VERTEX
  5
D51
  8
LAYER01
  6
CONTINUOUS
 62
     7
 10
569.27912200000003
 20
1452.4996020000001
 30
0.0
  0
VERTEX
  5
D52
  8
LAYER01
  6
CONTINUOUS
 62
     7
 10
599.27912200000003
 20
1452.4996020000001
 30
0.0
 42
0.394721
  0
VERTEX
  5
D53
  8
LAYER01
  6
CONTINUOUS
 62
     7
 10
599.29798099999994
 20
1458.5117889999999
 30
0.0
 42
0.4
  0
SEQEND
  5
D54
  8
LAYER01
  6
CONTINUOUS
 62
     7
  0
CIRCLE
  5
8B4
  8
LAYER01
  6
CONTINUOUS
 62
     7
 10
584.36251500000003
 20
1532.6204230000001
 30
0.0
 40
17.5
  0
LINE
  5
8B5
  8
LAYER01
  6
CONTINUOUS
 62
     7
 10
553.81161299999985
 20
1532.6204230000001
 30
0.0
 11
612.74191699999994
 21
1532.6204230000001
 31
0.0
  0
LINE
  5
8B6
  8
LAYER01
  6
CONTINUOUS
 62
     7
 10
584.36251500000003
 20
1504.30594
 30
0.0
 11
584.36251500000003
 21
1563.9525410000001
 31
0.0
  0
POLYLINE
  5
8B7
  8
LAYER01
  6
CONTINUOUS
 62
     7
 66
     1
 10
0.0
 20
0.0
 30
0.0
 70
     1
  0
VERTEX
  5
D55
  8
LAYER01
  6
CONTINUOUS
 62
     7
 10
1300.7596470000001
 20
1458.5117889999999
 30
0.0
 42
-0.4593930000000001
  0
VERTEX
  5
D56
  8
LAYER01
  6
CONTINUOUS
 62
     7
 10
1300.7785060000001
 20
1452.4996020000001
 30
0.0
  0
VERTEX
  5
D57
  8
LAYER01
  6
CONTINUOUS
 62
     7
 10
1270.7785060000001
 20
1452.4996020000001
 30
0.0
 42
-0.394721
  0
VERTEX
  5
D58
  8
LAYER01
  6
CONTINUOUS
 62
     7
 10
1270.7596470000001
 20
1458.5117889999999
 30
0.0
 42
-0.4
  0
SEQEND
  5
D59
  8
LAYER01
  6
CONTINUOUS
 62
     7
  0
CIRCLE
  5
8BD
  8
LAYER01
  6
CONTINUOUS
 62
     7
 10
1285.695113
 20
1532.6204230000001
 30
0.0
 40
17.5
  0
LINE
  5
8BE
  8
LAYER01
  6
CONTINUOUS
 62
     7
 10
1258.4541810000001
 20
1532.6204230000001
 30
0.0
 11
1314.8634030000001
 21
1532.6204230000001
 31
0.0
  0
LINE
  5
8BF
  8
LAYER01
  6
CONTINUOUS
 62
     7
 10
1285.695113
 20
1504.30594
 30
0.0
 11
1285.695113
 21
1563.9525410000001
 31
0.0
  0
INSERT
  5
8C0
  8
LAYER01
  2
TRIGO600-G52
 10
0.0
 20
0.0
 30
0.0
  0
TEXT
  5
8C1
  8
LAYER01
  6
CONTINUOUS
 62
     7
 10
2075.5868959999998
 20
521.41585099999986
 30
0.0
 40
13.44
  1
--------------------------------------
  7
SIMPLEX
  0
TEXT
  5
8C2
  8
LAYER01
  6
CONTINUOUS
 62
     7
 10
2075.5868959999998
 20
498.3758509999999
 30
0.0
 40
13.44
  1
Ausführung geprüft und freigegeben (Datum u. Unterschrift)
  7
SIMPLEX
  0
TEXT
  5
8C3
  8
LAYER01
  6
STRICHPUNKTIERT
 62
     7
 10
2083.545973725154
 20
-185.8368851385577
 30
0.0
 40
59.389200000000002
  1
http://www.varicor.org
  0
INSERT
  5
8C4
  8
LAYER01
  2
TRIGO600-G54
 10
0.0
 20
0.0
 30
0.0
  0
DIMENSION
  5
8C5
  8
LAYER01
 62
     7
  2
*D54
 10
1469.940689
 20
-544.39643699999988
 30
0.0
 11
1419.940689
 21
-593.30296799999985
 31
0.0
 53
90.0
 13
1351.9512790000001
 23
-644.6196480000001
 33
0.0
 14
1351.9512790000001
 24
-544.39643699999988
 34
0.0
 50
90.0
  0
LINE
  5
8C6
  8
0
  6
CONTINUOUS
 62
     7
 10
1339.9512790000001
 20
-644.6196480000001
 30
0.0
 11
1339.9512790000001
 21
-566.61964799999998
 31
0.0
  0
LINE
  5
8C7
  8
0
  6
CONTINUOUS
 62
     7
 10
1351.9512790000001
 20
-547.39643699999999
 30
0.0
 11
1351.9512790000001
 21
-644.6196480000001
 31
0.0
  0
LINE
  5
8C8
  8
0
  6
CONTINUOUS
 62
     7
 10
1351.9512790000001
 20
-644.6196480000001
 30
0.0
 11
1339.9512790000001
 21
-644.6196480000001
 31
0.0
  0
ARC
  5
8C9
  8
0
  6
CONTINUOUS
 62
     7
 10
1348.9512790000001
 20
-547.39643699999999
 30
0.0
 40
3.0
 50
0.0
 51
90.0
  0
LINE
  5
8CA
  8
0
  6
CONTINUOUS
 62
     7
 10
1684.906974
 20
-117.03187
 30
0.0
 11
1684.906974
 21
482.96812999999992
 31
0.0
  0
TEXT
  5
8CB
  8
LAYER01
  6
VERDECKT
 62
     1
 10
2724.4465960000002
 20
-498.4134259999999
 30
0.0
 40
30.0
  1
A. Sprenger GmbH
  7
SIMPLEX
  0
TEXT
  5
8CC
  8
LAYER01
  6
CONTINUOUS
 62
     7
 10
2714.7144090000002
 20
-312.62742300000002
 30
0.0
 40
9.0
  1
Diese Zeichnung ist geistiges Eigentum der A. Sprenger GmbH
  7
SIMPLEX
  0
TEXT
  5
8CD
  8
LAYER01
  6
CONTINUOUS
 62
     7
 10
2714.7144090000002
 20
-328.055995
 30
0.0
 40
9.0
  1
und urheberrechtlich geschützt. Ohne unsere Zustimmung darf 
  7
SIMPLEX
  0
TEXT
  5
8CE
  8
LAYER01
  6
CONTINUOUS
 62
     7
 10
2714.7144090000002
 20
-343.48456600000009
 30
0.0
 40
9.0
  1
sie in keiner Form verwendet oder Dritten zugänglich gemacht
  7
SIMPLEX
  0
TEXT
  5
8CF
  8
LAYER01
  6
CONTINUOUS
 62
     7
 10
2714.7144090000002
 20
-358.91313700000001
 30
0.0
 40
9.0
  1
werden. (§106 Urheberrecht)
  7
SIMPLEX
  0
TEXT
  5
8D0
  8
LAYER01
  6
VERDECKT
 62
     1
 10
2724.4465960000002
 20
-616.23288600000001
 30
0.0
 40
42.0
  1
Trigo600
  7
SIMPLEX
  0
TEXT
  5
8D1
  8
LAYER01
  6
VERDECKT
 62
     1
 10
2803.5790699999998
 20
-421.03945099999987
 30
0.0
 40
12.0
  1
1 : 10 (DIN A3)
  7
SIMPLEX
  0
TEXT
  5
8D2
  8
LAYER01
  6
VERDECKT
 62
     1
 10
2446.4473210000001
 20
-567.87518299999999
 30
0.0
 40
12.0
  1
20.2.2017
  7
SIMPLEX
  0
TEXT
  5
8D3
  8
LAYER01
  6
VERDECKT
 62
     1
 10
2561.835908
 20
-567.91902699999991
 30
0.0
 40
12.0
  1
b.s.
  7
SIMPLEX
  0
TEXT
  5
8D4
  8
LAYER01
  6
VERDECKT
 62
     1
 10
3112.8533820000011
 20
-421.03945099999987
 30
0.0
 40
12.0
  1
Trigo600.skd
  7
SIMPLEX
  0
LINE
  5
8D5
  8
LAYER01
  6
CONTINUOUS
 62
     7
 10
2185.1506549999999
 20
1016.71093
 30
0.0
 11
2185.1506549999999
 21
1616.71093
 31
0.0
  0
ENDSEC
  0
EOF
